<?xml version="1.0" standalone="no"?>
<!DOCTYPE svg PUBLIC "-//W3C//DTD SVG 1.1//EN" "http://www.w3.org/Graphics/SVG/1.1/DTD/svg11.dtd" >
<svg xmlns="http://www.w3.org/2000/svg" xmlns:xlink="http://www.w3.org/1999/xlink" version="1.1">
<metadata></metadata>
<defs>
<font id="cloningregular" horiz-adv-x="1433" >
<font-face units-per-em="2048" ascent="1638" descent="-410" />
<missing-glyph horiz-adv-x="580" />
<glyph unicode="&#xd;" horiz-adv-x="580" />
<glyph horiz-adv-x="0" />
<glyph horiz-adv-x="0" />
<glyph unicode=" "  horiz-adv-x="580" />
<glyph unicode="&#x09;" horiz-adv-x="580" />
<glyph unicode="&#xa0;" horiz-adv-x="580" />
<glyph unicode="!" horiz-adv-x="691" d="M71 316l4 30q3 16 9 29q29 47 85 43t98 -27q13 -8 24 -18q11 -11 24 -18q14 -7 29 -5q14 1 29 -4q59 -28 106 -94q47 -67 53 -131q-1 -107 -94 -135q-92 -27 -177 16q-54 29 -103 83t-69 112q-8 29 -10 59q-3 30 -8 60zM115 1545q42 29 103 19t111 -15q41 0 92 4t88 -4 q20 -6 33 -22l26 -30q10 -10 23 -20q13 -9 19 -22q10 -37 -10 -106t-32 -109q-34 -137 -61 -274q-27 -136 -43 -277q-7 -69 -10 -139q-4 -70 -10 -140q0 -15 -2 -41t-13 -37q-16 -7 -33 15q-18 21 -25 32q-8 11 -17 24q-9 14 -19 23q-38 28 -70 56q-32 27 -43 77q-4 31 0 60 q4 30 6 60q1 44 -4 90q-5 45 -8 90q-6 105 -22 209q-15 104 -25 208q-2 65 -6 142t-48 127zM171 256q-1 -43 6 -92q7 -50 46 -76q59 -32 130 -12q72 20 82 93q1 19 -9 41q-9 21 -27 29q-19 6 -28 -3q-9 -8 -28 3q-33 29 -56 57q-22 29 -74 20q-13 -2 -20 -5t-13 -15 q-2 -5 -5 -20q-3 -14 -4 -20zM239 1461q2 -51 11 -100q8 -50 15 -100q27 -219 49 -440q-21 207 -17 165q4 -41 17 -165q14 -120 9 -241q0 114 1 91q2 -23 -1 -91q-2 -11 -5 -41t12 -34q15 4 16 41q2 37 1 52q2 75 13 150t21 150q13 104 37 207q24 104 53 205q14 49 26 98 q-12 -46 -9 -37q2 9 9 37q1 5 4 19q2 14 -1 19q-9 8 -29 6q-21 -2 -31 -3q-51 -1 -101 4q-50 6 -100 8z" />
<glyph unicode="&#x22;" horiz-adv-x="1029" d="M107 1440h366l-61 -502h-244zM557 1440h367l-62 -502h-243z" />
<glyph unicode="#" horiz-adv-x="1151" d="M69 420l54 184h126l60 197h-133l51 186h137l87 295h234l-88 -295h129l88 295h233l-87 -295h123l-51 -186h-128l-58 -197h133l-54 -184h-134l-86 -289h-235l86 289h-127l-86 -289h-236l88 289h-126zM483 604h128l58 197h-127z" />
<glyph unicode="$" horiz-adv-x="956" d="M72 383l125 169q15 -38 37.5 -71.5t50.5 -60t62 -44.5t73 -24v266q-56 16 -114.5 36.5t-107.5 52t-80 78.5t-31 117q0 80 26.5 135t72.5 90t106 52t128 22v269h120v-271q36 -2 73.5 -9t77 -23t83 -42t93.5 -66l-125 -169q-27 80 -75.5 134.5t-126.5 65.5v-264 q56 -16 116.5 -36.5t110.5 -52.5t82.5 -79.5t32.5 -117.5q0 -82 -28 -137.5t-75 -90t-109 -51t-130 -20.5v-274h-120v276q-43 3 -82.5 11.5t-80 25.5t-85.5 42t-100 61zM292 978q0 -27 11 -46.5t29 -34t41 -24t47 -16.5v232q-24 -3 -47 -10.5t-41 -20t-29 -32.5t-11 -48z M540 351q25 3 50 10t44.5 20t31.5 33t12 50q0 26 -12 45.5t-31.5 34t-44 24.5t-50.5 18v-235z" />
<glyph unicode="%" horiz-adv-x="1570" d="M68 1062q0 89 29 153t74.5 105t102.5 60.5t114 19.5q61 0 119 -19.5t103.5 -60.5t73.5 -105t28 -153t-29.5 -153t-76 -105t-104.5 -60.5t-114 -19.5q-57 0 -114.5 21t-103 63t-74 105.5t-28.5 148.5zM259 1062q0 -44 7 -88t22.5 -79t40 -56.5t59.5 -21.5q33 0 58 22.5 t41.5 57.5t25 79t8.5 86q0 45 -6.5 88.5t-22 78t-41 56t-63.5 21.5q-35 0 -59.5 -21.5t-40 -56t-22.5 -78t-7 -88.5zM289 50l778 1340h218l-788 -1340h-208zM858 368q0 89 29 153t74.5 105t102.5 60.5t114 19.5q61 0 119 -19.5t103.5 -60.5t73.5 -105t28 -153t-29.5 -152.5 t-76 -105t-104.5 -61t-114 -19.5q-57 0 -114.5 21t-103 63t-74 105.5t-28.5 148.5zM1049 368q0 -44 7 -88t22.5 -78.5t40 -56t59.5 -21.5q33 0 58 22t41.5 57.5t25 79t8.5 85.5q0 45 -6.5 88.5t-22 78.5t-41 56.5t-63.5 21.5q-35 0 -59.5 -21.5t-40 -56t-22.5 -78.5t-7 -89z " />
<glyph unicode="&#x26;" horiz-adv-x="1612" d="M72 422q0 76 28.5 141t77 115.5t112 85t134.5 49.5q-35 24 -68.5 58.5t-60 75t-43 84.5t-16.5 88q0 96 40.5 162t105.5 106.5t146.5 58.5t163.5 18q81 0 164 -18t149.5 -59t108.5 -106.5t42 -161.5q0 -69 -27 -124.5t-71 -100t-99 -79.5t-110 -63l335 -319 q22 57 34 117.5t12 121.5l356 -169q-36 -75 -83.5 -144t-106.5 -129l130 -123l-227 -163l-116 123q-91 -49 -189 -72.5t-201 -23.5q-76 0 -158.5 6.5t-163 24t-153 49.5t-127 82t-87 121t-32.5 168zM466 422q0 -68 27.5 -120.5t73.5 -88.5t104.5 -54.5t121.5 -18.5 q66 0 127 18.5t113 59.5l-439 442q-69 -38 -98.5 -100t-29.5 -138zM546 1097q0 -28 14.5 -58t36 -58t45.5 -53t44 -43q30 16 58.5 38t50 48.5t35 58t13.5 67.5q0 35 -9.5 67t-28 56t-47 38.5t-66.5 14.5q-41 0 -68.5 -13.5t-45 -37.5t-25 -56t-7.5 -69z" />
<glyph unicode="'" horiz-adv-x="580" d="M107 1440h366l-61 -502h-244z" />
<glyph unicode="(" horiz-adv-x="718" d="M89 731q0 144 26 265t75.5 231t120.5 213.5t161 212.5h185q-34 -61 -63 -134t-54 -152t-44.5 -162.5t-33 -165.5t-20.5 -160.5t-7 -147.5q0 -243 50.5 -470.5t171.5 -438.5h-185q-90 97 -161.5 201t-120.5 216.5t-75 235t-26 256.5z" />
<glyph unicode=")" horiz-adv-x="717" d="M61 -178q120 210 170.5 438.5t50.5 470.5q0 69 -7 147.5t-20.5 160.5t-33 165.5t-44 162.5t-54 152t-62.5 134h184q90 -109 161 -212.5t120.5 -213.5t75.5 -231t26 -265q0 -134 -26 -256.5t-75 -235t-120 -216.5t-162 -201h-184z" />
<glyph unicode="*" horiz-adv-x="809" d="M84 1130l59 183l184 -83l-20 204h195l-20 -202l181 81l64 -183l-197 -46l133 -146l-155 -119l-104 173l-103 -173l-156 119l136 146z" />
<glyph unicode="+" horiz-adv-x="1005" d="M85 629v184h269v293h297v-293h269v-184h-269v-308h-297v308h-269z" />
<glyph unicode="," horiz-adv-x="578" d="M105 150q0 37 14.5 70.5t39 58t57.5 39t71 14.5t71 -14.5t58 -39t39 -58t14 -70.5q0 -46 -12 -94t-33.5 -93.5t-50.5 -86t-63 -71.5l-144 76q21 16 42.5 42t25.5 52q-29 9 -52.5 26t-40.5 40.5t-26.5 51t-9.5 57.5z" />
<glyph unicode="-" horiz-adv-x="954" d="M141 629v184h672v-184h-672z" />
<glyph unicode="." horiz-adv-x="652" d="M103 144q15 61 42 113q28 52 83 85q33 20 74 34q42 15 80 11q81 -18 124 -95q43 -78 37 -157q-8 -57 -53 -94q-44 -37 -102 -41q-20 0 -40 6q-19 6 -40 5q-56 -6 -32 -5q23 1 20 -6q-11 -7 -30 -7q-20 0 -32 1q-63 5 -96 47q-32 43 -35 103zM239 192q39 -14 62 -39 q23 -24 55 -33q65 -5 62 55q-2 61 -44 90q-21 9 -49 -4q-27 -13 -44 -26q-24 -18 -42 -43q18 22 14 18q-3 -4 -14 -18z" />
<glyph unicode="/" horiz-adv-x="1053" d="M75 164q6 34 10 70q3 35 13 68q49 143 108 281q60 138 112 279q25 71 44 144q19 72 41 144q32 99 78 195q45 97 101 184q9 14 19 24q10 11 26 15q25 3 50 -5q25 -9 49 -14q51 -7 98 -14q48 -8 90 -41q16 -12 40 -32q23 -20 24 -41q-3 -18 -16 -36q-14 -19 -23 -34 q-43 -79 -81 -161q37 76 29 61t-29 -61q-35 -78 -65 -157q-31 -80 -65 -158q-39 -87 -82 -172q-42 -84 -75 -175q-27 -81 -48 -163q-21 -83 -39 -166q-7 -41 -16 -90q-8 -49 -30 -84q-23 -30 -61 -25q-37 5 -70 8q-56 -1 -99 7q-42 8 -86 46q-12 9 -23 19q-12 9 -17 24 q-4 14 -5 30q0 16 -2 30zM175 116q30 -9 91 -14q62 -5 83 16q22 35 26 86q5 50 10 91q13 69 34 137q20 67 42 134q55 164 132 326q77 161 146 322q12 32 25 65t31 62q14 19 31 41q18 23 21 46q1 11 -6 18q4 -8 4 -6t-4 6q-6 4 -19 3h-20q-25 5 -60 17q-34 13 -58 0 q-17 -13 -24 -42q-8 -29 -17 -49q-13 -21 -28 -42q-15 -20 -28 -42q-33 -61 -57 -129q-23 -67 -42 -134q-29 -97 -59 -193q-30 -95 -67 -189q-42 -103 -85 -205t-79 -207q-9 -28 -13 -58t-10 -60z" />
<glyph unicode="0" horiz-adv-x="1500" d="M67 808q9 50 10 100t11 99q25 108 87 201q63 93 153 158q98 67 242 91q144 23 259 -8q16 -5 26 -15q9 -10 23 -18q22 -11 48 -14q25 -2 49 -9q32 -10 66 -25q33 -14 62 -32q34 -22 61 -52q28 -29 55 -58q97 -103 155 -231q57 -129 59 -272q0 -62 -17 -119t-38 -114 q-43 -130 -127 -249t-206 -187q-95 -47 -201 -59q-106 -11 -210 5q-57 8 -118 24t-110 48q-97 69 -186 196q-88 128 -116 243q-15 74 -20 149t-17 148zM187 816q1 -140 39 -265q39 -126 121 -241q19 -28 41 -57q21 -29 47 -52q39 -32 86 -49q48 -17 97 -28q8 -2 30 -7 q23 -4 30 0q0 6 -19 19t-24 17q-22 20 -42 44q-19 23 -33 50q-47 92 -77 196q-29 103 -41 206q-17 120 0 240q17 119 86 221q64 91 153 158q-78 -68 -63 -53q14 15 63 53q11 7 33 20q22 14 19 27q-30 47 -113 32q-84 -14 -129 -34q-104 -41 -179 -126q-75 -84 -104 -192 q-10 -44 -11 -89q-2 -45 -10 -90zM551 772q5 -29 7 -60q1 -30 5 -60q10 -69 27 -138t41 -135q15 -40 37 -83q23 -43 60 -67q41 -19 85 7q44 27 73 56q87 84 110 198q22 114 12 231q-8 105 -46 195t-94 177q-11 20 -39 61t-49 42q-23 -8 -48 -36q-24 -28 -41 -46 q-39 -39 -73 -83q-34 -45 -49 -99q-9 -39 -10 -80q-1 -40 -8 -80zM847 124q98 5 154 45q56 39 116 108q113 122 164 286q52 165 9 328q-14 49 -40 92q-25 43 -54 84q-44 66 -97 115t-126 81q-12 6 -28 13q-15 8 -29 9q-22 1 -21 -13q0 -13 8 -27q17 -25 36 -49t37 -49 q43 -62 75 -131q33 -68 55 -140q47 -157 26 -330q-20 -173 -128 -299q-34 -39 -70 -73q-37 -33 -87 -50z" />
<glyph unicode="1" horiz-adv-x="1007" d="M79 1409q30 61 119 60q88 -2 155 -3q21 3 38 11q17 9 37 13q24 2 48 -7t49 -10q39 2 80 -1t64 -41q36 -79 30 -176q-7 -97 -15 -182q-1 -45 1 -90t2 -90q-1 -180 -3 -360q3 168 2 135q-1 -34 -2 -135q-2 -64 -6 -154q-3 -91 7 -148q6 -19 19 -17q14 1 30 5q36 7 80 8 q43 0 77 -18q22 -14 29 -39q8 -25 -7 -48q-21 -26 -52 -22q-32 3 -61 3q-54 -8 -121 -8t-100 54q-11 22 -13 48q-3 25 -4 50q-4 90 -1 180q2 91 3 181q1 120 1 241q0 120 4 240q1 50 0 100l-2 100q1 19 0 40t-25 25q-28 1 -31 -18q-3 -20 1 -40q7 -60 10 -120q2 -60 8 -120 q15 -154 15 -310q0 -155 7 -310q2 -35 0 -70q-1 -35 3 -70q9 -55 13 -143q5 -88 -34 -129q-20 -15 -46 -16t-50 0q-60 0 -120 -1q-61 -1 -121 4q-29 1 -59 9t-42 39q-7 28 9 47q15 20 42 26q51 11 109 5q58 -5 110 -10q16 -2 41 -3t36 14q7 16 1 40q-5 24 -8 41 q-5 59 -4 119q0 60 -4 120q-3 35 -1 70t2 70q-8 260 -26 520q15 -244 12 -195t-12 195q-5 80 -11 160q5 -75 4 -60l-4 60q0 13 2 30q3 17 0 30q-9 17 -42 14q-32 -4 -50 -7q-61 -10 -132 -7q-70 2 -91 71z" />
<glyph unicode="2" horiz-adv-x="1526" d="M11 88q6 19 14 38q9 18 15 37q4 14 5 29t4 29q6 29 18 58q12 28 27 54q39 65 97 114t116 95q39 33 77 63q38 31 85 51q81 33 169 65q87 32 171 56q46 11 97 24q51 12 89 44q50 57 47 169q-2 112 -41 176q-19 25 -55 40q-37 15 -68 21q-100 23 -198 -8q-98 -30 -160 -113 l-46 -66q-22 -33 -40 -69q-5 -11 -10 -29q-5 -17 -15 -25q-16 -11 -18 -2t-10 16q-3 1 -7 0t-8 -1q-15 2 -27 10q-11 9 -25 17q-62 31 -86 45t-74 68q-13 12 -32 25q-18 14 -23 32q-5 30 21 15q-18 5 -15 6q2 1 15 -6q17 -10 28 -27q12 -17 29 -29q22 -12 46 -20t45 -21 q9 -7 22 -23q12 -16 22 -20q8 1 18 20t13 26q48 88 112 164q-56 -74 -46 -58q11 16 46 58q96 108 232 121q137 13 255 -68q82 -59 137 -145q-58 75 -45 61q14 -14 45 -61q38 -59 55 -128q-21 63 -15 50q5 -12 15 -50q20 -78 -2 -159q-21 -81 -91 -126q-40 -21 -84 -32 t-87 -22q-34 -10 -66 -24q-33 -13 -66 -25q-87 -28 -170 -59q-82 -31 -155 -88q-71 -54 -145 -126q-73 -73 -99 -157q-7 -19 -22 -59q-15 -39 -6 -53q13 -9 38 -6q26 3 41 5q90 8 180 7q-84 0 -67 0h67q15 -1 41 -4t39 4q8 9 -6 23t-19 20q-9 17 -13 38t-3 40q7 52 43 101 q37 49 77 80q57 45 124 85q66 41 135 65q33 11 68 14t70 9q101 21 208 73q108 52 167 140q40 68 54 150t15 160q1 63 -9 130q-11 67 -47 121q-37 51 -95 87t-117 58q-161 57 -335 39q-174 -19 -327 -90q-67 -32 -128 -78q-62 -46 -111 -101q-17 -19 -30 -41q-14 -21 -21 -45 q-1 -9 -4 -19t-16 -10q-13 4 -46 37t-39 47q-2 27 21 55t40 46q62 67 132 121t152 95q150 74 328 88q178 15 334 -49q69 -30 129 -77q59 -46 112 -99q32 -30 66 -62q33 -32 57 -69q25 -44 35 -94q11 -49 16 -99q18 -149 -32 -285q-49 -137 -174 -225q-55 -36 -125 -64 q-70 -27 -135 -40q-44 -8 -89 -14q-44 -6 -88 -19q-20 -7 -35 -17q-16 -11 -34 -22q-59 -33 -110 -68q-51 -36 -92 -91q-17 -22 -34 -62q-18 -40 -10 -68q8 -16 23 -14q16 2 30 4q35 1 70 -1t70 -3q90 -1 180 -8q89 -6 179 -12q55 -2 110 -3q55 0 110 -4q48 -2 88 -14 q40 -13 73 -50q8 -7 20 -23t6 -28q-12 -12 -38 -4q-26 9 -40 13q-63 12 -129 15q-66 2 -130 2q-55 1 -110 7q-54 5 -109 8q-150 7 -300 8q-151 0 -300 -10q-44 -4 -91 -9q-46 -5 -90 0q-17 4 -23 18q-6 13 -19 19q-10 1 -14 -11l-5 -15q-22 -7 -52 35t-37 62z" />
<glyph unicode="3" horiz-adv-x="1475" d="M27 344q21 23 48 35q27 13 57 21q24 7 49 11q24 4 49 9q13 4 27 12q15 8 29 8q22 -3 31 -23q10 -20 27 -29q2 0 4 3q1 3 3 3q13 -3 25 -17q13 -13 21 -23q17 -18 34 -37q17 -18 30 -40q12 -21 24 -44q12 -22 30 -40q25 -23 61 -34q35 -12 68 -19q85 -21 179 -19 q95 2 169 54q81 67 105 167q23 100 -6 196q-11 41 -28 75q-16 35 -56 55q-102 39 -217 23q-115 -17 -221 -16q-34 4 -69 35q-34 32 -42 64q-2 7 -9 14q-6 6 -6 14q3 6 16 13q13 6 18 8q23 10 47 17q24 8 47 18q91 37 180 88t167 110q26 19 47 54q21 34 -4 64q-15 13 -36 18 q-20 4 -39 7q-80 14 -170 -9t-152 -76q-22 -19 -41 -43l-36 -48q-4 -7 -11 -16q-7 -10 -16 -11q-13 1 -26 15t-19 23q-29 38 -58 69q-29 30 -68 59q-19 12 -25 3q-5 -9 -23 1q-31 21 -61 52q-31 32 -55 60q-4 4 -12 16q-9 11 -9 18q5 12 16 10q12 -2 18 -6q22 -13 42 -27 q21 -14 46 1q37 27 71 55q33 29 73 52q184 98 404 109q221 10 400 -109q114 -82 138 -189q24 -108 -56 -226q-20 -29 -44 -55t-48 -51q-6 -6 -22 -21q-17 -15 -18 -22q2 -3 16 -13q14 -9 17 -11q50 -33 94 -74q-43 36 -34 30q10 -7 34 -30q84 -76 141 -182q56 -106 33 -223 q-29 -109 -114 -184q-84 -76 -185 -120q-40 -17 -86 -24q-47 -7 -90 -13q-24 -5 -49 -14q-24 -9 -48 -10q-12 0 -20 4q-7 4 -18 8q-19 6 -39 6q-21 1 -40 1q-141 2 -268 24q-128 22 -246 109q-58 45 -106 106q-48 60 -89 121zM131 272q10 -18 19 -36q10 -18 25 -32 q49 -40 115 -64q66 -23 128 -34q60 -8 121 -15q-57 6 -46 5q12 -1 46 -5q4 -2 26 -6q22 -3 19 7q-10 14 -29 28t-32 26q-34 32 -64 65t-57 71q-10 16 -24 34q-13 17 -33 19q-37 0 -109 -23q-71 -22 -105 -40zM299 1201q17 -19 38 -33q20 -14 38 -32q6 -6 12 -15q7 -8 18 -8 q19 6 37 33t29 43q25 31 60 52q34 21 72 35q71 26 158 27q87 2 154 -38q21 -14 37 -33q17 -19 34 -36l36 -36t32 -39q26 -42 12 -75t-49 -62q-49 -42 -106 -76q-56 -34 -111 -67q-12 -7 -47 -27q-36 -20 -40 -23q1 -8 13 -6q13 2 23 3q34 3 70 0t69 -8q75 -13 135 -63 t102 -111q44 -60 70 -133q25 -73 16 -148q-9 -50 -29 -96q17 44 14 35t-14 -35q-3 -4 -12 -24t-2 -20q19 8 40 29q21 22 35 37q90 101 81 239t-109 229q-46 34 -124 75q-77 41 -106 84q-5 11 1 18t14 12q28 22 56 42q29 20 53 46q57 61 87 134q29 73 15 157q-18 60 -91 79 q-73 18 -130 25q-134 26 -269 5q-135 -20 -256 -83q-44 -24 -85 -54q-40 -30 -81 -58z" />
<glyph unicode="4" horiz-adv-x="1463" d="M11 472q8 39 16 79q8 39 22 77q21 51 52 97q30 46 59 92q39 65 78 128q39 64 82 126q20 32 44 84q25 51 43 72q34 31 92 40q57 8 101 9q14 1 30 3q16 1 29 -4t24 -17t20 -23l22 -22q16 -15 18 -23q-3 -4 -21 -17q-17 -13 -7 -25q7 -3 11 11q3 14 11 20q4 1 0 -5 q-4 -7 -6 -12q-4 -8 -8 -18l-9 -18q-21 -46 -47 -89q23 41 19 33q-5 -8 -19 -33q-41 -69 -75 -141q-34 -71 -63 -146q-13 -33 -23 -66q-9 -34 -20 -67q-1 -4 -6 -20t-5 -20q6 -12 34 -14q27 -1 40 -1q53 -6 110 -8t109 9q28 13 31 82q3 68 4 104q13 139 32 278 q20 139 30 278q1 16 -1 30t-13 26q-12 9 -33 24q-22 16 -18 34q11 16 38 9q27 -8 36 9q0 3 -6 4q-6 2 -6 5q3 4 9 6q5 2 11 1q8 -1 16 -9t15 -12q13 -4 30 -3q17 2 30 3q34 3 92 8q58 4 87 -8q12 -7 21 -20q10 -13 20 -23q16 -13 30 -26q14 -14 21 -34q13 -42 11 -89 q-2 -46 -3 -90q0 -95 -1 -191q-1 -95 -9 -190q-6 -42 -15 -101t-1 -99q14 -30 55 -5q40 26 65 26q14 -5 24 -19q11 -13 20 -23q35 -36 47 -62q11 -26 12 -78q3 -78 -32 -98q-34 -20 -106 -19q-20 1 -51 1q-30 0 -44 -17q-10 -21 -8 -78q2 -58 12 -78q13 -16 39 -35 q25 -19 30 -38q-3 -26 -44 -30q-42 -4 -62 -4q-82 -12 -181 -27t-168 39l-29 29q-15 16 -22 33q-7 23 -5 85t2 94q1 19 3 63q3 44 -5 54q-4 0 -20 -3l-20 -4q-49 -7 -99 -7q47 2 37 1q-9 0 -37 -1q-90 -2 -180 -6t-180 -6q-34 -1 -70 -5q-37 -4 -70 4q-41 12 -79 44 q-37 32 -49 73zM123 464q19 -10 38 -10q18 1 40 2q100 1 200 9q-94 -6 -75 -5q19 0 75 5q41 3 81 3q-38 0 -30 0h30q4 0 25 2t17 5q-14 5 -30 5q-15 -1 -30 4q-13 6 -24 17q-12 10 -22 20q-14 13 -30 28q-17 16 -24 33q-6 29 13 86q19 56 31 88q23 74 55 151t73 143 q10 14 36 53q27 38 27 50q-6 10 -28 7q-21 -2 -30 -4q-44 -9 -61 -42t-37 -71q-90 -140 -181 -279q-92 -138 -139 -300zM876 185q-5 -61 7 -85q11 -12 27 -9q17 2 30 5q59 7 120 8q-57 -1 -45 -1q11 0 45 1q12 -1 29 0t19 18q0 5 -3 9q-3 5 -4 10q-4 44 4 90q7 46 10 90 q3 75 3 151q1 75 5 151q7 100 15 200t10 201q-1 120 4 241q-3 -113 -3 -91q0 23 3 91q3 19 3 40q1 22 -20 30q-28 7 -61 4q-33 -2 -61 -5h-29q-15 -1 -23 -15q-12 -34 -8 -88q3 -55 1 -94q-22 -190 -41 -380q19 178 15 143q-4 -36 -15 -143q-5 -33 -15 -81t-4 -79 q7 -16 22 -13q15 4 29 2q13 -6 48 -40q35 -33 38 -43q-5 -21 -42 -18q-37 2 -52 -3q-13 -15 17 -35q31 -20 37 -36q-4 -23 -45 -19q-42 4 -61 -12q-10 -19 -8 -49q3 -29 2 -51q2 -34 -3 -95zM1220 408q0 -17 1 -20q11 -4 61 4q49 8 61 15q4 8 3 30q-1 21 -10 26q-5 1 -9 -3 t-9 -6q-4 -1 -20 -3q-17 -3 -21 -3q-16 -3 -30 -7q-13 -4 -27 -13q-1 -3 0 -20z" />
<glyph unicode="5" horiz-adv-x="1538" d="M55 716q35 126 82 247q48 122 89 245q15 54 36 128q20 73 57 114q35 27 103 21q69 -5 113 -10q149 -8 300 -14q151 -7 301 -6q63 3 98 0q35 -2 85 -46q5 -4 16 -13q12 -10 15 -15q2 -13 -8 -17q-10 -3 -18 -4q-29 -6 -59 -6h-60q-101 1 -201 8q-100 6 -200 8q-28 2 -61 7 q-34 5 -60 1q-4 -1 -7 -3q-4 -3 -5 -6q1 -5 7 -8q5 -3 6 -8q-1 -9 -12 -26t-16 -27q-27 -66 -39 -134q-12 -69 -33 -137q-7 -15 -18 -48q-12 -33 2 -47q17 -6 49 6q31 12 48 18q48 14 98 18q51 4 101 3q141 -5 260 -64q118 -60 219 -156q33 -29 68 -61q35 -31 53 -71 q19 -51 17 -109q-1 -58 -13 -110q-20 -83 -83 -133q-62 -49 -130 -92q-42 -33 -82 -76q-40 -42 -90 -62q-24 -7 -38 5q-13 13 -34 15q-14 0 -28 -9t-27 -14q-28 -9 -59 -13q-31 -5 -60 -5q-45 1 -90 10q-44 9 -89 17q-44 6 -89 7l-90 4q-110 8 -180 55t-142 126 q-23 20 -52 48q-30 28 -33 60q1 22 18 34q17 13 34 20q83 37 171 60q-81 -24 -65 -19q16 6 65 19q15 6 37 16q21 10 37 8q22 -8 38 -32q17 -24 26 -44q22 -52 38 -115q15 -63 50 -109q37 -35 101 -38q64 -2 110 -8q16 -4 27 -11t28 -8q60 -1 128 27q68 27 107 72 q25 32 40 70q15 37 28 75q13 32 26 65q12 33 15 68q3 41 -9 91q-13 49 -46 75q-37 25 -84 32q-47 8 -91 13q-154 21 -298 4q-144 -18 -294 -58q-24 -7 -70 -24q-45 -16 -66 -15q-4 1 -7 6q-2 5 -7 5q-4 -1 -5 -6q-1 -6 -5 -8q-8 -1 -17 7q-8 9 -12 13q-25 21 -44 40 q-20 19 -21 54zM171 280q19 -74 102 -100t152 -30q10 -1 43 -5q34 -4 38 -4q3 2 0 5q-2 4 -5 7q-12 16 -27 30t-28 30q-19 24 -33 51l-30 54q-2 4 -10 18q-8 13 -12 16q-11 3 -29 -5q-19 -8 -29 -12q-68 -23 -132 -55q61 28 49 23q-13 -5 -49 -23zM183 740zM199 784 q41 2 77 20q37 18 74 34q18 5 39 11t35 20q13 15 15 36q2 22 6 40q19 64 37 126q18 63 29 128q4 26 9 49q5 24 15 48q4 10 13 29q9 18 7 29q-5 12 -24 12h-30q-31 4 -61 2t-46 -32q-42 -97 -75 -198q-32 -102 -67 -201q-14 -39 -23 -78q-10 -38 -30 -75zM623 820 q69 -12 139 -16q70 -3 140 -16q83 -18 154 -70t118 -123q31 -46 46 -99q14 -53 4 -109q-7 -40 -23 -76q13 35 11 28q-2 -8 -11 -28q-3 -4 -10 -19q-7 -14 -7 -19q1 -3 5 -4q5 0 8 1q17 5 35 20q17 15 31 27q67 51 91 103q25 52 25 137q3 40 -2 80q-5 39 -35 68 q-28 23 -59 39t-62 33q-35 20 -69 40q-35 19 -74 31q-112 31 -228 16q-116 -14 -227 -44z" />
<glyph unicode="6" horiz-adv-x="1535" d="M39 684q7 45 7 90q-1 45 5 89q16 109 61 212t121 183q135 136 323 194q189 58 377 37q56 -7 107 -24q52 -17 105 -33q106 -30 164 -70q59 -40 131 -122q7 -7 16 -12q10 -5 14 -14q6 -14 -5 -28q-11 -13 -19 -23q-18 -28 -31 -63q-14 -35 -21 -67q-4 -22 6 -38 q11 -16 24 -33q4 -3 12 -14q7 -12 0 -19q-14 -7 -35 13t-29 30q-34 37 -61 79t-58 81q-63 71 -162 94q-98 23 -190 4q-98 -23 -203 -105t-163 -164q-35 -49 -54 -106q21 52 16 42q-4 -10 -16 -42q-1 -3 -7 -18t-4 -20q7 -4 14 6q7 11 13 19q14 14 30 27q16 12 31 26 q41 37 92 60q50 22 104 37q105 28 217 15q113 -13 209 -65q47 -27 88 -68t78 -80q50 -48 93 -104q43 -55 52 -127q5 -51 -4 -121q-8 -70 -31 -114q-28 -48 -67 -87l-78 -78q-44 -47 -89 -96t-100 -83q-104 -58 -249 -70q-144 -11 -261 9q-90 17 -166 67q-75 49 -139 114 q-130 126 -198 261t-70 319zM142 560q0 -60 8 -120q18 -106 81 -204q62 -99 154 -155q134 -72 319 -73q186 -2 323 65q57 30 104 76t92 92q78 74 116 137t47 172q4 35 5 70q0 34 -12 68q-68 157 -235 198q-167 42 -319 4q-49 -12 -95 -32q-47 -20 -87 -50q-6 -4 -25 -20 t-20 -21q5 -5 17 3q11 8 15 10q19 6 38 9q-18 -3 -14 -2q3 0 14 2q69 17 139 13q-65 -1 -52 0q13 2 52 0q103 -7 196 -70t129 -163q44 -181 -85 -338q-129 -156 -319 -110q-72 27 -129 75q-57 49 -111 101q-31 27 -57 57q-26 29 -38 70q-12 50 -8 100q5 49 1 99 q-4 22 -20 33q-17 10 -23 30q-4 22 2 49t9 50q13 142 72 227q58 86 165 172q54 48 120 90t138 58q77 16 159 -3q83 -19 144 -68q27 -23 52 -49q24 -26 49 -51l21 -21q15 -15 24 -16q9 2 14 15q6 12 7 18q6 15 26 59q20 43 23 50q-8 16 -57 34q-48 18 -69 24q-95 33 -193 52 t-199 13q-109 -7 -198 -31t-184 -76q-22 -12 -45 -22q-22 -10 -43 -25q-70 -56 -124 -144t-81 -173q-17 -58 -19 -118q-2 -61 -13 -120q-1 -60 -1 -120zM479 512q-1 -48 3 -101t29 -95q21 -33 60 -53q38 -21 74 -32q165 -50 272 44q106 94 123 258q4 32 0 71q-3 39 -27 63 q-23 19 -55 25q-32 5 -60 7q-78 8 -161 -9q-82 -17 -148 -60q-22 -17 -32 -39t-26 -43q-19 -20 -28 -5q-10 14 -19 9q-6 -7 -5 -18t0 -22z" />
<glyph unicode="7" horiz-adv-x="1253" d="M-21 1405q22 17 45 17t50 -1q50 0 100 4q50 3 100 4q80 1 160 8t160 9q80 1 160 -4t160 -5q33 1 70 4q38 4 70 -5q9 -4 16 -13q7 -8 16 -10q16 1 15 9q-1 9 16 0q17 -10 39 -31q23 -21 33 -38q11 -22 8 -49q-2 -26 -2 -50q4 -22 15 -37q12 -15 18 -34q4 -15 -4 -29 q-7 -15 -13 -27q-30 -64 -58 -128q27 60 21 48q-5 -12 -21 -48q-36 -82 -76 -163q-40 -82 -84 -160q-17 -30 -39 -58q-21 -28 -38 -59q-52 -108 -99 -219q45 104 36 83t-36 -83q-23 -55 -44 -112t-49 -109q-7 -13 -18 -24q-11 -12 -17 -25q-8 -27 22 -39t24 -36 q-14 -19 -54 -18q-41 1 -63 3l-130 -2t-130 3q-23 1 -50 1q-28 1 -48 13q-14 10 -45 41q-32 31 -36 45q0 13 12 27q11 14 19 24q26 37 50 75q25 38 43 79q91 195 203 379q113 183 200 381q23 55 45 111t47 110q7 11 21 36t8 37q-7 7 -28 6q-22 -1 -31 -2l-160 -4q75 2 60 2 q-15 -1 -60 -2q-100 -3 -200 -8q-100 -6 -200 -7q-78 -5 -129 3t-100 77zM319 84q43 -13 90 -13q46 0 91 4q14 0 29 2q16 2 28 10q49 42 92 141q43 98 66 162q17 47 36 93q18 47 41 92q26 48 56 95t57 95q31 58 60 117q28 59 58 117q39 68 65 125q25 57 13 137q-1 14 0 30 q1 17 -3 30q-13 20 -52 19q-40 -1 -62 -3h-20t-19 -2q-2 -4 2 -8q4 -5 5 -9q-2 -10 -8 -19q5 8 4 7q-1 -2 -4 -7q-37 -71 -66 -147q29 70 23 56q-7 -13 -23 -56q-36 -97 -78 -196q-41 -99 -94 -189q-33 -56 -68 -112q-34 -56 -65 -114q-61 -115 -122 -231 q-60 -116 -132 -226z" />
<glyph unicode="8" horiz-adv-x="1645" d="M91 464q7 35 12 69q5 35 18 68q39 87 113 152q73 64 158 106q30 16 64 30q33 14 67 19q10 0 32 -1t29 4q4 7 -7 13q-11 5 -19 10l-56 56q26 -27 21 -21t-21 21q-45 40 -67 87q-23 47 -5 107q37 95 145 161q108 67 209 54q60 -12 109 -50q49 -37 84 -85q55 -71 77 -164 q21 -93 -40 -167q-24 -26 -53 -47t-61 -36q-7 -3 -29 -10q-23 -7 -24 -14q1 -4 7 -3q6 0 12 1q40 -1 80 0q-38 -1 -30 -1q7 1 30 1q80 1 159 -17q-74 13 -59 11t59 -11q176 -32 312 -132q137 -99 123 -299q-5 -41 -25 -76q-21 -34 -44 -67q-57 -83 -125 -143t-157 -105 q-102 -52 -197 -68q-95 -15 -210 -10q-211 2 -378 85q-166 83 -261 280q-21 47 -36 94q-14 47 -16 98zM191 416q1 -78 23 -159t79 -138q56 -50 131 -70q76 -20 149 -26q173 -22 319 -7q146 16 301 104q107 62 186 183q79 120 63 246q-3 19 -9 40q-6 20 -17 36q-16 19 -41 27 q-26 9 -49 15q-105 34 -214 50q101 -20 81 -14q-20 5 -81 14q-34 5 -70 9q-36 3 -71 3q-5 0 -27 -4q-21 -3 -23 -6q5 -2 41 -17q37 -15 50 -24q45 -36 87 -84q42 -47 72 -96q99 -191 -34 -328t-326 -140q-198 12 -325 158t-54 344q19 46 52 84q-28 -38 -23 -29q4 8 23 29 q77 82 183 120q-94 -46 -76 -34t76 34q37 14 78 18q-37 -6 -30 -4t30 4q10 0 22 -2t14 6q-2 8 -27 27q-24 20 -34 24q-45 13 -100 5q-56 -8 -99 -25q-131 -52 -213 -144q-82 -93 -117 -229zM499 356q-1 -43 5 -91q6 -47 36 -81q33 -30 81 -39q47 -9 91 -9q110 -3 206 33 q96 37 160 131q14 21 24 43q11 23 14 48q7 102 -44 172q-52 69 -157 74q-30 -2 -60 -11t-60 -9q-17 3 -24 14q-6 12 -24 13q-19 -1 -38 -13t-35 -22q-80 -47 -117 -105t-58 -148zM519 1088q0 -19 1 -40q2 -22 12 -39q36 -38 111 -39t123 2q18 -2 27 -12t26 -12q40 2 81 41 t53 75q5 19 5 40q-1 21 -3 40q-2 37 -15 81q-12 44 -44 66q-26 14 -59 12q-33 -3 -61 -9q-87 -18 -158 -69q-70 -51 -99 -137z" />
<glyph unicode="9" horiz-adv-x="1565" d="M67 1044q7 39 15 80q7 41 28 74q14 20 33 38q19 17 37 34q89 86 193 140q105 54 227 71l90 15q49 8 90 -3q19 -8 34 -22q14 -14 33 -21q49 -13 96 -24q47 -12 93 -38q42 -27 76 -65q34 -37 68 -73q173 -171 246 -373q72 -201 7 -443q-16 -50 -45 -89q-30 -38 -63 -78 q-54 -71 -118 -136t-150 -98q-62 -20 -127 -22q-66 -2 -130 -6q-113 -13 -220 2t-198 88q-46 37 -97 70q-50 32 -95 71q-13 10 -33 25q-20 16 -22 33q1 7 9 18q7 11 11 16q19 25 62 70q43 46 70 39q12 -8 22 -20q10 -13 20 -24q31 -32 63 -64q32 -31 56 -70q12 -22 21 -45 q9 -24 27 -41q19 -16 44 -26t48 -17q51 -14 98 -4t97 20q91 14 160 51t135 101q18 17 37 34t34 38q57 89 71 207t-4 221q-18 95 -68 187q-51 92 -117 162q-16 18 -36 36q-19 17 -42 26q-2 1 -20 4q-17 4 -20 4q1 -5 18 -22q18 -17 22 -21q29 -29 56 -58q28 -29 50 -63 q58 -93 48 -189q-11 -96 -85 -177q-48 -51 -109 -88q-61 -38 -125 -66q-18 -7 -39 -9q-20 -2 -37 -10q-50 -32 -106 -54q-55 -23 -118 -16q-54 10 -97 48t-81 74q-50 42 -98 87t-83 101q-37 65 -50 141q-12 75 -12 149zM167 968q0 -114 39 -215q38 -101 135 -169 q89 -59 192 -28q-94 -9 -75 -12q18 -3 75 12q9 2 29 9q20 6 25 16q0 13 -23 30q-22 18 -32 26q-66 63 -106 144q44 -72 33 -58q-11 13 -33 58q-73 162 -20 313q53 150 222 213q27 10 56 22q30 11 59 10q92 -6 183 -51q90 -45 144 -123q13 -23 7 -19q-7 5 8 -17 q14 -20 33 -38t35 -36q42 -49 78 -105q35 -55 57 -116t32 -127t7 -131q-3 -39 -11 -79q7 37 5 30q-1 -7 -5 -30q-2 -11 -3 -27t4 -11q32 54 39 143q7 90 5 153q-2 132 -50 243q-47 112 -134 210q-16 19 -31 39q-15 21 -35 36q-56 37 -129 53q-73 17 -139 24q-30 5 -59 15 q-28 10 -58 14q-102 6 -205 -38t-185 -102q-33 -22 -64 -49q-31 -26 -53 -60q-24 -38 -34 -83q-9 -45 -18 -89zM243 244q44 -33 89 -67q44 -35 97 -54q15 -5 39 -12q24 -6 39 -5q7 2 7 9q-2 -6 -1 -5q2 1 1 5q-10 23 -52 56t-62 58q-12 20 -35 64q-24 44 -43 43 q-15 -10 -39 -42q-24 -33 -40 -50zM487 972q-3 -83 10 -184q14 -101 86 -154q43 -24 87 -13t85 33q94 46 174 122q80 75 87 187q0 30 -11 60q-11 29 -25 56q-21 43 -55 85q-33 43 -78 63q-29 11 -60 5q-30 -6 -59 -15q-96 -25 -155 -87q-60 -62 -86 -158z" />
<glyph unicode=":" horiz-adv-x="646" d="M141 150q0 37 14.5 70.5t39 58t57.5 39t71 14.5q37 0 70.5 -14.5t58 -39t39 -58t14.5 -70.5q0 -38 -14.5 -71.5t-39 -58t-58 -39t-70.5 -14.5q-38 0 -71 14.5t-57.5 39t-39 58t-14.5 71.5zM141 844q0 37 14.5 70.5t39 58t57.5 39t71 14.5q37 0 70.5 -14.5t58 -39t39 -58 t14.5 -70.5q0 -38 -14.5 -71t-39 -58t-58 -39t-70.5 -14q-38 0 -71 14t-57.5 39t-39 58t-14.5 71z" />
<glyph unicode=";" horiz-adv-x="534" d="M67 964q20 34 49 47q29 14 67 19q85 16 149 -7q63 -24 111 -99q21 -44 4 -83q-17 -40 -7 -74l14 -14q12 -11 13 -15q-1 -11 -12 -15q-11 -3 -19 -3q-30 -3 -61 0t-61 8q-85 16 -160 82t-87 154zM167 876q1 -12 5 -20q17 -16 77 -28t82 -5q17 12 23 55q7 44 -8 59 q-18 8 -51 1t-52 -13q-41 -7 -76 -29q34 17 27 15t-27 -15v-20zM219 124q11 15 27 32q16 18 34 23q16 3 28 -7q13 -10 22 -21l59 -59q31 -31 26 -71q-7 -31 -38 -74q-32 -42 -68 -36q-13 4 -26 17q-12 13 -22 23l-14 14q-11 12 -14 15q-6 20 16 28q23 8 34 22q11 30 -15 55 q-27 25 -49 39z" />
<glyph unicode="&#x3c;" horiz-adv-x="916" d="M66 627v140l714 405v-209l-478 -260v-13l478 -274v-196z" />
<glyph unicode="=" horiz-adv-x="1115" d="M140 469v184h835v-184h-835zM140 799v184h835v-184h-835z" />
<glyph unicode="&#x3e;" horiz-adv-x="916" d="M136 220v196l478 274v13l-478 260v209l714 -405v-140z" />
<glyph unicode="?" horiz-adv-x="1235" d="M43 1341q21 11 36 3q16 -7 32 -23q37 -34 72 -70t65 -76q24 -32 52 -60q-25 27 -20 22t20 -22q3 -4 6 -10q2 -5 6 -4q4 2 4 8q-1 7 -1 12q3 40 9 79q-5 -37 -4 -29q0 7 4 29q12 54 46 99q35 45 79 77q135 85 258 0q124 -85 157 -226q14 -68 11 -139q-3 -72 -30 -137 q-18 -46 -39 -92q19 43 15 35q-3 -9 -15 -35q-3 -5 -16 -26q-13 -20 -14 -24q8 -3 27 12l24 20q31 25 67 43q35 18 66 44q78 72 99 170q22 98 3 199q-4 33 -14 69q-9 36 -31 62q-20 21 -48 37q-28 15 -53 30q-108 69 -232 87t-243 -37q-46 -22 -88 -46q-43 -25 -82 -59 q-20 -20 -38 -47t-41 -41q-22 -5 -59 30q-36 36 -37 54q6 12 27 28q22 16 33 26q45 44 89 79q45 36 103 62q51 22 102 39q52 17 108 18q133 -1 249 -64q117 -63 209 -155q25 -23 53 -47q27 -24 45 -53q19 -34 32 -73q13 -40 21 -78q25 -119 -18 -225q-44 -106 -139 -180 q-33 -24 -69 -41q-36 -18 -69 -40q-17 -13 -31 -26q-13 -12 -32 -22q-13 -6 -28 -12t-29 1q-13 10 -20 21q-8 12 -26 -2q-34 -33 -36 -92t12 -100q9 -15 38 -52t7 -43q-6 1 -22 9q-16 7 -33 7q-34 -4 -69 -15t-69 -12q-9 1 -16 8q-8 7 -17 6q-4 -1 -6 -8q-1 -6 -6 -8 q-9 2 -44 35q-35 32 -44 44q-7 17 1 38q9 22 16 37q40 81 90 156q-45 -72 -36 -57t36 57q31 45 71 84q41 38 77 79q133 163 113 372q-15 -186 -4 -151t4 151q-2 31 -8 71q-6 39 -24 65q-15 18 -43 24q-27 5 -50 4q-67 -3 -122 -42t-83 -98q-16 -35 -23 -77q-6 -42 -1 -80 q3 -12 12 -40q9 -27 -8 -33q-8 1 -17 12t-12 16q-33 37 -67 73q32 -34 25 -27q-7 6 -25 27q-34 37 -71 71t-72 70q-13 15 -25 31q-11 16 -25 31q-22 20 -45 40q-23 19 -42 43zM439 140q23 71 81 127q58 57 134 66q15 1 31 1q17 -1 30 -7q13 -8 22 -21q10 -12 20 -23 q39 -36 67 -76q27 -40 17 -97q-24 -83 -114 -119q-91 -37 -170 -8q-18 9 -31 25t-26 31q-24 24 -40 45q-17 22 -21 56zM535 436q14 -1 31 -2q18 -2 30 2q14 8 5 22q-10 14 -16 24q-1 5 -2 11q0 6 -4 8q-5 -2 -22 -29q-16 -26 -22 -36zM563 80q60 -9 110 14q50 24 67 84 q2 7 4 20t0 21q-11 22 -42 12q-31 -11 -49 -20q-10 -4 -28 -13t-23 -20q-2 -17 8 -16t-6 -18q-19 -19 -27 -25q-7 -6 -14 -39z" />
<glyph unicode="@" horiz-adv-x="1937" d="M239 600q11 54 15 109q4 56 17 109q22 82 69 190q48 107 99 174q66 82 162 148t198 95q63 16 129 15q66 -2 129 -16q289 -73 465 -324t174 -547q0 -58 -4 -120q-3 -62 -25 -117q-24 -52 -73 -95t-97 -72q-16 -10 -35 -20q-19 -9 -39 -9q-54 8 -112 77q-59 68 -78 118 q-30 90 -21 187q8 98 25 190q4 29 13 58q8 29 17 58q1 6 5 20q3 14 4 20l-2 6q-2 3 -4 2q-1 -2 -7 -19t-7 -19q-12 -28 -25 -55q-13 -28 -17 -57q-1 -14 -1 -30q0 -17 -12 -27q-25 -11 -42 21t-32 31q-4 -4 -3 -20v-19q2 -25 5 -50t5 -51q-2 -93 -12 -190q-11 -98 39 -184 q26 -31 86 -43q59 -12 107 -50q8 -7 22 -21q14 -15 11 -27q-12 -19 -46 -9q-33 10 -49 17q-105 40 -177 126q74 -70 59 -59q-16 12 -59 59q-7 11 -24 32q-17 22 -30 21q-5 -4 -27 -26t-31 -30q-32 -24 -70 -39q-38 -16 -77 -22q-47 -3 -85 22q-38 26 -69 59q-94 94 -117 194 q-22 99 20 226q22 67 59 127q-32 -57 -26 -46t26 46q5 7 21 24q17 16 19 21q-1 4 -10 1q-9 -4 -22 -14q-31 -26 -60 -53q27 26 22 20q-5 -5 -22 -20q-43 -37 -70 -85t-34 -104q-8 -71 10 -139q18 -67 47 -132q20 -46 50 -86q-26 39 -22 31q5 -8 22 -31q3 -4 11 -16 q8 -11 2 -20q-13 -6 -41 20q-28 25 -37 37q-46 49 -81 114q-36 66 -48 132q-13 62 -13 129q-1 68 25 127q29 57 94 114q64 57 118 96q44 35 102 64q58 30 117 22q25 -5 53 -27q28 -21 41 -44q3 -8 0 -18t2 -17q12 -12 41 -18q28 -6 42 -17q9 -11 34 -42q24 -31 32 -34 q8 3 14 23q6 21 8 30q17 42 36 83q19 42 50 75q19 17 32 5q14 -12 28 -29q1 -3 10 -12q8 -9 16 -3q8 13 9 27q2 15 24 1q17 -11 39 -34q22 -22 31 -40q4 -20 -12 -64t-23 -69q-10 -49 -22 -98q-13 -48 -21 -98q-6 -39 -8 -79l-4 -80q-4 -36 1 -103t33 -90q22 -10 48 5 q25 14 41 29q58 44 100 98t53 127q13 103 6 211q-6 108 -39 206q-14 38 -33 73q-20 35 -38 70q-27 59 -63 114q-36 56 -90 93q-50 32 -109 50t-118 26q-152 21 -296 -27q-144 -49 -250 -161q-41 -45 -69 -99q-27 -53 -49 -109q-55 -125 -86 -256q-30 -131 -13 -268 q11 -84 43 -176t93 -155q61 -57 144 -88q83 -30 166 -39q54 -6 110 -3q55 3 110 10q24 5 49 14t49 8q17 -4 48 -34q32 -29 39 -44q3 -26 -47 -33q-51 -8 -72 -8q-90 -12 -181 -13q-91 0 -176 32q-223 93 -349 288q-127 196 -132 435zM671 408q-1 -43 9 -101t49 -85 q18 -9 39 -7q22 2 41 6q67 12 128 55t80 112q6 29 -2 59t-11 60q-1 17 1 41q2 23 13 37q3 3 9 4q5 1 8 5q6 15 2 67q-5 52 -7 73q-2 19 -6 40t-20 33q-37 21 -88 5q-50 -17 -79 -45q-70 -76 -107 -168q-36 -92 -59 -191z" />
<glyph unicode="A" horiz-adv-x="1582" d="M75 624q12 59 16 119q5 60 17 119q16 67 49 131q34 64 72 121q40 66 86 137q47 70 110 115q58 36 130 49q73 12 140 17q71 10 149 23q38 7 74 7q39 0 75 -8q49 -14 88 -46t74 -67q78 -72 148 -150t117 -173q69 -161 69 -349q0 -50 -5 -101q-24 -248 -86 -454 q-29 -112 -70 -219q-42 -108 -120 -195q-11 -13 -24 -34q-12 -20 -25 -30q-12 -6 -29 -2q-17 5 -29 11q-38 21 -72 53t-70 58q-14 9 -21 21q-7 11 -5 29q5 24 18 46q13 23 23 45q20 51 38 103q18 53 29 107q13 64 18 128q6 65 13 130q10 79 25 158q14 79 23 159q4 50 4 100 v20q0 40 3 80q3 32 3 66q0 94 -27 194q-37 135 -166 182q-28 9 -59 14q-30 6 -60 2q-49 -10 -87 -46q-38 -37 -64 -77q-59 -91 -86 -191q-28 -101 -46 -205q-7 -34 -16 -69q-8 -32 -8 -63v-7q1 -9 5 -17t4 -16q-1 -20 -10 -39q-10 -18 -2 -39q14 -23 42 -22q29 1 52 5 q67 12 136 31q49 13 98 13q20 0 40 -2q72 -14 105 -71q33 -56 43 -121q4 -19 9 -39q5 -19 -10 -37q-22 -20 -55 -22q-33 -1 -61 -1q-65 -2 -130 -6q-64 -3 -129 -3q-24 2 -62 7q-38 4 -57 -11q-11 -16 -4 -39t12 -39q8 -39 11 -79q2 -40 8 -79q3 -12 9 -30q6 -19 3 -30 q-8 -7 -53 -10q-44 -3 -62 -4q-45 -6 -100 -14q-15 -2 -29 -2q-38 0 -69 14q-18 9 -32 24t-28 28q-12 10 -25 18q-12 8 -21 20q-26 40 -31 95q-5 54 -7 101q-7 90 -20 179t-16 179zM171 568q1 -191 40 -379q-23 147 -25 147v-6q4 -35 25 -141q3 -25 4 -62t15 -57 q17 -13 58 -10q41 4 61 12q3 2 19 14q15 13 13 14q-3 -2 -18 -9l-18 -9q-17 -11 -36 -19q17 9 14 6q-3 -2 -14 -6q-1 0 1 1q1 2 3 3q3 2 16 10q14 9 17 11q14 6 40 11q25 5 32 18q2 11 -3 30t-7 30l-12 60q-5 30 -7 60q-6 125 -12 251q-1 30 -1 62q0 94 13 188q13 84 24 169 q12 85 32 168q4 14 14 53q11 38 11 44q-5 1 -17 -10q-12 -12 -14 -15q-23 -26 -42 -56l-38 -60q-46 -70 -87 -147q-40 -77 -64 -158q-14 -53 -20 -108q-6 -56 -17 -110zM511 432q7 -38 35 -39q27 -1 60 5q90 7 181 7q30 0 60 -1l-94 1h4q22 0 90 -1q23 -2 51 1t37 29 q6 22 -4 39q-10 18 -32 21q-25 1 -50 -6t-49 -12q-44 -8 -90 -14q-45 -6 -90 -8q-31 2 -60 4q-30 3 -49 -26zM995 1361q38 -47 85 -86q46 -40 75 -94q75 -175 75 -366q0 -42 -4 -84q-21 -236 -54 -460q-11 -109 -31 -219q-20 -109 -65 -210q-12 -22 -23 -58t29 -36 q34 6 54 40q21 34 33 63q11 23 24 44q13 22 24 44q25 55 43 113q19 57 37 115q46 138 67 282q20 137 20 277v13q0 59 -3 121t-19 119q-13 43 -34 83q-22 40 -47 78q-30 50 -64 102t-86 82q-32 16 -67 23q-34 7 -69 14z" />
<glyph unicode="B" horiz-adv-x="1704" d="M159 1325q2 13 4 30t9 29q9 12 25 15q15 3 29 4q80 5 159 20l-62 -10h3q14 1 59 10q92 17 186 17q37 0 73 -3q-102 2 -102 3h4h12q28 0 86 -3q25 -2 50 -5q24 -4 50 -5q97 5 189 9h17q84 0 168 -36q100 -48 179 -127q-65 56 -65 57l3 -2q17 -12 62 -55q75 -68 96 -136 q5 -16 5 -34q0 -55 -49 -123q-30 -40 -66 -77q-35 -36 -72 -69q-11 -8 -34 -24t-28 -28q0 -13 19 -18q20 -4 29 -6q33 -10 67 -24q33 -14 60 -35q70 -57 138 -147q69 -90 82 -180v-7q0 -51 -27 -110q-30 -62 -65 -102q-28 -33 -63 -65q-35 -31 -75 -49q-57 -20 -122 -20h-6 q-68 0 -131 -4q-74 -9 -149 -21q-74 -12 -148 -21q-40 -4 -80 -4q-40 -1 -80 -3q-71 -4 -140 -9q65 4 52 4l-52 -4q-19 -3 -40 -9t-39 -4q-22 6 -52 31t-42 44q-9 18 7 22q15 4 29 5q29 6 59 8q30 3 60 4h28q18 1 20 13q-2 11 -10 35q-7 24 -10 41q-6 39 -9 79q-2 40 -6 80 q-2 12 -6 42t3 35q12 -2 28 -26q16 -25 34 -22q13 8 -6 31q-18 23 -26 32q-16 35 -24 76q-8 42 -9 81q-1 9 0 19q0 -9 0 -7q-1 2 0 7q5 30 14 18q10 -12 26 -5q10 10 3 28q-6 19 -8 30q2 15 11 29q9 13 10 28q-1 17 -13 26q-13 8 -21 21q-2 6 -2 16q0 19 8 50q13 46 18 70 q31 157 41 317q-11 -117 -11 -124q0 -2 1 5q4 30 10 119q3 27 4 73q0 45 -22 64q-20 8 -55 8q-19 0 -41 -2q-66 -7 -104 -8q-11 1 -30 2t-28 -8q-8 -14 -4 -40q4 -25 5 -41q6 -130 8 -260q-2 92 -2 101v1q1 0 2 -102q2 -115 9 -230t9 -230q0 -66 -5 -130q-5 -65 -9 -130 q-4 -80 -4 -160v52v10v-2v-60q1 -10 2 -31t-6 -29q-13 -3 -49 24t-45 41q-8 23 -8 50q0 10 1 20q4 39 9 70q5 60 6 120t6 120q5 66 5 132v38q-3 85 -12 170q-2 18 1 34q2 17 1 36q-12 149 -16 300l4 -118l-4 118q0 30 1 60q1 29 -4 60zM547 524v-21q0 -159 14 -319 q-8 133 -10 133v-5q1 -32 10 -128q0 -19 1 -63t10 -55q4 -1 20 0q15 2 20 2q35 2 70 2q34 0 69 3q125 0 253 18q129 19 145 175v6q0 48 -16 92q-16 47 -35 93q-8 23 -18 48q-9 24 -28 41q-43 36 -106 54q-63 19 -118 26q-26 3 -52 3q-29 0 -58 -4q-53 -8 -107 -24 q-13 -3 -31 -5q-17 -3 -27 -13q-7 -10 -6 -28v-31zM563 1341q17 -18 37 -35q19 -16 29 -39q13 -41 13 -87q0 -26 -4 -53q-10 -77 -21 -141q-9 -70 -22 -139q11 65 9 52t-9 -52q-1 -4 -4 -18q-4 -13 2 -19q7 -3 20 1q13 5 19 7q66 24 123 64q-55 -34 -44 -28t44 28 q95 59 184 162q53 62 53 131q0 45 -23 93q-13 20 -39 31q-25 11 -47 17q-32 9 -60 8q-28 0 -59 1l-100 10t-101 6zM731 732q36 -6 41 4q5 11 -41 -4zM799 764q120 13 243 92t193 176q20 27 39 58t27 65q1 7 1 14q0 78 -83 119q-90 43 -166 49q-18 2 -41 4q-23 1 -40 -5 q-9 -7 15 -31q24 -23 35 -33q32 -34 49 -76q15 -38 15 -78v-10q-13 -117 -103 -201t-184 -143zM931 680q94 -62 168 -142t119 -185q14 -33 22 -66q7 -30 7 -62v-8q-1 -10 -3 -40t7 -36q12 0 33 20q20 21 29 30q50 45 92 108q39 58 39 123v9q-5 37 -29 97t-50 86 q-42 34 -99 47q-56 14 -108 22q-24 8 -39 32q-14 23 -38 23q-19 -3 -37 -15t-35 -20q-38 -14 -78 -23q37 9 30 7q-8 -1 -30 -7z" />
<glyph unicode="C" horiz-adv-x="1602" d="M51 704q0 55 2 111t17 109q17 56 47 110t62 103q108 178 280 297q129 91 286 91q51 0 105 -10q104 -24 188 -89q84 -66 154 -144q42 -44 92 -107t76 -117q11 -30 -11 -22q-23 8 -36 19q-33 31 -63 65q-29 33 -66 61q-87 63 -184 69q-12 1 -24 1l-170 -38 q-193 -92 -262 -264q-53 -133 -53 -284q0 -44 4 -89q4 -60 13 -120q8 -60 36 -114q63 -108 183 -148q46 -16 90 -16q72 0 140 41q41 31 84 78q42 48 80 70q20 9 26 -2t25 -13q23 3 42 26q18 22 34 38q21 12 47 12q33 0 75 -20q74 -34 115 -66q15 -9 35 -22q19 -12 26 -28 q5 -17 -6 -29q-11 -11 -22 -20q-54 -45 -108 -89q51 42 41 33q-10 -8 -41 -33q-122 -100 -270 -149q-147 -48 -305 -53q-21 -1 -42 -1q-63 0 -128 7q-87 10 -164 45q-45 24 -78 62t-66 75q-66 69 -132 137q-66 69 -108 155q-28 65 -40 134q-12 70 -26 138zM155 780v-16 q0 -153 36 -291q38 -146 148 -269q23 -26 45 -54q22 -27 52 -46q65 -36 142 -48q72 -11 140 -11h11q137 0 278 37t257 113q49 35 94 75q-43 -37 -34 -29q8 7 34 29q11 7 25 18q14 10 16 24q-3 29 -53 29h-11q-42 0 -61 -7q-86 -43 -157 -128q-71 -84 -177 -122 q-34 -8 -66 -8q-87 0 -161 56q-102 76 -174 168q-24 26 -49 50q-25 25 -44 54q-38 66 -47 143q-8 68 -8 135v15q-1 55 -4 111v20q0 45 7 90q24 110 102 205t172 154q85 53 177 66q27 4 55 4q65 0 132 -22q28 -8 57 -20t50 -33q9 -10 19 -23q10 -14 22 -20q4 -2 10 -3 q5 -1 6 3q-3 9 -36 43q-33 35 -45 45q-84 66 -190 86q-53 10 -105.5 10t-104.5 -10q-216 -49 -367 -230q-151 -180 -193 -393z" />
<glyph unicode="D" horiz-adv-x="1661" d="M115 1425q29 23 64 23h70q70 6 140 11t140 5q115 0 262 -13q148 -14 252 -58q52 -26 97 -70q46 -43 86 -85q163 -158 241 -354q44 -108 43 -225q0 -95 -28 -195q-14 -50 -34 -106t-55 -94q-32 -32 -70 -57q-39 -25 -77 -49q-84 -58 -171 -100q-87 -43 -190 -61 q-27 -4 -53 -4l-27 1q-41 3 -81 4q-55 -1 -110 -6q-55 -6 -109 -9q-54 -5 -133 -14q-23 -3 -43 -3q-49 0 -81 16q-14 8 -34 24t-23 32q0 12 8 27q7 16 10 29q5 47 5 94q0 23 -1 47q1 -66 1 -53q1 14 -1 53q-4 28 -21 45q-16 16 -21 41q-1 15 -1 30q0 20 2 40q3 36 5 70 q1 27 1 54v26v27q0 27 1 53q1 10 1 20q0 25 -4 50q-5 35 -8 70q-9 130 -9 260q1 -81 1 -97v-4q-1 0 -1 101q0 66 -0.5 131t0.5 130v-102v4q0 12 -0.5 37t0.5 61q2 23 4 51q3 27 -6 49q-7 12 -20 22q-12 11 -22 21zM255 1345q1 -141 6 -282t6 -281q2 -126 11 -251 q4 -67 4 -134q0 -59 -3 -118l-12 -160l4 63q-2 -31 -4 -63q-1 -10 -5 -20q-4 -11 0 -19q8 -10 28 -8q21 3 31 4q90 5 180 8q-56 -3 -67 -3q-3 0 -3 0.5t3 0.5q17 1 67 2q19 1 41 3t39 -5q10 -8 29 -29q19 -22 32 -14q4 5 2 20q-3 14 -4 19q-5 26 -12 60q-6 34 -22 55 q-31 37 -33 69q-3 33 -6 80q-17 150 -27 300l9 -117v5q-3 28 -9 112q-3 59 -3 117q0 78 5 155q9 134 13 270q0 71 3 141q-2 -66 -2 -53t2 53q1 6 1 20t-4 20q-13 9 -39 3l-40 -8q-110 -14 -221 -15q69 3 83 3q3 0 3.5 -0.5t-3.5 -0.5q-21 -1 -83 -2zM631 764q3 -191 24 -382 q-13 149 -14 149v-6q3 -35 14 -143q1 -25 1 -52v-29q0 -45 16 -79q16 -24 53 -24h8q42 2 71 6q35 2 71 8t66 23q58 41 84 122q27 82 34 149q28 174 40 384q2 31 2 62q0 173 -63 310q-41 65 -131 82q-91 17 -163 17q-14 1 -54 2q-40 2 -47 -1q-3 -8 5 -17q7 -8 10 -18 q4 -29 4 -60q0 -30 -1 -60q-2 -71 -10 -141q-7 -70 -13 -141q-1 -27 -1 -53v-27v-10q0 -36 -6 -71zM1043 1317q25 -32 53 -62q27 -29 44 -66q61 -148 62 -329q0 -16 -1 -33q-6 -201 -40 -371q-9 -49 -20 -99q-12 -50 -32 -95q-4 -10 -21 -38q-16 -29 -18 -33q2 -7 12 0 q11 7 19 12q21 14 41 29q20 14 42 27q80 46 129 109t71 153q23 84 28 178q1 23 1 45q0 70 -14 135q-18 66 -55 130q-37 63 -76 118q-42 65 -96 116q-53 50 -129 74z" />
<glyph unicode="E" horiz-adv-x="1371" d="M135 856q4 26 3 50v50q2 94 7 191q5 96 25 188q5 36 12 80t36 70q14 9 28 8q14 0 30 -1q30 2 60 7t59 9q88 10 176 9q67 0 134 -5q153 -14 307 -41q45 -8 95 -29q50 -22 84 -52q10 -8 24 -20t17 -24q0 -10 -6 -19q5 8 4 6q-1 -1 -4 -6q-1 -4 -3 -8q-2 -5 -3 -3q-1 8 1 18 q1 10 -3 7q-18 -20 -11 -47q6 -26 -18 -42q-21 -8 -47 -8q-11 0 -23 1q-39 5 -70 10q-70 8 -140 8l-140 2q-21 2 -73 6q-22 1 -38 1q-21 0 -29 -2q-10 -9 -10 -27q0 -19 1 -31q4 -80 5 -160l-1 62v-2q0 -15 1 -60q2 -60 2 -119v-40v62v-2v-60q-1 -11 -3 -31t2 -30 q6 -7 18 -8h19q59 0 119 4q-56 -3 -45 -2q11 0 45 2q51 6 121 6h21q84 -1 129 -35q12 -9 30 -28q19 -18 19 -35q-2 -4 -7 -7t-5 -7q1 -9 10 -17q9 -7 11 -16v-7q0 -36 -39 -42q-29 -5 -53 -5q-10 0 -19 1q-74 2 -149 2l-149 -2l116 2h-4h-18q-32 0 -94 -2q-25 1 -51 1 t-33 -29q-5 -39 -5 -81q0 -32 3 -66q3 -32 3 -64q0 -45 -6 -89q-5 -17 -11 -50q-7 -33 7 -48q11 -4 56 0t63 5q70 2 140 5t140 10q31 4 70 12q20 4 39 4q16 0 30 -3q14 -7 45 -40q32 -33 35 -46q0 -4 -4 -8q-3 -4 -5 -8q-3 -14 1 -30q3 -17 6 -30q5 -17 8 -40t-11 -37 q-21 -11 -58 -8q-38 2 -62 4q-70 -1 -140 -7t-140 -8q-80 -1 -160 -3q-79 -2 -159 -11q-46 -7 -101 -14q-20 -3 -39 -3q-33 0 -61 9q-14 6 -23 18q-9 11 -20 22q-14 13 -30 26t-26 31q-16 36 -17 78q0 42 -1 81q-7 109 -20 218q-12 110 -22 219q-2 38 -2 75v25v20 q0 41 -6 80zM235 820q1 -145 13 -290q11 -145 27 -290q10 -69 16 -139q-7 65 -5 52t5 -52v-20t5 -19q11 -5 56 0q46 5 63 7q96 5 191 12q95 6 190 11q40 2 80 2t80 3l50 6q26 4 51 3q40 -2 20 -3q-21 -1 13 -11q15 -3 30 4t13 24q-3 16 -11 17q-7 1 -20 -2q-35 -6 -69 -7 q-35 -2 -70 -5q-90 -8 -180 -10t-181 -5l-50 -4q-25 -3 -50 -3q-25 4 -62 35q-38 31 -45 48q1 22 42 21q41 0 58 22q17 47 22 137q5 77 5 127v16q1 23 2 51q1 29 -5 50q-9 17 -31 14q-21 -3 -39 4q-29 20 -49 50q-19 31 -43 56q-8 8 -24 20q-16 11 -18 23q1 15 20 21 q18 6 29 8q48 12 98 16q-46 -6 -37 -4t37 4q12 0 31 -2q20 -1 30 4q7 7 8 17q-2 -9 -2 -7q1 2 2 7q4 24 1 50q-4 26 -5 51l-4 280q2 -98 2 -108v-1q-1 0 -2 109q-2 31 -6 72v11q0 34 16 56q20 18 55 13q36 -5 61 -7q161 -4 321 -9l-125 4h5l120 -4q50 -3 100 -8q-47 5 -38 4 q10 -1 38 -4q5 0 20 -1t20 3q5 15 -24 23q-30 8 -41 9q-50 8 -100 13l-100 10q-105 10 -210 13h-24q-94 0 -186 -14q-19 -2 -64 -5q-45 -4 -56 -7q-21 -16 -32 -70q-11 -53 -14 -81q-10 -104 -10 -211v-13q0 -99 -14 -197z" />
<glyph unicode="F" horiz-adv-x="1381" d="M149 896q0 35 0.5 70t-0.5 70v47q0 47 1 93q3 55 7 111q1 13 1 27q0 41 -7 83q2 8 6 19t10 17q15 11 38 8t40 -4q55 -1 110 -1t111 1q-69 -1 -83 -1h-4l87 1q75 1 150 7q76 6 151 7q50 0 100 -5q50 -6 100 -9l60 -2q31 -1 60 1q16 4 27 10q11 7 26 0q25 -15 53 -47 q28 -33 39 -60q1 -8 -1 -36t-2 -42q-3 -33 -23 -14q-19 19 -29 24q-9 -2 -16 -11q-7 -8 -16 -11q-3 -1 -20 0h-20q-101 2 -200 4h-18q-91 0 -183 -9q-24 -3 -50 -6q-26 -4 -50 -2q-9 2 -18 8q-8 6 -16 3q-4 -3 -5 -8t-2 -11q-4 -14 -3 -30v-31q-7 -120 -20 -239l9 94v-4 q-2 -23 -9 -90q-4 -24 -11 -61q-6 -37 5 -59q13 -12 55 -10q42 1 61 2l160 6q36 2 72 2q45 0 89 -3q34 -2 56 -18q22 -15 44 -40q4 -4 13 -15t9 -17q-4 -11 -16 -10q-13 0 -20 -2q-15 -11 8 -25q23 -13 1 -32q-18 -9 -40 -9q-13 0 -28 3q-40 8 -70 12q-30 2 -59 2 q-41 0 -82 -4q-70 -7 -141 -8q-19 1 -51 3t-49 -6q-7 -9 -7 -38q0 -12 1 -27q5 -51 7 -72q9 -95 16 -190q6 -94 17 -189q1 -19 3 -41q2 -21 11 -38q3 -4 8 -7q4 -3 6 -7q3 -11 -6 -29t-19 -22q-3 0 -16 9q-12 8 -14 9q-7 1 -21 0q-13 -1 -20 -2q-73 -12 -139 -12h-10 q-71 0 -135 54q-14 12 -31 26q-17 13 -23 32q-4 18 1 39q4 21 6 40q1 15 1 30q0 46 -5 91q4 -56 3 -45q0 12 -3 45q-7 101 -10 201q-3 99 -7 200q-3 50 -8 100q-3 40 -3 80v20zM246 860q1 -55 7 -110q5 -55 9 -110q5 -130 5 -260q0 101 -1 101v-4q0 -24 1 -97q2 -55 6 -110 q2 -40 3 -82q0 -14 -1 -28q-2 -15 -4 -41q-3 -26 10 -37q5 -2 19 0q14 1 19 2q16 0 37 0.5t47 -0.5h9q46 0 69 10q13 13 6 54q-6 41 -11 60q-10 69 -17 139q-6 71 -9 140q1 30 5 72q1 8 1 16q0 31 -13 52q-8 9 -16 8q-8 0 -18 3q-25 14 -45 41q-20 26 -38 48q-3 2 -15 14 q-12 11 -14 14q-2 13 7 16q10 4 18 5q24 1 63 1q38 -1 54 19q4 12 4 36q0 14 -1 31q-4 49 -6 73v31q0 54 5 109q8 70 14 139q3 40 11 80q-6 -37 -5 -30q1 8 5 30q3 10 9 19q5 10 2 19q-7 9 -28 7q-22 -2 -31 -3q-27 0 -84 5q-18 1 -32 1q-32 0 -45 -6q-3 -2 -4 -7t-2 -9 q0 -116 -3 -231q-2 -86 -2 -172v-58z" />
<glyph unicode="G" horiz-adv-x="1638" d="M155 856q9 43 20 88q10 45 32 83q20 30 44 56t45 55q86 131 204 232q119 101 286 103q53 -2 110 -13q56 -11 107 -28q18 -7 33 -21q14 -15 29 -28q78 -62 153 -128q-59 50 -59 51l3 -2q14 -12 56 -49q38 -35 70 -72t64 -77q13 -15 28 -29q16 -14 25 -32q4 -9 7 -29 q3 -19 -11 -23q-15 1 -32 23q-17 21 -25 32q-36 42 -69 86q-34 44 -79 77q-91 58 -210 58q-20 0 -40 -2q-144 -11 -251 -70q-173 -107 -212 -301q-23 -109 -23 -216q0 -83 14 -165q8 -74 39 -156q30 -82 97 -125q19 -11 43 -24t47 -17q16 -2 32 -2q82 0 157 55 q90 66 122 157q10 33 14 69q5 35 8 69q2 11 5 31q2 20 -2 29q-6 7 -17 8q-10 1 -19 6q-18 11 -45 42q-26 32 -5 47q14 5 30 4q16 -2 31 0q36 7 18 7t7 19q4 -1 31 -11q26 -11 41 -13q67 -4 133 -4l67 1l-78 -1h3q19 0 75 1q24 3 46 19q23 16 46 10q25 -10 53 -46 q25 -32 25 -56q0 -4 -1 -7q-2 -5 -5 5t-5 17q-1 3 -2 8q-1 4 -1 2q0 -25 4 -50t4 -50q0 -105 -4 -210q-2 -53 -2 -105.5t2 -105.5q1 -24 4 -50q4 -25 0 -50q-1 -3 -6 -19t-6 -19q4 -6 14 -11t-2 -17q-14 -10 -29 0t-24 19q-24 17 -48 35t-45 40q-7 9 -19 24q-11 16 -23 18 q-7 -1 -18 -10l-14 -14q-21 -21 -40 -45q-19 -23 -43 -42q-46 -31 -102 -41q-50 -9 -100 -9h-10q-199 5 -338 109q-140 103 -251 255q-22 28 -45 54q-23 27 -43 56q-65 96 -95 208q-30 109 -30 220v7zM251 780q9 -49 12 -99q2 -50 15 -99q47 -165 155 -302 q107 -136 270 -196q103 -38 217 -38h3q111 0 198 73q15 13 39 34q25 21 30 40q0 7 -8 17q-8 9 -12 13q-11 14 -32 42q-20 28 -31 37q-8 3 -16 -2q8 3 6 3t-6 -3q-13 -10 -23 -31q-11 -20 -22 -35q-45 -51 -104 -94q-60 -43 -130 -48h-4q-55 0 -101 27q-49 27 -89 64 q-73 64 -134 135q-62 71 -94 163q-15 47 -18 99q-4 51 -6 100q-3 38 -3 76q0 107 23 212q32 142 138 250q56 53 124 84q67 31 142 49q39 9 79 9q-37 -2 -30 -1t30 1q6 0 30 1q25 1 27 3q-4 6 -27 8q-24 2 -32 2q-56 0 -108 -15q-53 -16 -105 -34q-85 -30 -139 -94 q-54 -63 -101 -136q-27 -36 -57 -71q-30 -34 -53 -72q-22 -39 -33 -84zM1112 356q14 -33 37 -60t48 -53q30 -35 59 -68q30 -34 66 -62q8 -8 22 -19q15 -12 26 -2q13 19 8 58q-5 40 -8 62q-6 70 -6 142v24q0 59 4 117q3 23 8 52q6 28 -2 50q-8 17 -23 17t-30 -2h-60.5h-60.5 q57 -1 45 0h-45q-11 1 -31 4t-29 -2q-12 -12 -9 -38q3 -27 5 -41q1 -18 1 -37q0 -27 -2 -55q-4 -46 -23 -87z" />
<glyph unicode="H" horiz-adv-x="1650" d="M127 1441q27 16 58 16q9 0 18 -1q40 -6 79 -12h25q37 0 76 4q18 2 36 2q33 0 64 -7q24 -7 43 -25t35 -35l30 -26t21 -33q6 -30 0 -60q-5 -31 -8 -60q-6 -150 -9 -300q2 117 3 117v-5q-1 -28 -3 -112q-2 -31 -8 -72q-2 -13 -2 -25q0 -25 10 -43q11 -14 34 -16t40 -3 q99 -14 199 -22q-76 7 -78 7h3q19 -3 75 -7q36 -4 92 -8q22 -2 40 -2q29 0 49 5q19 11 19 49q-1 39 -1 62q13 170 31 339q-13 -132 -13.5 -132t0.5 5q4 32 13 127q3 18 9 62q6 45 0 55q-11 6 -29 -2t-30 -8q-14 5 -48 38q-33 33 -37 44q6 13 33 20q28 7 41 9q18 3 41 4 q22 1 38 9q9 7 12 14t17 5q5 -1 9 -5q3 -3 8 -5q13 -3 30 0q17 2 30 4q38 7 102 18q29 5 52 5q27 0 44 -7q12 -8 22 -21q9 -12 19 -23q11 -10 23 -20q12 -9 20 -22q14 -33 14 -72q0 -13 -1 -26q-6 -56 -9 -101q-3 -95 -8 -190t-9 -190q-2 -100 -3 -200t-5 -200 q-6 -130 -7 -260q1 81 1 97v4q-1 0 -1 -101q1 -14 -1 -42t-19 -33q-7 2 -23 17t-22 21q-41 38 -41 86q0 47 7 100q7 105 8 210t3 210q1 45 5 90q4 44 5 89q0 51 -1 101q-1 17 -1 33q0 33 3 67q3 44 3 88v22v14q0 48 6 96q2 9 6 30q4 20 -5 28q-8 3 -19 -1q-10 -5 -20 -6h-82 q-50 0 -70 -26q-8 -17 -9 -39q-1 -23 -1 -41q-6 -90 -14 -180l6 70v-3q-1 -16 -6 -67q-10 -120 -22 -239l9 93v-4q-2 -22 -9 -89q-4 -29 -12 -71q-3 -16 -3 -30q0 -22 7 -39q3 -4 7 -6q5 -3 7 -7q3 -12 -8 -22q-12 -11 -15 -24q-3 -20 -1 -41q2 -20 2 -40q0 -30 -4 -59 q-4 -30 -6 -60q-9 -110 -10 -221q2 78 2 86v1q-1 0 -2 -87q-1 -15 -4 -40q-2 -26 5 -39q14 -15 46 -9t50 9q36 5 72 5l48 -2q61 -6 87 -73q4 -31 -44 -32h-30q-27 0 -44 1q-41 -2 -102 -14q-30 -6 -54 -6t-42 6q-22 11 -48 37t-40 46q-13 25 -8 58q6 33 7 60q0 70 2 140 t9 140q5 31 13 70q3 16 3 31q0 21 -6 39q-13 23 -50 21q-38 -1 -62 -1q-73 8 -161 21q-82 13 -149 13h-9q-29 -3 -33 -27t-2 -50q0 -70 1 -140q0 -70 6 -140q1 -18 1 -37q0 -30 -2 -65q-1 -15 -1 -28q0 -40 9 -69q11 -19 43 -48q32 -28 32 -44q-5 -13 -25 -15q-19 -1 -30 -1 q-51 -1 -100 -7q-50 -6 -100 -9q-18 -1 -41 -2q-22 -1 -38 7q-17 12 -11 14q5 3 -20 2q-28 -1 -50 -4q-22 -2 -44 18q-15 11 -39 34q-24 22 -27 40q1 4 6 6q6 3 7 7q2 28 -4 59q-6 32 -8 61v25q0 38 2 75q3 50 4 100q2 108 2 216q0 243 -12 485q9 -274 11 -274v11 q-1 66 -11 263q-3 80 -5 160t-19 159zM235 1353q11 -55 11 -110q1 -55 3 -110q10 -171 11 -341q0 -170 -1 -341v-240v94v-4v-90q-1 -22 -5 -51q-4 -30 4 -50q10 -14 25 -11q15 2 29 -3q29 -13 57 -13h8q33 1 69 6h30t27 11q10 19 6 49q-4 31 -6 52q-3 78 -8 160 q-5 62 -5 121q0 19 1 38q2 26 6 73q1 12 1 23q0 29 -10 44q-13 10 -38 10q-24 1 -41 3q-25 7 -45 21q-19 15 -38 33q-5 4 -15 13q-9 9 -9 18q3 17 21 15t29 -5q21 -3 73 -6q13 -1 24 -1q32 0 43 7q7 14 6 58q-2 44 -3 63q0 80 3 160t5 160q2 23 5 73q2 49 -12 61 q-13 3 -30 1q-18 -3 -31 -3q-50 2 -100 2t-100 10z" />
<glyph unicode="I" horiz-adv-x="835" d="M191 1357q1 13 5 41q5 27 20 31q8 -2 16 -14q7 -12 12 -16q9 -3 27 -2q19 1 30 0q25 -5 49 -11q25 -6 50 -6q20 1 40 3q20 1 38 -10q12 -8 21 -21q10 -12 20 -22q12 -11 22 -20q11 -10 17 -25q11 -30 11 -63v-6q-1 -36 -2 -70q0 -55 2 -111q2 -55 2 -110q2 -330 38 -659 q-22 257 -23 257v-10q4 -62 23 -247q6 -55 8 -110t7 -110q5 -21 12 -46q8 -26 -14 -45q-9 -5 -31 13q-21 18 -51 22h-16q-32 0 -64 -3h-13q-35 0 -66 13q-18 9 -31 24t-27 30l-22 20q-10 10 -15 25q-8 26 -8 55q0 13 2 26q4 42 4 81q-7 129 -18 258l8 -101q0 -19 -8 101 q-14 210 -36 419l15 -163v6q-3 40 -15 157q-13 105 -25 209t-14 210zM291 1281q3 -132 20 -261t31 -260q9 -110 13 -220q3 -111 14 -221l10 -90q4 -38 4 -75v-15q-1 -14 -1 -30q1 -16 15 -25q12 -5 30 -3q17 2 30 3q13 -1 31 -4q18 -2 30 3q13 10 10 36q-3 25 -5 40 q-7 65 -12 130t-14 130q-21 170 -23 341q-3 171 -7 341v20q0 30 2 61q2 20 2 40t-2 40q-8 26 -53 27q-44 2 -72 5q-11 3 -20 6q-8 3 -18 8q-4 2 -10 4q-6 3 -4 3q11 -2 23 -10q11 -9 18 -2q4 8 -10 14q-14 7 -24 3q-4 -4 -6 -19q-2 -16 -2 -20z" />
<glyph unicode="J" horiz-adv-x="630" d="M-45 -420q16 47 41 91q26 43 41 91q43 144 80 289q38 145 59 294q5 35 12 69t12 69q22 209 23 420q-4 -141 -4 -161q0 -3 0.5 -3t0.5 6q1 40 3 158q4 95 12 190q2 24 2 47q0 72 -16 142q-9 31 -27 53t-42 43q-7 6 -23 19q-17 14 -18 23q3 8 16 12q13 3 19 4q25 3 50 4 q25 0 50 1q22 1 45 1l45 -1q45 -1 90 -1l30 2q16 2 30 -4q18 -8 31 -25q13 -16 26 -30q12 -11 21 -22q9 -10 13 -26q5 -26 5 -53q0 -13 -1 -27q-4 -41 -10 -80q-17 -149 -33 -298l12 117v-5l-12 -112q-18 -219 -26 -440t-65 -435q-23 -78 -58 -149q-36 -70 -89 -133 q-30 -33 -64 -63q-34 -29 -63 -64q-18 -24 -34 -49q-16 -26 -34 -50q-5 -6 -13 -14q-7 -8 -17 -7q-23 8 -61 47q-37 40 -59 60zM151 -240q17 -9 35 13t29 39q41 55 78 118q36 63 57 128q22 72 30 148q9 75 16 150q16 170 25 340q8 171 26 341q7 60 15 119t13 119q4 20 6 41 q2 20 -21 28q-20 4 -40 4q-15 0 -30 -2q-37 -5 -71 -5q-8 1 -30 2t-26 -8q1 -4 11 -18t13 -18q12 -21 21 -45t15 -47q14 -63 14 -127v-23q-3 -76 -6 -151q-2 -70 -10 -140t-14 -140q-8 -136 -21 -270t-41 -268q-20 -83 -46 -164q-26 -82 -48 -164z" />
<glyph unicode="K" horiz-adv-x="1628" d="M115 1445q52 50 133 61q82 12 152 15q24 3 49 8t50 5q21 -3 60 -35q40 -32 44 -52q-8 -22 -54 -16t-40 -16q10 -16 29 -27t30 -28q17 -39 17 -98v-18q-4 -71 -4 -123l4 -120q2 -44 2 -90v-30q-1 -13 -2 -40t15 -33q12 0 27 12t23 20q34 31 62 66q29 35 61 67 q98 94 198 183q101 90 180 202q14 20 28 42q14 21 24 44q4 13 3 31q-1 17 4 28q9 12 35 12q26 1 41 2q48 11 84 11q18 0 33 -3q46 -9 92 -74q6 -11 6 -24q0 -26 -25 -55q-37 -43 -63 -67q-92 -97 -186 -197t-204 -176q-58 -40 -120 -73q57 33 46 25q-11 -7 -46 -25 q-9 -4 -28 -13q-19 -8 -22 -19q2 -10 18 -24q15 -13 23 -20q37 -34 74 -69q36 -34 70 -71q46 -54 79 -115q34 -62 73 -120q48 -65 99 -126q52 -61 93 -131q17 -27 50 -79q33 -53 35 -80q-5 -25 -44 -33q-38 -9 -59 -11q-42 -8 -90 -13q-13 -1 -25 -1q-35 0 -65 10 q-36 16 -65 46t-55 59q-94 99 -177 204q-82 105 -149 225q-38 70 -70 144l26 -57l-1 2q-6 14 -25 55q-4 11 -12 28t-21 22h-5q-33 0 -35 -55v-22q0 -41 3 -62q10 -110 13 -264v-24q0 -137 -32 -230q-19 -39 -62 -41h-21q-31 0 -60 2q-45 -2 -112 -8q-16 -1 -31 -1 q-46 0 -75 14q-12 9 -22 21t-19 23q-11 11 -23 20q-12 10 -20 22q-9 18 -9 39q1 21 2 40q2 100 3 200l-1 -78v3q0 19 1 75q2 181 5 361q2 180 20 360q7 55 13 110t8 110q2 23 2 50t-9 49q-8 17 -24 31t-30 28zM220 100q1 -16 3 -20q9 -8 28 -7q19 2 31 3q35 1 69.5 1 t69.5 -1q-65 1 -52 1t52 -1l30 -2q16 -1 27 11q15 21 17 57q1 35 3 61q7 76 7 152q0 64 -5 128q4 -109 5 -109v4q0 26 -5 105q0 24 4 51t-4 49q-15 25 -45 40q-29 16 -42 42q-6 25 21 38q28 13 46 24q12 11 15 25t3 30q0 40 -5 79q-6 40 -9 80q-3 65 -4 130q0 65 -3 130 q0 48 5 101q1 14 1 27q0 38 -10 72q-12 17 -46 17q-13 0 -30 -3q-61 -9 -93 -17q-4 -1 -19 -4q-16 -3 -20 -5q-1 -5 4 -32q4 -26 5 -39q2 -33 2 -67q0 -67 -7 -133q5 78 6 78v-3q-1 -18 -6 -75q-13 -124 -24 -249q-11 -124 -14 -249q1 -94 5 -191v-30q0 -80 -13 -159 q-2 -60 -3 -120q1 56 1 45q-1 -12 -1 -45v-20zM659 692q25 -31 53 -60q29 -28 51 -61q28 -47 51 -98q22 -51 49 -99q38 -66 83 -125t90 -119q20 -30 42 -57q21 -26 58 -35q21 -3 42 -3q24 0 48 4q44 9 89 15q12 0 29 2t19 18q-1 13 -12 28q-12 15 -19 25q-14 26 -27 53 q-13 26 -29 52q-45 66 -97 127q-53 60 -98 127q-28 47 -50 98q-23 51 -60 92q-24 25 -51 48l-52 48q-7 8 -20 21q-14 14 -25 15q-12 -1 -27 -14q-14 -12 -23 -20q-56 -41 -114 -82q54 39 43 31q-10 -8 -43 -31zM1284 1353q13 7 33 23q21 16 24 32q0 3 -3 6q-3 2 -7 2 q-15 -5 -28 -27q-12 -23 -19 -36z" />
<glyph unicode="L" horiz-adv-x="1384" d="M107 1437q34 34 78 37t90 3q50 5 123 16q33 5 60 5q33 0 57 -8q18 -9 31 -26q13 -16 26 -31l21 -21q10 -11 15 -26q13 -46 12 -101q0 -37 -5 -77q-13 -103 -24 -182q-17 -150 -16 -300q0 -131 12 -262q-11 220 -13 220v-9q0 -53 13 -211q3 -35 3 -72v-18q-1 -45 -3 -90 q-1 -10 -3 -31q-3 -20 3 -29q4 -2 20 -3t20 -1q25 -1 51 -1q25 -1 50 -4q89 -13 178 -25t180 -14h25q35 0 54 -4q25 -6 64 -44q4 -3 16 -14q12 -10 14 -14q-1 -21 -30 -19q-29 1 -33 -12q8 -16 44 -42q37 -26 22 -48q-19 -14 -58 -10q-39 3 -62 7q-75 7 -150 9h-33l-117 -5 q-90 -8 -180 -10q-91 -2 -181 -11q-46 -8 -100 -14q-16 -2 -31 -2q-36 0 -68 12q-31 14 -66 47t-46 64q-6 22 -6 45q0 13 2 25q5 37 7 71v18q0 26 -2 53q-3 35 -4 70q-8 343 -8 686v76v-250v-48v12q0 36 -0.5 107.5t0.5 178.5q4 72 4 143v28q0 85 -56 156zM227 1369 q44 -156 44 -337q0 -28 -1 -57q-7 -213 -11 -403q2 -95 5 -190t3 -190q-1 -21 -3 -74q-1 -18 -1 -31q0 -26 3 -35q5 -5 19 -5q13 1 18 1q61 6 121 10q-56 -5 -45 -3q11 1 45 3q210 11 420 20q-161 -7 -164 -7q-1 0 7 0q39 2 157 7q27 0 84 -2q13 0 24 -1q38 0 53 6q2 2 -3 3 q-4 1 -7 2q-67 6 -77 6q-2 0 -2 -1t57 -7l58 -7l-76 8q-40 5 -79 12q37 -6 29 -5q-7 1 -29 5q-74 9 -161 18q-87 8 -155 36q-16 8 -50 36q-35 27 -31 47q8 9 29 4q20 -4 30 -5q4 0 8 1q3 2 3 5q-5 12 -30 30t-34 44q-5 26 -5 53q0 18 2 36q5 47 6 91q-3 90 -8 180 q-4 67 -4 135v45q4 100 15 199t18 199q2 20 4 73v20q0 36 -6 45q-10 4 -30 0q-20 -3 -30 -4q-56 -1 -111 -3q-54 -2 -109 -13z" />
<glyph unicode="M" horiz-adv-x="2013" d="M51 68q23 98 37 197q-12 -73 -12 -77q0 -1 1 3q3 18 11 74q2 18 2 41q1 23 8 39q1 1 3 -1q2 -3 3 -2q9 15 13 38t7 40q15 59 25 118q11 59 24 118q21 87 47 174q25 86 42 175q12 69 20 139q9 69 17 139q1 20 1 51t12 47q17 15 47 12q31 -2 51 -4q14 0 28 -1l82 3l110 6 q19 1 40 4q21 4 40 0q45 -16 64 -71q20 -56 27 -99q29 -137 63 -273q33 -135 77 -269q23 -71 45 -144q21 -72 47 -142q14 -31 30 -64q17 -33 25 -65q2 -9 1 -19t-15 -9q-12 3 -25 18q-12 15 -20 24q-37 43 -59 92q-21 48 -41 101q-31 80 -53 161q-22 82 -45 164 q-19 62 -41 124q-22 61 -38 124q-21 88 -40 176q15 -68 15 -69l-1 3q-3 16 -14 66q-3 19 -3 40t-7 39q-7 16 -21 19q-13 2 -29 2h-23l-47 -1q-18 -1 -35 -1l-35 1q-8 1 -30 3t-27 -8q-1 -14 20 -32t29 -29q16 -30 20 -67q5 -38 9 -71q11 -69 27 -137t31 -137 q26 -127 58 -253q31 -127 80 -248q41 -103 53 -213q-14 80 -14 85q0 1 1 -3q5 -21 13 -82q1 -22 5 -39q5 -18 29 -20h25l75 2q51 3 101 4q13 -1 41 -4t38 5q6 11 3 39t-4 41q1 60 6 120q6 61 12 120q19 197 59 355q41 157 125 337q30 69 52 141q21 71 45 142q5 20 16 49 q12 28 35 32q5 -1 10 -3q4 -3 9 -4q28 -4 60 -1t60 6q18 2 40 9q21 7 38 3q15 -4 25 -17q11 -12 20 -23q36 -40 55 -82q18 -43 23 -96q11 -115 14 -230q4 -115 13 -230v-17q0 -26 -2 -54v-11q0 -30 9 -58q6 -14 17 -23q11 -10 17 -24q8 -23 8 -50q1 -27 2 -50q4 -65 8 -131 t21 -128q10 -34 22 -66q13 -33 25 -66q5 -10 14 -27t7 -29q-13 -31 -62 -44t-79 -16q-45 -8 -100 -23q-34 -9 -64 -9q-18 0 -35 3q-16 6 -23 19t-19 22q-24 15 -18 6q7 -10 -14 -3q-21 9 -46 38q-26 29 -34 50q-9 32 -9 66q0 11 1 23q2 28 2 55q0 18 -1 36q-13 134 -22 269 q-10 135 -22 269q-3 39 -6 80q-1 27 -1 54v26q1 8 3 32q1 23 -7 27q-3 -3 -16 -32t-17 -39q-52 -108 -86 -223q29 87 29 88l-1 -3q-9 -21 -28 -85q-39 -136 -57 -275q-18 -138 -29 -279q0 -36 3 -104v-19q0 -53 -15 -75q-14 -11 -38 -8q-23 2 -40 2q-30 -1 -60 -1h-30 q-45 0 -90 -2q-28 -4 -60 -8q-32 -3 -58 12q-11 9 -21 22q-10 12 -20 23q-64 70 -79 137q-14 67 -31 155q-15 58 -37 114t-42 112q-18 53 -32 106l-26 108q-29 116 -56 233q22 -89 22 -91l-1 3q-6 22 -21 88q-10 49 -15 99q6 -47 5 -38q-1 10 -5 38q-1 10 -4 23q-3 12 -9 9 q-3 -6 -4 -29q0 -23 -1 -31q-10 -80 -16 -160q5 58 5 62l-5 -62q-14 -169 -14 -337v-22q1 -179 13 -359q2 -40 7 -81q6 -40 19 -78q6 -14 17 -37q12 -24 5 -39q-8 -11 -18 -5q-9 6 -14 11q-23 20 -42 44q-18 24 -30 52q-40 96 -51 203q-11 108 -13 211q-1 39 -1 79v40 q0 -56 -1 -45q0 12 1 45q0 9 -2 36q-2 26 -5 25q-11 -24 -17 -66q-6 -43 -12 -71q-22 -83 -43 -165q-21 -83 -35 -167q-8 -49 -17 -99q8 47 6 38q-1 -10 -6 -38q-1 -4 -3 -19t0 -20q13 -12 47 -9q35 4 52 6q24 3 40 3q19 0 29 -4q17 -8 50 -45q9 -7 23 -18q15 -11 9 -25 q-15 -19 -55 -16t-62 6q-37 0 -81 -1q-44 0 -77 19q-16 12 -28 28q-13 16 -26 31q-13 12 -21 21q-7 9 -11 27zM1500 1333q1 -258 17 -513q15 -254 35 -511q3 -44 7 -89q4 -46 5 -90q-1 -14 -3 -31q-1 -17 13 -25q15 -5 39 0t40 8q13 1 41 3q29 2 38 10q7 11 4 39 q-3 27 -4 41q0 51 3 101l6 100v30q0 157 -28 310q-32 168 -43 338q-2 39 -3 82v9q0 37 7 72q14 60 8 31t7 -18q4 13 2 60q-2 48 -6 62q-8 14 -23 11l-28 -7h-36h-35h-5q-31 0 -58 -23z" />
<glyph unicode="N" horiz-adv-x="1621" d="M103 1369q13 20 34 51q20 30 44 39q13 2 29 -2q17 -4 30 -6q35 -5 70 -9q35 -5 69 -6h31q15 1 29 -7q18 -12 46 -41q27 -29 31 -51q0 -2 -6 -2q-5 0 -5 -2q5 -17 18 -36t24 -32q112 -129 234 -248q122 -120 233 -249q29 -34 60 -67t58 -69q26 -37 51 -75q24 -38 54 -72 q24 -26 52 -47q28 -20 55 -43q7 -6 20 -23q14 -16 5 -27q-13 -6 -36 11q-24 18 -33 27q-53 45 -98 99t-86 110q-40 52 -79 104q-40 51 -84 100q-106 113 -216 223q-109 111 -205 233q-17 24 -37 48q-20 23 -48 36q-23 9 -48 10q-25 0 -49 5q-16 4 -41 10q-24 7 -39 -1 q-12 -8 -5 -17q7 -8 13 -13q42 -42 77 -91q-34 44 -27 36t27 -36q37 -54 68 -111q30 -58 65 -113q20 -30 43 -56t46 -53q18 -24 33 -50q16 -26 34 -50q28 -35 58 -68q31 -33 59 -68q31 -40 54 -85q23 -44 52 -85q47 -59 102 -111t106 -106q64 -77 128 -141q61 -61 165 -61h7 q27 3 25 23t-7 40q-10 59 -11 119q-2 60 -7 120q-22 200 -23 399v25q0 188 14 376q3 44 4 89v18q0 36 -3 72q-2 12 -5 31t8 29q9 4 19 -2t16 -11q22 -18 41 -44t23 -55q5 -52 5 -105q0 -58 -6 -116q-12 -110 -16 -220v-42q0 -105 8 -208q9 -124 17 -249q1 -24 1 -48v-23 q-1 -18 -1 -35.5t1 -34.5q2 -39 3 -80t9 -80q6 -16 17 -37t1 -37q-18 -19 -55 -16q-36 3 -61 5q-23 -2 -50 -4q-28 -3 -49 8q-13 7 -23 20q-9 13 -20 23q-40 38 -76 78l-74 82q-24 26 -41 57q-16 31 -39 58q-59 68 -126 129t-125 130q-27 36 -48 76t-46 78q-26 37 -57 69 q-31 33 -60 68q-35 42 -67 87q-33 44 -67 87q-42 56 -75 118q-32 63 -69 122q-11 19 -27 45q-16 25 -36 34q-22 5 -20 -22q2 -28 6 -40q11 -60 11 -120q0 -59 2 -120l8 -120q5 -59 5 -120q-1 -115 -5 -230q-3 -72 -4 -144q0 -43 2 -86q3 -71 11 -140q8 -70 13 -140 q2 -17 3 -51q0 -35 -23 -35q-13 4 -23 19q-10 16 -18 26q-4 3 -15 12q-12 8 -16 12q-10 15 -12 38q-2 22 -3 40q-5 90 -11 180l4 -70v3q0 16 -4 67q-3 47 -3 94q0 63 5 126q7 110 7 221q-5 155 -19 310q-13 154 -15 310z" />
<glyph unicode="O" horiz-adv-x="1885" d="M195 884q6 30 10 60t13 58q41 122 117 233q76 112 171 196q44 40 95 75q52 35 110 48q44 10 100 15q15 1 29 1q39 0 70 -10q28 -14 44 -40q15 -26 45 -38q24 -6 49 -9t50 -8q42 -10 85 -29t80 -42q42 -27 78 -63q35 -36 68 -73q118 -120 199 -277q74 -141 74 -295 q0 -17 -1 -34q-12 -173 -103 -321q55 119 59 119q1 0 -1 -5q-9 -30 -58 -114q-39 -69 -80 -140q-40 -71 -107 -117q-41 -27 -90 -44q-49 -16 -96 -28q-78 -19 -159 -23q-15 -1 -29 -1q-66 0 -130 15q-94 23 -176 74q-81 51 -153 113q-166 138 -262 312q-97 174 -101 392z M295 828q0 -145 41 -287t140 -252q21 -22 46 -38q26 -16 50 -34q152 -110 363 -133q38 -4 74 -4q166 0 300 87q53 39 89 94q36 56 63 114q17 31 37 60q20 28 34 61q37 92 46 195q2 29 2 58q0 72 -14 142q-13 59 -40 112q-28 53 -60 104q-22 39 -44 80q-21 41 -52 74 q-59 56 -145 87t-166 36q-40 2 -80 2l-80 -2l63 2h-3q-16 0 -60 -2q-12 0 -31 -2t-29 -11q-12 -21 20 -37t32 -37q-4 -10 -16 -10q-13 0 -20 -2q2 -3 24 -18t29 -20q48 -37 89 -81q-39 40 -31 32t31 -32q65 -64 117 -137q52 -74 79 -161q25 -88 25 -191q0 -62 -9 -129 q-25 -179 -115 -295q-26 -31 -60 -53q-34 -21 -71 -37q-32 -14 -65 -26q-34 -12 -69 -12q-61 5 -111 59t-89 98q-37 34 -73 70q-36 35 -62 78q-70 129 -89 287q-8 63 -8 125q0 90 17 175q18 93 62 168t125 127q31 20 62 32q32 11 67 21q12 2 28 8q15 6 10 22q-4 11 -19 23 q-14 12 -27 12q-21 -6 -76 -44q-54 -37 -75 -55q-108 -97 -174 -230q-67 -133 -102 -273zM499 744q5 -30 6 -59q0 -30 3 -60q12 -101 53 -195q41 -93 120 -158q11 -9 21 -21q11 -11 24 -18q21 -9 44 -9q17 0 35 5q43 12 77 28q28 11 55 24t49 34q33 33 48 75q16 43 29 86 q23 63 40 125q17 61 19 129v13q0 97 -28 207q-31 117 -107 191q-33 27 -71 37q-39 9 -76 26q-17 11 -29 28q-13 18 -30 26q-4 1 -8 1q-27 0 -74 -27q-54 -32 -77 -53q-60 -60 -86 -145q-25 -86 -30 -169q-1 -31 -1 -61q-1 -30 -6 -60z" />
<glyph unicode="P" horiz-adv-x="1626" d="M151 1393q14 35 40 37t59 -1q75 -2 151 -2l150 2q181 0 361 -9q-141 5 -141 6h6q33 -1 135 -6q20 0 40 2t40 -2q24 -8 46 -20q22 -13 46 -21q39 -10 78 -17q39 -6 75 -27q29 -18 55 -44q25 -25 49 -50q58 -57 96 -127q36 -65 36 -142v-12q-18 -184 -160 -273t-305 -128 q-29 -8 -57 -19q-28 -10 -58 -15q-44 -7 -90 -7h-13q-39 0 -77 5q-9 3 -30 9q-21 7 -28 3q-2 -7 -1 -46q1 -40 0 -54q-5 -75 -7 -150v-15q0 -68 8 -136q6 -28 14 -70q2 -10 2 -19q0 -28 -22 -42q-25 -11 -59 -9q-34 1 -61 2h-20l-160 -7q70 4 70 5h-3q-17 -1 -67 -5 q-24 -3 -50 -8q-27 -6 -50 -3q-13 5 -48 35t-42 42q-7 19 3 16q11 -3 17 7q1 5 -3 9t-6 8q-5 19 -3 40q1 22 2 41q2 140 1 281v-92q0 -17 0.5 -17.5t-0.5 4.5v105l-2 220q-2 67 -2 133q0 44 1 88q2 20 10 37q8 16 8 38q-2 30 -8 60t-10 59q-16 142 -16 284v17q2 -106 2 -117 v-1q-1 0 -2 118zM227 1329q15 -69 21 -139q5 -70 9 -140q11 -161 13 -321q1 -107 1 -214v-107q1 -60 1 -120v-20q0 -50 -4 -100q-3 -15 -6 -41q-2 -26 8 -38q11 -7 30 -4t31 6q39 5 77 5h13q44 0 89 2q10 0 31 -1q22 -2 29 2q0 6 -5 45q-5 40 -6 53q-4 65 -9 131 q-3 36 -3 72q0 29 2 58q3 21 9 51q7 31 -1 49q-5 5 -18 10q-12 6 -18 8q-16 10 -39 32q-23 21 -31 38q-9 36 42 14q25 -11 41 -11q17 0 23 12q1 9 1 20q0 21 -4 49q-6 41 -10 71q-8 70 -14 140q-4 58 -4 117v23q0 81 13 160l-8 -63v3q1 16 8 60q5 17 20 48t10 39 q-16 8 -49 5t-52 -4h-241h94h-4h-90zM627 1068q1 -85 7 -170t13 -171q0 -20 -3 -51q-3 -32 8 -49q15 -10 66 -10q51 1 73 3q10 1 23 5t9 12q-3 3 -10 -2q-6 -4 -10 -1q-4 8 10 12q13 5 24 8q29 7 57 7h12h7l61 16q55 34 76 91q20 56 23 118q2 22 2 46q0 64 -12 146 q-16 113 -60 179q-49 52 -156 62q-16 1 -31 1q-84 0 -128 -42q-34 -45 -42 -100q-9 -56 -19 -110zM987 1321q23 -27 50 -50q28 -22 49 -50q37 -53 57 -117q19 -65 27 -128q5 -41 5 -82q0 -49 -7 -98l6 70v-3q-1 -17 -6 -67q-2 -9 -5 -29q-2 -21 9 -25q8 2 40 25t43 31 q78 58 104 142q14 46 14 94q0 41 -10 84q-22 95 -70 117q-49 22 -132 41q-44 15 -85 28q-42 14 -89 17z" />
<glyph unicode="Q" horiz-adv-x="1777" d="M83 780q9 54 10 110q0 56 17 108q64 154 215 273q152 118 309 166q57 17 118 25q20 2 40 2q41 0 80 -9q24 -7 46 -19q23 -11 46 -19q5 -3 11 -5t9 1q2 11 -16 20q-19 9 6 26q24 11 59 5q36 -7 60 -14q76 -15 142 -46q65 -31 122 -86q214 -223 224 -521q1 -18 1 -35 q0 -278 -150 -520q-37 -58 -86 -112q-48 -53 -99 -99q-20 -17 -41 -28q-22 -11 -46 -22q-7 -3 -16 -8q-9 -6 -7 -18q6 -16 26 -28q21 -11 32 -27q9 -24 10 -48q1 -25 21 -44q12 -10 27 -14q15 -5 29 -10q64 -23 112 -23q27 0 48 7q60 18 152 33q21 -1 61 -32q39 -32 39 -52 q-8 -16 -50 -44t-61 -42q-64 -58 -125 -115q-62 -57 -131 -109q-21 -18 -50 -35q-28 -17 -56 -2q-71 49 -109 129q-38 81 -71 156q-20 41 -46 78q-27 37 -52 74q-13 25 -23 56q-10 32 -31 51q-22 14 -57 11t-61 0q-63 10 -127 30t-121 50q-52 29 -93 75q-40 46 -78 92 q-73 81 -137 173q-64 93 -97 198q-17 59 -22 118t-13 119zM183 700q10 -49 14 -99t14 -99q18 -71 55 -140q38 -68 80 -128q26 -39 59 -81q34 -42 76 -64q28 -13 58 -19q30 -5 59 -13q91 -28 185 -38q33 -3 66 -3l124 12q173 42 289 187q116 146 166 309q13 44 21 88 q7 45 16 89q4 19 11 37q6 18 9 39q3 31 3 61q0 66 -15 127q-22 88 -60 180q-13 37 -28 76q-14 38 -42 67q-38 35 -88 45t-99 16l-40 10t-40 0q-3 -1 -5 -5q-2 -3 0 -6q9 -12 26 -9q18 3 31 -1q13 -9 45 -43t31 -47q-8 -9 -27 -6q-18 3 -19 -12q4 -14 20 -43q17 -29 24 -46 q16 -43 25 -88q9 -44 14 -89q14 -98 14 -202q0 -87 -10 -179q-21 -201 -111 -361q-47 -81 -128 -140q-62 -46 -134 -46q-23 0 -47 5q-28 8 -51 29q-23 22 -43 43q-45 44 -80 90t-67 99q-26 44 -47 88q-22 44 -34 94q-21 89 -21 190q0 53 6 110q17 164 79 289q54 100 171 183 q93 66 185 66q25 0 50 -5q25 -8 43 -25l35 -35q4 -3 15 -13q12 -9 13 -15q-1 -10 -14 -13q-12 -3 -18 -3h-18q-27 0 -52 2q-9 1 -17 1q-26 0 -52 -7q-78 -23 -138 -79q-60 -55 -99 -125q-79 -147 -86 -337q-1 -22 -1 -43q0 -165 56 -300q17 -44 40 -94q22 -50 58 -82 q22 -17 49 -17q8 0 17 2q37 7 67 21q23 8 47 16q25 7 44 22q36 31 63 78t45 91q70 167 82 349q3 47 3 94q0 134 -27 265q-8 51 -15 110t-44 99q-73 69 -148 77q-25 3 -52 3q-54 0 -117 -11q-46 -6 -87 -21t-81 -39q-26 -15 -54 -27q-27 -11 -53 -27q-41 -28 -78 -63 q-37 -34 -71 -70q-40 -39 -73 -84q-33 -44 -49 -98q-13 -53 -13 -109q0 -55 -10 -110zM935 -80q31 -47 57 -95q26 -49 55 -96q21 -34 47 -65q25 -32 43 -68q7 -21 25 -69q17 -49 33 -57q12 0 27 12q15 13 25 20q75 50 141 112q-53 -46 -53 -47l2 2q14 10 51 45q7 6 24 21 t17 24q-2 3 -17 7q-15 5 -18 5q-36 10 -68 21q-32 12 -61 35q-38 31 -74 68q-36 38 -67 76q-5 7 -12 16q-7 10 -10 18q-1 6 -2 20q-2 13 -6 18q-7 3 -20 -1q-13 -5 -19 -7q-29 -8 -59 -11q-31 -3 -61 -4z" />
<glyph unicode="R" horiz-adv-x="1567" d="M91 176q14 71 14 141v18q-1 53 -1 107v54q5 155 6 310v311q1 131 5 261l-3 -102v4q1 24 3 98q-1 17 -5 40q-3 24 10 38q15 10 38 6q24 -4 41 -6q40 1 80 6l80 8q91 12 183 12q138 0 278 -27q235 -46 354 -266q33 -73 33 -146q0 -38 -9 -77q-27 -112 -107 -202 q-26 -29 -55 -58t-63 -49l-57 -24t-34 -31q17 -25 50 -59t55 -62q62 -88 133 -176q70 -89 160 -150q39 -24 79 -42t76 -47q9 -7 24 -19q16 -13 17 -25q-1 -11 -11 -15q7 6 6 4t-6 -4q-5 0 -19 5q-15 6 -19 7q-14 0 -30 -7t-28 -11q-80 -28 -156 -28q-16 0 -31 1 q-91 6 -172 70q-83 67 -147 151t-103 183q-13 34 -20 67q-8 33 -13 69q-1 12 -4 30q-4 17 -16 25q-13 3 -59 -4t-54 -13q-5 -15 -3 -39q1 -25 1 -41q-1 -57 -1 -114v-57v-21q0 -74 -6 -149q0 -27 2 -61q2 -35 -12 -58q-24 -25 -67 -25h-6q-47 2 -82 5h-17q-94 0 -192 30 q-106 33 -120 154zM192 142q-2 -17 3 -30q16 -17 80 -19h55.5h38.5q24 -3 62 -4q37 -2 52 19q8 19 8 52q0 12 -1 26q-3 52 -5 83q1 67 12 155q5 42 5 78q0 39 -6 69q-7 20 -24 32q-17 11 -27 28q-9 22 19 23q28 2 34 34q2 68 2 136v45q-1 91 -1 181q-1 61 -5 121l-8 120 q1 21 0 52q-1 30 -24 35q-9 1 -19 1q-34 0 -70 -9q-47 -10 -91 -13q-12 0 -30 2q-18 3 -29 -4q-12 -12 -14 -37q-3 -25 -3 -40q-3 -37 -3 -75q0 -19 1 -37q1 -55 3 -111q1 -90 1 -180v-91q-1 -135 -1 -271q2 -85 3 -171v-18q0 -77 -15 -152q-1 -13 -3 -30zM527 1377 q11 -11 22 -21q12 -10 21 -22q22 -37 22 -88v-9q-2 -56 -3 -102q4 -151 6 -302q-2 85 -2 109q0 9 0.5 9t0.5 -5q1 -28 1 -113q1 -24 1 -48q0 -36 -2 -73q1 57 2 46q0 -12 -2 -46q0 -6 -1 -20q-1 -15 1 -21q13 -15 46 -7q32 7 50 12q75 14 153 50q78 35 134 89q73 73 113 178 q22 60 22 120q0 44 -12 88q-9 31 -20 57t-38 44q-98 57 -250 67q-126 8 -226 8h-39zM763 576q11 -10 22 -21q12 -10 21 -22q18 -29 23 -66q6 -37 9 -70q6 -36 18 -67q11 -32 28 -64q29 -65 72 -122t119 -69q26 -3 53 -2h27q41 1 80 8q9 1 28 5q20 5 17 19q-3 4 -16 13 t-17 12q-40 30 -74 68q33 -34 26 -27q-6 6 -26 27q-124 132 -234 276q88 -110 88 -111l-4 4q-21 26 -84 107q-16 22 -48 69t-51 57q-16 3 -39 -7t-38 -17z" />
<glyph unicode="S" horiz-adv-x="1485" d="M59 1056q9 76 22 148q12 73 53 140q22 33 52 61q30 27 59 54q54 52 117 95q63 42 134 68q84 27 164 27q96 0 188 -38q169 -69 290 -208q46 -53 87 -110q-39 53 -31 42q8 -10 31 -42q6 -10 16 -26q10 -17 21 -20q5 0 9 3q5 4 9 4q12 -5 45 -40q33 -34 37 -46 q-1 -11 -15 -25t-21 -23q-27 -36 -53 -73t-53 -73q-9 -12 -23 -33q-15 -20 -32 -19q-12 5 -23 20q-12 16 -19 25q-40 48 -61 102q-22 55 -55 106q-21 29 -51 46q-31 17 -65 26q-69 21 -157 21q-36 0 -76 -4q-135 -11 -182 -111q-9 -21 -15 -48q-7 -28 2 -50q12 -22 40 -28 q27 -5 50 -7q109 -20 208 -69q-78 33 -78 34l3 -1q20 -7 75 -33q63 -32 124 -66q61 -35 122 -69q112 -55 207 -121q95 -65 152 -181q31 -65 46 -132q5 -26 5 -52q0 -43 -14 -86q-32 -88 -106 -156t-163 -97q-39 -11 -79 -12q-41 0 -81 -2q-91 -9 -181 -9l-109 3 q-146 9 -280 68q-77 38 -140 95q-62 58 -122 118q-13 10 -39 35q-27 26 -21 42q7 9 18 2q12 -8 15 -12q26 -23 50 -48q24 -26 50 -50q53 -49 115 -79q62 -31 131 -49q20 -7 49 -16t50 -3q5 3 0 11t-11 13q-54 44 -103 94q47 -46 37 -37l-37 37q-34 37 -60 80q-26 42 -50 87 q-5 9 -12 28q-8 20 -16 25q-11 2 -22 -16t-15 -26q-15 -20 -34 -36l-38 -32q-3 -4 -14 -15q-10 -11 -15 -13q-9 4 -44 39q-34 35 -39 43q3 12 18 24q15 13 24 20q25 25 47 52q23 27 46 53q7 9 20 24t25 16q9 -2 16 -10q7 -9 15 -15q40 -26 63 -62t39 -80q30 -88 76 -151 q46 -62 135 -97q67 -25 137 -30q29 -2 58 -2q41 0 82 4q24 2 50 4q26 3 48 15q50 38 57 132q2 26 2 49q0 61 -15 102q-14 33 -45 52q-31 18 -63 31q-79 32 -160 56q-82 23 -165 42q-59 15 -115 35q-55 21 -113 42q-28 9 -57 17q-30 7 -54 25t-44 41t-41 45q-22 20 -43 41 q-21 22 -35 49q-17 42 -22 87q-6 45 -14 89zM159 1012v-15q0 -44 5 -96q6 -61 39 -102q25 -24 61 -32q36 -9 69 -16q38 -11 75 -25q38 -15 76 -26q161 -38 288 -79t257 -154q47 -40 80 -89q32 -49 37 -112q1 -25 1 -50q0 -26 -6 -50q-1 -4 -6 -19q-5 -16 -4 -21q5 2 32 18 t36 22q42 34 74 82t41 102q4 25 4 51q0 46 -12 99q-18 83 -68 132q-38 32 -86 51q-47 19 -91 43q-89 53 -183 103q-95 50 -195 79q-48 11 -99 20q-51 8 -94 34q-20 14 -37 33q-16 19 -34 37q-19 17 -35 36q-17 18 -22 44q-2 17 -2 34q0 72 46 125q57 66 143 86q57 13 114 13 q58 0 115 -14q113 -28 202 -106q34 -29 64 -63q31 -33 54 -72l14 -28q11 -21 16 -24q5 1 13 14q8 14 11 17q16 21 42 45t34 49q-3 5 -27 44q-25 38 -33 54q-17 35 -37 71t-47 65q-66 64 -165 92q-98 29 -188 30h-4q-152 0 -292 -81q-142 -82 -218 -218q-27 -54 -36 -114 q-10 -60 -22 -119z" />
<glyph unicode="T" horiz-adv-x="1245" d="M-69 1421q20 16 44 19t50 5q80 10 159 20l-62 -8h3q14 2 59 8q180 19 360 23q180 3 361 5q43 2 91 5q11 1 21 1q37 0 69 -11q14 -6 23 -17t19 -22q9 -7 25 -18t21 -23q2 -22 -25 -21q-28 1 -41 4q-40 5 -82 5l-28 -1l-110 -2q-14 1 -50 6q-35 4 -37 -10q1 -5 4 -9 q4 -3 6 -8q12 -46 14 -135q3 -90 6 -145q15 -171 26 -340t13 -340q1 -84 6 -182q2 -38 2 -73q0 -56 -5 -106q-10 -46 -50 -46h-3q-43 2 -81 7q-81 0 -158 21q-78 21 -123 97q-11 22 -12 48t-1 51l-4 200l2 -78v3q-1 19 -2 75q-3 75 -10 150t-10 150q-2 100 -2 200t-6 200 q-3 50 -3 99q0 41 2 82q-2 -71 -3 -71v3q0 17 3 68q1 12 3 31q2 18 -4 29q-6 7 -17 7t-18 -1q-61 -3 -121 -10q57 6 45 5q-11 -1 -45 -5q-80 -7 -159 -17l62 7h-2q-15 -1 -60 -7q-19 -4 -39 -9q-21 -6 -40 -2q-27 9 -49 35q-21 25 -37 48zM459 1381q14 -14 30 -28 q15 -14 21 -33q4 -19 1 -40t-4 -40q0 -81 3 -162l-2 63v-2q0 -15 2 -61q3 -60 9 -120q5 -60 7 -120q2 -111 2 -222q1 -111 11 -221q8 -81 8 -163v-18q-1 42 -1 60q0 11 0.5 11t0.5 -3q0 -8 0.5 -25t-0.5 -43q-1 -17 -5 -41t3 -39q7 -11 25 -14q17 -2 29 -3q23 -3 84 -8 q40 -4 61 -4q10 0 16 1q19 10 16 50t-4 62q2 92 2 184q0 69 -1 138l1 -126v5v27q0 34 -1 94q-6 161 -21 321q-14 160 -28 321l-6 80q-2 30 -2 60v20q1 14 0 30q0 17 -16 23q-16 4 -39 -2q-23 -5 -40 -7q-69 -5 -139 -5h-23h63h-2h-61z" />
<glyph unicode="U" horiz-adv-x="1573" d="M83 824q8 39 14 79t19 78q16 37 35 72t32 73q22 63 59 116q38 53 82 102q18 22 38 46q19 25 44 41q39 23 79 23q13 0 27 -3q53 -11 96 -49q4 -4 15 -13q11 -10 14 -15q9 -22 -7 -21q-15 1 -20 -15q-1 -5 2 -9t3 -9q-2 -19 -13 -37q-12 -19 -18 -37q-7 -29 -11 -59 q-5 -30 -10 -59q-28 -135 -34 -268q-2 -54 -3 -108q0 -81 6 -162q2 -45 3 -90q2 -45 10 -89q15 -82 64 -147q45 -60 125 -59h15q265 55 304 318q21 140 21 269q0 113 -16 217q-5 45 -7 90t-5 90q-2 43 -3 90q-1 48 -11 89q-5 10 -17 27q-13 17 -11 26q9 9 55 9q46 -1 64 -2 q50 2 99 7q50 6 100 8q19 1 40 1t38 -9q13 -8 22 -20q9 -13 20 -23q11 -11 22 -20t17 -25q7 -28 4 -59q-3 -32 -2 -61q5 -130 5 -260l-1 102v-4q1 -25 1 -98q0 -95 1 -190q1 -48 1 -95.5t-1 -95.5q0 -49 -2 -100q-1 -52 -16 -99q-22 -59 -62 -113q-40 -53 -78 -105 q-32 -49 -72 -97q-39 -49 -88 -81q-107 -63 -231 -63q-14 0 -29 1q-142 8 -266 51q-34 11 -66 22q-33 11 -62 31q-65 48 -117 109q-53 62 -104 123q-47 52 -92 105q-46 54 -74 119q-30 80 -39 165q-8 76 -8 153v17zM179 716q7 -39 8 -79t6 -80q10 -70 39 -135t73 -120 q38 -50 81 -102q43 -53 97 -86q134 -76 318 -85q18 -1 36 -1q161 0 280 74q57 41 96 102q38 60 74 120q19 29 41 56q21 28 36 60q34 89 34 190v16q-3 111 -6 212q-2 181 -4 361q1 -113 1 -135v-6l-1 141q0 16 -2 63t-5 56q-9 5 -30 2q-20 -2 -31 -3l-140 -8q66 4 53 3 q-13 -2 -53 -3q-13 1 -29 2q-17 1 -24 -14q-4 -12 -1 -30q3 -19 5 -31q5 -45 11 -90q6 -44 9 -89q3 -80 10 -160q-4 63 -5 63v-3q1 -15 5 -60q16 -108 16 -221q0 -89 -10 -182q-22 -211 -187 -340q-33 -24 -69 -41q-36 -18 -76 -26q-16 -2 -31 -2q-66 0 -118 43 q-63 53 -116 112q-35 36 -65 77q-30 40 -49 87q-14 37 -16 78l-4 80q-10 107 -10 213q0 144 18 287q-14 -195 -17 -195v8q1 47 17 187q6 44 13 90q7 45 17 88q4 13 10 29q7 16 6 30q-6 21 -27 2q-20 -19 -27 -29q-28 -35 -57 -70q-28 -35 -51 -74q-40 -68 -79 -152 q-39 -85 -57 -160q-6 -30 -7 -60t-6 -60z" />
<glyph unicode="V" horiz-adv-x="1461" d="M-29 1505q23 26 50 26t60 -5q90 -9 182 -9h18q-47 1 -66 1h-13l3 -1q10 0 28.5 -0.5t47.5 0.5q27 2 60 5q33 2 49 -25q6 -14 10 -28q3 -15 10 -28q3 -4 8 -8q4 -4 5 -8q-3 -6 -14 -4q-12 3 -9 -10q2 -5 7 -7q5 -1 9 -5q5 -5 12 -16q8 -12 11 -18q18 -34 31 -73t24 -76 q6 -19 8 -39q1 -20 4 -40q10 -59 23 -118q14 -59 27 -117q17 -68 43 -133q25 -65 51 -130q31 -84 51 -172q-17 68 -17.5 68t0.5 -3q5 -16 17 -65q3 -16 8 -41q6 -26 18 -36q11 -3 23 23q11 27 13 35q20 57 46 111q25 55 50 109q17 37 36 72q18 36 35 72q12 33 17 68 q5 34 16 68q16 47 36 93q19 47 34 94q6 25 8 50q3 25 8 49q10 43 32 84t47 77q33 39 98 40h25q48 0 86 -3q12 1 31 1q19 1 30 -7q3 -3 3 -9q1 -5 3 -9q3 -4 8 -6q5 -3 6 -7t-3 -9q-3 -4 -3 -8q2 -5 6 -8q5 -3 7 -7q7 -22 -9 -48q-16 -25 -27 -43q-25 -49 -46 -100 q-22 -50 -46 -100q-16 -31 -35 -60q-19 -30 -35 -61q-23 -45 -36 -93t-28 -96q-18 -52 -40 -103q-21 -51 -41 -102q-34 -78 -75 -151q-42 -74 -78 -151q-16 -37 -31 -74q-15 -38 -24 -77q-3 -23 -8 -50t-25 -43q-16 -9 -38 -8q-23 0 -40 1h-101t-99 10q-23 8 -41 28 q-17 21 -32 39q-56 66 -82 147q-27 81 -53 162q-145 405 -287 811q112 -315 112 -317l-5 13q-27 76 -107 304q-24 77 -40 155t-57 149zM75 1433q12 -39 29 -75q17 -37 31 -75q14 -43 22 -88q8 -44 21 -88q20 -57 42 -113q23 -56 42 -113q62 -181 126 -361l-50 141l2 -6 q12 -34 48 -135q53 -152 100 -306q-37 120 -37.5 120t1.5 -5q9 -29 36 -115q6 -22 11 -50t21 -45q22 -16 58 -16q36 1 61 3h63t55 4q7 13 13 59q7 46 5 61q-12 26 -41 44q-28 17 -48 38q-30 44 -47 100q-16 56 -32 106q-18 52 -33 106q-15 53 -33 105q-29 81 -57 162 t-43 165q-11 65 -23 129q-13 65 -30 128q-6 22 -14 49q-7 26 -22 44q-15 15 -36 13t-40 -2q-51 3 -100 9q-50 5 -101 7z" />
<glyph unicode="W" horiz-adv-x="2000" d="M35 1429q25 22 54 21q28 -1 60 -2q74 5 150 11q24 2 48 2q51 0 102 -10q16 -6 57 -41q41 -34 46 -48q-2 -16 -20 -14q-17 1 -25 -13q-3 -12 1 -30q3 -18 5 -31q9 -69 20 -139q-10 65 -8 52l8 -52q12 -88 22 -179q11 -90 29 -177q12 -49 28 -97q17 -47 32 -95 q38 -124 79 -248l-31 97l1 -4q7 -23 30 -93q3 -11 10 -41t14 -35q8 1 7 13q-2 12 -3 22q-1 16 -1 33q0 24 2 48q-1 -38 -2 -30q0 7 2 30q10 109 26 219l-11 -86v4q2 20 11 82q5 29 14 58t16 58q31 138 75 270q44 131 89 265q27 77 28 158q-5 -52 -5 -61q0 -2 0.5 -2t0.5 3 q3 14 4 60q0 13 3 30t15 26q13 6 26 -6q12 -12 24 -16q28 -4 59 3q31 8 61 5q52 -11 89 -60q36 -49 48 -98q22 -83 56 -161t64 -158q28 -85 46 -174t37 -177q12 -54 24 -107q13 -54 30 -107q3 -10 7 -30q3 -19 10 -27q2 -1 5 1q2 2 3 5q5 18 3 40t-2 40q4 100 17 200l-9 -78 v3q2 19 9 75q20 169 64 334t112 322q16 36 33 73q17 36 29 74q2 14 8 29q5 14 24 9q22 -10 45 -41q24 -30 25 -54q-1 -18 -11 -38t-17 -36q-30 -74 -60 -149l23 58l-1 -2q-5 -14 -22 -56q-80 -199 -122 -412q-42 -212 -53 -427q-3 -72 -3 -145v-36v71v-3v-68q1 -15 4 -41 q2 -25 -4 -38q-13 -16 -25 -1q-12 16 -18 11q-10 -22 -4 -48q6 -25 -24 -41q-32 -11 -70 -11t-71 1q-50 -2 -111 -5h-9q-56 0 -96 23q-56 42 -74 104q-17 63 -26 128q-23 118 -45 236q-23 118 -38 237q-7 60 -20 119q-13 58 -27 117q-3 11 -9 41q-7 31 -14 35q-6 -3 -18 -40 l-17 -51q-29 -79 -52 -162q-24 -84 -41 -166q-20 -96 -32 -198q-10 -87 -10 -172v-28q1 -29 3 -60q2 -30 8 -59q4 -9 14 -27t8 -26q-9 -11 -36 -13q-28 -1 -42 -2q-68 -6 -140 -16q-46 -6 -91 -6q-25 0 -49 2q-28 4 -45 19q-17 16 -34 37q-10 10 -22 20t-21 22 q-29 44 -39 102q-9 58 -16 109q-14 84 -32 168t-42 165q-12 38 -26 76q-15 37 -27 75q-17 58 -32 116t-34 115q-38 105 -76 207q-37 103 -42 216zM131 1349q40 -166 88 -329l-36 127l1 -5q7 -31 35 -122q15 -48 34 -95q18 -46 32 -94t30 -96q16 -47 29 -95q10 -39 19 -78 q9 -40 21 -78q25 -77 41 -154q16 -78 27 -158q2 -19 6 -50q5 -32 23 -40q19 -3 58 3q40 7 62 10q20 1 74 4t65 9q5 12 -11 24t-23 19q-13 20 -20 46t-12 48q-34 120 -73 240q-39 119 -79 237q-35 109 -54 224q-18 114 -33 228q-3 31 -6 94q-4 62 -19 83q-15 11 -38 7 q-23 -3 -41 -6q-100 -3 -200 -3h78h-3h-75zM1035 1072q16 -31 40 -56q25 -25 40 -57q34 -84 49 -173t26 -178q15 -110 34 -218q-13 85 -14 85v-4q3 -20 14 -81q8 -39 19 -77q12 -39 17 -79q2 -29 5 -82q4 -54 21 -75q11 -8 28 -7t30 2q80 3 160 8l-62 -4h2l60 4q16 -1 30 -1 t23 16q7 17 5 39t-4 40q-7 50 -19 99t-25 97q-15 53 -35 104q-19 51 -33 105q-30 137 -58 274q-28 138 -80 268q-17 41 -35 83q-18 43 -29 85q-2 13 -4 30q-2 16 -15 25q-18 8 -60 7q-41 -1 -59 -11q-14 -13 -13 -36q2 -23 1 -41q-5 -48 -20 -98q-15 -49 -39 -93z" />
<glyph unicode="X" d="M27 1405q19 14 24 6q6 -8 24 -17q22 -6 50 1t49 13q59 10 119 14t119 12q24 5 50 9t49 -7q73 -46 126 -140q53 -95 89 -171q11 -24 24 -57q12 -33 30 -51q9 -7 15 1t9 14q29 40 59 80q-28 -37 -22 -30q5 7 22 30q95 129 197 252q-78 -97 -79 -97l3 4q18 23 76 93 q14 19 37 50t46 38q24 -1 57 -36q24 -27 24 -48q0 -6 -2 -12q-17 -24 -42 -43q-24 -19 -45 -41q-9 -11 -16 -25q-8 -13 -16 -25q-70 -98 -146 -192l58 74l-2 -3q-14 -19 -56 -71q-23 -26 -61 -70q-39 -44 -47 -75q0 -15 10 -27q11 -13 19 -24q21 -34 40 -69t41 -69l48 -64 q25 -31 46 -66q55 -95 103 -194q48 -100 105 -195q53 -84 115 -163l-48 62l2 -2q12 -15 46 -60q6 -7 19 -24q12 -17 3 -28q-16 -9 -33 15t-26 32q-13 5 -36 -3q-24 -7 -39 -10q-56 -7 -135 -29q-79 -21 -121 -21q-25 3 -44 21t-34 38q-34 42 -68 86q-35 43 -64 90 q-42 68 -78 140q-37 71 -79 140q-7 11 -29 44q-21 33 -26 37q-11 -6 -36 -45t-33 -54q-44 -78 -97 -152q-53 -75 -111 -143q-45 -54 -90 -107q42 50 34 40q-9 -10 -34 -40q-7 -9 -20 -24q-13 -14 -25 -16q-12 4 -46 36q-35 33 -39 44q3 10 18 23t23 21q40 45 77 92 q-36 -44 -28 -35q7 9 28 35q62 79 118 162q57 82 112 166q15 20 44 58t32 59q-6 34 -46 85q-41 51 -62 84q-56 106 -114 212q-57 106 -125 205q-17 21 -38 31q-22 10 -41 27q-13 11 -30 28t-23 33q-8 38 2 19t-9 19zM175 1301q40 -59 82 -115q42 -57 81 -116q32 -51 61 -104 q28 -53 59 -105t58 -106q-26 51 -21 40q5 -10 21 -40q5 -11 11 -29q5 -18 13 -27q14 -7 35 23q21 29 29 41q41 57 82 113q-38 -53 -30 -42q7 11 30 42q26 29 47 52q11 12 11 29q0 16 -10 35q-11 17 -23 34q-13 16 -23 34q-24 43 -43 90q-20 47 -42 91q-10 24 -27 55 q-16 32 -40 43q-22 6 -50 0q-27 -6 -50 -10l-130 -18t-131 -10zM619 592q13 -33 34 -61q21 -27 39 -58q37 -66 76 -130q38 -64 76 -129q20 -38 39 -83q19 -46 52 -73q17 -11 38 -7t39 10q44 10 88 17t88 17q13 4 29 8q17 4 30 -2q4 -4 20 -25q16 -20 16 -8q-2 10 -15 25 q-13 16 -20 24q-20 22 -39 46t-33 50q-35 66 -73 131t-73 132q-25 50 -47 99q-21 49 -55 96q-41 56 -80 114q37 -54 29 -43q-7 10 -29 43q-6 10 -17 25q-11 16 -24 16q-14 -5 -27 -28q-13 -24 -20 -36q-32 -46 -65 -90q-33 -45 -76 -80z" />
<glyph unicode="Y" horiz-adv-x="1227" d="M27 1421q30 36 84 36h11q63 -4 112 -8q47 0 101 -1t97 -21q14 -9 46 -41q31 -31 37 -45q5 -25 -4 -16q-9 8 -12 10q-7 -10 6 -37t19 -38q26 -59 48 -120q21 -62 46 -122q19 -46 39 -92q19 -46 36 -93q2 -8 8 -29q6 -22 15 -23q4 2 12 17q9 14 11 18q28 53 61 102 q-30 -47 -24 -37q6 9 24 37q73 107 129 202t106 215q29 64 54 129q-25 -60 -19 -49q6 12 19 49q3 11 10 30q6 18 19 22q10 0 23 -15t20 -23q38 -32 38 -53q0 -19 -24 -66q-37 -87 -72 -175q-36 -89 -91 -167q-18 -23 -52 -64q-33 -41 -33 -67q0 -11 10 -28q8 -13 11 -29 q2 -26 2 -53v-17q-2 -35 -3 -70q-3 -240 -30 -479q17 187 17.5 187t-0.5 -8q-3 -45 -17 -179q-2 -48 -12 -123t-57 -93q-46 -10 -98 -10q-49 0 -103 9q-111 19 -166 98q-13 24 -13 54q0 11 2 23q8 43 15 80q13 82 23 169q3 24 3 48q0 61 -19 120q-23 61 -55 118t-62 115 q-19 41 -37 81t-44 78q-78 105 -154 211q-75 106 -113 233zM127 1345q43 -136 131 -247q87 -110 161 -229q22 -40 39 -81q18 -42 39 -82q34 -62 66 -124q33 -62 41 -133q2 -27 2 -55q0 -32 -3 -65q-6 -60 -14 -120q-4 -21 -12 -50q-8 -28 -3 -49q6 -15 22 -16q16 -2 29 -2 q34 -3 93 -3q60 0 79 26q17 40 17 88q0 49 3 91q12 105 22 209q10 105 11 211v18q-1 16 -6 19q-3 -2 -13 -16q-9 -13 -11 -16l-27 -45q-18 -29 -35 -34q-12 4 -46 35q-33 32 -44 44q-28 40 -44 90q-15 50 -32 95q-24 61 -52 120t-49 120q-22 67 -48 132q23 -61 19 -49 t-19 49q-4 13 -7 30q-4 16 -12 27q-13 13 -36 15q-23 3 -40 3q-22 1 -44 1q-33 0 -67 -2q-55 -4 -110 -5z" />
<glyph unicode="Z" horiz-adv-x="1428" d="M35 1417q22 17 45 17t50 -1q50 1 100 7l100 12q270 27 542 27h38q-170 -3 -213 -3q-14 0 -14 0.5t9 0.5q55 2 218 2q46 -1 90 -7q34 -4 68 -4h22q22 2 47 2q30 0 64 -3q63 -5 104 -34q11 -10 20 -22t20 -23q10 -10 24 -19q13 -10 18 -23q6 -24 -8 -48q-15 -25 -27 -43 q-51 -87 -95 -177q36 69 36 70l-2 -3q-9 -17 -34 -67q-47 -95 -97 -187t-111 -179q-33 -45 -69 -85q-37 -41 -69 -86q-36 -54 -68 -111q-32 -56 -66 -112q-30 -47 -64 -90q-34 -42 -68 -87q-9 -10 -29 -30q-20 -19 -20 -32q3 -10 16 -9t18 3q48 3 96 3h24q-57 0 -45 0h45 q60 0 120 -2t120 -2q30 1 61 4q31 4 60 -3q21 -6 52 -31t37 -47q0 -25 -34 -25t-52 2q-75 1 -150 3q-38 1 -75 1l-75 -1q-115 -4 -231 -8q-34 -1 -69 -1l-161 5q-39 3 -81 4q-42 2 -79 12q-53 19 -91 76q-37 58 -40 113q2 95 62 164t119 137q53 73 100 150q48 77 102 149 q60 73 124 144q65 71 116 152q34 55 75 106q40 50 83 100q17 19 36 36q18 16 36 34q5 4 12 13t-3 17q-11 5 -30 3t-31 -4q-30 -1 -60 -1l-60 1q57 -1 45 -1q-11 0 -45 1q-106 -1 -210 -9t-209 -21q-79 -13 -143 -13h-17q-69 2 -129 83zM161 126q-1 -32 13 -45q11 -6 29 -7 q19 0 31 -1q44 -4 114 -5h5q65 0 96 23q22 21 38 47q16 25 36 49q37 41 73 82t68 88q27 42 49 86q22 45 48 88q50 76 107 146t109 144q37 55 67 112q30 58 61 115q32 57 62 115l60 116q9 15 25 33q16 17 19 35q-5 19 -55 23q-41 3 -62 3h-10q-14 1 -30 0q-16 0 -28 -9 q-11 -9 -20 -23q-9 -13 -18 -24q-70 -73 -138 -147l53 57l-2 -2q-13 -13 -51 -55q-40 -45 -72 -96t-69 -100q-56 -70 -116 -138t-114 -140q-38 -53 -72 -109q-33 -56 -69 -111q-24 -32 -52 -61q-27 -29 -53 -60q-70 -86 -130 -179q48 71 48 72l-2 -3q-11 -17 -46 -69 q-1 -18 -2 -50z" />
<glyph unicode="[" horiz-adv-x="765" d="M161 -205v1843h514v-197h-168v-1449h168v-197h-514z" />
<glyph unicode="\" horiz-adv-x="972" d="M52 1442h338l530 -1442h-338z" />
<glyph unicode="]" horiz-adv-x="764" d="M90 -8h166v1449h-166v197h514v-1843h-514v197z" />
<glyph unicode="^" horiz-adv-x="712" d="M0 819l217 615h280l215 -615h-309l-100 348h-13l-114 -348h-176z" />
<glyph unicode="_" horiz-adv-x="1443" d="M304 -163h835v-175h-835v175z" />
<glyph unicode="`" horiz-adv-x="516" d="M0 1440h317l199 -354h-200z" />
<glyph unicode="a" horiz-adv-x="1406" d="M51 632q8 45 11 90t20 88q42 93 112 164q69 70 149 132q67 56 146 88q44 18 90 18q38 0 77 -12q33 -10 65 -26q33 -16 60 -38q12 -9 22 -20t23 -19q27 -14 53 -28q27 -13 52 -31q19 -18 40 -48q21 -29 44 -39q18 -2 29 21q10 22 16 36q23 44 55 84l62 78q5 9 12 28 q6 18 17 20q10 -2 25 -17t22 -23q41 -40 41 -80v-5q-3 -42 -12 -99l-18 -210t-9 -210q2 -90 10 -180t10 -180q-1 -28 -1 -61q0 -34 11 -59q12 -14 41 -33q29 -18 27 -37q-6 -12 -25 -14q-20 -2 -31 -2q-37 -5 -102 -14q-25 -3 -44 -3q-33 0 -51 9q-23 17 -53 48 q-29 31 -36 59q0 8 3 30q2 21 -6 26q-5 -1 -17 -11q-13 -10 -16 -13q-38 -33 -75 -67q35 32 28 25q-7 -6 -28 -25q-58 -56 -125 -101q-66 -44 -146 -63q-31 -6 -59 -6q-64 0 -114 30q-73 44 -138 115q-121 122 -192 267t-75 318zM151 524q3 -125 52 -256q49 -130 147 -212 q40 -32 89 -45q32 -8 65 -9q18 0 35 3q14 1 30 5q16 3 29 10q3 1 8 4q4 2 3 5q-2 4 -8 5q-6 0 -11 1q-21 5 -39 10t-36 17q-41 28 -76 65q-36 37 -68 75q-126 153 -132 373v17q0 209 122 358q74 81 186 116q49 15 96 15q61 0 120 -25q47 -23 95 -56t83 -73q7 -11 25 -31 q18 -21 33 -9q7 10 7 19q0 19 -27 39q-40 29 -61 40q-73 49 -155 95q-59 34 -125 34q-24 0 -49 -5q-124 -33 -247 -149q-124 -116 -167 -237q-13 -48 -14 -99q-1 -50 -10 -100zM339 516q6 -35 6 -70t7 -70q9 -34 23 -66q15 -31 31 -63q11 -27 25 -55t40 -44q54 -25 105 -25 q69 0 130 47q106 81 185 172q32 31 72 72q39 42 49 86q3 23 3 47q0 31 -5 63q-8 56 -12 110q0 31 -3 60q-2 29 -17 57q-76 118 -222 139q-29 4 -56 4q-112 0 -201 -66q-100 -86 -120 -183t-40 -215zM1095 796q6 -40 17 -78q12 -38 18 -78q8 -79 9 -160q0 -16 -1 -32 q-1 -96 -2 -191q-1 -61 -3 -121q2 57 1 45q0 -11 -1 -45q-1 -3 -1 -18t3 -19q5 -2 10 1q5 4 10 5t10 0t10 1q19 12 14 52q-5 41 -9 62q-19 180 -20 361q4 -121 4 -138q0 -3 -0.5 -3t-0.5 5q-1 34 -3 136v71v70q1 71 8 141q4 40 4 80q-1 -38 0 -30v30q1 4 2 10t-3 7 q-4 -2 -13 -16q-8 -14 -10 -17q-15 -32 -26 -66q-10 -33 -27 -65z" />
<glyph unicode="b" horiz-adv-x="1294" d="M115 1565q17 13 27 9q9 -4 27 1q4 2 7 7t7 7q3 -2 29 -11q27 -9 46 -10q33 3 71 8q11 1 21 1q26 0 49 -7q17 -9 52 -46q34 -37 42 -54q4 -18 4 -37q0 -16 -3 -33q-6 -37 -9 -71q-8 -100 -8 -200q0 -30 1 -60q0 102 -1 102v-4v-22q0 -27 1 -76l2 -120q-1 56 -1 45t1 -45 v-21q1 -16 2 -20q8 -2 22 15q15 18 19 23q20 22 44 41q23 20 51 31q36 12 75 12q40 0 84 -13q85 -26 142 -74q45 -38 90 -81q44 -43 75 -93q83 -139 83 -308q0 -25 -2 -50q-13 -199 -173 -313q-47 -31 -106 -59q-51 -23 -99 -23q-9 0 -18 1q-66 13 -119 68q-54 55 -94 106 q-17 18 -31 39q-15 20 -25 43q-2 5 -7 20q-6 15 -10 18q-7 0 -12 -14q-6 -14 -7 -16q-6 -19 -13 -39q-6 -20 -17 -36q-18 -24 -23 -8q-4 16 -20 18q-4 -3 -11 -17l-9 -18q-23 -56 -45 -112q20 53 16 42t-16 -42q-13 -32 -28 -64t-35 -61q-6 -11 -17 -23q-10 -12 -24 -6 q-17 9 -40 31q-24 21 -33 38q-8 22 -2 49t8 49q2 60 2 120.5t-2 120.5q1 -94 2 -94v4q0 22 -2 90q-4 127 -4 254q0 64 1 127q2 190 3 380q0 36 -3 70q-3 35 -4 70q1 50 4 100q4 51 7 100q2 20 6 40q5 21 1 40q-6 19 -22 33q-15 14 -29 28zM250 241q-1 -32 4 -36q5 4 17 34 l16 40q5 11 16 27q11 15 12 26q-1 8 -10 15q-9 6 -9 15q3 9 12 15q9 7 15 15q13 26 15 58q1 33 3 61q3 30 7 60t13 59q10 29 20 57t13 58q1 17 1 34q0 29 -3 57q-5 45 -9 90q-6 74 -6 151v51q0 51 1 100q3 91 8 181l-4 -71q2 35 4 71q1 10 3 31q2 20 -5 29q-9 6 -29 3 t-31 -3q-10 1 -30 5q-19 4 -28 -4q-5 -9 -2 -29q2 -20 3 -32q-2 -50 -4 -101q-3 -50 -12 -99v-383v150v-6v-144v-261v102v-4v-98q1 -70 1 -140.5t-1 -141.5q0 110 1 110v-4q0 -27 -1 -106q-1 -11 -1 -42zM495 668v-13q0 -119 18 -207q18 -94 74 -208q12 -27 26 -55 q13 -28 35 -49q26 -21 59 -21q8 0 16 1q43 7 79 20q95 33 167 110q72 78 96 176q8 40 8 86q0 67 -17 146q-28 134 -101 204q-33 27 -71 39q-37 12 -78 19q-31 6 -60 9t-59 -7q-80 -35 -118 -106t-74 -144z" />
<glyph unicode="c" horiz-adv-x="1304" d="M71 592q18 73 44 144q27 71 74 131q26 30 57 56q32 25 58 55q12 16 21 34q10 18 21 35q31 44 79 77t99 48q52 14 104 14q37 0 75 -7q91 -17 173 -51q75 -29 148 -64t138 -81q16 -11 41 -31t30 -39q-3 -23 -42 -52q-39 -30 -59 -44q-9 -8 -22 -19q-12 -11 -26 -8 q-14 8 -46 40q-31 32 -41 46q-15 24 -7 18t-6 19q-20 28 -64 48q-44 19 -76 31q-51 18 -126 18h-22q-90 -2 -149 -23q-18 -8 -35 -19q-16 -11 -33 -22q-27 -14 -53 -29q-25 -16 -42 -42q-34 -63 -46 -143t-14 -151v-12q0 -90 27 -176q28 -91 66 -178q11 -30 25 -67t38 -59 q25 -18 64 -26q39 -9 70 -10q12 -1 25 -1q91 0 192 38q115 44 181 125q14 19 26 43q11 24 14 48v20t8 18q2 1 5 1q19 0 50 -32q36 -37 41 -58v-6q0 -37 -23 -70q-25 -36 -52 -62q-72 -75 -181 -125q-90 -42 -177 -42q-19 0 -38 2q-65 7 -129 12q-65 6 -125 34q-41 22 -73 54 q-32 31 -63 64q-101 100 -161 216q-59 117 -63 260zM171 520q1 -98 35 -197q33 -100 100 -174q20 -22 62 -52q38 -26 67 -26h7q6 2 -2 10l-13 13q-30 28 -50 63q21 -31 16 -25q-4 5 -16 25q-47 89 -87 182q32 -71 32 -72l-1 3q-8 17 -31 69q-47 101 -57 212q14 -76 14 -84 q0 -1 -0.5 -1t-1.5 3q-6 20 -12 82q0 12 -0.5 31.5t0.5 44.5q1 26 1 42t-1 23q-1 2 -4 1q-3 0 -4 -2q-10 -9 -17 -25q-6 -15 -10 -28q-9 -29 -15 -59q-5 -29 -12 -59zM823 1068q44 -25 89 -51q45 -25 80 -62q10 -14 26 -33q15 -19 35 -15q6 3 17 13t15 14q17 21 4 32t-33 20 q-55 28 -114 48q-59 19 -119 34z" />
<glyph unicode="d" horiz-adv-x="1365" d="M59 652q7 40 9 80q3 40 14 79q59 165 211 277q123 91 261 91q33 0 67 -5q68 -15 134 -42q66 -28 127 -61q43 -25 82 -57q-37 29 -29 23q7 -6 29 -23q2 -3 14 -11q11 -9 18 -5q5 12 0 58q-6 46 -9 63q-11 85 -11 169q-1 85 -6 170q-4 28 -2 61q1 34 29 51q17 8 39 7 q21 -1 40 2q53 15 84 26q7 2 14 2q28 0 66 -33q9 -7 25 -19q16 -13 18 -25q-1 -8 -9 -15q-8 -6 -10 -15q0 -13 5 -29q6 -16 8 -30q4 -43 4 -86q0 -17 -1 -34q1 56 1 45q0 -12 -1 -45v-78q0 -157 3 -314q4 -196 7 -391q2 -201 2 -402v156v-6v-150q1 -30 8 -60t5 -59 q-4 -26 -21 -31t-38 7q-36 23 -68 59q-31 36 -58 70q-6 9 -16 27t-18 23q-10 1 -13 -20q-2 -21 -3 -28q-9 -40 -35 -72q21 32 18 25q-4 -8 -18 -25q-37 -40 -91 -61q-55 -21 -108 -27q-30 -3 -60 -2t-60 -2q-13 -3 -10 -8t-22 -3q-15 2 -29 7q-15 5 -29 10q-115 36 -184 98 q-69 63 -148 148q-64 61 -128 127q-65 67 -94 153q-11 39 -12 80q-1 27 -1 53v27zM159 592v-10q0 -66 12 -130q13 -68 53 -128q23 -33 51 -62q-25 28 -21 22q5 -5 21 -22q6 -8 15 -18q8 -11 13 -5q1 6 -12 25q-14 20 -18 26q-19 36 -34 73q-15 38 -20 78q-3 29 -3 60 q0 87 23 189q32 139 92 233q51 70 135 98q84 29 167 35q18 2 36 1q33 0 65 -5q-47 5 -38 5q10 0 38 -5l20 -5q15 -3 19 -4q3 1 6 5q3 3 1 5q-12 6 -66 16q-54 11 -72 13h-15q-131 0 -248 -81q-123 -87 -181 -213q-19 -46 -24 -97q-6 -50 -15 -99zM315 516v-12q0 -72 11 -138 q11 -73 50 -140q17 -31 32 -63t45 -54q85 -50 203 -51h12q111 0 196 35q38 15 70 39q31 24 41 67q20 118 21 241v82q0 81 -1 160q1 23 1 47q0 32 -2 64q-3 57 -36 103q-33 38 -86 46q-53 9 -101 10q-17 1 -36 1q-50 0 -116 -9q-92 -13 -143 -45q-29 -21 -45 -52 q-17 -32 -30 -64q-17 -36 -35 -73t-29 -75q-7 -29 -12 -59q-4 -30 -10 -60zM931 976q8 -8 31 -34t29 -29q8 1 6 13t-8 19q-12 11 -28 18q-15 7 -30 13zM1067 1429q5 -31 5 -62v-18q-2 -24 -2 -48q0 -16 1 -32q10 -150 17 -300q-5 110 -5 117v1q1 0 5 -118q3 -30 12 -59 q10 -30 11 -58q-1 -20 -9 -44q-8 -23 -8 -53q3 -17 15 -39q13 -22 10 -37q-4 -7 -13 -11t-13 -11q-8 -22 -5 -50q2 -28 4 -51q2 -31 2 -60v-20q0 -39 -5 -79q-4 -24 -6 -50q-2 -27 4 -50q5 -15 15 -25q11 -10 19 -23q13 -22 21 -45l18 -48q4 -12 14 -39t22 -31q8 0 7 12 t-3 22q-4 39 -8 79q4 -37 3 -30q-1 8 -3 30q-4 36 -4 71q0 14 1 29q2 50 3 100q0 200 -6 400t-6 400q-1 33 -1 67q0 67 3 133l-2 -78v3v12q0 21 2 63q2 16 3 41t-8 39q-9 9 -18 7q-10 -2 -19 -5q-31 -4 -47 -12q-16 -9 -26 -40z" />
<glyph unicode="e" horiz-adv-x="1335" d="M87 756q9 43 20 89q10 45 32 83q20 30 48 52q28 21 55 44q97 88 230 140q83 33 165 33q50 0 100 -12q82 -24 150 -78q69 -55 121 -121q28 -34 54 -72q26 -39 41 -80q5 -15 6 -30l4 -30q2 -18 3 -34q0 -80 -58 -113q-69 -41 -155 -71q-32 -15 -62 -32q-31 -18 -63 -33 q-24 -9 -48 -11q-24 -1 -50 -5q-104 -19 -104 -19.5t71 11.5q70 12 77 12h1q0 -2 -80 -19q-7 -1 -19 -1q-19 0 -51 3q-52 5 -69 13q-10 7 -20 24q-9 17 -21 20q-7 0 -7 -11q1 -11 2 -20q2 -30 2 -59q0 -30 10 -59q27 -72 97 -141q69 -69 145 -86q13 -2 27 -2q26 0 53 7 q41 12 73 33q28 20 49 49q22 30 39 59q5 9 16 26q10 16 23 17q11 -5 41 -42q31 -36 34 -49q-1 -9 -8 -18q-8 -9 -13 -14q-3 -4 -8 -7q-4 -4 -1 -5q22 2 34 32t2 48q-11 11 -38 36q-28 25 -29 36q7 14 36 13q28 -1 42 -2q41 0 66 -10q25 -11 54 -40q9 -7 24 -19 q16 -12 18 -23q-4 -21 -36 -58t-49 -54q-13 -15 -24 -32q-11 -16 -26 -30q-86 -74 -207 -97q-60 -12 -118 -11.5t-112 11.5q-47 10 -97 25q-50 16 -89 44q-36 27 -66 62q-30 34 -61 68q-113 116 -191 255q-79 140 -85 305zM187 708q2 -123 45 -235q42 -111 119 -207 q24 -31 50 -63q25 -31 58 -54q37 -23 82 -37q46 -14 88 -23q10 -3 31 -5q20 -3 28 3q3 7 -8 16q-12 10 -14 11q-33 22 -62 49q28 -23 22 -19q-5 4 -22 19q-44 41 -88 83t-80 90q-83 119 -83 260v13q3 149 88 271q63 89 156 139q59 33 125 32q38 0 78 -10q39 -12 72 -34 q33 -21 62 -50q12 -13 26 -32q13 -19 29 -27q3 -2 8 -3q5 0 7 3q5 15 -12 37q-16 23 -24 34q-36 60 -91 89q-56 29 -125 34q-14 1 -28 1q-119 0 -254 -61q-151 -67 -228 -174q-22 -34 -34 -72q-12 -39 -21 -78zM455 592q0 -17 1 -20q3 -1 19 -2q17 -1 20 -1q25 -1 51 -3 q26 -1 50 3q23 5 46 16t47 19q76 19 164 54q87 36 109 122q2 16 2 31q0 89 -68 122q-45 22 -97 22q-39 0 -81 -12q-108 -38 -172 -131t-91 -200v-20z" />
<glyph unicode="f" horiz-adv-x="1353" d="M91 1088q36 38 88 41q-45 -11 -37 -7q9 5 37 7q15 -1 31 -1q16 -1 27 10q14 17 18 47q3 29 5 50q9 54 24 108q15 53 32 105q13 42 29 85q15 43 40 80q48 71 97 101t128 53q43 15 86 27q42 12 89 12q36 -1 68 -12q32 -12 66 -21q73 -18 142 -50q68 -33 128 -78 q15 -11 41 -31q27 -21 32 -38q-1 -8 -10 -13q7 5 6 4q-2 -1 -6 -4q-17 -9 -24 -13q-6 -4 -13 -25q-25 -71 -60 -138q-36 -67 -75 -130q-8 -16 -24 -46t-35 -31q-10 5 -43 39q-32 35 -37 46q2 13 13 28q11 14 18 25q19 38 29 86q6 29 6 57q0 16 -2 32q-9 47 -43 62 q-35 16 -78 17h-15q-57 0 -112 -20q-62 -23 -108 -71q-44 -47 -76 -105q-32 -59 -43 -123q-4 -17 -9 -50q-5 -32 12 -44q15 -5 40 0l40 8q99 12 199 20q-76 -7 -78 -7h3q19 3 75 7q23 3 41 3q24 0 38 -5q25 -8 61 -48q9 -6 23 -19q15 -13 12 -26q-12 -12 -55 -11 q-44 2 -63 3q-60 0 -120 -8q-59 -8 -119 -15q-21 0 -52 2q-30 1 -48 -10q-10 -10 -9 -27t2 -30q5 -80 8 -160q-3 50 -3 60q0 2 0.5 2t0.5 -2q1 -15 2 -60q2 -75 10 -150q8 -74 11 -149q5 -190 24 -380q-12 148 -12 149v-6q2 -36 12 -143q3 -47 11 -88q9 -42 42 -77 q11 -9 46 -48q35 -38 -8 -31q-9 4 -17 11q-7 8 -17 12q-14 4 -28 -1q-14 -4 -28 2q-14 10 -23 18t-28 12q-34 4 -75 4h-16h-4q-47 0 -79 25q-10 9 -37 37q-28 29 -32 38q1 4 5 6q5 3 6 7q1 16 -9 38t-15 39q-8 33 -9 69q-2 35 -2 70q-1 125 -4 250t-15 250q-3 32 -3 64v16 q2 40 2 80v31q0 20 -6 29q-12 9 -28 0q-16 -10 -28 -12q-24 3 -48 32t-38 48zM330 985q2 -22 1 -41q7 -40 7 -80v-10q-1 -22 -1 -45t1 -46q18 -261 21 -523q-5 184 -5 202q0 2 0.5 2t0.5 -8q2 -48 4 -196q2 -61 7 -121q-4 56 -3 45q0 -11 3 -45q1 -5 2 -21t2 -20 q11 -10 37 -10q26 1 41 -1q5 -2 19 -6t21 -3q14 6 9 24t-8 28q-8 39 -10 80q-3 41 -4 80q-1 56 -9 111q-7 54 -13 110q-7 85 -11 171q-4 85 -8 171l-4 142q1 -67 2 -54q0 14 -2 54v30q0 19 -6 29q-15 15 -47 12q-33 -3 -43 -21q-6 -17 -4 -40zM351 1152q15 -7 39 -11 q25 -4 37 12q4 13 1 56q-2 33 -2 53v12q8 63 28 118q20 56 54 108q32 49 72 86t94 59q20 7 51 13q31 5 46 12q2 2 3 6t-1 6q-6 7 -18 8q-11 1 -20 -1q-33 -7 -68 -21q-35 -13 -66 -27q-77 -36 -111 -99t-57 -139q-21 -63 -43 -125q-22 -61 -39 -126z" />
<glyph unicode="g" horiz-adv-x="1422" d="M103 708q13 57 28 118q14 60 43 111q19 30 46 53q26 24 52 47q87 91 192 142q59 29 125 29q51 0 107 -18q75 -29 144 -71q68 -42 143 -72q17 -9 41 -34q25 -24 34 -27q11 4 22 21q12 16 17 26q14 20 30 53q17 33 8 58q-5 7 -14 13q-9 5 -6 18q12 19 54 20q42 2 62 -4 q14 -4 26 -14t22 -20q38 -41 38 -85q0 -32 -13 -103q-8 -69 -10 -139q3 66 2 52q0 -13 -2 -52q-4 -60 -9 -120q-6 -60 -7 -120v-220v-220q-1 -222 -46 -438q-12 -54 -35 -105q-22 -50 -61 -90q-45 -43 -102 -61q-58 -18 -118 -24q-42 -5 -81 -5q-88 0 -166 23 q-114 34 -218 118q-50 40 -102 82q-52 41 -94 90q-9 10 -28 30t-17 35q11 20 37 -9q26 -30 34 -41q33 -37 74 -67q41 -29 78 -62q15 -16 37 -35t45 -22q15 3 -20 31q-34 29 4 45q29 6 59 0t60 -4q92 10 206 54q113 44 158 128q30 74 34 155q4 80 14 159q3 15 7 53 q5 37 -3 48q-9 3 -19 -7t-13 -14q-17 -17 -37 -32t-40 -31q-51 -42 -107 -73q-55 -32 -122 -41q-18 -2 -36 -2q-80 0 -148 37q-82 45 -151 115q-122 113 -189 230q-66 118 -69 288zM259 628v-25q0 -97 20 -194q24 -111 114 -183q60 -43 139 -54q27 -4 52 -4q51 0 97 16 q38 15 70 39t66 46q76 44 137 98q61 55 80 147q5 33 5 67q0 60 -15 122q-22 96 -49 184q-8 33 -22 67q-15 34 -44 53q-30 17 -67 21t-71 4h-5q-108 0 -222 -39q-117 -40 -191 -124q-40 -52 -60 -115t-34 -126zM627 -460q42 -21 87 -21h11q39 0 79 6q104 8 182 45 q79 36 125 136q31 74 38 155q7 80 13 160q14 145 21 289q5 83 5 166q0 62 -3 125q-3 60 -5 120q-1 23 -1 45q0 38 3 75q3 19 11 51q7 31 0 48q-8 10 -19 -10q-11 -19 -13 -24q-16 -30 -34 -62q-17 -31 -26 -65q-4 -26 3 -49q7 -24 13 -48q6 -30 6 -60t4 -60q6 -27 16 -47 q9 -19 1 -48q-11 -40 -11 -80q0 -10 1 -19q3 -39 3 -79v-20q-9 -170 -22 -340l9 132v-5q-1 -32 -9 -127q-4 -59 -14 -120q-10 -62 -49 -108q-47 -47 -108 -70q-62 -22 -123 -43q-48 -19 -95 -32q-48 -14 -99 -16z" />
<glyph unicode="h" horiz-adv-x="1444" d="M111 1637q29 24 62 24q10 0 20 -2q42 -9 82 -10q4 0 8 1q18 3 41 6q22 3 39 -5q11 -8 19 -24t21 -19q7 0 14 7q6 7 2 10q-5 1 -11 -1q-7 -2 -7 1q2 5 8 6t11 1q27 -3 56 -39t33 -62q1 -20 -4 -39q-4 -20 -6 -40q-9 -170 -16 -340q6 116 6 130v2l-1 -5q-2 -31 -5 -127 q-3 -50 -7 -100q4 47 3 37q-1 -9 -3 -37q-1 -10 -3 -22q-1 -12 7 -13q2 1 13 14q12 13 14 15q17 19 36 35q18 16 41 28q107 53 243 60q12 1 23 1q121 0 213 -68q151 -126 210 -310q34 -105 34 -213q0 -81 -19 -163q-23 -86 -60 -169q-38 -83 -70 -167q-21 -56 -44 -112 q-24 -55 -42 -112q-5 -15 -9 -29q-3 -14 0 -30q1 -2 7 -19t7 -19q-1 -4 -6 -7q-4 -2 -9 -3q-24 -6 -37 7q-13 14 -29 28q-36 20 -100 47q-65 27 -85 67q-3 11 5 17t11 14q1 4 -1 9t-1 10q3 13 13 26q10 14 16 27q20 56 39 113q-18 -53 -14 -43q3 11 14 43q57 159 87 318 q21 114 21 232q0 47 -3 96q-2 57 -14 121q-11 64 -65 95q-40 16 -89 16q-50 0 -109 -17q-116 -32 -166 -105q-8 -20 -13 -65q-5 -44 -9 -52q-14 -5 -25 13q-11 17 -22 20q-12 -2 -12 -23t1 -30q0 -90 1 -180l-1 71v-3q0 -17 1 -68q1 -180 7 -360q-3 141 -4 141v-6 q1 -34 4 -135q3 -33 10 -70q3 -15 3 -28q0 -22 -7 -41q-7 -15 -21 -21q-13 -6 -28 -9q-43 -8 -90 -11q-10 -1 -20 -1q-36 0 -69 9q-25 8 -54 29q-28 21 -37 47q-2 25 24 18q27 -6 20 18q-13 29 -13 16q-1 -13 -7 18q-10 58 -10 119q0 62 -6 120q-9 70 -16 140t-7 140 q1 25 4 50t5 50q2 30 0 60t-2 60q2 95 7 190q6 95 6 190q0 70 -5 140q-6 70 -21 138q-6 30 -13 59t-25 54zM203 1557q75 -98 75 -222v-17q0 -115 -13 -225q-2 -40 -2 -80q0 -30 1 -60q3 -71 3 -141q-1 -100 -4 -200q-1 -50 -1 -100.5t1 -100.5q3 -55 12 -110q9 -54 15 -109 q0 -22 -4 -52q-3 -29 6 -48q11 -14 36 -16t40 4q24 14 24 51q-1 38 -5 62q-4 71 -4 142v28q1 24 1 49q0 61 -4 121q-1 13 -1 27q0 27 3 55q2 21 2 40.5t-2 37.5q-6 23 -25 32q-18 9 -25 27q0 19 23 51q22 32 28 57q1 13 1 26q0 22 -3 44q-6 35 -8 70q0 65 5 130q6 66 8 131 q3 100 12 200l-6 -78v3q1 19 6 75q3 18 8 40q4 23 -6 39q-11 13 -27 11q-15 -1 -30 -3q-10 -1 -20 -1l-50 4q-35 4 -70 6zM879 1024q11 -18 26 -29q15 -10 32 -24q29 -27 57 -56q28 -30 50 -63q65 -111 65 -249t-29 -260q-5 -24 -13 -48t-13 -48q-4 -25 -6 -50t-8 -50 q-11 -38 -27 -75q-15 -37 -27 -75q-9 -34 -23 -66q-14 -33 -24 -66q-3 -6 -5 -18q-1 -13 13 -15q16 4 24 39t12 50l58 128t48 132q17 58 41 113q24 54 43 112q30 100 31 207v12q0 102 -33 195q-18 58 -46 111q-28 54 -87 79q-38 14 -78 15h-27q-27 0 -54 -1z" />
<glyph unicode="i" horiz-adv-x="668" d="M107 1473q4 19 9 39q4 20 14 38q28 45 85 72q32 16 63 16q23 0 45 -9q67 -35 107 -118q34 -71 34 -135q0 -11 -1 -22q-3 -30 -15 -70q-12 -41 -36 -61q-14 -7 -44 4q-31 12 -48 19q-44 17 -77 48q-34 31 -66 63q-14 14 -31 27q-16 13 -27 30q-8 14 -10 28q-2 15 -2 31z M119 1188q24 15 46 7t46 -20q91 -43 174 -100q-66 42 -66 42.5t3 -1.5q16 -10 63 -41q22 -14 27 -4q4 9 22 12q6 -1 16 -12q11 -10 14 -14q20 -20 42 -44q23 -24 35 -49q7 -17 -1 -26q-9 -9 -14 -25q-3 -20 -1 -41t5 -40q15 -130 18 -261q3 -104 3 -209v-52v-120t3 -120 q3 -23 5 -51t-21 -42q-18 -7 -40 -5q-22 3 -40 4h-10q-56 0 -99 10q-47 10 -94 53q-15 13 -29 28q-13 14 -18 35q-22 110 -22 236q0 31 1 63q7 161 17 302q1 25 -1 50t-1 51q3 100 5 200l-2 -78v3q1 19 2 75q1 24 4 50q2 27 -7 49q-14 26 -40 45q-25 19 -45 40zM207 1417 q2 -43 20 -54t54 -24q10 -6 23 -18q13 -13 26 -7q12 11 20 36q7 25 9 41q3 21 4 75v9q0 46 -10 59q-4 1 -20 -1q-16 -3 -19 -4q-44 -10 -69 -40q-26 -30 -38 -72zM271 1076q11 -10 21 -21q11 -11 16 -25q11 -39 11 -84q0 -18 -2 -36q-6 -65 -13 -122q-2 -21 -2 -42 q0 -14 1 -27q2 -21 2 -42q0 -14 -1 -28q-15 -180 -17 -361q4 121 4 138q0 3 -0.5 3t-0.5 -6q-2 -33 -3 -135q0 -41 4 -80t9 -79q1 -6 1 -21q1 -14 3 -20q16 -14 70 -14h7q60 0 78 14q7 14 6 39t-3 41q-2 50 -8 100t-7 101q0 60 2 120q3 60 3 121q-1 45 -6 90q-4 44 -6 90 q1 41 2 103v13q0 52 -14 84q-19 27 -72 49q-52 22 -85 37z" />
<glyph unicode="j" horiz-adv-x="581" d="M-45 -440l14 14t13 15q2 12 -2 18q-4 7 1 18q10 15 31 26t23 31q-2 23 -17 31q-16 8 -3 36q40 74 81 150q40 75 71 154q50 135 67 282q8 75 8 150q0 70 -7 140q-9 94 -15 189q-7 95 -18 189q-6 43 -20 78q-15 34 -30 73q-5 9 -4 18q1 10 17 8q12 -4 23 -18q12 -15 19 -25 q48 -52 69 -108t28 -126q27 -208 33 -419q1 -25 1 -49q0 -186 -47 -367q-23 -88 -62 -169q27 65 28 65l-1 -3q-5 -16 -27 -62q-11 -22 -26 -43t-24 -44q-3 -15 11 -39t18 -27q8 1 27 26q19 24 24 33q30 47 48 99t28 106q18 117 18 235v34q-1 51 -1 102q0 85 3 169 q4 84 12 169q8 86 21 169q4 20 10 39q7 20 8 40q1 23 -14 35q-15 11 -33 23q-78 61 -151 130q58 -51 58 -52l-3 2q-14 12 -55 50q-12 11 -33 41q-21 29 14 22q26 -9 47 -35q21 -27 41 -46q23 -19 47 -37t46 -39q8 -9 20 -24t23 -19q4 -1 8 3q3 3 8 3q7 -2 16 -12t13 -15 q17 -18 43 -44q27 -26 33 -49q2 -19 -14 -14q-17 6 -26 -27q-12 -64 -17 -129q-6 -65 -13 -129q-7 -68 -7 -135q0 -23 1 -45q2 -90 2 -180q-1 -55 -7 -110t-12 -109q-4 -45 -10 -90q-5 -46 -20 -88q-38 -96 -106 -168q-69 -72 -134 -149q-13 -15 -30 -26t-30 -25 q-6 -10 -9 -28q-4 -19 -20 -19q-6 1 -15 12t-13 16q-23 26 -47 52q-24 25 -52 47zM131 1437q17 52 52 85q34 34 85 54q17 9 38 15q21 7 41 1q21 -9 39 -31t34 -40q14 -15 25 -31q10 -17 14 -38q3 -21 3 -43q0 -29 -6 -58q-12 -49 -36 -94q-5 -12 -13 -28t-25 -13 q-6 2 -16 14q-9 11 -13 15q-17 11 -37 14q-21 4 -39 13q-48 27 -87 70q-40 42 -59 95zM231 1373q16 -13 45 -25t50 -5q19 11 23 43q4 31 6 51q1 4 4 20q3 15 1 19q-7 9 -19 4t-17 -9q-35 -16 -57 -39q-23 -23 -36 -59z" />
<glyph unicode="k" horiz-adv-x="1344" d="M87 872q6 35 6 70v10l-2 80v18q0 101 10 202q-6 -86 -7 -86v4q1 21 7 82q13 140 14 280q-3 -87 -3 -105q0 -4 0.5 -4t0.5 4q1 26 2 105q-2 22 -7 51q-6 29 5 48q3 4 7 7q5 3 9 2q9 -4 14 -14q4 -11 12 -17q12 -7 29 -9q18 -1 31 -2q24 -1 49 -1q34 0 72 2q11 1 21 1 q54 0 95 -22q12 -8 22 -20q9 -13 19 -23q12 -10 23 -20t18 -24q13 -31 13 -67q0 -24 -6 -51q-14 -66 -25 -120q-17 -128 -23 -259q-6 -130 -6 -260q0 -40 0.5 -80t-0.5 -80q0 62 1 62v-2q0 -15 -1 -60q-1 -7 -1 -31q-1 -23 5 -27q2 2 14 16t14 16q42 42 86 82 q-42 -37 -33 -30q8 7 33 30q98 91 199 183q102 92 180 202q46 65 77 138q-27 -54 -27 -56q0 -1 2 2q8 13 25 54q3 11 10 29q8 18 22 18q6 -3 15 -14t13 -15q11 -10 24 -19q14 -9 22 -21q9 -20 -3 -47q-13 -28 -23 -46q-31 -64 -75 -118q-44 -53 -94 -103q-18 -17 -53 -49 q-36 -33 -45 -51q-2 -11 5 -18t15 -13q23 -18 44 -40q22 -21 38 -46q24 -43 44 -90q19 -47 40 -92q14 -27 31 -51q16 -25 28 -53q18 -47 33 -95q16 -47 34 -94q13 -25 42 -73q25 -41 25 -62q0 -4 -1 -7q-14 -17 -69 -29l-81 -18q-27 -7 -60 -14q-33 -6 -59 4q-21 11 -38 32 q-18 20 -33 38q-67 76 -106 169q-39 92 -85 180q-14 28 -34 76t-44 65h-4q-22 0 -55 -42q-35 -45 -47 -67q-3 -8 -8 -18t-15 -12q-9 0 -18 7q-10 6 -14 0q-3 -9 1 -19q3 -10 4 -20q-1 -41 -3 -80v-27q0 -27 1 -53q0 -18 0.5 -35.5t-0.5 -34.5q-1 -36 -1 -71q1 -12 -2 -30 q-4 -18 -20 -22q-5 1 -25 6q-19 5 -32 5q-41 -5 -90 -14q-16 -3 -30 -3q-31 0 -57 13q-13 8 -22 21q-10 12 -20 23l-22 20q-12 9 -20 22q-22 41 -22 97t-2 102q-13 154 -23 309q-9 154 -10 309zM187 940q1 -90 4 -180t4 -181q1 -181 21 -360l-12 140v-5q2 -34 12 -135 q2 -34 3 -71q0 -38 9 -70q2 -10 10 -15q-6 6 -5 4q0 -2 5 -4q4 -1 19 2q16 3 20 4q21 0 52 -3q30 -2 48 10q11 14 10 38q-1 25 -3 41q-3 60 -5 121q-1 20 -1 40q0 40 3 80q5 78 5 155v26v90v90q3 105 9 210q5 106 8 211q3 55 11 110t15 109q3 17 10 41q6 23 3 39 q-6 15 -24 16h-29q-70 3 -139 13q65 -9 52 -7t-52 7q-9 1 -19 2q-11 1 -19 -7q-9 -14 -8 -39q2 -25 4 -41q2 -30 2 -60v-20l-4 -80q-5 -91 -12 -180q5 65 5 70l-5 -70q-1 -24 -1 -48v-23q0 -35 -6 -70zM663 520q19 -23 40 -45q21 -21 38 -45q43 -63 76 -131q34 -69 63 -138 l26 -54t24 -55q2 -8 6 -18q4 -11 14 -14q6 -1 20 4t20 7q29 6 59 9t59 10q5 1 20 6q14 4 17 8q4 10 -3 20q-7 9 -11 15q-13 21 -22 45q-10 24 -18 47q-21 56 -41 114q-20 57 -46 111q-21 40 -44 79q-22 39 -40 81q-8 25 -29 66q-20 41 -50 41h-1q-13 -3 -24 -17 q-12 -14 -20 -23q-30 -33 -63 -65q-33 -31 -70 -58z" />
<glyph unicode="l" horiz-adv-x="757" d="M111 1677q13 18 19 13q5 -4 25 -5q37 4 69 10q7 1 13 1l51 -21q13 -11 32 -26q19 -16 26 -30q5 -16 -2 -19q-6 -3 -7 -17q2 -21 23 -43q20 -22 32 -40q19 -35 28 -74q9 -40 29 -75q17 -23 44 -42q26 -19 36 -46q5 -19 -1 -39q-6 -21 -9 -40q-12 -109 -18 -219l5 86v-4 q-1 -21 -5 -82q-6 -100 -8 -200q-1 -101 -3 -201q-3 -65 -8 -129q-5 -65 -7 -130q0 -22 -0.5 -44.5t0.5 -45.5v-30q0 -30 -1 -60q-3 -16 -4 -41t11 -38q15 -9 38 -5t41 -1q23 -11 55 -46q31 -35 2 -50q-24 -6 -57 -6q-35 0 -80 7q-85 12 -143 18q-23 0 -51 -3q-27 -4 -48 6 q-16 9 -40 32q-25 22 -32 38q-3 19 14 21q17 1 11 17q-15 22 -17 12q-2 -11 -8 17q-4 24 1 50q5 25 5 50q-3 54 -3 107q0 32 1 63q4 84 7 169v28q0 56 -3 112q-3 70 -3 140q1 35 4 70q4 35 5 70v29q0 101 -6 201q-6 116 -18 230q-4 44 -7 90q-2 46 -11 89q-5 19 -13 38 q-9 18 -14 38zM223 1589q17 -79 24 -159t13 -160q20 -214 23 -431v-58q0 -188 -11 -374q-3 -40 -3 -80q0 -20 1 -41q1 -60 1 -120q-2 -21 -8 -51t1 -49q9 -7 54 -13t61 -6q17 2 7 22q-11 20 -14 37q1 60 4 121q-3 -57 -2 -45q1 11 2 45q1 191 5 381l-2 -149v6v22q0 40 2 121 q3 110 8 221t16 220q4 45 6 90q1 46 4 91q2 14 6 30q4 15 2 29q-7 23 -29 38t-34 37q-17 47 -35 119q-18 73 -47 108q-12 11 -27 7t-28 -9z" />
<glyph unicode="m" horiz-adv-x="1966" d="M87 52q22 16 41 12q20 -3 34 5q9 12 -10 30q-19 19 -26 30q-5 23 -4 50q2 28 3 51q5 145 6 290q2 145 9 290q1 24 1 48q0 36 -2 72q-4 60 -9 120q-1 13 -1 41q1 29 17 33q9 -2 22 -19q13 -16 21 -23q43 -40 48 -93q2 -24 2 -48q0 -30 -3 -62q-9 -274 -9 -546v-55l1 235 v-10q-1 -56 -1 -225v-70v-70q0 66 1 52q0 -13 -1 -52q-1 -12 -3 -31q-2 -20 4 -30q7 -6 19 -4t19 3q30 2 60 1t60 1q4 1 19 3t20 6q5 10 -3 29q-8 18 -13 28q-11 33 -18 68q-8 34 -15 68q-22 107 -34 218t-14 220q1 34 9 93q3 24 3 43q0 27 -6 43q-8 13 -21 21q-12 8 -20 22 q-12 28 -17 58q-4 29 -25 53q-12 10 -46 42t-13 44q8 2 19 -4t17 -11q28 -19 54 -44q27 -26 47 -53q4 -7 13 -25q10 -17 21 -15q13 8 24 32q11 23 19 36q36 50 90 80q-47 -33 -38 -25t38 25q41 23 92 41q33 11 63 11q18 0 36 -4q18 -5 36 -16q19 -11 32 -25q3 -4 5 -9 q3 -6 7 -6q10 1 15 11q6 10 14 15q15 6 30 5q15 0 29 -4q64 -15 116 -57q53 -41 94 -90q10 -13 21 -36t22 -31q2 -1 4 2t3 6q6 13 9 28q4 15 9 29q15 32 39 58t51 48q18 17 37 34t40 29q51 25 110 26q13 0 27 -2q73 -7 135 -37q83 -40 164 -116q81 -75 112 -163 q22 -77 23 -157q0 -31 -4 -62q-12 -111 -33 -218q-21 -130 -55 -254q-35 -125 -103 -238q-24 -38 -47 -77q-24 -39 -40 -81q-4 -16 -9 -40q-5 -25 -17 -35q-22 -10 -40 18t-31 41q-20 14 -18 6q1 -7 -12 -15q-17 0 -52 38t-37 57q4 24 18 47q14 22 24 44q8 24 15 48t16 47 q21 46 43 91t40 92q45 123 58 253q7 70 7 140q0 59 -5 119q-3 64 -22 163t-78 127q-27 8 -56 8q-45 0 -92 -20q-77 -31 -114 -94q-16 -32 -22 -67q-5 -34 -9 -69q-4 -29 -7 -60t4 -60q5 -12 17 -38q11 -27 -6 -35q-15 -2 -25 15t-22 20q-9 -2 -8 -24t3 -28q3 -56 3 -113v-28 q0 66 0 53v-53q-2 -85 -11 -170t-9 -170q0 -16 3 -29t15 -25q9 -7 24 -18q16 -11 18 -24q-2 -16 -21 -19q-18 -2 -30 -3q-36 -9 -100 -18q-48 -8 -80 -8q-9 0 -17 1q-31 9 -80 59q-49 51 -53 81q2 55 19 117q18 63 29 119q23 129 28 258q1 17 1 33q0 112 -24 225 q-10 57 -41 138q-30 81 -90 96q-25 3 -50 -4t-48 -17q-71 -27 -119 -70q-47 -42 -70 -118q-28 -105 -28 -215q0 -51 6 -103q19 -163 44 -318q7 -49 20 -98q13 -50 31 -95q5 -11 12 -28q7 -18 -1 -29q-13 -8 -56 -7q-29 1 -48 1h-16q-43 -4 -124 -12q-43 -4 -73 -4 q-26 0 -43 3q-26 10 -46 36q-20 27 -40 46zM859 1028q91 -144 118 -307q16 -94 16 -189q0 -71 -9 -142q-7 -64 -20 -129t-29 -127q-5 -16 -11 -40q-6 -23 16 -30q9 0 50 7q40 8 46 10q6 10 5 30q-1 19 -1 31q2 60 6 121q-4 -57 -3 -46q1 12 3 46q11 168 13 342v10 q0 169 -34 330q-10 47 -34 69q-25 23 -70 35q-25 8 -39 7t-23 -28zM1484 1096q29 -34 65 -62q37 -28 62 -65q66 -119 83 -299q7 -75 7 -141q0 -94 -14 -172q-26 -140 -91 -266q43 101 45 101l-1 -4q-9 -25 -44 -97q-18 -36 -32 -74q14 35 11 28q-2 -7 -11 -28q-2 -6 -10 -27 q-8 -22 -7 -25q12 5 22 32t15 39q11 23 26 43q15 21 27 43q17 37 26 76q9 40 23 77q26 72 36 146q9 75 19 150q21 104 32 233q2 17 2 34q0 106 -66 181q-23 21 -51 32t-57 21q-56 23 -117 24q55 -6 45 -4q-10 3 -45 4z" />
<glyph unicode="n" horiz-adv-x="1502" d="M111 1128q17 16 32 9t38 -7l40 2q20 0 39 -8q40 -19 79 -62q38 -42 54 -84q6 -19 11 -51q6 -31 18 -46q5 -4 11 5q6 8 10 16q11 22 24 44q12 21 30 40q17 18 35 36q17 18 38 32q17 11 34 20q18 10 33 23q18 18 33 37q16 19 35 36q34 28 74 53t83 36q25 4 49 4 q65 0 125 -31q84 -44 145 -107q166 -185 166 -404q0 -57 -11 -117q-55 -288 -162 -551q-22 -61 -45 -122q-23 -60 -41 -123q-2 -16 -8 -51t-23 -41q-15 0 -21 15q-6 14 -26 12q-28 -8 -53 -28q-26 -20 -53 -32q-29 -7 -39 13t-24 20q-4 -2 -5 -8t-5 -9q-12 0 -46 29t-42 43 q-6 19 6 38t21 34q47 89 89 179q-34 -69 -34 -70l2 3q9 16 32 67q40 85 83 172q43 86 71 176q19 68 25 138q5 61 5 121v20q3 37 3 77q0 63 -7 136q-12 120 -112 157q-39 10 -80 13q38 -4 30 -3q-7 1 -30 3h-9q-121 0 -162 -79q-42 -81 -99 -173q-22 -26 -29 -2q-8 24 -29 17 q-13 -10 -20 -43q-7 -34 -12 -51q-25 -78 -25 -159q0 -14 1 -28q6 -97 18 -190q6 -64 14 -130q8 -65 28 -126q6 -12 15 -39q10 -27 -4 -37q-12 -3 -25 13q-14 16 -20 24q-40 45 -56 92t-28 105q-23 98 -31 198q-7 76 -7 150q0 25 1 50q0 30 2 60q3 30 11 58q4 14 9 29 q5 16 -2 30q-9 12 -21 20t-20 22q-15 31 -22 67q-6 36 -12 69q-3 16 -7 30q-4 13 -21 19q-10 3 -30 5q-21 1 -30 -5q-8 -8 -6 -18q3 -11 6 -19q7 -34 9 -69q1 -36 1 -70q3 -281 4 -561q-1 175 -1 210v9q1 0 1 -219q0 -80 4 -160q-2 63 -3 63v-3q1 -15 3 -60q-1 -12 -2 -31 q-2 -18 8 -28q13 -7 39 0q26 6 40 10q38 8 58 3q21 -6 47 -33q9 -8 24 -19q14 -12 17 -24q-4 -27 -46 -28t-62 0q-46 -6 -77 -6q-12 0 -21 1q-34 3 -83 50q-12 9 -23 19q-12 9 -17 24q-7 23 -5 50q2 26 3 50q0 56 -2 111t-2 110q5 173 6 373v11q0 194 -34 354zM851 1120 q92 -28 169 -103q78 -76 107 -169q10 -39 10 -79q0 -41 1 -81q3 -43 2 -85q0 -73 -7 -144q-13 -112 -44 -225q-22 -75 -59 -149q-37 -73 -75 -142q-12 -21 -25 -42q-14 -22 -24 -44q-4 -6 -12 -26q-8 -19 9 -15q7 4 16 14q9 9 16 12q14 1 24 -12q11 -12 20 -2q11 19 13 48 q1 29 5 51q11 38 27 76q16 37 33 73q82 183 139 387q47 166 47 332q0 37 -2 74q-3 57 -20 118t-53 107q-58 64 -152 65h-9q-87 0 -156 -39z" />
<glyph unicode="o" horiz-adv-x="1339" d="M103 576q2 51 4 100q8 34 17 68t23 66q52 100 149 173q98 74 200 117q40 18 84 35q43 17 88 19q43 -4 68 -37q24 -33 64 -43q25 -3 50 -4q24 0 50 -7q109 -32 180 -103t115 -174q17 -36 30 -74q11 -33 11 -67v-11q-12 -142 -72 -281q-61 -140 -155 -245q-35 -40 -81 -76 q-45 -36 -96 -52q-51 -14 -106 -14q-46 0 -94 10q-106 21 -182 80q-46 39 -83 87q-36 48 -76 93q-52 53 -100 112q-49 58 -75 129q-13 42 -13 87v12zM203 556q2 -110 43 -192q41 -83 114 -162q16 -19 31 -40q15 -20 36 -35q89 -54 201 -58q9 0 18 -1q101 0 186 43 q100 58 163 172q62 115 92 223q24 73 41 144q7 29 7 58q0 44 -15 90q-19 67 -40 102q-20 36 -90 56q-48 13 -97 22q46 -9 37 -7q-10 2 -37 7q-7 2 -17 0q-9 -1 -7 -6q10 -19 32 -37q23 -17 38 -34q21 -28 35 -60q15 -33 25 -66q31 -98 31 -186q0 -62 -15 -120 q-37 -141 -145 -270q-30 -40 -65 -77t-87 -46q-10 -1 -20 -1q-52 0 -95 26q-50 31 -93 75q-32 31 -64 64q-31 32 -53 72q-42 88 -49 193q-3 49 -3 96q0 54 4 105q3 36 12 68q9 33 22 66q4 9 12 29t6 29q-3 6 -11 -1l-14 -14q-30 -27 -58 -56q27 27 21 22t-21 -22 q-69 -73 -84 -126q-14 -53 -27 -145zM443 620q-1 -25 -1 -52q0 -72 6 -163q8 -124 66 -195q40 -37 92 -37q9 0 19 1q65 8 109 50q79 76 131 178t63 212q1 18 1 36q0 43 -8 84q-12 59 -28 117q-6 30 -20 57q-14 28 -47 35q-12 2 -23 2q-37 0 -63 -19q-34 -23 -65 -32 q-32 2 -44 39q-6 18 -22.5 18.5t-42.5 -18.5q-65 -57 -86 -144q-22 -88 -37 -169zM703 1044q13 -1 45 -4q32 -2 35 3q-5 11 -37 8q-31 -4 -43 -7z" />
<glyph unicode="p" horiz-adv-x="1476" d="M111 1116q19 20 30 7t30 -24q39 -17 65 -43q27 -26 55 -58q9 -11 27 -30q18 -20 32 -17q4 3 12 17q9 13 11 17q28 41 63 77q-31 -35 -25 -28q6 8 25 28q51 49 117 76q67 27 136 34q9 1 18 1q48 0 89 -19q49 -22 102 -40q35 -9 69 -15q33 -6 65 -23q31 -18 57 -42t50 -49 q124 -123 175 -276q28 -82 28 -171q0 -75 -20 -155q-21 -78 -76 -175t-116 -149q-33 -24 -73 -33q-40 -8 -79 -14q-51 -9 -99 -17q-20 -3 -40 -3q-29 0 -59 6q-84 20 -147 63q-62 43 -119 105q-42 43 -83 86q39 -40 31 -32t-31 32q-4 6 -16 23q-12 16 -16 2q-3 -26 6 -59 q9 -34 14 -60q11 -90 25 -179q14 -88 33 -177q20 -88 54 -171q-24 66 -25 66l1 -3q5 -16 24 -63q4 -8 10 -28q5 -20 -13 -21q-11 2 -23 18q-12 17 -19 25q-11 9 -23 19q-13 10 -21 22q-17 26 -33 81q-17 56 -24 89q-23 97 -39 196t-30 198q-19 113 -31 228q-5 58 -5 115 t5 115q6 42 23 103q16 60 17 93q-2 19 -14 36q-12 18 -24 33q-8 12 -24 34q-16 21 -32 23q-12 -2 -13 -14t0 -19q1 -60 3 -119q-2 56 -2 44q1 -11 2 -44q7 -251 18 -501l-8 196v-8q1 -47 8 -188q2 -60 2 -120q0 -40 -1 -80q-2 -100 -2 -200q1 -50 4 -100q4 -49 4 -99 q-2 -71 -3 -141q1 66 1 53q-1 -13 -1 -53q-1 -11 0 -30q1 -20 12 -27q8 -2 28 3q20 6 30 8q56 12 99 15h8q38 0 80 -36q8 -6 23 -20q16 -14 19 -24q0 -9 -12 -13q-13 -5 -18 -6q-29 -6 -59 -8t-59 -5q-51 -5 -99 -20q46 11 36 10q-9 -1 -36 -10q-9 -4 -17 -11t-17 -10 q-8 0 -17 8t-13 13q-12 10 -31 27q-20 17 -25 32q-4 19 4 16q8 -2 -9 17q-4 3 -9 5q-5 3 -8 7q-10 22 -10 68v9q2 53 3 82v30q0 76 -4 150q-2 45 -2 90t2 90q2 30 0 60t-3 60q1 39 1 77q0 97 -4 193l-12 270q-1 32 -1 63q0 64 3 127v27q0 82 -15 162zM376 506v-8 q0 -32 14 -60q14 -21 35 -35q21 -15 34 -37q11 -23 17 -46q6 -24 25 -42q20 -16 44 -26q24 -9 47 -18q33 -14 66 -24q30 -10 62 -10h6q106 8 189 85t105 179q20 96 22 199v19q0 94 -18 181q-6 32 -17 68t-31 62q-36 40 -86 40q-6 0 -13 -1q-58 -5 -109 -16q-25 -2 -34 16 t-28 27q-13 4 -30 -1q-16 -4 -28 -9q-47 -17 -89 -46q-43 -29 -76 -66q-60 -75 -74 -172t-30 -189q-2 -33 -3 -70zM507 220q76 -97 191 -116q46 -8 93 -8q68 0 136 17q34 7 68 16t63 31q127 114 167 313q15 75 15 143q0 114 -41 211q-15 35 -32 73q-18 38 -48 63 q-15 10 -55 30q-40 19 -55 17q-3 -2 -2 -6t3 -7q7 -12 18 -24q12 -11 22 -22q24 -27 41 -56q16 -28 26 -64q28 -109 28 -249t-41 -246q-49 -110 -156 -179q-81 -53 -172 -53q-28 0 -57 5q-59 14 -111 46q-52 31 -101 65z" />
<glyph unicode="q" horiz-adv-x="1463" d="M59 512q5 40 8 79q2 39 13 79q41 135 123 239q82 103 182 198q60 62 142 112q65 38 134 38q20 0 40 -3q73 -19 132 -86q59 -66 99 -128q14 -21 24 -43q11 -23 22 -45q1 -3 8 -15q8 -11 16 -9q5 4 15 24q10 19 15 27q44 67 84 137l-31 -54l1 2q7 13 30 52q6 10 15 27 t18 24q18 7 27 -8q8 -15 20 -21q14 0 13 19q-2 19 17 19q12 -3 23 -18q10 -16 18 -25q7 -6 16 -13q10 -6 15 -14q6 -13 6 -34t-6 -50q-12 -59 -19 -92q-8 -49 -17 -98q-10 -49 -15 -99q-3 -34 -3 -69q0 -20 1 -41q2 -33 2 -66q0 -22 -1 -44q-4 -101 -7 -200q-3 -80 -3 -160 v-40q0 -130 12 -260q-7 100 -7 101l7 -101q3 -29 9 -60q5 -32 3 -60q-3 -30 -6 -19q-2 12 -11 -15q-5 -27 1 -60q7 -32 8 -60q-1 -7 -3 -20q-2 -12 3 -19q12 -10 37 -5q25 4 41 0q14 -9 43 -44q30 -34 31 -44q-2 -4 -7 -6t-10 -3q-29 -8 -60 -1q-32 7 -60 10 q-130 10 -259 26l101 -11h-4q-24 2 -97 11q-24 2 -50 2t-49 6q-22 8 -42 27t-37 36q-5 3 -13 12q-7 8 -2 18q12 11 38 9q26 -3 41 -5q45 -4 90 -7t90 -11q14 -4 39 -11q25 -6 39 2q9 14 3 56q-7 43 -10 62q-7 75 -11 150q-1 17 -1 34q0 58 11 116q0 2 0 -8q-1 -10 -2 -22 q-1 -9 -2 -21q-1 -11 -2 -21q-1 -19 -1 -25q0 -7 2 -4q9 24 9 51q0 14 -2 28q-7 43 -10 81q-2 48 -2 96q0 32 1 64q1 80 3 160q2 120 3 240q1 121 14 240q2 24 4 49q1 25 5 50q3 10 8 23q6 12 -2 16q-6 -2 -25 -28q-18 -26 -24 -36q-18 -27 -47 -68q-30 -41 -40 -66 q-5 -14 -2 -29q3 -16 6 -29q34 -168 38 -339q-7 114 -7 131v2l1 -5q4 -32 6 -128q0 -30 -2 -60q-3 -30 -2 -60q2 -16 14 -27q12 -10 14 -24q-2 -16 -21 -29q-18 -12 -22 -33q-1 -9 -1 -18q0 -26 5 -52q6 -35 10 -70q3 -28 3 -56v-14l-4 -70q-1 -26 -1 -53q0 -73 10 -146 q-7 77 -8 77v-3q1 -18 8 -74q3 -17 12 -40t4 -39q-9 -16 -24 -5q-16 12 -23 20q-26 24 -45 53q-18 28 -25 64q-9 54 -9 110v20q1 66 2 131q1 14 1 52q-1 38 -6 48q-3 2 -8 1t-8 -3q-21 -12 -39 -29q-19 -18 -42 -29q-54 -25 -113 -41t-119 -18q-129 2 -231 81 q-102 78 -186 168q-40 38 -77 80q-37 41 -59 92q-13 32 -16 68q-3 35 -9 69zM162 414q0 -46 15 -89q51 -124 167 -195q114 -70 244 -70h4q77 2 147 29q70 26 133 70q24 14 51 33q27 20 33 49q0 5 1 11t-3 9q-6 3 -19 -6q-12 -9 -14 -11l-58 -40q-28 -20 -55 -43 q-61 -50 -136 -58q-20 -2 -40 -2q-54 0 -108 18q-85 33 -154 110q-69 78 -118 151q-37 49 -66 101q30 -48 23 -38q-7 9 -23 38q-1 3 -8 19t-9 18q-3 0 -4 -5t-2 -9q-1 -30 -1 -60v-30zM255 536q2 -41 13 -80q35 -113 123 -193q76 -68 177 -68q18 0 36 2q80 16 153 71 q73 56 137 105q10 8 24 19q13 12 25 15q9 1 18 -5t15 -1q5 9 0 47t-7 52q-1 28 -1 56t1 56q0 57 -18 109q-9 18 -26 30q-18 13 -25 30q-3 19 13 34q15 16 19 35q-1 58 -37 147q-35 89 -76 130q-38 31 -83 31q-18 0 -38 -5q-68 -19 -123 -48q-28 -13 -63 -34q-36 -22 -51 -48 q-8 -17 -2 -25q6 -9 -8 -25q-21 -22 -48 -37q-26 -15 -46 -38q-45 -60 -65 -135q-21 -75 -37 -147q-1 -20 -1 -40t1 -40z" />
<glyph unicode="r" horiz-adv-x="1215" d="M89 110q-2 40 -2 78q0 53 4 104q6 36 6 72v18v30q0 30 1 60q15 240 23 481l-7 -188v8q2 45 7 180v27q0 27 -1 53q-1 40 -1 80q0 13 -1 31q0 18 7 29q19 17 32 -9q12 -27 29 -26q7 2 -3 9t-18 20q-6 11 -5 19q2 7 19 3q11 -5 23 -19q11 -15 19 -24q34 -39 61 -79 q28 -40 49 -87q15 -38 27 -77q-11 37 -9 29q2 -7 9 -29q3 -8 6 -18q4 -10 10 -8q7 6 15 25t12 28q36 61 85 112q-42 -50 -35 -39q7 10 35 39q32 29 70 38q37 10 73 31q16 12 30 26q14 15 31 26q65 38 125 38q23 0 46 -6q82 -19 153 -89q36 -29 76 -68q37 -34 37 -77 q0 -5 -1 -11q-9 -38 -25 -76q-17 -37 -31 -74q-17 -48 -39 -93q19 43 16 34t-16 -34q-8 -17 -26 -58q-18 -40 -28 -49q-15 -5 -34 13t-28 29q-4 3 -15 14q-11 10 -13 14q-5 15 2 28q6 12 3 29q-17 52 -44 101q-28 48 -43 101q-4 23 -12 49q-8 27 -31 37q-14 4 -29 4 q-28 0 -61 -12q-51 -18 -83 -39q-46 -32 -73 -81q-28 -49 -47 -100q-57 -145 -61 -304v-23q0 -147 47 -283q7 -23 19 -59q11 -36 32 -47q25 -7 35 -8q10 0 33 -23q9 -8 30 -28q20 -20 16 -34q-8 -10 -27 -11q-20 -1 -31 0q-80 0 -160 -1l62 1h-2q-15 0 -60 -1 q-44 -3 -114 -7q-19 -1 -36 -1q-44 0 -70 9q-88 48 -93 143zM185 115q-1 -40 1 -48q7 -8 28 -6t31 3q58 4 117 4h23q-66 -1 -53 0q14 1 53 0q8 -1 30 -3q23 -2 29 4q-1 7 -15 25q-14 19 -19 26q-35 61 -56 129q23 -63 18 -50t-18 50q-33 107 -40 218q-2 33 -2 67 q0 77 10 154q5 29 18 59t12 59q-6 23 -33 52q-28 29 -41 64q-16 48 -36 95q19 -44 15 -35q-4 8 -15 35q-1 4 -9 24q-8 21 -14 13q-4 -12 -1 -30q2 -18 4 -31q2 -21 1 -42v-28q-1 -36 -4 -71q-7 -126 -12 -252q-4 -125 -13 -251l-2 -60q0 -15 1 -31v-18q0 -36 -6 -72 q0 -14 -2 -53zM771 1068q35 -41 65 -74t55 -85q7 -19 17 -62q11 -42 18 -53q3 -2 6 -1q4 2 6 5q11 13 18 35t13 38q18 35 43 95q14 34 14 60q0 20 -8 35q-37 43 -91 43q-13 0 -27 -3q-72 -13 -129 -33z" />
<glyph unicode="s" horiz-adv-x="1223" d="M79 884q6 35 9 70q4 34 19 67q57 105 172 163q105 54 214 54h18q71 -6 136 -31q66 -24 133 -43q84 -20 171 -20h8q-57 3 -68 3q-3 0 -3 -0.5t3 -0.5q17 -2 68 -2q23 2 50 5q26 3 49 -5q32 -14 59 -54q25 -36 25 -69q0 -20 -11 -54l-18 -46q-8 -20 -29 -67t-40 -48 q-13 6 -19 22q-7 17 -19 25q-1 -1 0 -17q0 -16 -22 -12q-13 5 -28 26q-15 20 -25 31q-31 33 -66 63q-34 30 -75 49q-79 35 -183 35q-13 0 -27 -1q-120 -5 -159 -112q-6 -28 -6 -50q0 -72 61 -91q79 -24 165 -46q37 -14 75 -26t74 -32q65 -38 119 -90q55 -53 106 -107 q52 -48 85 -96q30 -42 30 -106v-15q-2 -21 -4 -41t-10 -39q-73 -140 -223 -165q-90 -15 -176 -15q-58 0 -115 7q-51 4 -99 13q-49 9 -96 30q-46 22 -86 50t-79 61q-27 20 -32 0q-6 -20 -24 -30q-9 4 -45 36q-36 33 -42 44q-1 12 12 26q12 15 20 23q26 31 59 53t67 44 q15 12 32 24t36 4q10 -7 39 -34q28 -28 33 -36q1 -17 -16 -19q-17 -3 -13 -20q7 -14 27 -28q21 -14 35 -22q86 -54 185 -74q-69 21 -75 21h-1l3 -2q18 -7 73 -19q38 -7 78 -7q45 0 92 9q87 17 150 75q18 18 38 49q19 30 18 56q-4 23 -32 33q-28 11 -48 17q-60 27 -120 51 q-60 25 -123 42q-139 31 -270 75q-131 43 -238 142q-18 17 -35 36q-17 18 -29 40q-13 28 -13 58q-1 31 -4 60zM179 757q1 -39 26 -63q31 -23 72 -34q42 -10 78 -22q67 -24 135 -40q69 -15 137 -33q53 -15 105 -35q51 -20 102 -42q43 -17 81 -40q37 -22 72 -53q6 -6 23 -21 t26 -13q7 9 0 30q-8 20 -12 28q-26 43 -66 76q-41 33 -82 60q-63 42 -134 67t-144 42q-30 7 -60 13q-29 6 -57 17q-66 32 -112 100q-46 69 -51 141q0 68 46 119q46 52 111 65q36 6 71 6l109 -14q90 -24 161 -80q54 -45 102 -96q-46 47 -36 37q9 -9 36 -37q8 -9 21 -24 q12 -16 22 -20q11 -1 16 10q5 10 7 16q20 46 39 92q-18 -43 -14 -34q3 8 14 34q3 4 7 17q5 12 -1 18q-9 6 -29 3q-19 -2 -31 -2q-61 1 -120 17q56 -12 45 -10q-12 2 -45 10q-63 18 -124 41q-61 22 -126 32q-22 3 -45 3q-85 0 -172 -36q-112 -45 -169 -138q-17 -32 -22 -66 l-12 -70q-1 -16 -1 -33.5t1 -37.5zM247 200q93 -62 203 -88q-79 26 -83 26q-1 0 3 -2q18 -8 80 -24q9 -3 31 -9q21 -5 30 0q5 6 -5 13t-19 12q-39 31 -75 65q34 -32 27 -25q-6 7 -27 25l-37 37q-24 23 -43 26q-19 -2 -44 -23q-25 -20 -41 -33z" />
<glyph unicode="t" horiz-adv-x="962" d="M19 1104q19 16 35 10q16 -5 38 -10q56 -10 113 -10q14 0 28 1q-67 1 -53 0t53 0q5 0 20 1t20 4q10 12 9 55q-2 43 -3 62q1 70 4 141q1 30 1 60q0 40 -2 80q-3 19 -6 51q-4 32 10 47q12 9 29 5q17 -5 30 -8q18 -1 35 -1l35 1h5q32 0 59 -22q8 -10 26 -34q17 -24 30 -23 q4 1 5 7v10q-1 21 -5 63q-3 42 26 23q19 -15 39 -32q20 -18 31 -39q13 -37 13 -102q0 -16 -1 -34q-5 -90 -7 -145q-3 -60 -5 -121q3 57 2 45q-1 -11 -2 -45q-1 -6 0 -19q0 -13 5 -18q14 -7 39 -2q26 5 41 8q60 7 100 7h2q39 0 83 -44q9 -8 24 -19q16 -12 18 -23 q-2 -19 -30 -20q-27 0 -41 2h-15q-38 0 -75 -4q-45 -5 -90 -8q-21 2 -40 4q-20 2 -26 -22q-7 -36 -7 -73q0 -18 2 -37q4 -56 6 -111q1 -60 5 -120t6 -120q1 -61 1 -121v-24q0 -48 3 -96q4 -50 4 -101q0 -50 1 -100q2 -16 6 -41q4 -24 -5 -38q-13 -13 -37 -13t-41 -1 q-46 -9 -100 -21q-24 -5 -46 -5q-28 0 -54 8q-17 8 -32 23l-28 28q-47 51 -49 95v13q0 41 5 97q0 40 -4 80q-5 40 -6 80q0 55 5 110t8 110q1 20 1 40t-1 41v27q0 27 1 53q8 80 12 161l-4 -63q0 -32 4 63q1 11 2 30q1 20 -4 30q-13 12 -55 13q-43 0 -63 1q-46 6 -82 35 q-35 28 -61 65zM357 102q-1 -27 13 -35q5 -1 10 1q5 3 9 5q30 7 59 11q-27 -4 -22 -4q6 1 22 4q14 1 53 5t45 6q5 9 5 29v31q1 20 1 41q0 30 -2 60q-3 50 -8 100q-5 75 -6 150q0 75 -2 151q-2 40 -5 80q-3 27 -3 53q0 13 1 27q3 31 7 93q1 16 1 29q0 40 -11 57q-16 13 -48 7 q-31 -5 -51 -6q-10 1 -20 4q-10 4 -19 1q-13 -10 -11 -36q2 -27 4 -41v-34q0 -94 -9 -186l7 86v-4q-1 -21 -7 -82q-2 -41 -2 -81q0 -30 1 -60q1 -13 1 -26q0 -57 -11 -114q0 -70 0.5 -140t-0.5 -141q0 110 1 110v-4q0 -27 -1 -106q-1 -13 -2 -41zM374 1143q-4 -33 10 -47 q10 -6 29 -3q19 2 31 3q16 0 41 -2q24 -1 38 9q11 14 10 38q-1 25 -2 42q1 50 4 100q4 50 4 100q1 41 1 81q0 -38 0 -30v30v19t-4 19q-9 2 -18 -5t-18 -9q-30 -4 -61 -1t-60 10q0 -76 1 -151v-51q0 -50 -1 -100q-2 -19 -5 -52z" />
<glyph unicode="u" horiz-adv-x="1361" d="M82 524q0 50 1 100q15 69 26 138q12 69 37 135q15 37 34 73q19 35 45 66q14 16 35 37q22 21 28 40q1 15 -12 25q-13 11 0 23q16 9 40 2q23 -8 39 -13q47 -10 85 -24t75 -46q9 -7 25 -20q16 -12 19 -23q-1 -14 -19 -21t-28 -13q-21 -19 -29 -51q-7 -33 -12 -60 q-29 -133 -38 -278q-2 -31 -2 -62q0 -111 23 -216q11 -60 39 -115t96 -58q72 3 113 54t73 108q90 140 130 302q28 112 28 226q0 51 -6 103q-5 49 -14 99q-9 49 -16 98q-3 13 -9 30q-6 16 -5 29q5 13 15 13q13 0 34 -24q36 -41 50 -52q22 -3 49 8q26 11 50 11q20 -3 38 -18 q17 -14 34 -16q4 0 7 5q2 5 6 5q9 -1 17 -11t13 -15q20 -22 42 -43q21 -21 31 -50q8 -39 8 -83v-17q-3 -53 -6 -100q-4 -121 -13 -240q-7 -90 -7 -181q0 -30 1 -60q7 -150 15 -299q-6 112 -6 116q0 63 6 -116q4 -22 7 -51t-28 -30q-24 3 -43 24q-19 20 -34 38 q-48 51 -91 106t-90 108q-11 14 -36 49q-26 36 -39 35q-7 -7 -23 -41t-23 -48q-37 -70 -85 -149q-48 -80 -119 -119q-73 -29 -139 -29q-131 0 -238 114q-160 173 -196 372q-8 50 -8 100zM183 548q0 -91 14 -180q13 -88 47 -174q7 -22 15 -48q8 -27 22 -46q8 -9 15 -11t18 -7 q69 -41 147 -41q32 0 65 7q-87 -4 -87 -7q0 -1 3 -1q4 -1 11 -1q23 0 73 9q11 2 41 9q31 6 36 13q-2 3 -15 13q-14 9 -16 10q-34 22 -63 49q29 -24 23 -20q-6 5 -23 20q-51 47 -95 104t-57 127q-20 121 -21 250q0 129 17 251q5 34 14 68q8 34 17 69q3 9 8 18q6 9 6 19 q-1 4 -11 12q-9 8 -15 -5q-1 -4 4 -7q4 -3 5 -7q-1 -4 -11 -16q-9 -13 -11 -16q-19 -24 -38 -47q-18 -24 -34 -50q-34 -56 -57 -118q-24 -61 -33 -126q-4 -30 -6 -60t-8 -60zM943 392q15 -51 63 -111q48 -61 82 -105q31 -40 60 -81q-28 38 -22 31q6 -8 22 -31q5 -6 13 -12 q7 -7 11 -1q8 19 1 50l-10 50q-7 49 -10 100q-2 51 -3 101q0 30 3 60t4 61v37q0 112 5 224q6 131 11 262q-2 50 -28 50q-8 0 -19 -5q-43 -22 -76 -26q-10 5 -29 26t-26 10q-2 -10 4 -29q5 -20 7 -31q6 -40 12 -79q6 -40 10 -80q4 -42 4 -86q0 -76 -12 -156 q-19 -128 -77 -229z" />
<glyph unicode="v" horiz-adv-x="1198" d="M-37 1140q41 28 93 32q53 5 101 8q14 2 30 5q15 4 29 0q24 -10 45 -37t41 -45q39 -31 78 -63q40 -31 65 -76q21 -44 30 -95q8 -51 16 -99q16 -89 35 -177t43 -175q37 -135 88 -265l-37 102l1 -4q8 -25 36 -98q2 -10 14 -37q12 -28 23 -26q11 10 10 38t-1 42q4 44 14 88 q11 45 20 88q9 54 18 109q8 54 20 108q31 127 78 248q46 122 102 240q21 45 45 89t45 89l15 39t25 29q21 -5 49 -46q27 -41 25 -64q-15 -42 -39 -81t-46 -78q-68 -123 -113 -256q39 100 39 103q0 1 -2 -4q-11 -24 -37 -99q-32 -101 -57 -202t-47 -205q-8 -34 -17 -68 q-10 -33 -17 -68q-9 -46 -21 -98q-11 -53 -11 -99q2 -11 6 -20q5 -10 3 -20q-6 -17 -32 -19q-25 -2 -40 -3q-40 -6 -80 -8q-40 -1 -79 -7q-14 -3 -30 -7q-15 -5 -30 -1q-19 9 -47 37t-36 48q0 3 1 5q2 3 1 5q-12 21 -33 35q-21 15 -33 39q-16 42 -23 87t-16 89 q-44 175 -101 346l43 -134l-2 5q-10 33 -41 129q-22 67 -43 134q-22 67 -51 131q-13 26 -29 52q-17 25 -27 53q-3 6 -5 18q-3 12 11 15q11 -1 24 -17t19 -25q34 -38 60 -79q25 -42 45 -89q23 -55 46 -111q22 -57 40 -113q5 -20 8 -40q3 -19 9 -38q48 -132 83 -268 q-29 103 -29 105l1 -4q8 -24 28 -101q21 -77 37 -156q-14 59 -14 61l1 -2q4 -14 13 -59q1 -12 5 -30q3 -18 15 -25q9 -3 20 0q11 4 19 6q29 5 59 5q30 1 60 4q6 0 18 1t14 13q-3 19 -30 38q-26 19 -39 33q-24 36 -39 81t-29 86q-42 114 -70 230t-50 235q-10 61 -20 128 q-9 68 -38 123q-36 56 -96 56h-10q-66 -5 -130 -20q-14 -4 -29 -8q-16 -5 -30 -2q-25 7 -48 34t-38 47z" />
<glyph unicode="w" horiz-adv-x="1838" d="M87 1144q24 22 42 -2q17 -23 55 -23q24 4 49 11q25 8 49 8q20 -3 33 -23q12 -19 29 -17q4 2 6 8t6 7q8 0 17 -11t13 -15q17 -19 33 -37t27 -41q21 -46 29 -96q7 -50 17 -99q15 -64 35 -126q21 -62 34 -126q12 -64 27 -127l32 -126q10 -45 24 -88q-12 41 -10 33 q1 -9 10 -33q2 -9 5 -20t9 -7q5 8 6 28q1 21 2 31q8 40 13 80q6 39 12 79q13 79 27 158q15 79 37 156q19 57 42 113q23 57 34 115q4 27 -3 60q-6 33 -22 55q-12 11 -32 25q-20 15 -7 33q19 17 64 31q32 9 55 9q8 0 15 -1q4 -1 7 -5q4 -4 8 -5q22 3 34 51q12 47 41 54 q21 -3 50 -33q28 -30 29 -51q-4 -18 -21 -35q-16 -17 -10 -37q7 -13 20 -20q13 -8 19 -24q7 -24 5 -49q-2 -26 2 -50q18 -84 39 -166q20 -83 51 -163q22 -55 41 -112q-19 53 -15 42q5 -10 15 -42q1 -4 6 -19t9 -19q9 -1 17 19t9 27q36 93 70 188q-26 -73 -26 -74l1 3 q6 18 25 71q32 84 65 179t47 183q2 22 10 73q8 50 26 60q18 1 34 -18t32 -25h5q30 0 63 20q23 14 44 14q11 0 22 -4q6 -4 15 -14t13 -16q9 -9 23 -20q13 -11 20 -22q5 -14 0 -30t-11 -27q-18 -36 -37 -71q-20 -35 -38 -71q-61 -126 -118 -254t-116 -256q-17 -36 -37 -71 q-21 -35 -36 -72q-5 -18 -5 -36q0 -37 22 -71q24 -37 24 -74q0 -15 -4 -30q-9 -18 -31 -23q-21 -4 -39 -7q-48 -11 -99 -20q-42 -8 -83 -8h-16q-29 3 -61 32q-32 28 -47 53q-18 37 -19 87q-2 49 -7 90q-14 74 -35 147q-20 72 -38 145q-14 69 -24 138q9 -65 8 -52l-8 52 q0 3 -4 19q-3 16 -8 18q-3 -2 -8 -18t-6 -19q-8 -34 -15 -69q-6 -34 -14 -69q-22 -92 -41 -185q-19 -94 -30 -188q-4 -46 -7 -101q-3 -56 -31 -95q-20 -22 -57 -22h-6q-41 1 -71 6q-39 2 -81 2t-77 16q-18 10 -31 25q-14 16 -27 31q-11 10 -21 21q-11 10 -17 24 q-22 65 -27 137t-20 140q-42 165 -92 328q37 -128 37.5 -128t-1.5 5q-8 31 -36 123q-12 38 -26 75q-14 38 -25 76q-19 73 -32 147t-30 147zM195 1012q25 -97 53 -193q28 -97 53 -194q17 -63 36 -126q20 -62 37 -125q13 -49 27 -97q15 -48 19 -98q0 -22 1 -52q2 -30 18 -45 q18 -9 77 -10q39 -1 63 -1h20q7 0 20 2q13 1 17 9q4 15 -17 32q-20 17 -29 28q-18 31 -28 66q-9 34 -17 68q-23 93 -44 186q-20 93 -44 186q-13 48 -29 96q-16 47 -29 96q-8 42 -10 91q-2 50 -21 87q-13 13 -45 13q-16 0 -36 -3q-60 -10 -92 -16zM935 896q35 -145 64 -293 q29 -147 62 -293q16 -69 29 -138q-13 65 -10 52t10 -52q1 -11 2 -30q0 -19 8 -28q8 -4 24 -4q20 0 52 7q56 13 80 20q3 0 19 2q16 3 19 6q-1 5 -13 15q-11 11 -14 13q-13 12 -31 27q-18 16 -25 31q-6 23 12 44q17 22 15 47q-7 28 -24 55t-30 52q-56 118 -101 240 q37 -93 37 -95l-2 4q-9 23 -35 91q-41 103 -65 210q21 -79 21 -83q0 -1 -1 3q-7 20 -20 80l-20 98q9 -46 8 -37q-2 10 -8 37q-1 10 -4 20q-4 11 -11 10q-8 -8 -24 -51q-17 -43 -24 -60zM1244 464q2 -12 9 -41q8 -29 20 -35q11 1 13 15t1 19q-5 13 -19 24t-24 18zM1508 892 q20 31 34 65t32 66q5 6 16 23t-3 21q-4 0 -20 -5q-17 -4 -21 -7q-2 -4 -5 -20t-4 -20q-13 -62 -29 -123q14 58 12 46q-3 -11 -12 -46z" />
<glyph unicode="x" horiz-adv-x="1271" d="M51 1116q16 12 24 8q9 -5 28 0q61 21 128 27q8 1 16 0q57 0 101 -39q9 -7 31 -27q23 -19 23 -30q-5 -11 -26 -11h-30h-35.5h-35.5q-36 0 -71 -6q-5 0 -18 -4q-13 -3 -16 -11q2 -6 26 -38q23 -32 31 -43q47 -65 95 -129q49 -64 89 -134q8 -15 29 -57q20 -41 30 -47 q6 4 36 41t40 50q12 14 42 47q30 32 35 45q1 17 -16 35t-27 31q-26 37 -49 75q-23 39 -47 77q-16 26 -34 50t-35 50q-3 5 -9 17t-2 19q15 15 41 -12t35 -39q38 -44 73 -95q34 -50 59 -104q5 -14 17 -36q12 -21 31 -18q23 10 42 41q20 31 33 52q30 46 66 89q35 42 79 77 q17 15 48 37q30 22 54 14q15 -9 38 -34q24 -26 30 -41q2 -10 -6 -16q-9 -6 -15 -9q-25 -16 -51 -32t-48 -35q-41 -39 -71 -85q-29 -47 -65 -89q-19 -19 -43 -44q-23 -24 -17 -53q9 -28 27 -54q19 -25 32 -51q21 -46 41 -92q20 -45 49 -87q32 -44 71 -84q39 -39 74 -81 q22 -29 39 -59q16 -31 35 -61q12 -17 22 -15t26 -7q12 -8 22 -21q9 -12 19 -22q5 -4 16 -13q11 -10 13 -16q-3 -20 -38 -24q-36 -4 -52 -4q-119 -10 -239 -13q90 3 93 3q1 0 -3 0q-23 -2 -90 -3q-19 -1 -40 -3q-22 -2 -40 5q-25 12 -46 37q-22 25 -38 48q-38 54 -68 111 t-60 116q-12 22 -28 42q-15 19 -30 39q-6 9 -9 19q-4 11 -13 16q-12 3 -22 -14t-14 -26q-21 -39 -46 -77t-51 -75q-41 -61 -88 -122q-48 -61 -106 -107q-7 -3 -15 -3q-22 0 -49 23q-37 33 -42 49q1 6 10 16q10 10 14 12q22 21 45 41q22 20 42 43q43 55 83 112q40 58 78 117 q20 27 42 57q23 30 35 61q1 4 1 8q0 28 -29 71q-33 51 -52 77q-75 113 -151 224q-77 111 -153 223zM539 460q46 -65 93 -131q48 -66 85 -137q13 -30 28 -66q15 -37 44 -53q20 -8 43 -8q13 0 27 3q38 7 70 13q50 4 101 6q-47 -2 -38 -2q10 1 38 2q4 0 20 1q17 1 21 2 q2 8 -20 29q-22 20 -30 29q-18 24 -31 51q-13 28 -28 54q-20 29 -45 54q-26 24 -50 50q-42 48 -80 104t-65 113l-16 40t-16 34q-9 -1 -21 -20q-11 -18 -16 -26q-27 -36 -55 -73q-27 -37 -59 -69z" />
<glyph unicode="y" horiz-adv-x="1300" d="M-81 1136q44 48 103 48h2q60 -1 120 -8h17q26 0 54 2q7 1 15 1q29 0 55 -10q12 -8 45 -42t37 -43q-4 -21 -13 -15q-9 7 7 -15q19 -24 41 -46q22 -21 38 -47q36 -64 62 -136q27 -72 54 -141q20 -46 41 -91q20 -46 38 -93q2 -8 9 -29t17 -22q4 3 10 17q7 15 8 19 q16 37 28 75t25 77q39 115 90 223q52 108 107 215q12 22 21 46t11 48q-3 6 -17 -3t9 25q3 2 18 8t18 8q32 13 58 13q15 0 28 -4q35 -11 70 -54q9 -12 13 -25q4 -14 12 -27q10 -10 24 -20q14 -9 20 -22q5 -23 -16 -45t-35 -38q-29 -45 -53 -96q-24 -50 -52 -98 q-48 -75 -116 -169q-67 -93 -100 -169q-7 -24 8 -35q14 -10 13 -33q-6 -29 -18 -58q-13 -29 -23 -56q-17 -52 -35 -104q-18 -53 -42 -103q-26 -53 -60 -104q-33 -50 -62 -102q-18 -31 -36 -61q-19 -31 -31 -64q-92 -267 -92 -268.5t82 234.5q84 242 86 242t-79 -245 q-6 -14 -19 -23q-14 -9 -16 -26q-1 -41 6 -19q8 22 15 -9q0 -14 -23 -29q-22 -15 -32 -26q-13 -22 -37 -62q-20 -34 -41 -34q-4 0 -9 2q-25 16 -41 43t-35 49q-10 8 -24 18q-13 9 -10 25q11 29 45 64q34 36 54 64q23 39 31 84t20 88q12 28 33 64q14 25 14 48q0 9 -2 18 q-12 27 -38 45q-25 18 -40 45q-17 42 -26 86q-10 45 -24 87q-86 247 -184 488l75 -189l-3 8q-18 46 -72 181q-22 57 -42 113q-21 57 -43 113q-2 5 -8 19t-7 18q0 9 5 18t1 16q-13 12 -35 -6t-35 -21q-24 2 -49 32t-38 48zM87 1080q20 -21 44 -41q25 -19 39 -44 q20 -40 33 -84q14 -45 29 -86q94 -243 183 -487q-70 190 -70 190.5t3 -7.5q16 -46 67 -183q39 -103 66 -210q-22 79 -22 82q0 1 1 -3q6 -19 21 -79q2 -8 7 -31t11 -27q14 1 24 29q9 29 13 40q21 41 55 110q33 68 33 112q-6 40 -29 85q-22 44 -40 81q-40 92 -81 184 q-40 91 -78 184q-12 34 -36 97q-25 62 -52 80q-33 10 -107 10q-74 -1 -114 -2zM935 828q47 48 73 110q25 63 61 118q8 9 26 33q17 24 5 34q-20 8 -33 -17q-13 -26 -17 -39q-24 -62 -52 -122t-63 -117z" />
<glyph unicode="z" horiz-adv-x="1179" d="M35 1096q43 31 103 34q59 3 111 5q105 10 210 11q105 2 211 3q40 0 80 3q32 3 64 3h16q52 0 100 -8q48 -7 87 -42q9 -7 25 -21q16 -13 18 -24q-1 -5 -9 -12t-7 -14q10 -20 27 -28t10 -36q-22 -55 -77 -126t-94 -121q-41 -58 -73 -120q-33 -62 -71 -121q-26 -37 -57 -70 t-61 -66q-72 -84 -136 -174q51 69 51 69.5t-2 -2.5q-12 -17 -49 -67q-9 -10 -24 -33q-16 -23 -8 -37q6 -4 21 -4q14 1 20 2q50 0 99 -4q-46 3 -37 2t37 -2q33 -1 67 -1q67 0 134 3l200 6q32 -1 56 -18q23 -17 45 -40l13 -13q9 -10 7 -18q-6 -13 -26 -14q-19 -2 -30 0 q-30 2 -60 2l-40 -1q-50 -1 -101 -2q-105 -1 -210 -1q-105 1 -211 6q-37 1 -73 1h-37h-28l-82 4q-29 5 -45 18q-16 12 -25 15q-13 2 -16 -8q-2 -10 -14 -11q-8 5 -42 40q-33 35 -37 47q2 17 17 37q14 19 24 33q58 82 118 161l-47 -62l2 2q11 15 45 60q46 61 81 127 q35 65 74 130q42 68 90 133q49 64 100 126q57 70 123 133q-49 -50 -51 -50l2 2q12 13 49 48q12 10 32 25q21 15 26 29q-1 10 -22 9t-27 -2q-80 -3 -161 -4l63 1h-2q-15 0 -61 -1q-64 0 -130 -2q-65 -2 -129 -11q-37 -7 -80 -17q-25 -6 -48 -6q-17 0 -32 3q-26 8 -48 34 t-38 47zM207 112q27 -7 60 -13q32 -5 59 5q35 20 63 84q27 64 53 102q47 58 97 115q49 56 95 115q52 69 98 140q47 72 93 143l112 168q-43 -66 -44 -66l2 3q11 15 42 63l24 33t17 36q-3 8 -16 10q-13 1 -17 1q-54 5 -109 5h-31q66 0 52 0q-13 1 -52 0q-4 0 -20 -1 q-16 0 -19 -4q2 -11 38 -38q35 -27 36 -52q-8 -23 -39 -45t-50 -37q-51 -47 -95 -102q-44 -56 -88 -109q-49 -59 -82 -127t-72 -133q-48 -76 -102 -149t-105 -147z" />
<glyph unicode="{" horiz-adv-x="886" d="M65 629v159q43 21 79 47t61.5 59t40 73.5t14.5 91.5v180q0 118 15.5 195t58 121t118 61.5t195.5 17.5h170v-172q-57 -12 -97 -22.5t-66 -31.5t-38 -58t-12 -103v-145q0 -79 -17.5 -152t-56.5 -127.5t-102 -86t-154 -27.5q95 -2 158.5 -32t101.5 -82.5t54 -124t16 -155.5 v-135q0 -76 9 -117t33 -61.5t65.5 -28t105.5 -16.5v-164h-170q-120 0 -195.5 17.5t-118 62.5t-58 121.5t-15.5 195.5v166q0 51 -14.5 92t-40 74.5t-61.5 59.5t-79 47z" />
<glyph unicode="|" horiz-adv-x="618" d="M161 -205v1843h297v-1843h-297z" />
<glyph unicode="}" horiz-adv-x="885" d="M69 -43q64 9 105.5 16.5t65.5 28t33 61.5t9 117v135q0 84 15.5 155.5t53.5 124t101.5 82.5t158.5 32q-91 -4 -154 27.5t-102 86t-56 127.5t-17 152v145q0 66 -12 103t-38 58t-66 31.5t-97 22.5v172h170q120 0 195 -17.5t118 -61.5t58.5 -121t15.5 -195v-180 q0 -51 14.5 -91.5t40 -73.5t61 -59t78.5 -47v-159q-43 -21 -79 -47t-61.5 -59.5t-39.5 -74.5t-14 -92v-166q0 -119 -15.5 -195.5t-58.5 -121.5t-118 -62.5t-195 -17.5h-170v164z" />
<glyph unicode="~" horiz-adv-x="1100" d="M125 524q0 57 16 118t49 111.5t82.5 82.5t116.5 32q60 0 110.5 -16t92.5 -35t75.5 -35t59.5 -16q19 0 32.5 10t22 25.5t12.5 33.5t5 33h182q0 -54 -16 -114.5t-48.5 -111.5t-81 -84.5t-112.5 -33.5q-65 0 -116.5 16.5t-93 37t-75.5 37t-64 16.5q-20 0 -33.5 -10.5 t-21.5 -26.5t-12 -35t-4 -35h-178z" />
<glyph unicode="&#xa1;" horiz-adv-x="667" d="M120 -83l111 1145h205l112 -1145h-428zM151 1308q0 37 14.5 70.5t39 58t58 39t71.5 14.5q37 0 70.5 -14.5t58 -39t39 -58t14.5 -70.5q0 -38 -14.5 -71.5t-39 -58t-58 -39t-70.5 -14.5q-38 0 -71.5 14.5t-58 39t-39 58t-14.5 71.5z" />
<glyph unicode="&#xa2;" horiz-adv-x="1036" d="M68 689q0 102 37.5 190t102.5 152.5t153.5 101.5t190.5 37q14 0 27 -0.5t27 -1.5l82 301h133l-90 -330q76 -29 136 -83t91 -136l-110 -46q-18 60 -54 104t-88 66l-194 -709q45 -18 101 -18q41 0 77.5 13.5t66.5 37.5t52 56.5t36 70.5l110 -44q-24 -61 -66.5 -106.5 t-96.5 -75.5t-115.5 -45t-124.5 -15q-19 0 -37 1t-36 4l-66 -243h-133l75 277q-64 27 -117 71t-90.5 101t-58.5 125t-21 144zM326 689q0 -72 18 -143t58 -125l175 638q-63 -9 -110 -45.5t-78.5 -88.5t-47 -114t-15.5 -122z" />
<glyph unicode="&#xa3;" horiz-adv-x="1166" d="M73 596v147h151v59q0 127 35 227t99.5 169.5t156 106t203.5 36.5q21 0 50.5 -4t63 -11t68 -16.5t65.5 -21t56 -24.5t39 -26l-153 -253q-9 32 -24.5 72t-38 75t-53 58.5t-71.5 23.5q-56 0 -91 -31.5t-54.5 -87t-26 -130.5t-6.5 -163v-59h359v-147h-359v-300h509v-147h-827 v447h-151z" />
<glyph unicode="&#xa4;" horiz-adv-x="893" d="M100 475l155 155q-26 47 -26 106q0 58 28 109l-142 142l88 87l140 -141q25 14 53 22t58 8q29 0 56 -7t51 -20l129 129l88 -88l-128 -128q31 -51 31 -113q0 -30 -7.5 -58t-21.5 -53l141 -141l-88 -88l-141 141q-51 -28 -110 -28q-32 0 -60.5 8t-53.5 22l-153 -152z M341 738q0 -23 8.5 -43.5t23.5 -36.5t35.5 -25t43.5 -9t43.5 9t36 24.5t24.5 36.5t9 44t-9 43.5t-24.5 36t-36 24.5t-43.5 9t-43 -9t-35 -24.5t-24 -36t-9 -43.5z" />
<glyph unicode="&#xa5;" horiz-adv-x="1180" d="M57 1296h324l250 -579l269 579h224l-346 -622h227v-147h-253v-383h-318v383h-258v147h223z" />
<glyph unicode="&#xa6;" horiz-adv-x="625" d="M164 -205v836h297v-836h-297zM164 803v835h297v-835h-297z" />
<glyph unicode="&#xa7;" horiz-adv-x="1269" d="M96 82l197 161q19 -36 57 -76t84.5 -73.5t96.5 -55t92 -21.5q36 0 82.5 3.5t88.5 18t71 42.5t29 77q0 48 -33.5 79.5t-88 53.5t-124.5 39t-143 35.5t-143 42.5t-124.5 61t-88 90.5t-33.5 131.5t26.5 144.5t86.5 118.5q-113 81 -113 217q0 75 20.5 133t56.5 101.5 t85.5 73.5t107 48.5t120.5 27t127 8.5q63 0 135.5 -13t142 -39t130.5 -64t102 -89l-197 -162q-17 46 -47 87.5t-69 72.5t-86 49t-98 18q-36 0 -81.5 -3.5t-85 -17.5t-66.5 -42t-27 -78q0 -35 17 -61t44.5 -45t62 -32t70.5 -22t70 -16t59 -14q46 -13 97.5 -26.5t102 -31 t96.5 -41.5t81 -58t56 -79.5t21 -106.5q0 -78 -25.5 -145.5t-84.5 -120.5q110 -78 110 -214q0 -76 -22 -135t-60.5 -102.5t-90 -73t-111.5 -47.5t-124.5 -26t-128.5 -8q-89 0 -157 12t-128 37t-118 63.5t-127 92.5zM386 802q0 -36 17 -61.5t44 -44.5t62 -32t71 -22t70 -16 t59 -14q41 -11 81 -22t80 -23q24 30 24 71q0 34 -17.5 59.5t-46 44.5t-64 32.5t-72 23.5t-70.5 17t-59 14q-40 11 -79.5 21.5t-78.5 22.5q-11 -15 -16 -33.5t-5 -37.5z" />
<glyph unicode="&#xa8;" horiz-adv-x="672" d="M0 1257q0 30 11.5 57t31.5 47t47 31.5t57 11.5q31 0 58 -11.5t47 -31.5t31.5 -47t11.5 -57t-11.5 -57t-31.5 -47t-47 -31.5t-58 -11.5q-30 0 -57 11.5t-47 31.5t-31.5 47t-11.5 57zM377 1257q0 30 11.5 57t31.5 47t47 31.5t57 11.5q31 0 58 -11.5t47 -31.5t31.5 -47 t11.5 -57t-11.5 -57t-31.5 -47t-47 -31.5t-58 -11.5q-30 0 -57 11.5t-47 31.5t-31.5 47t-11.5 57z" />
<glyph unicode="&#xa9;" horiz-adv-x="751" d="M110 726q0 55 21 103.5t57 84.5t84.5 57t103.5 21t103 -21t84 -57t57 -84.5t21 -103.5t-21 -103.5t-57 -84.5t-84 -57t-103 -21t-103.5 21t-84.5 57t-57 84.5t-21 103.5zM152 725q0 -47 17.5 -87.5t48 -71.5t71 -48.5t87.5 -17.5q46 0 87 17.5t72 48.5t48.5 71.5 t17.5 87.5q0 46 -17.5 87t-48.5 71.5t-72 48t-87 17.5q-47 0 -87.5 -17.5t-71 -48t-48 -71.5t-17.5 -87zM189 724q0 40 14.5 74.5t40 59.5t60 39.5t74.5 14.5q51 0 95 -24t64 -74l-43 -18q-10 32 -33.5 52.5t-58.5 20.5q-28 0 -49 -13.5t-35 -34.5t-21 -46.5t-7 -50.5 q0 -26 6 -52t19.5 -46.5t35 -33.5t51.5 -13q32 0 55.5 20t34.5 49l43 -17q-19 -48 -63.5 -71.5t-93.5 -23.5q-40 0 -74.5 14.5t-60 40t-40 59.5t-14.5 74z" />
<glyph unicode="&#xaa;" horiz-adv-x="1192" d="M155 299v184h860v-184h-860zM155 1018q0 88 26.5 165t77 134t123.5 90t165 33q46 0 87.5 -13.5t76.5 -37.5t62 -58.5t44 -76.5l100 167h98v-809h-245v86q-42 -52 -99 -77t-124 -25q-92 0 -164.5 33t-123 90t-77.5 134t-27 165zM402 1018q0 -46 7 -98.5t27.5 -97.5 t56 -74.5t92.5 -29.5q34 0 61.5 14.5t47.5 38.5t34.5 55.5t23.5 64.5t13 66t4 61q0 47 -7 99.5t-27.5 97t-56.5 74t-93 29.5t-92.5 -29.5t-55.5 -74.5t-27.5 -97.5t-7.5 -98.5z" />
<glyph unicode="&#xab;" horiz-adv-x="1412" d="M74 507v140l614 305v-209l-378 -160v-13l378 -174v-196zM654 507v140l614 305v-209l-378 -160v-13l378 -174v-196z" />
<glyph unicode="&#xac;" horiz-adv-x="1129" d="M140 629v184h836v-444h-207v260h-629z" />
<glyph unicode="&#xad;" horiz-adv-x="1282" d="M141 629v184h1000v-184h-1000z" />
<glyph unicode="&#xae;" horiz-adv-x="735" d="M102 1174q0 55 21 103.5t57 84.5t84.5 57t103.5 21t103 -21t84 -57t57 -84.5t21 -103.5t-21 -103t-57 -84t-84 -57t-103 -21t-103.5 21t-84.5 57t-57 84t-21 103zM144 1173q0 -48 19 -89.5t51 -72.5v325q-32 -31 -51 -73t-19 -90zM231 1351h160q25 0 48 -5.5t41 -18.5 t28.5 -33t10.5 -48q0 -23 -9.5 -42.5t-25 -34.5t-35.5 -25.5t-42 -13.5q13 -23 28 -42.5t30 -35t28.5 -27.5t23.5 -20q35 32 55.5 75t20.5 93q0 46 -17.5 87t-48.5 72t-72 48.5t-87 17.5q-38 0 -73 -12t-64 -35zM237 991q28 -20 61 -31t70 -11t70.5 11t61.5 31h-87 q-16 14 -29 34q-11 17 -23 42.5t-18 58.5h-30v-135h-76zM313 1160h35q38 0 54 26t16 60q0 70 -70 70h-35v-156z" />
<glyph unicode="&#xaf;" horiz-adv-x="545" d="M0 1142v198h545v-198h-545z" />
<glyph unicode="&#xb0;" horiz-adv-x="638" d="M93 1239q0 46 17.5 87.5t48 72.5t71.5 49t88 18t88.5 -18t72 -48.5t48.5 -72t18 -88.5t-18 -88.5t-48.5 -72t-72 -48.5t-88.5 -18t-88 18t-71.5 48.5t-48 72t-17.5 88.5zM236 1239q0 -34 23.5 -59t58.5 -25t59.5 24.5t24.5 59.5q0 34 -25 59t-59 25t-58 -25t-24 -59z" />
<glyph unicode="&#xb1;" horiz-adv-x="1081" d="M123 0v184h835v-184h-835zM123 629v184h269v293h297v-293h269v-184h-269v-308h-297v308h-269z" />
<glyph unicode="&#xb2;" horiz-adv-x="878" d="M122 736q13 81 39 135t59 89t70.5 54.5t75.5 33.5q30 10 62 19.5t58.5 24.5t43.5 39t17 64q0 54 -34 81.5t-86 27.5t-90 -38.5t-55 -111.5l-153 85q20 41 55 71t77 49.5t86.5 28.5t83.5 9q56 0 111 -7.5t98.5 -30.5t70.5 -64.5t27 -108.5q0 -63 -25 -100t-64 -59 t-86.5 -35.5t-93.5 -29.5q-50 -17 -87 -44.5t-50 -81.5h406v-100h-616z" />
<glyph unicode="&#xb3;" horiz-adv-x="822" d="M84 885l178 85q0 -34 11.5 -62t31 -47.5t44.5 -30.5t51 -11t50 7.5t42.5 22t29.5 35.5t11 48q0 60 -38 87t-95 27h-95v93h95q39 0 68.5 20t29.5 58q0 43 -27 60t-71 17q-21 0 -40 -5.5t-33 -17.5t-22.5 -31.5t-8.5 -46.5l-148 109q22 27 53.5 45.5t66 29.5t69 15.5 t63.5 4.5q38 0 85 -6.5t88 -25.5t69 -52.5t28 -87.5q0 -37 -25 -69t-57 -51q28 -9 52.5 -25.5t43 -38.5t29.5 -49.5t11 -59.5q0 -68 -32.5 -108.5t-81 -62.5t-105.5 -29t-105 -7q-39 0 -86 9t-91 28.5t-81 50t-58 72.5z" />
<glyph unicode="&#xb4;" horiz-adv-x="516" d="M0 1086l198 354h318l-317 -354h-199z" />
<glyph unicode="&#xb5;" horiz-adv-x="1479" d="M182 -397v1552h337v-676q0 -62 8 -124t32.5 -111.5t70 -80.5t121.5 -31q50 0 89.5 22.5t69.5 59t51.5 83.5t35 96.5t19.5 97t6 85.5v579h339v-1155h-130l-155 269q-29 -67 -65.5 -122.5t-82.5 -94.5t-101.5 -60t-122.5 -19q-30 0 -59.5 6.5t-54.5 15t-44 18t-27 17.5 v-427h-337z" />
<glyph unicode="&#xb6;" horiz-adv-x="1680" d="M66 1001q0 111 42.5 193.5t113.5 137t164 81.5t194 27h884v-1440h-338v1256h-110v-1256h-336v538h-100q-65 0 -128.5 15t-120.5 43t-105.5 69t-84 92t-55.5 112.5t-20 131.5z" />
<glyph unicode="&#xb7;" horiz-adv-x="601" d="M118 702q0 38 14.5 71.5t39 58t58 39t71.5 14.5q37 0 70.5 -14.5t58 -39t39 -58t14.5 -71.5t-14.5 -71t-39 -57.5t-58 -39t-70.5 -14.5q-38 0 -71.5 14.5t-58 39t-39 57.5t-14.5 71z" />
<glyph unicode="&#xb8;" horiz-adv-x="426" d="M0 -223h113q1 -29 25.5 -43.5t49.5 -14.5q41 0 59.5 16t18.5 58q0 22 -15.5 34t-37.5 18t-45 7.5t-39 1.5l49 217h114l-35 -133q31 0 61.5 -9.5t54.5 -28t38.5 -45.5t14.5 -62q0 -53 -18 -92t-49.5 -65.5t-74.5 -39.5t-92 -13q-40 0 -75 15.5t-61 41.5t-41 61.5t-15 75.5 z" />
<glyph unicode="&#xb9;" horiz-adv-x="600" d="M136 739v100h82v449h-82v99h270v-548h82v-100h-352z" />
<glyph unicode="&#xba;" horiz-adv-x="1190" d="M144 1018q0 94 36.5 171.5t98.5 133t144 86.5t172 31t172 -31t144 -86.5t98.5 -133t36.5 -171.5t-36.5 -172t-98.5 -133.5t-144 -86t-172 -30.5t-172 30.5t-144 86t-98.5 133.5t-36.5 172zM165 299v184h860v-184h-860zM392 1018q0 -48 10 -103.5t33 -103.5t62 -79.5 t98 -31.5q61 0 100 31t62 78t32 103t9 106t-9 106t-31.5 103t-62 78t-100.5 31q-59 0 -98 -31.5t-62 -79.5t-33 -103.5t-10 -103.5z" />
<glyph unicode="&#xbb;" horiz-adv-x="1412" d="M144 200v196l378 174v13l-378 160v209l614 -305v-140zM724 200v196l378 174v13l-378 160v209l614 -305v-140z" />
<glyph unicode="&#xbc;" horiz-adv-x="1327" d="M100 739v100h82v449h-82v99h270v-548h82v-100h-352zM160 50l779 1340h218l-789 -1340h-208zM645 189q26 112 76 219t114 198h143q-34 -56 -58 -107.5t-40 -93t-25 -72t-13 -44.5h164v405h192v-405h44v-100h-44v-143h-192v143h-361z" />
<glyph unicode="&#xbd;" horiz-adv-x="1449" d="M100 739v100h82v449h-82v99h270v-548h82v-100h-352zM160 50l779 1340h218l-789 -1340h-208zM760 45q13 81 39 135t59 88.5t70.5 54.5t75.5 34q29 10 61 19.5t58.5 24.5t43.5 39t17 64q0 54 -34 81.5t-85 27.5q-52 0 -90 -38.5t-55 -111.5l-153 84q20 42 55 72t77 49.5 t86.5 28.5t83.5 9q56 0 111 -7.5t98.5 -30.5t70.5 -64.5t27 -108.5q0 -63 -24.5 -100t-63.5 -59t-87 -35.5t-94 -29.5q-50 -17 -87.5 -44.5t-50.5 -81.5h407v-100h-616z" />
<glyph unicode="&#xbe;" horiz-adv-x="1515" d="M63 885l178 85q0 -34 11.5 -62t31 -47.5t44.5 -30.5t51 -11t50 7.5t42.5 22t29.5 35.5t11 48q0 60 -38 87t-95 27h-95v93h95q39 0 68.5 20t29.5 58q0 43 -27 60t-71 17q-21 0 -40 -5.5t-33 -17.5t-22.5 -31.5t-8.5 -46.5l-148 109q22 27 53.5 45.5t66 29.5t69 15.5 t63.5 4.5q38 0 85 -6.5t88 -25.5t69 -52.5t28 -87.5q0 -37 -25 -69t-57 -51q28 -9 52.5 -25.5t43 -38.5t29.5 -49.5t11 -59.5q0 -68 -32.5 -108.5t-81 -62.5t-105.5 -29t-105 -7q-39 0 -86 9t-91 28.5t-81 50t-58 72.5zM335 50l778 1340h218l-788 -1340h-208zM820 189 q26 112 76 219t114 198h143q-34 -56 -58.5 -107.5t-40.5 -93t-25 -72t-12 -44.5h163v405h193v-405h43v-100h-43v-143h-193v143h-360z" />
<glyph unicode="&#xbf;" horiz-adv-x="1244" d="M81 425q0 76 22 131.5t58 97t82 73t94 58.5t94 53t82 57.5t58 72t22 96.5h205q0 -86 -23 -147.5t-58 -110.5t-75.5 -92t-75.5 -90.5t-58 -106.5t-23 -141q0 -66 11.5 -117.5t36 -86.5t64 -53.5t95.5 -18.5q52 0 94 26t71.5 66t45 88.5t15.5 93.5l276 -201 q-39 -73 -96 -122t-125.5 -79t-145 -42.5t-154.5 -12.5q-70 0 -141 15t-136.5 44.5t-123 72.5t-100 99.5t-67 126t-24.5 150.5zM510 1312q0 37 14.5 70t39.5 58t58 39.5t70 14.5t70 -14.5t58 -39.5t39.5 -58t14.5 -70t-14.5 -70t-39.5 -58t-58 -39.5t-70 -14.5t-70 14.5 t-58 39.5t-39.5 58t-14.5 70z" />
<glyph unicode="&#xc0;" horiz-adv-x="1629" d="M146 0v732q0 157 50 292t141.5 234.5t220 156t286.5 56.5q107 0 200.5 -30.5t170.5 -84t137.5 -127t101 -160.5t61.5 -184t19 -196v-19q-2 -84 -17.5 -174t-43.5 -180t-67 -178t-87.5 -168.5t-104.5 -151t-118 -124.5l-149 86q35 59 63.5 128.5t51.5 145.5t39.5 156 t27.5 159t16.5 155.5t5.5 145.5q0 54 -0.5 122.5t-8 139.5t-24.5 138.5t-50.5 120.5t-86 85t-130.5 32q-69 0 -118.5 -23.5t-84 -63t-55 -91.5t-32 -109.5t-15 -116t-3.5 -110.5v-279h431v-165h-431v-350h-397zM416 1926h317l199 -354h-200z" />
<glyph unicode="&#xc1;" horiz-adv-x="1629" d="M146 0v732q0 157 50 292t141.5 234.5t220 156t286.5 56.5q107 0 200.5 -30.5t170.5 -84t137.5 -127t101 -160.5t61.5 -184t19 -196v-19q-2 -84 -17.5 -174t-43.5 -180t-67 -178t-87.5 -168.5t-104.5 -151t-118 -124.5l-149 86q35 59 63.5 128.5t51.5 145.5t39.5 156 t27.5 159t16.5 155.5t5.5 145.5q0 54 -0.5 122.5t-8 139.5t-24.5 138.5t-50.5 120.5t-86 85t-130.5 32q-69 0 -118.5 -23.5t-84 -63t-55 -91.5t-32 -109.5t-15 -116t-3.5 -110.5v-279h431v-165h-431v-350h-397zM734 1563l198 354h318l-317 -354h-199z" />
<glyph unicode="&#xc2;" horiz-adv-x="1629" d="M146 0v732q0 157 50 292t141.5 234.5t220 156t286.5 56.5q107 0 200.5 -30.5t170.5 -84t137.5 -127t101 -160.5t61.5 -184t19 -196v-19q-2 -84 -17.5 -174t-43.5 -180t-67 -178t-87.5 -168.5t-104.5 -151t-118 -124.5l-149 86q35 59 63.5 128.5t51.5 145.5t39.5 156 t27.5 159t16.5 155.5t5.5 145.5q0 54 -0.5 122.5t-8 139.5t-24.5 138.5t-50.5 120.5t-86 85t-130.5 32q-69 0 -118.5 -23.5t-84 -63t-55 -91.5t-32 -109.5t-15 -116t-3.5 -110.5v-279h431v-165h-431v-350h-397zM576 1561l193 355h135l199 -355h-250l-65 138l-66 -138h-146z " />
<glyph unicode="&#xc3;" horiz-adv-x="1629" d="M146 0v732q0 157 50 292t141.5 234.5t220 156t286.5 56.5q107 0 200.5 -30.5t170.5 -84t137.5 -127t101 -160.5t61.5 -184t19 -196v-19q-2 -84 -17.5 -174t-43.5 -180t-67 -178t-87.5 -168.5t-104.5 -151t-118 -124.5l-149 86q35 59 63.5 128.5t51.5 145.5t39.5 156 t27.5 159t16.5 155.5t5.5 145.5q0 54 -0.5 122.5t-8 139.5t-24.5 138.5t-50.5 120.5t-86 85t-130.5 32q-69 0 -118.5 -23.5t-84 -63t-55 -91.5t-32 -109.5t-15 -116t-3.5 -110.5v-279h431v-165h-431v-350h-397zM451 1567q2 52 17 107.5t44 101.5t73 75.5t105 29.5 q54 0 101.5 -15t87 -32.5t71 -32.5t54.5 -15q17 0 29.5 9.5t20 23.5t11.5 31t4 31h160q-4 -50 -19 -105t-43.5 -101.5t-71.5 -77t-102 -30.5t-106.5 15t-86 33.5t-70 33.5t-59.5 15q-18 0 -30 -9.5t-20 -24t-11.5 -31.5t-3.5 -32h-155z" />
<glyph unicode="&#xc4;" horiz-adv-x="1629" d="M146 0v732q0 157 50 292t141.5 234.5t220 156t286.5 56.5q107 0 200.5 -30.5t170.5 -84t137.5 -127t101 -160.5t61.5 -184t19 -196v-19q-2 -84 -17.5 -174t-43.5 -180t-67 -178t-87.5 -168.5t-104.5 -151t-118 -124.5l-149 86q35 59 63.5 128.5t51.5 145.5t39.5 156 t27.5 159t16.5 155.5t5.5 145.5q0 54 -0.5 122.5t-8 139.5t-24.5 138.5t-50.5 120.5t-86 85t-130.5 32q-69 0 -118.5 -23.5t-84 -63t-55 -91.5t-32 -109.5t-15 -116t-3.5 -110.5v-279h431v-165h-431v-350h-397zM504 1699q0 30 11.5 57t31.5 47t47 31.5t57 11.5 q31 0 58 -11.5t47 -31.5t31.5 -47t11.5 -57t-11.5 -57t-31.5 -47t-47 -31.5t-58 -11.5q-30 0 -57 11.5t-47 31.5t-31.5 47t-11.5 57zM881 1699q0 30 11.5 57t31.5 47t47 31.5t57 11.5q31 0 58 -11.5t47 -31.5t31.5 -47t11.5 -57t-11.5 -57t-31.5 -47t-47 -31.5t-58 -11.5 q-30 0 -57 11.5t-47 31.5t-31.5 47t-11.5 57z" />
<glyph unicode="&#xc5;" horiz-adv-x="1632" d="M148 0v732q0 139 39.5 261t112 218t176 160.5t232.5 87.5q-43 31 -68 79t-25 105q0 47 17.5 88.5t48.5 72.5t72 49t88 18q46 0 87.5 -18t72.5 -49t49 -72.5t18 -88.5q0 -57 -25.5 -105t-68.5 -79q132 -26 237.5 -99t178 -177.5t110.5 -232t36 -261.5v-19 q-2 -84 -17.5 -174t-43.5 -180t-67 -178t-87.5 -168.5t-104.5 -151t-118 -124.5l-149 86q35 59 63.5 128.5t51.5 145.5t39.5 156t27.5 159t16.5 155.5t5.5 145.5q0 54 -0.5 122.5t-8 139.5t-24.5 138.5t-50.5 120.5t-86 85t-130.5 32q-69 0 -118.5 -23.5t-84 -63t-55 -91.5 t-32 -109.5t-15 -116t-3.5 -110.5v-279h431v-165h-431v-350h-397zM759 1643q0 -34 23.5 -59t58.5 -25q34 0 59 24.5t25 59.5q0 34 -25 59t-59 25q-35 0 -58.5 -25t-23.5 -59z" />
<glyph unicode="&#xc6;" horiz-adv-x="2271" d="M147 0v732q0 157 50 287t141.5 223.5t220 145.5t286.5 52h1343v-184h-637v-445h492v-183h-492v-444h637v-184h-851q-51 -91 -111.5 -168.5t-128.5 -137.5l-149 86q35 59 63.5 128.5t51.5 145.5t39.5 156t27.5 159t16.5 155.5t5.5 145.5q0 54 -1 122.5t-9 139.5 t-26.5 138.5t-52.5 120.5t-87 85t-131 32q-69 0 -118 -23.5t-82.5 -63t-53.5 -91.5t-30.5 -109.5t-13.5 -116t-3 -110.5v-279h431v-165h-431v-350h-397z" />
<glyph unicode="&#xc7;" horiz-adv-x="1543" d="M84 722q0 106 26.5 203.5t75 181t117 151.5t152.5 116t181.5 74t203.5 26q102 0 199.5 -24t181.5 -72.5t149.5 -122t103.5 -172.5l-171 -72q-20 65 -53.5 119t-80 92.5t-105.5 60t-129 21.5q-75 0 -137.5 -24.5t-112 -67.5t-86.5 -100t-62 -121.5t-37 -133.5t-12 -135 q0 -105 24.5 -209t78 -187t138.5 -134.5t206 -51.5q64 0 121 21.5t103.5 59t81.5 88.5t56 110l173 -69q-35 -89 -95.5 -157t-137.5 -115t-166 -73t-180 -32l-19 -75q31 0 61.5 -9.5t54.5 -28t38.5 -45.5t14.5 -62q0 -53 -18 -92t-49.5 -65.5t-74.5 -39.5t-92 -13 q-40 0 -75 15.5t-61 41.5t-41 61.5t-15 75.5h113q1 -29 25.5 -43.5t49.5 -14.5q41 0 59.5 16t18.5 58q0 22 -15.5 34t-37.5 18t-45 7.5t-39 1.5l36 160q-149 10 -276 71.5t-220.5 161t-146.5 231.5t-53 284z" />
<glyph unicode="&#xc8;" horiz-adv-x="1280" d="M163 0v1440h1034v-184h-637v-445h492v-183h-492v-444h637v-184h-1034zM279 1894h317l199 -354h-200z" />
<glyph unicode="&#xc9;" horiz-adv-x="1280" d="M163 0v1440h1034v-184h-637v-445h492v-183h-492v-444h637v-184h-1034zM584 1536l198 354h318l-317 -354h-199z" />
<glyph unicode="&#xca;" horiz-adv-x="1280" d="M163 0v1440h1034v-184h-637v-445h492v-183h-492v-444h637v-184h-1034zM417 1538l193 355h135l199 -355h-250l-65 138l-66 -138h-146z" />
<glyph unicode="&#xcb;" horiz-adv-x="1280" d="M163 0v1440h1034v-184h-637v-445h492v-183h-492v-444h637v-184h-1034zM344 1684q0 30 11.5 57t31.5 47t47 31.5t57 11.5q31 0 58 -11.5t47 -31.5t31.5 -47t11.5 -57t-11.5 -57t-31.5 -47t-47 -31.5t-58 -11.5q-30 0 -57 11.5t-47 31.5t-31.5 47t-11.5 57zM721 1684 q0 30 11.5 57t31.5 47t47 31.5t57 11.5q31 0 58 -11.5t47 -31.5t31.5 -47t11.5 -57t-11.5 -57t-31.5 -47t-47 -31.5t-58 -11.5q-30 0 -57 11.5t-47 31.5t-31.5 47t-11.5 57z" />
<glyph unicode="&#xcc;" horiz-adv-x="723" d="M-47 1894h317l199 -354h-200zM163 0v1440h397v-1440h-397z" />
<glyph unicode="&#xcd;" horiz-adv-x="723" d="M163 0v1440h397v-1440h-397zM261 1540l198 354h318l-317 -354h-199z" />
<glyph unicode="&#xce;" horiz-adv-x="723" d="M98 1537l193 355h135l199 -355h-250l-65 138l-66 -138h-146zM163 0v1440h397v-1440h-397z" />
<glyph unicode="&#xcf;" horiz-adv-x="723" d="M26 1683q0 30 11.5 57t31.5 47t47 31.5t57 11.5q31 0 58 -11.5t47 -31.5t31.5 -47t11.5 -57t-11.5 -57t-31.5 -47t-47 -31.5t-58 -11.5q-30 0 -57 11.5t-47 31.5t-31.5 47t-11.5 57zM163 0v1440h397v-1440h-397zM403 1683q0 30 11.5 57t31.5 47t47 31.5t57 11.5 q31 0 58 -11.5t47 -31.5t31.5 -47t11.5 -57t-11.5 -57t-31.5 -47t-47 -31.5t-58 -11.5q-30 0 -57 11.5t-47 31.5t-31.5 47t-11.5 57z" />
<glyph unicode="&#xd0;" horiz-adv-x="1706" d="M30 629v184h199v627h635q102 0 198 -24t180.5 -68.5t155 -108.5t121 -143.5t78.5 -174t28 -199.5t-28 -199.5t-78.5 -174.5t-120.5 -144.5t-154.5 -109.5t-181 -69.5t-198.5 -24.5h-635v629h-199zM626 140h105q127 0 219.5 47.5t153 128t90 185.5t29.5 221 q0 117 -28.5 222.5t-88.5 185.5t-153 127t-222 47h-105v-491h240v-184h-240v-489z" />
<glyph unicode="&#xd1;" horiz-adv-x="1642" d="M163 0v1440h258l875 -989v989h183v-1440h-258l-874 988v-988h-184zM432 1539q2 52 17 107.5t44 101.5t73 75.5t105 29.5q54 0 101.5 -15t87 -32.5t71 -32.5t54.5 -15q17 0 29.5 9.5t20 23.5t11.5 31t4 31h160q-4 -50 -19 -105t-43.5 -101.5t-71.5 -77t-102 -30.5 t-106.5 15t-86 33.5t-70 33.5t-59.5 15q-18 0 -30 -9.5t-20 -24t-11.5 -31.5t-3.5 -32h-155z" />
<glyph unicode="&#xd2;" horiz-adv-x="1750" d="M84 722q0 177 59.5 316.5t165 236t250.5 148t316 51.5t316 -51.5t250.5 -148t165 -236t59.5 -316.5q0 -174 -60 -313.5t-166 -236.5t-251 -149t-314 -52t-314 52t-251 149t-166 236.5t-60 313.5zM441 1918h317l199 -354h-200zM488 722q0 -66 6 -135t22 -133.5 t43.5 -121.5t70.5 -99.5t103.5 -67.5t141.5 -25q79 0 138 25.5t102 69t71.5 101t45 122t23.5 132.5t7 132q0 66 -6 135t-22 134t-43.5 122t-70.5 99.5t-103.5 67t-141.5 24.5q-82 0 -143 -24.5t-104 -66.5t-70 -99t-42.5 -121.5t-21.5 -134t-6 -136.5z" />
<glyph unicode="&#xd3;" horiz-adv-x="1750" d="M84 722q0 177 59.5 316.5t165 236t250.5 148t316 51.5t316 -51.5t250.5 -148t165 -236t59.5 -316.5q0 -174 -60 -313.5t-166 -236.5t-251 -149t-314 -52t-314 52t-251 149t-166 236.5t-60 313.5zM488 722q0 -66 6 -135t22 -133.5t43.5 -121.5t70.5 -99.5t103.5 -67.5 t141.5 -25q79 0 138 25.5t102 69t71.5 101t45 122t23.5 132.5t7 132q0 66 -6 135t-22 134t-43.5 122t-70.5 99.5t-103.5 67t-141.5 24.5q-82 0 -143 -24.5t-104 -66.5t-70 -99t-42.5 -121.5t-21.5 -134t-6 -136.5zM789 1564l198 354h318l-317 -354h-199z" />
<glyph unicode="&#xd4;" horiz-adv-x="1750" d="M84 722q0 177 59.5 316.5t165 236t250.5 148t316 51.5t316 -51.5t250.5 -148t165 -236t59.5 -316.5q0 -174 -60 -313.5t-166 -236.5t-251 -149t-314 -52t-314 52t-251 149t-166 236.5t-60 313.5zM488 722q0 -66 6 -135t22 -133.5t43.5 -121.5t70.5 -99.5t103.5 -67.5 t141.5 -25q79 0 138 25.5t102 69t71.5 101t45 122t23.5 132.5t7 132q0 66 -6 135t-22 134t-43.5 122t-70.5 99.5t-103.5 67t-141.5 24.5q-82 0 -143 -24.5t-104 -66.5t-70 -99t-42.5 -121.5t-21.5 -134t-6 -136.5zM611 1566l193 355h135l199 -355h-250l-65 138l-66 -138 h-146z" />
<glyph unicode="&#xd5;" horiz-adv-x="1750" d="M84 722q0 177 59.5 316.5t165 236t250.5 148t316 51.5t316 -51.5t250.5 -148t165 -236t59.5 -316.5q0 -174 -60 -313.5t-166 -236.5t-251 -149t-314 -52t-314 52t-251 149t-166 236.5t-60 313.5zM486 1567q2 52 17 107.5t44 101.5t73 75.5t105 29.5q54 0 101.5 -15 t87 -32.5t71 -32.5t54.5 -15q17 0 29.5 9.5t20 23.5t11.5 31t4 31h160q-4 -50 -19 -105t-43.5 -101.5t-71.5 -77t-102 -30.5t-106.5 15t-86 33.5t-70 33.5t-59.5 15q-18 0 -30 -9.5t-20 -24t-11.5 -31.5t-3.5 -32h-155zM488 722q0 -66 6 -135t22 -133.5t43.5 -121.5 t70.5 -99.5t103.5 -67.5t141.5 -25q79 0 138 25.5t102 69t71.5 101t45 122t23.5 132.5t7 132q0 66 -6 135t-22 134t-43.5 122t-70.5 99.5t-103.5 67t-141.5 24.5q-82 0 -143 -24.5t-104 -66.5t-70 -99t-42.5 -121.5t-21.5 -134t-6 -136.5z" />
<glyph unicode="&#xd6;" horiz-adv-x="1750" d="M84 722q0 177 59.5 316.5t165 236t250.5 148t316 51.5t316 -51.5t250.5 -148t165 -236t59.5 -316.5q0 -174 -60 -313.5t-166 -236.5t-251 -149t-314 -52t-314 52t-251 149t-166 236.5t-60 313.5zM488 722q0 -66 6 -135t22 -133.5t43.5 -121.5t70.5 -99.5t103.5 -67.5 t141.5 -25q79 0 138 25.5t102 69t71.5 101t45 122t23.5 132.5t7 132q0 66 -6 135t-22 134t-43.5 122t-70.5 99.5t-103.5 67t-141.5 24.5q-82 0 -143 -24.5t-104 -66.5t-70 -99t-42.5 -121.5t-21.5 -134t-6 -136.5zM539 1702q0 30 11.5 57t31.5 47t47 31.5t57 11.5 q31 0 58 -11.5t47 -31.5t31.5 -47t11.5 -57t-11.5 -57t-31.5 -47t-47 -31.5t-58 -11.5q-30 0 -57 11.5t-47 31.5t-31.5 47t-11.5 57zM916 1702q0 30 11.5 57t31.5 47t47 31.5t57 11.5q31 0 58 -11.5t47 -31.5t31.5 -47t11.5 -57t-11.5 -57t-31.5 -47t-47 -31.5t-58 -11.5 q-30 0 -57 11.5t-47 31.5t-31.5 47t-11.5 57z" />
<glyph unicode="&#xd7;" horiz-adv-x="1113" d="M106 312l308 375l-299 426h322l146 -208l159 208h269l-316 -367l304 -434h-322l-151 214l-153 -214h-267z" />
<glyph unicode="&#xd8;" horiz-adv-x="1750" d="M84 722q0 177 59.5 316.5t165 236t250.5 148t316 51.5q126 0 237 -27.5t205 -81.5l66 75h238l-161 -183q97 -97 151.5 -231t54.5 -304q0 -174 -60 -313.5t-166 -236.5t-251 -149t-314 -52q-128 0 -240.5 29t-206.5 85l-75 -85h-238l172 195q-96 97 -149.5 229.5 t-53.5 297.5zM488 722q0 -66 6 -134t22 -133l635 722q-44 58 -111 92.5t-165 34.5q-82 0 -143 -24.5t-104 -66.5t-70 -99t-42.5 -121.5t-21.5 -134t-6 -136.5zM594 274q45 -60 113 -97t168 -37q79 0 138 25.5t102 69t71.5 101t45 122t23.5 132.5t7 132q0 69 -6.5 139.5 t-23.5 136.5z" />
<glyph unicode="&#xd9;" horiz-adv-x="1630" d="M96 750v20q1 80 16 165.5t40.5 171.5t61.5 170.5t80 162.5h291q-27 -81 -47 -167.5t-33 -173t-19.5 -170.5t-6.5 -159q0 -55 0.5 -123.5t8 -139.5t24.5 -138.5t50.5 -120.5t86 -85t130.5 -32q69 0 118.5 23.5t84 63.5t55 92t32 109t15 115.5t3.5 111.5v794h397v-732 q0 -157 -50 -292t-141 -234.5t-220 -156t-286 -56.5q-108 0 -201 30.5t-170.5 84t-138 127t-101 160.5t-61.5 183.5t-19 195.5zM412 1844h317l199 -354h-200z" />
<glyph unicode="&#xda;" horiz-adv-x="1630" d="M96 750v20q1 80 16 165.5t40.5 171.5t61.5 170.5t80 162.5h291q-27 -81 -47 -167.5t-33 -173t-19.5 -170.5t-6.5 -159q0 -55 0.5 -123.5t8 -139.5t24.5 -138.5t50.5 -120.5t86 -85t130.5 -32q69 0 118.5 23.5t84 63.5t55 92t32 109t15 115.5t3.5 111.5v794h397v-732 q0 -157 -50 -292t-141 -234.5t-220 -156t-286 -56.5q-108 0 -201 30.5t-170.5 84t-138 127t-101 160.5t-61.5 183.5t-19 195.5zM731 1490l198 354h318l-317 -354h-199z" />
<glyph unicode="&#xdb;" horiz-adv-x="1630" d="M96 750v20q1 80 16 165.5t40.5 171.5t61.5 170.5t80 162.5h291q-27 -81 -47 -167.5t-33 -173t-19.5 -170.5t-6.5 -159q0 -55 0.5 -123.5t8 -139.5t24.5 -138.5t50.5 -120.5t86 -85t130.5 -32q69 0 118.5 23.5t84 63.5t55 92t32 109t15 115.5t3.5 111.5v794h397v-732 q0 -157 -50 -292t-141 -234.5t-220 -156t-286 -56.5q-108 0 -201 30.5t-170.5 84t-138 127t-101 160.5t-61.5 183.5t-19 195.5zM552 1538l193 355h135l199 -355h-250l-65 138l-66 -138h-146z" />
<glyph unicode="&#xdc;" horiz-adv-x="1630" d="M96 750v20q1 80 16 165.5t40.5 171.5t61.5 170.5t80 162.5h291q-27 -81 -47 -167.5t-33 -173t-19.5 -170.5t-6.5 -159q0 -55 0.5 -123.5t8 -139.5t24.5 -138.5t50.5 -120.5t86 -85t130.5 -32q69 0 118.5 23.5t84 63.5t55 92t32 109t15 115.5t3.5 111.5v794h397v-732 q0 -157 -50 -292t-141 -234.5t-220 -156t-286 -56.5q-108 0 -201 30.5t-170.5 84t-138 127t-101 160.5t-61.5 183.5t-19 195.5zM474 1692q0 30 11.5 57t31.5 47t47 31.5t57 11.5q31 0 58 -11.5t47 -31.5t31.5 -47t11.5 -57t-11.5 -57t-31.5 -47t-47 -31.5t-58 -11.5 q-30 0 -57 11.5t-47 31.5t-31.5 47t-11.5 57zM851 1692q0 30 11.5 57t31.5 47t47 31.5t57 11.5q31 0 58 -11.5t47 -31.5t31.5 -47t11.5 -57t-11.5 -57t-31.5 -47t-47 -31.5t-58 -11.5q-30 0 -57 11.5t-47 31.5t-31.5 47t-11.5 57z" />
<glyph unicode="&#xdd;" horiz-adv-x="1328" d="M-2 1440h405l313 -724l336 724h280l-466 -835v-605h-397v583zM629 1390l198 354h318l-317 -354h-199z" />
<glyph unicode="&#xde;" horiz-adv-x="1502" d="M163 0v1440h397v-270h381q101 0 193.5 -27t163.5 -81.5t113.5 -137t42.5 -193.5q0 -70 -20 -131.5t-55.5 -112.5t-83.5 -92t-105 -69t-120.5 -43t-128.5 -15h-381v-268h-397zM560 404h209q76 0 129.5 24.5t87.5 68.5t50 103.5t16 130.5q0 139 -70.5 218.5t-212.5 79.5 h-209v-625z" />
<glyph unicode="&#xdf;" horiz-adv-x="1832" d="M27 1022v134h210q0 139 28.5 251t94 190t171.5 120t261 42q55 0 113 -6.5t113 -23.5t104 -45.5t85.5 -72.5t57.5 -105t21 -142q0 -69 -20 -123t-50 -96.5t-64.5 -76t-64.5 -61.5t-50 -53.5t-20 -51.5q0 -35 17 -61t44.5 -45t62 -32t70.5 -22t70 -16t59 -14 q46 -13 97.5 -26.5t102 -31t96.5 -42t81 -58t56 -79t21 -106.5q0 -76 -22 -135t-60.5 -102.5t-90 -73t-111.5 -47.5t-124.5 -26t-128.5 -8q-89 0 -157 12t-128 37t-118 63.5t-127 92.5l197 161q19 -36 57 -76t84.5 -73.5t96 -55t92.5 -21.5q36 0 82.5 3.5t88.5 18t71 42.5 t29 77q0 48 -33.5 79.5t-88 53.5t-124.5 39t-143 35.5t-143 42.5t-124.5 61t-88 90.5t-33.5 131.5q0 56 12 96.5t32 71t45.5 54t51.5 45t51.5 44.5t45.5 52.5t32 68t12 91.5q0 25 -3.5 56t-13 63t-26 62t-42.5 53.5t-62.5 37.5t-86.5 14q-57 0 -95.5 -22t-63 -58.5 t-37 -83.5t-17.5 -96t-5.5 -97t-0.5 -87v-1156h-339v1022h-210z" />
<glyph unicode="&#xe0;" horiz-adv-x="1445" d="M76 580q0 126 38 236t110 191.5t176 128.5t236 47q67 0 127.5 -20t111 -56.5t89 -88t60.5 -114.5l150 251h130v-1155h-338v138q-60 -82 -144.5 -121.5t-185.5 -39.5q-132 0 -236 47t-176 128.5t-110 191.5t-38 236zM266 1637h317l199 -354h-200zM419 580q0 -44 4.5 -94 t15.5 -99t30.5 -94t49.5 -79.5t72 -55t99 -20.5q52 0 92.5 21.5t71 57.5t51.5 82t34 95t19 97.5t6 88.5q0 45 -4.5 95t-15.5 99t-30.5 93.5t-50 79t-73.5 54.5t-100 20t-99 -20.5t-72 -55t-49.5 -79.5t-30.5 -94t-15.5 -98.5t-4.5 -93.5z" />
<glyph unicode="&#xe1;" horiz-adv-x="1445" d="M76 580q0 126 38 236t110 191.5t176 128.5t236 47q67 0 127.5 -20t111 -56.5t89 -88t60.5 -114.5l150 251h130v-1155h-338v138q-60 -82 -144.5 -121.5t-185.5 -39.5q-132 0 -236 47t-176 128.5t-110 191.5t-38 236zM419 580q0 -44 4.5 -94t15.5 -99t30.5 -94t49.5 -79.5 t72 -55t99 -20.5q52 0 92.5 21.5t71 57.5t51.5 82t34 95t19 97.5t6 88.5q0 45 -4.5 95t-15.5 99t-30.5 93.5t-50 79t-73.5 54.5t-100 20t-99 -20.5t-72 -55t-49.5 -79.5t-30.5 -94t-15.5 -98.5t-4.5 -93.5zM561 1283l198 354h318l-317 -354h-199z" />
<glyph unicode="&#xe2;" horiz-adv-x="1445" d="M76 580q0 126 38 236t110 191.5t176 128.5t236 47q67 0 127.5 -20t111 -56.5t89 -88t60.5 -114.5l150 251h130v-1155h-338v138q-60 -82 -144.5 -121.5t-185.5 -39.5q-132 0 -236 47t-176 128.5t-110 191.5t-38 236zM419 580q0 -44 4.5 -94t15.5 -99t30.5 -94t49.5 -79.5 t72 -55t99 -20.5q52 0 92.5 21.5t71 57.5t51.5 82t34 95t19 97.5t6 88.5q0 45 -4.5 95t-15.5 99t-30.5 93.5t-50 79t-73.5 54.5t-100 20t-99 -20.5t-72 -55t-49.5 -79.5t-30.5 -94t-15.5 -98.5t-4.5 -93.5zM427 1280l193 355h135l199 -355h-250l-65 138l-66 -138h-146z" />
<glyph unicode="&#xe3;" horiz-adv-x="1445" d="M76 580q0 126 38 236t110 191.5t176 128.5t236 47q67 0 127.5 -20t111 -56.5t89 -88t60.5 -114.5l150 251h130v-1155h-338v138q-60 -82 -144.5 -121.5t-185.5 -39.5q-132 0 -236 47t-176 128.5t-110 191.5t-38 236zM301 1250q2 52 17 107.5t44 101.5t73 75.5t105 29.5 q54 0 101.5 -15t87 -32.5t71 -32.5t54.5 -15q17 0 29.5 9.5t20 23.5t11.5 31t4 31h160q-4 -50 -19 -105t-43.5 -101.5t-71.5 -77t-102 -30.5t-106.5 15t-86 33.5t-70 33.5t-59.5 15q-18 0 -30 -9.5t-20 -24t-11.5 -31.5t-3.5 -32h-155zM419 580q0 -44 4.5 -94t15.5 -99 t30.5 -94t49.5 -79.5t72 -55t99 -20.5q52 0 92.5 21.5t71 57.5t51.5 82t34 95t19 97.5t6 88.5q0 45 -4.5 95t-15.5 99t-30.5 93.5t-50 79t-73.5 54.5t-100 20t-99 -20.5t-72 -55t-49.5 -79.5t-30.5 -94t-15.5 -98.5t-4.5 -93.5z" />
<glyph unicode="&#xe4;" horiz-adv-x="1445" d="M76 580q0 126 38 236t110 191.5t176 128.5t236 47q67 0 127.5 -20t111 -56.5t89 -88t60.5 -114.5l150 251h130v-1155h-338v138q-60 -82 -144.5 -121.5t-185.5 -39.5q-132 0 -236 47t-176 128.5t-110 191.5t-38 236zM354 1417q0 30 11.5 57t31.5 47t47 31.5t57 11.5 q31 0 58 -11.5t47 -31.5t31.5 -47t11.5 -57t-11.5 -57t-31.5 -47t-47 -31.5t-58 -11.5q-30 0 -57 11.5t-47 31.5t-31.5 47t-11.5 57zM419 580q0 -44 4.5 -94t15.5 -99t30.5 -94t49.5 -79.5t72 -55t99 -20.5q52 0 92.5 21.5t71 57.5t51.5 82t34 95t19 97.5t6 88.5 q0 45 -4.5 95t-15.5 99t-30.5 93.5t-50 79t-73.5 54.5t-100 20t-99 -20.5t-72 -55t-49.5 -79.5t-30.5 -94t-15.5 -98.5t-4.5 -93.5zM731 1417q0 30 11.5 57t31.5 47t47 31.5t57 11.5q31 0 58 -11.5t47 -31.5t31.5 -47t11.5 -57t-11.5 -57t-31.5 -47t-47 -31.5t-58 -11.5 q-30 0 -57 11.5t-47 31.5t-31.5 47t-11.5 57z" />
<glyph unicode="&#xe5;" horiz-adv-x="1445" d="M76 580q0 126 38 236t110 191.5t176 128.5t236 47q67 0 127.5 -20t111 -56.5t89 -88t60.5 -114.5l150 251h130v-1155h-338v138q-60 -82 -144.5 -121.5t-185.5 -39.5q-132 0 -236 47t-176 128.5t-110 191.5t-38 236zM419 580q0 -44 4.5 -94t15.5 -99t30.5 -94t49.5 -79.5 t72 -55t99 -20.5q52 0 92.5 21.5t71 57.5t51.5 82t34 95t19 97.5t6 88.5q0 45 -4.5 95t-15.5 99t-30.5 93.5t-50 79t-73.5 54.5t-100 20t-99 -20.5t-72 -55t-49.5 -79.5t-30.5 -94t-15.5 -98.5t-4.5 -93.5zM464 1492q0 47 17.5 88.5t48.5 72.5t72 49t88 18q46 0 87.5 -18 t72.5 -49t49 -72.5t18 -88.5t-18 -88.5t-48.5 -72t-72 -48.5t-88.5 -18t-88.5 18t-72 48.5t-48 72t-17.5 88.5zM608 1492q0 -34 23.5 -59t58.5 -25q34 0 59 24.5t25 59.5q0 34 -25 59t-59 25q-35 0 -58.5 -25t-23.5 -59z" />
<glyph unicode="&#xe6;" horiz-adv-x="2152" d="M70 383q0 71 23 127t62.5 98t92 71t111.5 47.5t121.5 26.5t121.5 8q74 0 147 -10.5t144 -33.5q-11 66 -35 125t-64 104t-98.5 71t-137.5 26q-53 0 -101 -16t-88 -45t-71 -69.5t-49 -89.5l-147 55q33 79 91 136.5t130 95t153.5 55.5t162.5 18q133 0 244.5 -44.5 t192.5 -125.5q82 81 193.5 125.5t244.5 44.5q64 0 131 -9t130 -28.5t119 -50.5t97.5 -76.5t66 -105.5t24.5 -137q0 -71 -23 -126.5t-62.5 -97.5t-91.5 -71t-111 -47.5t-121.5 -26.5t-121.5 -8q-75 0 -148 10.5t-144 33.5q11 -66 35 -125.5t64.5 -104t98.5 -70.5t138 -26 q53 0 101 16t88 45t70.5 69t49.5 89l146 -54q-33 -79 -90.5 -136.5t-130 -95t-154 -55.5t-161.5 -18q-92 0 -165 15t-135 46.5t-117.5 81t-112.5 119.5q-19 -48 -58 -94.5t-91.5 -84t-115.5 -60.5t-130 -23q-96 0 -189.5 20.5t-166.5 67.5t-118 125t-45 193zM344 387 q0 -59 16 -108t47.5 -84t78 -54.5t107.5 -19.5q85 0 144.5 33.5t96.5 94t53.5 145t16.5 186.5v32q-63 13 -125 21.5t-125 8.5q-66 0 -122.5 -12.5t-98 -42t-65.5 -78.5t-24 -122zM1248 580q0 -8 0.5 -16t0.5 -16q62 -14 124 -22t125 -8q66 0 122.5 12.5t98 42t65.5 78.5 t24 122q0 59 -16 108t-47.5 84t-77.5 54.5t-107 19.5q-57 0 -102.5 -21t-80 -56.5t-59 -82.5t-40.5 -98t-23 -103t-7 -98z" />
<glyph unicode="&#xe7;" horiz-adv-x="1268" d="M76 580q0 133 45.5 244t126.5 191t193 124t245 44q84 0 164 -18.5t148.5 -57t123 -97.5t87.5 -141l-146 -58q-35 110 -117 169t-197 59q-62 0 -110.5 -19.5t-85 -53.5t-62 -79t-41.5 -96t-23 -105.5t-7 -105.5q0 -55 6 -111t20.5 -107.5t38.5 -96t60.5 -77.5t87 -52 t116.5 -19q53 0 101 16t88 45t71 69t49 89l147 -54q-31 -74 -81 -129t-113.5 -92.5t-136 -58t-148.5 -24.5l-18 -70q31 0 61.5 -9.5t54.5 -28t38.5 -45.5t14.5 -62q0 -53 -18 -92t-49.5 -65.5t-74.5 -39.5t-92 -13q-40 0 -75 15.5t-61 41.5t-41 61.5t-15 75.5h113 q1 -29 25.5 -43.5t49.5 -14.5q41 0 59.5 16t18.5 58q0 22 -15.5 34t-37.5 18t-45 7.5t-39 1.5l35 157q-118 12 -217 60.5t-170.5 127.5t-111.5 183.5t-40 227.5z" />
<glyph unicode="&#xe8;" horiz-adv-x="1322" d="M74 580q0 132 46 243t127 191t193 124.5t244 44.5q64 0 131 -9t130 -28.5t119 -50.5t97.5 -76.5t66 -105.5t24.5 -137q0 -71 -23 -126.5t-62.5 -97.5t-91.5 -71t-111 -47.5t-121.5 -26.5t-121.5 -8q-75 0 -148 10.5t-144 33.5q11 -66 35 -125.5t64 -104t98.5 -70.5 t138.5 -26q53 0 101 16t88 45t70.5 69t49.5 89l146 -54q-33 -79 -90.5 -136.5t-130 -95t-154 -55.5t-161.5 -18q-132 0 -244 44.5t-193 124.5t-127 191t-46 243zM288 1637h317l199 -354h-200zM418 564q0 -8 1 -16q62 -14 124 -22t125 -8q66 0 122.5 12.5t98 42t65.5 78.5 t24 122q0 59 -16 108t-47.5 84t-77.5 54.5t-107 19.5q-57 0 -102.5 -21t-80 -56.5t-59 -82.5t-40.5 -98t-23 -103t-7 -98v-16z" />
<glyph unicode="&#xe9;" horiz-adv-x="1322" d="M74 580q0 132 46 243t127 191t193 124.5t244 44.5q64 0 131 -9t130 -28.5t119 -50.5t97.5 -76.5t66 -105.5t24.5 -137q0 -71 -23 -126.5t-62.5 -97.5t-91.5 -71t-111 -47.5t-121.5 -26.5t-121.5 -8q-75 0 -148 10.5t-144 33.5q11 -66 35 -125.5t64 -104t98.5 -70.5 t138.5 -26q53 0 101 16t88 45t70.5 69t49.5 89l146 -54q-33 -79 -90.5 -136.5t-130 -95t-154 -55.5t-161.5 -18q-132 0 -244 44.5t-193 124.5t-127 191t-46 243zM418 564q0 -8 1 -16q62 -14 124 -22t125 -8q66 0 122.5 12.5t98 42t65.5 78.5t24 122q0 59 -16 108t-47.5 84 t-77.5 54.5t-107 19.5q-57 0 -102.5 -21t-80 -56.5t-59 -82.5t-40.5 -98t-23 -103t-7 -98v-16zM600 1283l198 354h318l-317 -354h-199z" />
<glyph unicode="&#xea;" horiz-adv-x="1322" d="M74 580q0 132 46 243t127 191t193 124.5t244 44.5q64 0 131 -9t130 -28.5t119 -50.5t97.5 -76.5t66 -105.5t24.5 -137q0 -71 -23 -126.5t-62.5 -97.5t-91.5 -71t-111 -47.5t-121.5 -26.5t-121.5 -8q-75 0 -148 10.5t-144 33.5q11 -66 35 -125.5t64 -104t98.5 -70.5 t138.5 -26q53 0 101 16t88 45t70.5 69t49.5 89l146 -54q-33 -79 -90.5 -136.5t-130 -95t-154 -55.5t-161.5 -18q-132 0 -244 44.5t-193 124.5t-127 191t-46 243zM418 564q0 -8 1 -16q62 -14 124 -22t125 -8q66 0 122.5 12.5t98 42t65.5 78.5t24 122q0 59 -16 108t-47.5 84 t-77.5 54.5t-107 19.5q-57 0 -102.5 -21t-80 -56.5t-59 -82.5t-40.5 -98t-23 -103t-7 -98v-16zM459 1286l193 355h135l199 -355h-250l-65 138l-66 -138h-146z" />
<glyph unicode="&#xeb;" horiz-adv-x="1322" d="M74 580q0 132 46 243t127 191t193 124.5t244 44.5q64 0 131 -9t130 -28.5t119 -50.5t97.5 -76.5t66 -105.5t24.5 -137q0 -71 -23 -126.5t-62.5 -97.5t-91.5 -71t-111 -47.5t-121.5 -26.5t-121.5 -8q-75 0 -148 10.5t-144 33.5q11 -66 35 -125.5t64 -104t98.5 -70.5 t138.5 -26q53 0 101 16t88 45t70.5 69t49.5 89l146 -54q-33 -79 -90.5 -136.5t-130 -95t-154 -55.5t-161.5 -18q-132 0 -244 44.5t-193 124.5t-127 191t-46 243zM368 1408q0 30 11.5 57t31.5 47t47 31.5t57 11.5q31 0 58 -11.5t47 -31.5t31.5 -47t11.5 -57t-11.5 -57 t-31.5 -47t-47 -31.5t-58 -11.5q-30 0 -57 11.5t-47 31.5t-31.5 47t-11.5 57zM418 564q0 -8 1 -16q62 -14 124 -22t125 -8q66 0 122.5 12.5t98 42t65.5 78.5t24 122q0 59 -16 108t-47.5 84t-77.5 54.5t-107 19.5q-57 0 -102.5 -21t-80 -56.5t-59 -82.5t-40.5 -98t-23 -103 t-7 -98v-16zM745 1408q0 30 11.5 57t31.5 47t47 31.5t57 11.5q31 0 58 -11.5t47 -31.5t31.5 -47t11.5 -57t-11.5 -57t-31.5 -47t-47 -31.5t-58 -11.5q-30 0 -57 11.5t-47 31.5t-31.5 47t-11.5 57z" />
<glyph unicode="&#xec;" horiz-adv-x="623" d="M-97 1609h317l199 -354h-200zM142 0v1154h339v-1154h-339z" />
<glyph unicode="&#xed;" horiz-adv-x="622" d="M142 0v1154h339v-1154h-339zM207 1256l198 354h318l-317 -354h-199z" />
<glyph unicode="&#xee;" horiz-adv-x="623" d="M48 1258l193 355h135l199 -355h-250l-65 138l-66 -138h-146zM142 0v1154h339v-1154h-339z" />
<glyph unicode="&#xef;" horiz-adv-x="622" d="M-24 1403q0 30 11.5 57t31.5 47t47 31.5t57 11.5q31 0 58 -11.5t47 -31.5t31.5 -47t11.5 -57t-11.5 -57t-31.5 -47t-47 -31.5t-58 -11.5q-30 0 -57 11.5t-47 31.5t-31.5 47t-11.5 57zM142 0v1154h339v-1154h-339zM353 1403q0 30 11.5 57t31.5 47t47 31.5t57 11.5 q31 0 58 -11.5t47 -31.5t31.5 -47t11.5 -57t-11.5 -57t-31.5 -47t-47 -31.5t-58 -11.5q-30 0 -57 11.5t-47 31.5t-31.5 47t-11.5 57z" />
<glyph unicode="&#xf0;" horiz-adv-x="1466" d="M72 580q0 89 24 168.5t66.5 146.5t102.5 120.5t131.5 90.5t152.5 57t167 20q78 0 154 -27.5t138 -85.5q-10 70 -30 150t-46 158l-253 -80v184l190 60q-13 29 -25.5 55t-25.5 48l132 80q27 -31 52.5 -62.5t48.5 -63.5l264 83v-184l-169 -53q60 -111 101.5 -226 t66.5 -225.5t36 -212t11 -186.5q0 -144 -53 -258.5t-142.5 -194.5t-206 -122.5t-243.5 -42.5q-86 0 -167 20t-152.5 57t-131.5 90.5t-102.5 120.5t-66.5 146.5t-24 168.5zM416 580q0 -46 6 -98.5t20 -104.5t36.5 -99.5t56 -84t78.5 -58.5t103 -22q60 0 106 21.5t79.5 57.5 t55.5 83t35.5 99t19 105t5.5 101t-5.5 101.5t-18.5 105t-35.5 99t-55.5 83t-79 57t-107 21.5q-58 0 -103 -22t-78.5 -58.5t-56 -84.5t-36.5 -99.5t-20 -104t-6 -98.5z" />
<glyph unicode="&#xf1;" horiz-adv-x="1404" d="M141 0v1155h130l155 -269q28 67 70 122t95 94t117.5 60t139.5 21q120 0 209 -39t148 -108.5t88 -165t29 -208.5q0 -117 -28.5 -244t-79.5 -249t-122 -229.5t-156 -185.5l-127 69q27 50 51 112t43.5 131.5t35 143.5t26 146.5t16 141t5.5 127.5q0 39 -3 83.5t-12.5 89 t-25.5 85.5t-42.5 72t-64 50t-88.5 19q-50 0 -89 -22.5t-69 -59t-51.5 -83.5t-35 -96.5t-19.5 -97.5t-6 -86v-579h-339zM343 1277q2 52 17 107.5t44 101.5t73 75.5t105 29.5q54 0 101.5 -15t87 -32.5t71 -32.5t54.5 -15q17 0 29.5 9.5t20 23.5t11.5 31t4 31h160 q-4 -50 -19 -105t-43.5 -101.5t-71.5 -77t-102 -30.5t-106.5 15t-86 33.5t-70 33.5t-59.5 15q-18 0 -30 -9.5t-20 -24t-11.5 -31.5t-3.5 -32h-155z" />
<glyph unicode="&#xf2;" d="M72 580q0 89 24 168.5t66.5 146.5t102.5 120.5t131.5 90.5t152.5 57t167 20t167.5 -20t153 -57t131.5 -90.5t102.5 -120.5t66.5 -146.5t24 -168.5q0 -90 -24 -169t-66.5 -146t-102.5 -120.5t-131.5 -90.5t-153 -57t-167.5 -20t-167 20t-152.5 57t-131.5 90.5 t-102.5 120.5t-66.5 146.5t-24 168.5zM316 1628h317l199 -354h-200zM416 580q0 -46 6 -98.5t20 -104.5t36.5 -99.5t56 -84t78.5 -58.5t103 -22q60 0 106 21.5t79.5 57.5t55.5 83t35.5 99t19 105t5.5 101t-5.5 101.5t-18.5 105t-35.5 99t-55.5 83t-79 57t-107 21.5 q-58 0 -103 -22t-78.5 -58.5t-56 -84.5t-36.5 -99.5t-20 -104t-6 -98.5z" />
<glyph unicode="&#xf3;" d="M72 580q0 89 24 168.5t66.5 146.5t102.5 120.5t131.5 90.5t152.5 57t167 20t167.5 -20t153 -57t131.5 -90.5t102.5 -120.5t66.5 -146.5t24 -168.5q0 -90 -24 -169t-66.5 -146t-102.5 -120.5t-131.5 -90.5t-153 -57t-167.5 -20t-167 20t-152.5 57t-131.5 90.5 t-102.5 120.5t-66.5 146.5t-24 168.5zM416 580q0 -46 6 -98.5t20 -104.5t36.5 -99.5t56 -84t78.5 -58.5t103 -22q60 0 106 21.5t79.5 57.5t55.5 83t35.5 99t19 105t5.5 101t-5.5 101.5t-18.5 105t-35.5 99t-55.5 83t-79 57t-107 21.5q-58 0 -103 -22t-78.5 -58.5t-56 -84.5 t-36.5 -99.5t-20 -104t-6 -98.5zM634 1273l198 354h318l-317 -354h-199z" />
<glyph unicode="&#xf4;" d="M72 580q0 89 24 168.5t66.5 146.5t102.5 120.5t131.5 90.5t152.5 57t167 20t167.5 -20t153 -57t131.5 -90.5t102.5 -120.5t66.5 -146.5t24 -168.5q0 -90 -24 -169t-66.5 -146t-102.5 -120.5t-131.5 -90.5t-153 -57t-167.5 -20t-167 20t-152.5 57t-131.5 90.5 t-102.5 120.5t-66.5 146.5t-24 168.5zM416 580q0 -46 6 -98.5t20 -104.5t36.5 -99.5t56 -84t78.5 -58.5t103 -22q60 0 106 21.5t79.5 57.5t55.5 83t35.5 99t19 105t5.5 101t-5.5 101.5t-18.5 105t-35.5 99t-55.5 83t-79 57t-107 21.5q-58 0 -103 -22t-78.5 -58.5t-56 -84.5 t-36.5 -99.5t-20 -104t-6 -98.5zM453 1277l193 355h135l199 -355h-250l-65 138l-66 -138h-146z" />
<glyph unicode="&#xf5;" d="M72 580q0 89 24 168.5t66.5 146.5t102.5 120.5t131.5 90.5t152.5 57t167 20t167.5 -20t153 -57t131.5 -90.5t102.5 -120.5t66.5 -146.5t24 -168.5q0 -90 -24 -169t-66.5 -146t-102.5 -120.5t-131.5 -90.5t-153 -57t-167.5 -20t-167 20t-152.5 57t-131.5 90.5 t-102.5 120.5t-66.5 146.5t-24 168.5zM328 1269q2 52 17 107.5t44 101.5t73 75.5t105 29.5q54 0 101.5 -15t87 -32.5t71 -32.5t54.5 -15q17 0 29.5 9.5t20 23.5t11.5 31t4 31h160q-4 -50 -19 -105t-43.5 -101.5t-71.5 -77t-102 -30.5t-106.5 15t-86 33.5t-70 33.5t-59.5 15 q-18 0 -30 -9.5t-20 -24t-11.5 -31.5t-3.5 -32h-155zM416 580q0 -46 6 -98.5t20 -104.5t36.5 -99.5t56 -84t78.5 -58.5t103 -22q60 0 106 21.5t79.5 57.5t55.5 83t35.5 99t19 105t5.5 101t-5.5 101.5t-18.5 105t-35.5 99t-55.5 83t-79 57t-107 21.5q-58 0 -103 -22 t-78.5 -58.5t-56 -84.5t-36.5 -99.5t-20 -104t-6 -98.5z" />
<glyph unicode="&#xf6;" d="M72 580q0 89 24 168.5t66.5 146.5t102.5 120.5t131.5 90.5t152.5 57t167 20t167.5 -20t153 -57t131.5 -90.5t102.5 -120.5t66.5 -146.5t24 -168.5q0 -90 -24 -169t-66.5 -146t-102.5 -120.5t-131.5 -90.5t-153 -57t-167.5 -20t-167 20t-152.5 57t-131.5 90.5 t-102.5 120.5t-66.5 146.5t-24 168.5zM381 1404q0 30 11.5 57t31.5 47t47 31.5t57 11.5q31 0 58 -11.5t47 -31.5t31.5 -47t11.5 -57t-11.5 -57t-31.5 -47t-47 -31.5t-58 -11.5q-30 0 -57 11.5t-47 31.5t-31.5 47t-11.5 57zM416 580q0 -46 6 -98.5t20 -104.5t36.5 -99.5 t56 -84t78.5 -58.5t103 -22q60 0 106 21.5t79.5 57.5t55.5 83t35.5 99t19 105t5.5 101t-5.5 101.5t-18.5 105t-35.5 99t-55.5 83t-79 57t-107 21.5q-58 0 -103 -22t-78.5 -58.5t-56 -84.5t-36.5 -99.5t-20 -104t-6 -98.5zM758 1404q0 30 11.5 57t31.5 47t47 31.5t57 11.5 q31 0 58 -11.5t47 -31.5t31.5 -47t11.5 -57t-11.5 -57t-31.5 -47t-47 -31.5t-58 -11.5q-30 0 -57 11.5t-47 31.5t-31.5 47t-11.5 57z" />
<glyph unicode="&#xf7;" horiz-adv-x="1017" d="M91 629v184h835v-184h-835zM363 410q0 30 11.5 56.5t31 46t46.5 31t57 11.5t56.5 -11.5t46 -31t31 -46t11.5 -56.5t-11.5 -57t-31 -46.5t-46 -31t-56.5 -11.5t-57 11.5t-46.5 31t-31 46.5t-11.5 57zM363 1040q0 30 11.5 56.5t31 46t46.5 31t57 11.5t56.5 -11.5t46 -31 t31 -46t11.5 -56.5t-11.5 -57t-31 -46.5t-46 -31t-56.5 -11.5t-57 11.5t-46.5 31t-31 46.5t-11.5 57z" />
<glyph unicode="&#xf8;" d="M72 580q0 89 24 168.5t66.5 146.5t102.5 120.5t131.5 90.5t152.5 57t167 20q89 0 171.5 -21t155.5 -59l48 57h238l-140 -165q80 -78 126 -183t46 -232q0 -90 -24 -169t-66.5 -146t-102.5 -120.5t-131.5 -90.5t-153 -57t-167.5 -20q-88 0 -171 20.5t-156 59.5l-48 -57 h-238l140 165q-79 78 -125 183t-46 232zM416 580q0 -43 5.5 -91t16.5 -96l477 560q-34 43 -83 68.5t-116 25.5q-58 0 -103 -22t-78.5 -58.5t-56 -84.5t-36.5 -99.5t-20 -104t-6 -98.5zM520 211q35 -45 83 -71.5t113 -26.5q60 0 106 21.5t79.5 57.5t55.5 83t35.5 99t19 105 t5.5 101q0 45 -4.5 93t-15.5 97z" />
<glyph unicode="&#xf9;" horiz-adv-x="1404" d="M82 494q0 79 13.5 164t39 170t61.5 168t81 159h247q-25 -75 -44.5 -156.5t-33 -163t-21 -159.5t-7.5 -145q0 -39 3.5 -83.5t12.5 -89t25.5 -85.5t42.5 -72.5t63.5 -50t88.5 -18.5q50 0 89.5 22.5t69.5 59t51 83.5t34.5 96.5t20 97t6.5 85.5v579h338v-1155h-130l-155 269 q-29 -67 -70.5 -121.5t-94.5 -93.5t-117.5 -60t-139.5 -21q-120 0 -209 39t-148 108t-88 164.5t-29 209.5zM304 1609h317l199 -354h-200z" />
<glyph unicode="&#xfa;" horiz-adv-x="1404" d="M82 494q0 79 13.5 164t39 170t61.5 168t81 159h247q-25 -75 -44.5 -156.5t-33 -163t-21 -159.5t-7.5 -145q0 -39 3.5 -83.5t12.5 -89t25.5 -85.5t42.5 -72.5t63.5 -50t88.5 -18.5q50 0 89.5 22.5t69.5 59t51 83.5t34.5 96.5t20 97t6.5 85.5v579h338v-1155h-130l-155 269 q-29 -67 -70.5 -121.5t-94.5 -93.5t-117.5 -60t-139.5 -21q-120 0 -209 39t-148 108t-88 164.5t-29 209.5zM623 1255l198 354h318l-317 -354h-199z" />
<glyph unicode="&#xfb;" horiz-adv-x="1404" d="M82 494q0 79 13.5 164t39 170t61.5 168t81 159h247q-25 -75 -44.5 -156.5t-33 -163t-21 -159.5t-7.5 -145q0 -39 3.5 -83.5t12.5 -89t25.5 -85.5t42.5 -72.5t63.5 -50t88.5 -18.5q50 0 89.5 22.5t69.5 59t51 83.5t34.5 96.5t20 97t6.5 85.5v579h338v-1155h-130l-155 269 q-29 -67 -70.5 -121.5t-94.5 -93.5t-117.5 -60t-139.5 -21q-120 0 -209 39t-148 108t-88 164.5t-29 209.5zM473 1257l193 355h135l199 -355h-250l-65 138l-66 -138h-146z" />
<glyph unicode="&#xfc;" horiz-adv-x="1404" d="M82 494q0 79 13.5 164t39 170t61.5 168t81 159h247q-25 -75 -44.5 -156.5t-33 -163t-21 -159.5t-7.5 -145q0 -39 3.5 -83.5t12.5 -89t25.5 -85.5t42.5 -72.5t63.5 -50t88.5 -18.5q50 0 89.5 22.5t69.5 59t51 83.5t34.5 96.5t20 97t6.5 85.5v579h338v-1155h-130l-155 269 q-29 -67 -70.5 -121.5t-94.5 -93.5t-117.5 -60t-139.5 -21q-120 0 -209 39t-148 108t-88 164.5t-29 209.5zM401 1403q0 30 11.5 57t31.5 47t47 31.5t57 11.5q31 0 58 -11.5t47 -31.5t31.5 -47t11.5 -57t-11.5 -57t-31.5 -47t-47 -31.5t-58 -11.5q-30 0 -57 11.5t-47 31.5 t-31.5 47t-11.5 57zM778 1403q0 30 11.5 57t31.5 47t47 31.5t57 11.5q31 0 58 -11.5t47 -31.5t31.5 -47t11.5 -57t-11.5 -57t-31.5 -47t-47 -31.5t-58 -11.5q-30 0 -57 11.5t-47 31.5t-31.5 47t-11.5 57z" />
<glyph unicode="&#xfd;" horiz-adv-x="1175" d="M-4 1155h338l343 -781l264 781h234l-420 -1016q-72 -174 -160.5 -344.5t-191.5 -327.5l-132 80q25 45 59 104t67 122t61 124.5t43 112.5zM541 1105l198 354h318l-317 -354h-199z" />
<glyph unicode="&#xfe;" horiz-adv-x="1445" d="M141 -533v2173h338v-625q57 78 142.5 123t187.5 45q132 0 236 -47t176 -128.5t110 -191.5t38 -236t-38 -236t-110 -191.5t-176 -128.5t-236 -47q-101 0 -185.5 39.5t-144.5 121.5v-671h-338zM481 580q0 -40 6 -88.5t19 -97.5t34 -95t51.5 -82t71 -57.5t92.5 -21.5 q57 0 99 20.5t72 55t49.5 79.5t30.5 94t15.5 99t4.5 94t-4.5 93.5t-15.5 98.5t-30.5 94t-49.5 79.5t-72.5 55t-98.5 20.5q-58 0 -100.5 -20t-73 -54.5t-50 -79t-30.5 -93.5t-15.5 -99t-4.5 -95z" />
<glyph unicode="&#xff;" horiz-adv-x="1175" d="M-4 1155h338l343 -781l264 781h234l-420 -1016q-72 -174 -160.5 -344.5t-191.5 -327.5l-132 80q25 45 59 104t67 122t61 124.5t43 112.5zM301 1351q0 30 11.5 57t31.5 47t47 31.5t57 11.5q31 0 58 -11.5t47 -31.5t31.5 -47t11.5 -57t-11.5 -57t-31.5 -47t-47 -31.5 t-58 -11.5q-30 0 -57 11.5t-47 31.5t-31.5 47t-11.5 57zM678 1351q0 30 11.5 57t31.5 47t47 31.5t57 11.5q31 0 58 -11.5t47 -31.5t31.5 -47t11.5 -57t-11.5 -57t-31.5 -47t-47 -31.5t-58 -11.5q-30 0 -57 11.5t-47 31.5t-31.5 47t-11.5 57z" />
<glyph unicode="&#x152;" horiz-adv-x="2387" d="M84 722q0 177 59.5 316.5t165 236t250.5 148t316 51.5q55 0 112 -10.5t109.5 -28.5t97.5 -42.5t76 -52.5v100h1034v-184h-637v-445h492v-183h-492v-444h637v-184h-1034v107q-35 -40 -80.5 -66.5t-97 -42t-107 -21.5t-110.5 -6q-169 0 -314 52t-251 149t-166 236.5 t-60 313.5zM488 722q0 -66 6 -135t22 -133.5t43.5 -121.5t70.5 -99.5t103.5 -67.5t141.5 -25q79 0 138 25.5t102 69t71.5 101t45 122t23.5 132.5t7 132q0 66 -6 135t-22 134t-43.5 122t-70.5 99.5t-103.5 67t-141.5 24.5q-82 0 -143 -24.5t-104 -66.5t-70 -99t-42.5 -121.5 t-21.5 -134t-6 -136.5z" />
<glyph unicode="&#x153;" horiz-adv-x="2265" d="M72 580q0 89 24 168.5t66.5 146.5t102.5 120.5t131.5 90.5t152.5 57t167 20q135 0 254.5 -47t209.5 -132q82 85 195.5 132t250.5 47q64 0 131.5 -9t130.5 -28.5t119 -50.5t97.5 -76.5t66 -105.5t24.5 -137q0 -71 -23 -126.5t-62.5 -97.5t-92 -71t-111.5 -47.5 t-121.5 -26.5t-121.5 -8q-74 0 -147 10.5t-144 33.5q11 -66 35 -125.5t64 -104t98 -70.5t138 -26q53 0 101 16t88 45t71 69t49 89l147 -54q-33 -79 -91 -136.5t-130 -95t-153.5 -55.5t-162.5 -18q-137 0 -250.5 47t-195.5 132q-90 -85 -209.5 -132t-254.5 -47q-86 0 -167 20 t-152.5 57t-131.5 90.5t-102.5 120.5t-66.5 146.5t-24 168.5zM416 580q0 -46 6 -98.5t20 -104.5t36.5 -99.5t56 -84t78.5 -58.5t103 -22q60 0 106 21.5t79.5 57.5t55.5 83t35.5 99t19 105t5.5 101t-5.5 101.5t-18.5 105t-35.5 99t-55.5 83t-79 57t-107 21.5q-58 0 -103 -22 t-78.5 -58.5t-56 -84.5t-36.5 -99.5t-20 -104t-6 -98.5zM1361 548q63 -14 125 -22t125 -8q66 0 122.5 12.5t98 42t65.5 78.5t24 122q0 59 -16 108t-47.5 84t-78 54.5t-107.5 19.5q-57 0 -102 -21t-80 -56.5t-59 -82.5t-40 -98t-23 -103t-7 -98v-32z" />
<glyph unicode="&#x178;" horiz-adv-x="1328" d="M-2 1440h405l313 -724l336 724h280l-466 -835v-605h-397v583zM393 1634q0 30 11.5 57t31.5 47t47 31.5t57 11.5q31 0 58 -11.5t47 -31.5t31.5 -47t11.5 -57t-11.5 -57t-31.5 -47t-47 -31.5t-58 -11.5q-30 0 -57 11.5t-47 31.5t-31.5 47t-11.5 57zM770 1634q0 30 11.5 57 t31.5 47t47 31.5t57 11.5q31 0 58 -11.5t47 -31.5t31.5 -47t11.5 -57t-11.5 -57t-31.5 -47t-47 -31.5t-58 -11.5q-30 0 -57 11.5t-47 31.5t-31.5 47t-11.5 57z" />
<glyph unicode="&#x2c6;" horiz-adv-x="527" d="M0 1079l193 355h135l199 -355h-250l-65 138l-66 -138h-146z" />
<glyph unicode="&#x2dc;" horiz-adv-x="778" d="M0 1099q2 52 17 107.5t44 101.5t73 75.5t105 29.5q54 0 101.5 -15t87 -32.5t71 -32.5t54.5 -15q17 0 29.5 9.5t20 23.5t11.5 31t4 31h160q-4 -50 -19 -105t-43.5 -101.5t-71.5 -77t-102 -30.5t-106.5 15t-86 33.5t-70 33.5t-59.5 15q-18 0 -30 -9.5t-20 -24t-11.5 -31.5 t-3.5 -32h-155z" />
<glyph unicode="&#x2000;" horiz-adv-x="963" />
<glyph unicode="&#x2001;" horiz-adv-x="1926" />
<glyph unicode="&#x2002;" horiz-adv-x="963" />
<glyph unicode="&#x2003;" horiz-adv-x="1926" />
<glyph unicode="&#x2004;" horiz-adv-x="642" />
<glyph unicode="&#x2005;" horiz-adv-x="481" />
<glyph unicode="&#x2006;" horiz-adv-x="321" />
<glyph unicode="&#x2007;" horiz-adv-x="321" />
<glyph unicode="&#x2008;" horiz-adv-x="240" />
<glyph unicode="&#x2009;" horiz-adv-x="385" />
<glyph unicode="&#x200a;" horiz-adv-x="107" />
<glyph unicode="&#x2010;" horiz-adv-x="954" d="M141 629v184h672v-184h-672z" />
<glyph unicode="&#x2011;" horiz-adv-x="954" d="M141 629v184h672v-184h-672z" />
<glyph unicode="&#x2012;" horiz-adv-x="954" d="M141 629v184h672v-184h-672z" />
<glyph unicode="&#x2013;" horiz-adv-x="782" d="M141 629v184h500v-184h-500z" />
<glyph unicode="&#x2014;" horiz-adv-x="1282" d="M141 629v184h1000v-184h-1000z" />
<glyph unicode="&#x2018;" horiz-adv-x="560" d="M101 1122q0 46 12 94t33.5 93.5t50.5 86t63 70.5l144 -75q-21 -17 -42.5 -42.5t-25.5 -52.5q28 -9 52 -26t41 -40t26.5 -50.5t9.5 -57.5q0 -38 -14.5 -71t-39 -57.5t-58 -39t-70.5 -14.5q-38 0 -71 14t-58 39t-39 58t-14 71z" />
<glyph unicode="&#x2019;" horiz-adv-x="548" d="M91 1284q0 37 14.5 70.5t39 58t57.5 39t71 14.5t71 -14t58 -39t39 -58t14 -71q0 -46 -12 -94t-33.5 -93t-50.5 -85.5t-63 -71.5l-144 76q21 16 42.5 42t25.5 52q-29 9 -52.5 26t-40.5 40t-26.5 50.5t-9.5 57.5z" />
<glyph unicode="&#x201a;" horiz-adv-x="578" d="M105 150q0 37 14.5 70.5t39 58t57.5 39t71 14.5t71 -14.5t58 -39t39 -58t14 -70.5q0 -46 -12 -94t-33.5 -93.5t-50.5 -86t-63 -71.5l-144 76q21 16 42.5 42t25.5 52q-29 9 -52.5 26t-40.5 40.5t-26.5 51t-9.5 57.5z" />
<glyph unicode="&#x201c;" horiz-adv-x="1023" d="M101 1122q0 46 12 94t33.5 93.5t50.5 86t63 70.5l144 -75q-21 -17 -42.5 -42.5t-25.5 -52.5q28 -9 52 -26t41 -40t26.5 -50.5t9.5 -57.5q0 -38 -14.5 -71t-39 -57.5t-58 -39t-70.5 -14.5q-38 0 -71 14t-58 39t-39 58t-14 71zM564 1122q0 46 12 94t33.5 93.5t50.5 86 t63 70.5l144 -75q-21 -17 -42.5 -42.5t-25.5 -52.5q28 -9 52 -26t41 -40t26.5 -50.5t9.5 -57.5q0 -38 -14.5 -71t-39 -57.5t-58 -39t-70.5 -14.5q-38 0 -71 14t-58 39t-39 58t-14 71z" />
<glyph unicode="&#x201d;" horiz-adv-x="1011" d="M91 1284q0 37 14.5 70.5t39 58t57.5 39t71 14.5t71 -14t58 -39t39 -58t14 -71q0 -46 -12 -94t-33.5 -93t-50.5 -85.5t-63 -71.5l-144 76q21 16 42.5 42t25.5 52q-29 9 -52.5 26t-40.5 40t-26.5 50.5t-9.5 57.5zM554 1284q0 37 14.5 70.5t39 58t57.5 39t71 14.5t71 -14 t58 -39t39 -58t14 -71q0 -46 -12 -94t-33.5 -93t-51 -85.5t-63.5 -71.5l-143 76q10 8 21 18.5t21 23t17 26t9 26.5q-29 9 -52.5 26t-40.5 40t-26.5 50.5t-9.5 57.5z" />
<glyph unicode="&#x201e;" horiz-adv-x="1041" d="M105 150q0 37 14.5 70.5t39 58t57.5 39t71 14.5t71 -14.5t58 -39t39 -58t14 -70.5q0 -46 -12 -94t-33.5 -93.5t-50.5 -86t-63 -71.5l-144 76q21 16 42.5 42t25.5 52q-29 9 -52.5 26t-40.5 40.5t-26.5 51t-9.5 57.5zM568 150q0 37 14.5 70.5t39 58t57.5 39t71 14.5 t71 -14.5t58 -39t39 -58t14 -70.5q0 -46 -12 -94t-33.5 -93.5t-51 -86t-63.5 -71.5l-143 76q10 8 21 18.5t21 23t17 26t9 26.5q-29 9 -52.5 26t-40.5 40.5t-26.5 51t-9.5 57.5z" />
<glyph unicode="&#x2022;" horiz-adv-x="726" d="M108 686q0 53 20 99.5t54.5 81t81 54.5t99.5 20t99.5 -20t81 -54.5t54.5 -81t20 -99.5t-20 -99.5t-54.5 -81t-81 -54.5t-99.5 -20t-99.5 20t-81 54.5t-54.5 81t-20 99.5z" />
<glyph unicode="&#x2026;" horiz-adv-x="1917" d="M105 150q0 37 14 70.5t39 58t58 39t71 14.5t71 -14.5t58 -39t39 -58t14 -70.5q0 -38 -14 -71.5t-39 -58t-58 -39t-71 -14.5t-71 14.5t-58 39t-39 58t-14 71.5zM776 150q0 37 14.5 70.5t39 58t58 39t71.5 14.5q37 0 70.5 -14.5t58 -39t39 -58t14.5 -70.5 q0 -38 -14.5 -71.5t-39 -58t-58 -39t-70.5 -14.5q-38 0 -71.5 14.5t-58 39t-39 58t-14.5 71.5zM1448 150q0 37 14.5 70.5t39 58t57.5 39t71 14.5t71.5 -14.5t58 -39t39 -58t14.5 -70.5q0 -38 -14.5 -71.5t-39 -58t-58 -39t-71.5 -14.5t-71 14.5t-57.5 39t-39 58t-14.5 71.5z " />
<glyph unicode="&#x202f;" horiz-adv-x="385" />
<glyph unicode="&#x2039;" horiz-adv-x="832" d="M74 507v140l614 305v-209l-378 -160v-13l378 -174v-196z" />
<glyph unicode="&#x203a;" horiz-adv-x="832" d="M144 200v196l378 174v13l-378 160v209l614 -305v-140z" />
<glyph unicode="&#x205f;" horiz-adv-x="481" />
<glyph unicode="&#x20ac;" horiz-adv-x="1543" d="M66 520l33 147h231q-2 14 -2 27.5v27.5q0 32 3 62h-205l33 147h204q31 87 86.5 159.5t129.5 124t163.5 80t189.5 28.5q81 0 159.5 -19t146 -57.5t120 -97.5t82.5 -138l-137 -58q-16 52 -43 95.5t-64 74.5t-84.5 48t-103.5 17q-61 0 -111.5 -20.5t-90.5 -55.5t-69.5 -81.5 t-48.5 -99.5h380l-34 -147h-380q-3 -32 -3 -62v-27.5t2 -27.5h355l-34 -147h-294q17 -55 45.5 -103t69 -83.5t93.5 -56t120 -20.5q52 0 97.5 17t83 47t65 70.5t44.5 87.5l138 -54q-30 -77 -83 -134t-120.5 -94.5t-145 -56.5t-155.5 -19q-101 0 -191 29t-164.5 81.5t-130 126 t-85.5 162.5h-295z" />
<glyph unicode="&#x2122;" horiz-adv-x="1288" d="M114 1365v75h414v-75h-133v-419h-148v419h-133zM519 946l86 494h134l108 -350l111 350h134l71 -494h-151l-37 319l-87 -319h-133l-103 331l-35 -331h-98z" />
<glyph unicode="&#x25fc;" horiz-adv-x="1150" d="M0 0v1150h1150v-1150h-1150z" />
<glyph unicode="&#xfb01;" horiz-adv-x="1616" d="M27 1022v134h210q0 318 137 475.5t418 157.5q84 0 148.5 -15.5t112 -37t79.5 -43t51 -33.5q-43 -15 -70.5 -41t-43.5 -57t-23 -64.5t-9 -63.5t-0.5 -54t2.5 -36q-2 26 -8 57t-18 63t-30 62t-44.5 53t-62 37t-81.5 14q-71 0 -114 -33t-66 -94.5t-31 -149t-8 -197.5h350 v-134h-350v-1022h-339v1022h-210zM1120 1434q0 38 14.5 71.5t39.5 58.5t58.5 39.5t71.5 14.5t72 -14.5t59 -39.5t39.5 -58.5t14.5 -71.5t-14.5 -72t-39.5 -59t-59 -39.5t-72 -14.5t-71.5 14.5t-58.5 39.5t-39.5 59t-14.5 72zM1135 0v1154h339v-1154h-339z" />
<glyph unicode="&#xfb02;" horiz-adv-x="1596" d="M27 1022v134h210q0 318 137 475.5t418 157.5q84 0 150.5 -11.5t118 -30t90.5 -41.5t69 -46l-191 -316q-3 38 -14 87.5t-36.5 93.5t-70 74.5t-113.5 30.5q-71 0 -114 -33t-66 -94.5t-31 -149t-8 -197.5h350v-134h-350v-1022h-339v1022h-210zM1117 0h338v1687h-130 l-208 -351v-1336z" />
</font>
</defs>
</svg>
