<?xml version="1.0" standalone="no"?>
<!DOCTYPE svg PUBLIC "-//W3C//DTD SVG 1.1//EN" "http://www.w3.org/Graphics/SVG/1.1/DTD/svg11.dtd" >
<svg xmlns="http://www.w3.org/2000/svg" xmlns:xlink="http://www.w3.org/1999/xlink" version="1.1">
<metadata>
Created by FontForge 20170509 at Mon Oct 23 04:19:27 2017
 By fw_worker
Copyright (c) 2017 by Zatari. All rights reserved.
</metadata>
<defs>
<font id="SOFIEbrushZT" horiz-adv-x="450" >
  <font-face 
    font-family="SOFIEbrushZT"
    font-weight="900"
    font-stretch="normal"
    units-per-em="1000"
    panose-1="0 0 0 0 0 0 0 0 0 0"
    ascent="750"
    descent="-250"
    x-height="348.5"
    cap-height="746.5"
    bbox="-229.25 -515.161 874 938.48"
    underline-thickness="50"
    underline-position="-100"
    unicode-range="U+000D-2044"
  />
<missing-glyph horiz-adv-x="288" 
 />
    <glyph glyph-name=".notdef" horiz-adv-x="288" 
 />
    <glyph glyph-name="NULL" horiz-adv-x="0" 
 />
    <glyph glyph-name="NULL" horiz-adv-x="0" 
 />
    <glyph glyph-name="nonmarkingreturn" unicode="&#xd;" horiz-adv-x="288" 
 />
    <glyph glyph-name="space" unicode=" " horiz-adv-x="288" 
 />
    <glyph glyph-name="D" unicode="D" horiz-adv-x="610" 
d="M605 420q-9 -13 -25.5 -32.5t-35.5 -42t-38.5 -45.5t-36 -41.5t-28 -31t-13.5 -14.5q-50 -56 -105.5 -104t-113.5 -97q-12 -10 -36.5 -30t-55 -44t-64 -50t-62.5 -48.5t-51 -39t-29 -21.5q-5 -4 -11.5 -5.5t-12.5 -3.5q-1 6 -3.5 12.5t-1.5 12.5q3 34 7.5 67t9.5 67
q0 5 5 9.5t10 7.5q18 11 38 21t40 19q23 14 23 -24q9 5 17 9t16 9q28 21 72 49.5t99.5 69t120 95.5t133.5 129q27 30 49 57.5t42 53.5t38.5 52t39.5 54q14 21 9 32t-26 25q-26 17 -59 21t-67.5 -1t-68 -16t-60 -22.5t-43 -21t-17.5 -11.5q-11 -19 -27.5 -48t-34.5 -62.5
t-36 -69t-33.5 -66t-27 -53.5t-15.5 -32q-17 -37 -33.5 -74.5t-33.5 -73.5q-8 -16 -19.5 -18t-22.5 10q-4 3 -5.5 8.5t-0.5 10.5q4 10 13 30.5t20.5 45.5t25 53t26 54t23 47t17.5 33q20 38 40 77t40 77q3 3 3.5 7t0.5 7q-11 0 -36.5 -13t-57 -33.5t-66 -44.5t-65 -45.5
t-53 -37.5t-29.5 -20q5 23 6.5 40.5t8.5 34.5t22.5 37t49.5 47q57 46 113.5 85.5t118.5 71.5q7 4 30 13t55 20.5t69.5 24t75 23.5t70.5 18.5t57 9.5t44.5 -9t35 -29.5t21.5 -42t3 -47.5q-4 -28 -14 -53.5t-23.5 -49t-29 -45.5t-31.5 -44z" />
    <glyph glyph-name="E" unicode="E" horiz-adv-x="544" 
d="M700 633q5 2 11.5 -0.5t12.5 -4.5q-2 -6 -2 -13.5t-5 -10.5q-28 -23 -56.5 -45t-60.5 -40q-68 -39 -136.5 -76t-137.5 -74q-26 -14 -51.5 -28.5t-51.5 -27.5q-51 -24 -100.5 -47.5t-100.5 -46.5q-12 -5 -22.5 -27.5t-16 -48t-6 -48t6.5 -26.5q26 -17 69.5 -6.5t94 36.5
t103 61.5t97 68.5t75.5 58.5t38 30.5q3 2 7.5 1t9 -4t7.5 -7t1 -7q-12 -19 -43 -49.5t-74 -65t-94.5 -68.5t-105 -60.5t-105 -42.5t-94.5 -13q-14 1 -22.5 10.5t-12 23.5t-4 30.5t2.5 31.5l4 34t7 37q-11 -5 -18.5 -9t-14.5 -8q-10 -6 -18.5 -12.5t-19.5 -11.5
q-27 -16 -24 15q0 4 5.5 16.5t13 29.5t16.5 36t16.5 35t12.5 26.5t5 11.5q29 14 59.5 26.5t57.5 30.5q19 11 31 32t23 41q35 60 67 120t63 123q8 12 12.5 26.5t9.5 31.5h-32q-3 20 7 25t22 6l84 10l84 10q51 8 100.5 16t100.5 15q23 2 27 -3t-1 -28q-4 -14 -7 -28t-8 -27
q-5 -12 -12.5 -16.5t-24.5 0.5q-7 2 -28 3t-49 1.5t-58.5 0.5t-56.5 -0.5t-43.5 -1t-19.5 -0.5q-31 -2 -50.5 -18t-34.5 -43q-22 -45 -48 -87t-51 -87q-11 -21 -21.5 -43.5t-23.5 -48.5q9 2 14.5 3t10.5 3q41 17 81.5 36.5t83.5 36.5q51 21 101.5 45t101 47t102.5 43t107 34
z" />
    <glyph glyph-name="F" unicode="F" horiz-adv-x="418" 
d="M485 513q-1 -1 -2.5 -2t-2.5 -3q-50 -47 -106.5 -81t-118.5 -62q-35 -15 -67.5 -33t-65.5 -37q-8 -4 -13 -11t-8 -15q-20 -52 -38 -104t-39 -104q-14 -37 -31.5 -72.5t-34.5 -71.5q-9 -19 -17 -37.5t-16 -38.5q-3 -8 -4.5 -17t-3.5 -18q2 0 3.5 -0.5t3.5 -0.5l18 28
t19 28q3 5 7.5 8t9.5 6q1 -2 3 -3q1 -1 1.5 -1t1.5 -1l1 -1q-2 -5 -3 -11t-4 -11q-13 -20 -27 -40l-28 -40q-3 -5 -8.5 -7.5t-10.5 -5.5q-2 5 -5 9.5t-4 9.5q-6 36 6.5 67t26.5 60q28 63 55 124t53 123q10 25 18.5 49.5t17.5 48.5q1 5 2 10.5t3 14.5q-16 -7 -29 -12.5
t-26 -11.5q-21 -9 -42 -18.5t-43 -19.5q-7 -2 -14.5 -4.5t-13.5 -0.5q-5 2 -10 9t-4 12q5 33 14 68q2 5 5.5 8.5t8.5 6.5q39 25 78 49t77 50q17 10 32.5 20.5t31.5 21.5q3 3 5 7.5t4 7.5q-1 2 -4 5q-12 -6 -24 -11t-23 -13q-14 -7 -27.5 -15.5t-28.5 -15.5q-6 -3 -15 -2.5
t-15 3.5q-10 5 -9.5 13.5t6.5 16.5q7 12 8 19q10 31 27 52.5t48 33.5q27 10 52 23.5t50 26.5q7 4 12.5 11t9.5 14q14 27 26.5 54.5t26.5 54.5q5 9 16 15q-2 -17 -7.5 -33t-12.5 -31.5t-14.5 -31t-11.5 -33.5q65 25 127 48t125 47q7 -16 1.5 -27t-8.5 -21q-2 -7 -6.5 -13.5
t-4.5 -14.5q0 -23 -14 -31.5t-31 -15.5q-61 -26 -120 -52t-119 -52q-5 -2 -7 -5t-5 -6q0 -2 2 -4q3 1 6 2.5t8 2.5h16q-2 -4 -1.5 -9t-1.5 -8q-11 -10 -23 -17q-16 -9 -23.5 -23t-9.5 -35q8 3 14.5 5t11.5 5q48 25 94.5 51.5t95.5 50.5q34 17 69 33.5t71 22.5q2 0 3 0.5
t2 0.5v-1q-4 -11 -8 -20.5t-15 -14.5q-4 -2 -5 -5zM48 337q14 0 29 6.5t27 16t19 21.5t6 24q-23 -16 -43.5 -32t-41.5 -30q1 -2 2 -3t2 -3z" />
    <glyph glyph-name="G" unicode="G" horiz-adv-x="568" 
d="M564 822q6 -1 10 -9t6 -18t2 -19.5t-3 -12.5q-23 -26 -47 -50.5t-50 -50.5q-11 -12 -23.5 -24t-23.5 -23q-3 -3 -6.5 -7.5t-5.5 -3.5q-11 0 -19 -3.5t-14 -9t-11.5 -12t-11.5 -12.5q-6 -8 -20 -6q1 2 15 16.5t34.5 35t44.5 45.5t44 47.5t33.5 40.5t13.5 26
q-6 5 -30 -11.5t-59 -47.5t-78 -73t-86.5 -87.5t-85 -91.5t-73.5 -85t-51 -67.5t-18 -39.5q15 11 36 24t50.5 25.5t68 23t89.5 17.5q45 6 90.5 9t91.5 1q25 0 51.5 -7.5t41.5 -30.5q12 -18 5 -40t-25.5 -45.5t-45.5 -46.5t-55 -43t-54 -35.5t-43 -24.5q-20 -10 -63.5 -25
t-93.5 -28.5t-98 -22t-77 -5.5q-13 1 -28 6t-28.5 14.5t-23 23t-10.5 30.5q-2 10 -1 20t2 19t2 14.5t0 6.5q-7 -3 -18.5 -14t-16.5 -14q-3 -3 -10.5 -10t-15 -12.5t-14 -6.5t-7.5 9q1 8 1.5 16.5t3.5 13.5q7 12 32.5 42t62.5 71.5t82.5 91.5t93 101.5t94.5 101t86.5 90.5
t69 70.5t42.5 40.5q20 17 44.5 32.5t46.5 26.5t37 17.5t17 5.5zM179 262q-51 -15 -97.5 -35t-91.5 -48q-15 -9 -18.5 -25.5t3.5 -30.5q3 -11 14 -20.5t22 -14.5q27 -17 74 -13t98.5 19t99.5 36.5t78 40.5q33 22 64.5 46t62.5 47q14 11 13 18.5t-18 15.5q-14 6 -39 6.5
t-55 -2t-62.5 -8t-61.5 -11.5t-52 -12t-34 -9z" />
    <glyph glyph-name="H" unicode="H" horiz-adv-x="418" 
d="M259 651q-17 -23 -34 -45t-34 -45q-3 2 -5 3q-2 12 3.5 23t12.5 20q13 16 34.5 40.5t43 47.5t38.5 40l20 20q4 2 8.5 2.5t5.5 -1.5q3 -3 3.5 -7.5t0.5 -8.5q-9 -22 -25 -52.5t-34.5 -63.5t-37.5 -65.5t-35.5 -59.5l-27.5 -45t-13 -22q17 5 29.5 7t23.5 5q36 8 71.5 18
t71.5 19q16 4 22.5 14.5t10.5 21.5t13 31t20 44.5t23 51t23.5 50.5t21 43t15.5 29l5 -1q1 -3 2 -7t1 -6q-4 -11 -7 -21t-8 -21q-19 -43 -36.5 -84.5t-35.5 -83.5q-5 -10 -10 -22.5t-9 -23.5q30 8 36.5 -2t-1.5 -27q-9 -19 -22 -37.5t-27 -37.5q-2 -2 -8 -2.5t-13.5 -2
t-14.5 -3.5t-10 -7q-19 -39 -41 -83.5t-41 -84.5q-29 -66 -57.5 -130.5t-58.5 -129.5q-4 -8 -5.5 -17t-4.5 -17v-2q-5 -7 -13 -5t-8 10q0 3 1 4q16 45 37 87q15 41 32 80.5t35 79.5q11 26 24 51t25 51q13 23 26 53t24 53l-11.5 -2.5t-31 -7.5t-43 -11t-47 -12.5t-44.5 -11.5
t-34 -8q-9 -3 -14 -4.5t-9.5 -2.5t-9.5 -2.5t-14 -4.5q-14 -25 -31 -53t-34 -57t-33 -57.5t-29 -53.5q-11 -22 -26 -56.5t-27.5 -67.5t-21 -57.5t-6.5 -26.5q8 11 21.5 28t20.5 28q7 8 13.5 17t14.5 17q5 5 11 2t6 -9q0 -7 -1 -9q-12 -16 -25.5 -31t-26.5 -29
q-8 -10 -15 -20t-15 -19q-3 -5 -9 -5q-5 -3 -9.5 -0.5t-6.5 7.5t0 10q10 32 19.5 64t23.5 66q21 48 45 94.5t48 93.5q7 13 18.5 33t22.5 38.5t19 32.5t9 16q-6 -1 -24 -7t-37.5 -10.5t-34 -3.5t-13.5 15q0 10 7 23.5t16.5 26.5t21.5 22.5t23 12.5q12 4 32 9t39 10t34 10
t17 8q8 8 16.5 25.5t15.5 27.5q22 36 42.5 73t40.5 74q4 6 5 11.5t2 11.5z" />
    <glyph glyph-name="I" unicode="I" horiz-adv-x="306" 
d="M25 130q2 3 13.5 28.5t30 65.5t41.5 90.5t47.5 103.5t49 104t45 92t35.5 68t21 32q11 8 22 15.5t22 14.5q7 5 13 2.5t6 -10.5q1 -17 2 -33.5t-4 -31.5q-6 -19 -19.5 -48t-31 -63.5t-37.5 -71t-37.5 -68.5t-31.5 -57t-20 -37q-22 -40 -42 -80t-38 -82q-10 -20 -17 -40.5
t-15 -41.5q-1 -6 -9 -12q-20 -14 -40.5 -28t-40.5 -29q-4 -2 -8 -4.5t-9 -3.5q-18 -5 -16 14q2 17 4.5 34.5t5.5 34.5q5 21 10 41t10 41q2 8 9.5 10t12.5 -2q2 -1 4 -5q5 -9 6.5 -19t5.5 -24z" />
    <glyph glyph-name="J" unicode="J" horiz-adv-x="366" 
d="M14 612q-5 0 -11 3t-7 8q-1 10 -0.5 21.5t4.5 18.5q14 29 31.5 48t43.5 24q61 9 120.5 10.5t121.5 -0.5q40 -8 64.5 -37t35 -68t8.5 -83.5t-14 -83.5q-6 -18 -21.5 -52t-36.5 -77t-46.5 -92t-51.5 -98t-50.5 -94.5t-44 -81.5t-32.5 -59.5t-16 -27.5q-11 -16 -29.5 -40
t-39 -45.5t-39 -35.5t-30.5 -10q-26 16 -46 46t-34.5 66t-24.5 74t-16 70t-9 54t-3 27q-2 10 4.5 15t11.5 -3q1 -1 1 -5q5 -20 10 -40.5t10 -41.5q9 -38 22 -71t30 -62q19 -32 43 -34.5t45 25.5q31 32 70 87t79 120t77 134.5t64 131t40 109t6 68.5q-15 35 -34.5 57.5
t-45.5 38.5q-28 10 -65 10t-74 -5t-69.5 -11.5t-51.5 -7.5z" />
    <glyph glyph-name="K" unicode="K" 
d="M48 279q24 16 47 31t48 29q48 29 95 59t95 58q59 35 117.5 70t118.5 71q14 9 27 20.5t27 20.5q2 2 3 2q9 5 16.5 -2t5.5 -17q-2 -5 -5 -8q-29 -30 -58.5 -60t-59.5 -59q-57 -55 -123.5 -94.5t-133.5 -79.5q-36 -21 -71 -44t-71 -46q-5 -2 -9.5 -6t-8.5 -8q0 -2 10 -1
t23.5 3t28.5 4.5t26 4.5q42 5 82.5 11.5t82.5 11.5q27 5 42.5 -4.5t25.5 -35.5q5 -11 5.5 -33t-0.5 -49.5t-2 -57.5t-0.5 -56t4 -45.5t12.5 -26.5q7 -2 10.5 1t6.5 8.5t5 12t6 10.5q5 4 10.5 1.5t6.5 -8.5q1 -3 0 -4q-3 -9 -5.5 -19.5t-7 -20.5t-12 -16.5t-20.5 -7.5
q-22 -2 -37 8.5t-25.5 27t-16.5 37t-9 39.5t-4.5 33t-1.5 18q-13 67 -75 60q-35 -5 -70 -11t-70 -14q-52 -13 -102.5 -27t-102.5 -30q-15 -5 -23 -18q-15 -30 -30 -60.5t-30 -60.5q-2 -6 2 -10.5t9 -3.5q25 5 38 23q11 14 20.5 27t21.5 25v1q8 8 16 2t7 -16q-1 -2 -1 -4
q-29 -33 -56 -67.5t-66 -56.5q-2 -1 -8 1.5t-12 7t-10.5 9.5t-2.5 8q16 49 39 100q33 68 66.5 135l67.5 135q37 75 76 149.5t77 149.5q11 21 23 41.5t23 40.5q3 5 5 9.5t4 9.5l-6 6q-10 -12 -19 -25.5t-17 -24.5q-6 2 -13 8q3 5 4 11.5t4 11.5q20 23 39 44.5t37 44.5
q9 11 16 22t17 21l1 1q7 7 15.5 2t8.5 -14q0 -3 -2 -5q-22 -38 -44.5 -76.5t-43.5 -77.5q-35 -66 -69.5 -132.5t-69.5 -132.5q-2 -5 -3 -8.5t-2 -8.5q3 -2 5 -5z" />
    <glyph glyph-name="L" unicode="L" horiz-adv-x="272" 
d="M415 291q0 -8 -3.5 -16.5t-11.5 -13.5q-19 -16 -54.5 -47.5t-80 -68.5t-93 -76t-93 -71t-81 -53.5t-55.5 -23.5q-11 -1 -25.5 4t-25 20t-15 41.5t4.5 68.5q6 28 29 83.5t55 124t69 143t71 140t61.5 116t39.5 70.5q6 9 11.5 18t13 15.5t17 9.5t23.5 -1q6 -2 12 -4.5
t9 -7.5q4 -10 3.5 -24t-4.5 -28t-10.5 -26.5t-15.5 -19.5q-5 -2 -11 -2.5t-11 -3.5q0 6 -2 13t0 11q5 11 10.5 22.5t10.5 22.5q-5 10 -9.5 10.5t-8 -3t-6 -9.5t-3.5 -9q-17 -29 -45.5 -83t-60.5 -118t-64.5 -133t-59.5 -129t-44.5 -104.5t-19.5 -60.5q-3 -32 -0.5 -50t9 -26
t18 -9t26.5 2q26 4 51.5 19.5t49.5 34.5t46.5 39t42.5 35q54 42 103.5 85.5t99.5 87.5q9 7 18.5 1.5t8.5 -16.5z" />
    <glyph glyph-name="M" unicode="M" horiz-adv-x="475" 
d="M511 624q12 11 19.5 10.5t11.5 -6t5.5 -14t1.5 -12.5q-4 -20 -7.5 -42.5t-11.5 -41.5q-20 -43 -43 -80.5t-43 -79.5q-38 -71 -74 -141t-74 -142q-22 -40 -35 -93.5t-5 -120.5q1 -5 4.5 -10.5t3.5 -12.5v-5q-3 -10 -10 -14t-15 2q0 4 -2 4q-23 29 -25.5 70t11.5 89
q12 45 34.5 98.5t50 109t56.5 109t54 97t43 74.5t23 41q3 4 -0.5 7t-7.5 -2q-8 -9 -17 -19t-17 -19t-14 -16t-8 -8q-55 -58 -109.5 -115.5t-111.5 -114.5q-39 -38 -78.5 -77.5t-77.5 -78.5q-5 -4 -9 -11t-9 -12h-1v-3q-9 -7 -18.5 -2.5t-9.5 15.5q0 4 1 5q5 24 12 47.5
t18 46.5q17 45 35 90.5t35 92.5q13 35 24.5 71t25.5 71q2 10 2 19q-1 2 -2.5 2.5t-3.5 4.5q-38 -79 -77 -156t-77 -154t-74.5 -156t-67.5 -161q17 14 31.5 26t29.5 23q4 4 9 3t8 -5t3.5 -9.5t-3.5 -10.5q0 -1 -2 -1q-23 -24 -48.5 -48t-50.5 -47q-2 -4 -7 -4q-10 -6 -21 2
t-11 24l1 1q2 11 6.5 21.5t7.5 20.5q9 22 25.5 56t36.5 74t40.5 81.5t38.5 78t31.5 64.5t18.5 40l6.5 13.5t15 30.5t16.5 32.5t10 20.5q51 92 99 185t95 186q7 10 13.5 15t17.5 -1t10.5 -15.5t-4.5 -18.5q-3 -5 -19 -46t-38.5 -100t-48 -126.5t-48 -125.5t-37.5 -98t-16 -44
q3 2 28.5 27.5l64 64t83.5 84.5t87 88t74.5 75.5t45.5 46.5q17 16 33.5 29.5t31.5 30.5z" />
    <glyph glyph-name="N" unicode="N" horiz-adv-x="530" 
d="M598 852q-22 -57 -33.5 -116t-20.5 -121q-1 -10 -5.5 -42.5t-12 -78t-18.5 -99t-25.5 -105.5t-33 -97t-41.5 -73q-15 -18 -41 -39t-57 -31.5t-64.5 -4t-63.5 43.5q-23 28 -32.5 70.5t-12 83.5t-1 72.5t1.5 39.5q-1 -1 -16 -28t-36.5 -66.5t-46.5 -85t-46 -85t-35.5 -66
t-14.5 -27.5q0 -2 9.5 2.5t20.5 10t20.5 11t10.5 6.5h3q7 3 12.5 -5t0.5 -15q0 -1 -2 -1h-1q-20 -16 -43.5 -41t-47.5 -53.5t-46 -57.5t-39.5 -53.5t-29 -40.5t-13.5 -18q-4 -2 -10.5 -5.5t-8.5 -2.5q-3 6 -6 14t-2 14q5 14 12.5 30t14.5 31q44 79 86.5 156.5t84.5 156.5
q43 77 84.5 154t84.5 155q12 23 26 46t26 46q14 28 9 43.5t-30 28.5q-11 5 -11 18.5t11 18.5h5q7 0 23 -5t31 -14t23 -20t1 -22q-5 -9 -14.5 -31t-20.5 -48t-20.5 -50t-13.5 -37q-13 -53 -3 -104t30 -102q6 -12 16.5 -27t23 -27.5t25.5 -20t24 -4.5q10 3 23.5 7.5t27 10
t25 12.5t18.5 16q30 37 50 97t33.5 128.5t21.5 139.5t14.5 130.5t12 100.5t13.5 50q11 8 20.5 20.5t19.5 21.5h1q8 5 14 0.5t5 -12.5v-4z" />
    <glyph glyph-name="O" unicode="O" horiz-adv-x="353" 
d="M373 643q28 -25 30.5 -55.5t-0.5 -64.5q-3 -35 -14 -66.5t-26.5 -60.5t-34 -57t-34.5 -56q-51 -85 -122 -146.5t-156 -107.5q-20 -11 -43 -15.5t-46 -6.5q-16 -1 -30 7.5t-24 22.5t-14 31.5t1 34.5q9 28 22 54t28 51q34 60 74.5 113.5t85.5 105.5q35 38 69 76.5t69 76.5
q4 5 8.5 9t8.5 8q21 18 21.5 27.5t-22.5 23.5q-24 15 -49.5 25t-56.5 2h-6q-10 1 -16 9.5t-4 19.5q1 6 7 14q20 17 45 22.5t49 -1.5q29 -7 57 -19t57 -20q6 -2 14 -1.5t13 5.5q11 7 18 17t15 18q2 1 4.5 2t5.5 1q7 2 11.5 -4t-0.5 -12v-1q-11 -13 -22.5 -25t-23.5 -25
q9 -9 16 -17.5t15 -14.5zM313 439q6 11 10.5 26.5t3.5 34.5t-10.5 40t-32.5 44q-10 10 -17.5 10.5t-16.5 -9.5q-26 -28 -53 -55t-54 -56q-3 -3 -23 -27t-45 -54.5t-49.5 -61t-36.5 -46.5q-22 -31 -37.5 -65.5t-20.5 -74.5q-3 -19 3 -23.5t25 -1.5q42 6 82.5 26.5t77 49.5
t68.5 63.5t57 67.5t42.5 62.5t26.5 49.5z" />
    <glyph glyph-name="P" unicode="P" horiz-adv-x="430" 
d="M201 558q-10 3 -29.5 -1t-40 -10t-38.5 -12.5t-24 -9.5q-1 -1 -4 -1q-8 -2 -13.5 6t-2.5 16q0 3 3 6q17 20 33.5 39.5t35.5 35.5q7 6 23.5 14t35 16t35.5 14.5t26 10.5q8 19 18.5 33t19.5 21.5t15 8.5t5 -5q0 -2 -1 -2q-2 -11 -6.5 -19t-8.5 -17q24 0 47.5 0.5t45.5 -0.5
q23 -1 45.5 -3t45.5 -8q52 -11 64 -44.5t-13 -93.5q-7 -18 -19 -52t-33 -73.5t-52 -79t-75 -66.5q-55 -37 -111.5 -73t-113.5 -72q-21 -14 -41.5 -23.5t-40.5 -20.5q-10 -5 -18.5 -11t-13.5 -15q-20 -53 -38.5 -104.5t-38.5 -105.5v-1q0 -4 3 -5.5t6 0.5q4 2 6.5 5.5
t4.5 5.5q31 51 60 99.5t60 98.5q5 9 12.5 3.5t4.5 -15.5q0 -4 -1 -4q-20 -34 -40.5 -67t-40.5 -67q-2 -3 -11.5 -20t-22.5 -38.5t-27 -45t-25 -40.5q-5 -9 -14.5 -5.5t-9.5 14.5v3q3 57 21 106.5t37 100.5q3 8 6.5 20t6.5 23t4.5 19.5t0.5 9.5q-12 -5 -24 -12.5t-24 -12.5
q-11 -5 -21 -7.5t-19 -6.5q0 6 0.5 17.5t1.5 23.5t2 22t1 13q7 35 37 48q26 11 52.5 25t52.5 29q5 2 8.5 5.5t5.5 6.5q8 15 21 41t28.5 58t32.5 66.5t31.5 66t26 56t17.5 37.5q2 5 3 11.5t4 13.5zM80 238q3 -3 4 -5q11 6 37 24t59.5 42.5t71 52t70.5 53t58.5 45.5t34.5 28
q16 16 13.5 35.5t-19.5 26.5q-11 4 -34.5 8t-48.5 7.5t-46.5 6t-30.5 2.5q-18 1 -28 -22q-11 -24 -26 -55.5t-30.5 -65t-30.5 -66t-27 -58t-19.5 -42t-7.5 -17.5z" />
    <glyph glyph-name="Q" unicode="Q" horiz-adv-x="521" 
d="M-150 92q0 32 23.5 73.5t55 81.5t63.5 73t49 49q18 16 42 37t50 44t51 45.5t46 40.5t34.5 30t15.5 14q19 14 19 23.5t-19 25.5v1q-11 10 -7.5 23.5t16.5 17.5h3q20 2 41 0.5t42 -0.5q9 0 16 2t15 5q35 17 69 33.5t69 33.5q5 2 9.5 4.5t9.5 0.5q8 -2 17 -4.5t12 -8.5
q3 -5 1.5 -16t-5.5 -16q-15 -17 -30.5 -33.5t-32.5 -30.5q-11 -9 -11 -16t8 -17q10 -14 19.5 -27.5t16.5 -29.5q24 -45 0 -91q-9 -18 -28 -52.5t-40.5 -69.5t-41.5 -65t-29 -39q-12 -11 -16.5 -21.5t2.5 -30.5q4 -13 13 -47.5t19.5 -75t21 -78.5t17.5 -56q4 -12 -2 -28
t-17.5 -32.5t-24.5 -31.5t-22 -25q-6 -5 -14 -2.5t-9 10.5q-3 16 -9 42t-12.5 55.5t-14 61t-14.5 58.5t-12 47.5t-8 28.5q-9 23 -27 9q-37 -32 -88.5 -57t-105.5 -40t-104 -19t-83 7q-32 10 -45 29t-14 54zM36 291q-23 -30 -48.5 -59t-38.5 -67q-4 -16 -1.5 -26.5
t15.5 -14.5q21 -8 42 -13t42 -6q60 -2 114 18.5t107 47.5q22 12 19 40q-4 25 -7 50t-5 49q-2 8 1 16t7 13q14 20 28.5 37t30.5 35v1q6 8 16.5 5.5t14.5 -13.5v-2q2 -16 1 -31.5t0 -32.5q1 -21 3.5 -41.5t4.5 -40.5l12 -5q3 5 11.5 23t18 40t18 44.5t12.5 36.5q7 27 6.5 46.5
t-7 34.5t-17.5 27t-26 24q-14 13 -43 5.5t-66 -28t-78 -50t-78 -60t-66.5 -58.5t-42.5 -45z" />
    <glyph glyph-name="R" unicode="R" horiz-adv-x="619" 
d="M69 220q35 -26 72 -44.5t79 -26.5q36 -7 71.5 -13.5t72.5 -11.5q58 -7 117 -13t119 -12q12 -2 25.5 -1.5t25.5 -3.5q8 -1 15 -6t15 -10q-8 -6 -14 -12t-14 -8q-34 -7 -68.5 -12.5t-68.5 -9.5q-43 -8 -85 -15.5t-84 -8.5q-42 -3 -84.5 1.5t-84.5 8.5q-46 5 -87 21.5
t-83 33.5q-14 7 -26 5t-17 -21q-4 -9 -8.5 -19.5t-10.5 -25.5q8 4 11.5 5.5t6.5 1.5q8 2 15 4l14 4q0 -10 2 -19.5t-3 -17.5l-24 -40t-26 -40q-4 -5 -10 -8t-11 -7q-3 6 -7.5 11.5t-4.5 11.5q-4 45 -1.5 87.5t21.5 83.5q31 65 61.5 128.5t60.5 127.5q14 32 30 64t31 65l-1 1
q-7 1 -13 13t-2 18q5 5 18 21.5t30 39.5t36.5 48.5t38 48t34 38t23.5 18.5q60 22 119 22.5t119 -28.5q35 -17 61.5 -39t34.5 -63q8 -48 -11 -94q-13 -31 -32 -55t-42 -43.5t-49 -35.5t-54 -32q-57 -31 -116.5 -53t-123.5 -33q-29 -6 -56.5 -17.5t-56.5 -19.5v-13zM95 340
q9 1 13 2t8 3q63 20 125.5 40.5t124.5 44.5q34 12 66.5 30.5t64.5 36.5q15 10 17 23.5t-12 28.5q-59 63 -138 84q-13 4 -28.5 5t-24.5 -6q-36 -24 -62 -59q-29 -40 -55 -81.5t-54 -83.5q-11 -16 -21.5 -32.5t-23.5 -35.5z" />
    <glyph glyph-name="S" unicode="S" horiz-adv-x="395" 
d="M-8 428q17 19 54 48.5t82.5 62.5t95 66.5t91 61t71 46t35.5 21.5q8 2 14.5 6.5t14.5 6.5q8 5 15 -0.5t5 -13.5q0 -3 -2 -5q-9 -18 -20.5 -35.5t-21.5 -37.5q-5 -11 -8.5 -23t-8.5 -23q-2 -4 -3.5 -8.5t-3.5 -6.5q-3 -2 -8.5 -3.5t-6.5 -0.5q-2 3 -4.5 7.5t-1.5 8.5
q3 8 6.5 16.5t7.5 17.5q10 30 -18 18q-11 -5 -35.5 -20t-56.5 -36t-67.5 -45.5t-68.5 -48.5t-61.5 -45t-44.5 -35q-8 -8 -15.5 -18t-12.5 -21q-6 -11 -0.5 -16.5t16.5 -4.5q2 1 25 5l57.5 10t75 13t78 13t67.5 11t43 7q20 3 27 -2t11 -25q4 -27 -5 -48t-22 -42
q-11 -17 -34.5 -45t-55 -62t-68.5 -72.5t-75 -76t-73.5 -72.5t-64.5 -63t-48 -46t-24 -22q-10 -8 -20 -4.5t-14 16.5q-4 17 -5 33.5t-2 33.5q0 3 3.5 5.5t6.5 5.5q3 2 22.5 19t45 38.5t52.5 44.5t44 37q46 42 93.5 79.5t93.5 78.5q25 20 47 43t46 47q3 2 6 7t1 7
q-4 2 -8 5.5t-8 2.5q-8 -2 -31 -9t-55 -17t-70 -21.5t-75.5 -21.5t-72.5 -17.5t-60 -10.5q-15 -2 -26.5 5.5t-15.5 22.5q-2 4 -3.5 18t2 33.5t15 44t35.5 51.5z" />
    <glyph glyph-name="T" unicode="T" 
d="M215 673q-41 -5 -77 -9.5t-73 -7.5q-30 -3 -59.5 -5.5t-58.5 8.5q-44 17 -34 62q6 24 27.5 45t45.5 37.5t43.5 26.5t22.5 12q31 17 60 16t60 -15q11 -5 14 -13.5t-7 -16.5q-4 -5 -9 -8.5t-13 -11.5q13 1 47.5 4.5t78 8.5t92 11t91 11.5t73 9.5t38.5 6q5 2 11.5 0.5
t13.5 -2.5q-2 -6 -2.5 -13t-4.5 -12q-16 -31 -38 -61q-6 -8 -16 -14t-21 -7q-57 -11 -111 -21.5t-111 -18.5q-20 -2 -31 -12t-19 -27q-7 -14 -24 -53t-38.5 -92t-44.5 -113.5t-41.5 -116.5t-29 -100.5t-7.5 -66.5q1 -32 10 -46t20.5 -20t22 -9.5t13.5 -13.5q4 -5 2.5 -14
t-5.5 -14q-2 -4 -10.5 -3.5t-15.5 2.5q-19 4 -38 8.5t-39 9.5q-23 7 -16 30q7 36 12 72t13 71q17 68 44 135q23 58 45.5 116t46.5 116q9 22 18.5 42.5t19.5 43.5q2 6 4 14t5 19z" />
    <glyph glyph-name="U" unicode="U" horiz-adv-x="483" 
d="M288 252q-27 -28 -52.5 -56.5t-53.5 -54.5q-45 -33 -83 -47t-68 -14.5t-52.5 9.5t-37 24t-21 29t-5.5 25q6 39 26 68.5t39 61.5q5 9 20 34t33.5 57t39.5 67.5t38.5 66.5t30 52.5t15.5 26.5q-2 1 -4 2.5t-4 2.5q-5 -5 -11.5 -10t-10.5 -11q-5 -6 -9.5 -14t-9.5 -15v-2
q-5 -5 -11.5 -2t-5.5 10q0 2 1 3q5 11 12.5 22t15.5 22q18 23 36 47.5t35 48.5q0 1 2 1q5 8 13 4.5t7 -10.5v-2q-7 -22 -24 -60.5t-38 -84t-44 -94t-42 -91t-31 -74t-12 -42.5q-1 -23 12.5 -37t35.5 -7q28 10 55.5 24t54.5 29q39 24 71.5 56.5t61.5 69.5q48 54 94 111
t94 112q28 33 57 64.5t59 63.5q8 6 16.5 1t5.5 -15l-2 -4q-23 -34 -46 -67.5t-45 -67.5q-24 -39 -47 -76.5t-45 -76.5q-23 -42 -45 -85t-46 -85q-7 -13 -15.5 -39.5t-18 -61t-18.5 -72.5t-17 -74t-13.5 -65.5t-8.5 -45.5q-6 -29 -8 -60.5t-5 -60.5q-1 -5 -1.5 -10.5
t-3.5 -9.5q-2 -3 -6 -7t-6 -4q-10 3 -14 11q-4 10 -5.5 20.5t-1.5 20.5q0 19 3.5 52t8.5 73.5t11.5 84t12.5 82.5t12 70t10 46q2 9 5.5 18.5t6.5 19.5q-2 0 -3 2z" />
    <glyph glyph-name="V" unicode="V" horiz-adv-x="465" 
d="M134 609q-8 -8 -17.5 -34.5t-20 -64t-21 -82.5t-20.5 -91t-19 -89.5t-15 -78t-9 -56t-2 -23.5q6 -14 14 -17t21 -1q25 9 57 29t65 45.5t63.5 52.5t50.5 50q18 20 38.5 52t41.5 71t41 81t37.5 82.5t31 75.5t20.5 59q13 37 23.5 74t21.5 73q0 2 2 2q4 7 11.5 4.5t9.5 -10.5
v-5q-7 -33 -15 -66.5t-17 -67.5q-7 -30 -16.5 -59t-17.5 -60q-10 -46 -38 -108t-68 -126.5t-89.5 -125t-102 -105.5t-106 -67.5t-101.5 -9.5q-20 7 -28 35.5t-7.5 71.5t7.5 96t18 107.5t23.5 106t23 92.5t18 67t7.5 28q4 45 27 76t60 49q3 2 6 5t8 5q5 3 12 7t10 3
q5 -4 6.5 -11.5l2.5 -12.5q-2 -35 -4 -71t-6 -71q0 -1 -1 -3q-5 -9 -14 -11t-16 7l-3 6q-1 3 -1.5 6t-2.5 8z" />
    <glyph glyph-name="W" unicode="W" horiz-adv-x="532" 
d="M166 276q-15 -20 -31.5 -41.5t-33.5 -39.5q-37 -48 -76.5 -95.5t-79.5 -94.5q-5 -5 -15.5 -9.5t-13.5 -2.5q-14 14 -22 37q-2 4 -2 10t2 11q16 66 30 130.5t31 129.5q14 54 33 107t35 107q5 20 9 40.5t10 41.5q2 10 6.5 21.5t18.5 6.5q7 -2 11 -12.5t7 -18.5
q5 -18 8.5 -35.5t7.5 -34.5q1 -4 3.5 -10t0.5 -11q-1 -1 -1 -6q-5 -8 -12.5 -8.5t-11.5 7.5q-5 5 -7 12.5t-5 15.5q-8 -9 -20.5 -40t-26 -72.5t-26.5 -89.5t-22.5 -91t-14 -76t-1.5 -45q16 14 32.5 25t28.5 27q37 38 70.5 79t70.5 79q25 29 51.5 55t54.5 51q7 7 15 2t6 -16
q0 -4 -3 -8q-14 -30 -30 -60t-27 -62q-13 -35 -10.5 -72t10.5 -74q4 -15 14.5 -26.5t24.5 -17.5t29.5 -5.5t27.5 9.5q18 14 36 30.5t32 36.5q39 51 73 105.5t48 121.5q11 48 8.5 94.5t-16.5 93.5q-17 54 -34.5 105t-35.5 102q-14 33 -16 65.5t13 65.5q0 2 1.5 3.5t1.5 2.5
q7 9 17 5.5t10 -14.5v-3q-5 -35 6 -64.5t26 -59.5q26 -53 53 -107t50 -110q14 -27 12 -56.5t-13 -58.5q-15 -33 -29 -67t-29.5 -67.5t-33 -66.5t-39.5 -63q-35 -47 -71.5 -92t-84.5 -78q-30 -21 -62.5 -26.5t-65.5 14.5q-23 14 -30.5 35.5t-6.5 44.5q3 32 9 63.5t12 63.5
q2 12 4.5 24t4.5 23q-2 2 -6 4z" />
    <glyph glyph-name="X" unicode="X" horiz-adv-x="601" 
d="M680 753q8 5 14.5 -1.5t0.5 -13.5q-17 -23 -44.5 -56.5t-59 -70.5t-64 -74.5t-59.5 -67.5l-45 -50t-20 -22q-21 -18 -19 -38t12 -41q17 -32 34.5 -65t34.5 -66q4 -7 5.5 -14.5t5.5 -14.5q22 -36 43.5 -61t46.5 -42.5t54.5 -27t67.5 -13.5q9 -2 19 -5t10 -8q2 -7 -2 -16
t-12 -15q-21 -27 -53 -41t-68 -16.5t-73.5 7.5t-68.5 33q-51 38 -84.5 82t-63.5 103q-5 19 -16.5 36t-22.5 37q-41 -39 -78 -75q-51 -51 -100 -101.5t-108 -93.5q-27 -19 -53.5 -35t-55.5 -33q-5 -4 -13 -4t-13 4q-5 2 -7 8.5t0 13.5q12 72 32 139.5t56 133.5v3q8 9 20 5.5
t14 -13.5q0 -5 -2 -5q-7 -26 -17 -51.5t-18 -53.5q-2 -4 -3 -9.5t3 -13.5q25 20 51.5 38.5t49.5 38.5q45 42 88 84.5t87 86.5q8 8 15 20.5t5 21.5q-38 129 -78 258q0 2 -2.5 4t-3.5 5q-24 -29 -18 -46q11 -17 0 -33q-2 0 -2 -1.5t-2 -1.5q0 -4 -5 -4q-8 -7 -17.5 -3.5
t-11.5 12.5v5q12 54 28.5 107t51.5 100q11 15 27.5 14.5t29.5 -18.5q13 -14 22.5 -29.5t17.5 -32.5q24 -54 47 -106.5t46 -106.5q2 -5 5.5 -10t8.5 -13q15 15 40 43.5t55 62.5t63 71t65 68.5t60 55.5t47 32z" />
    <glyph glyph-name="Y" unicode="Y" horiz-adv-x="274" 
d="M109 249q-18 -8 -32.5 -14t-29.5 -12q-25 -11 -42 0.5t-28 37t-16.5 60.5t-6.5 71.5t2 71t9 58.5q5 25 8 44.5t6 36t5.5 32.5t5.5 35q-15 -9 -24.5 -24.5t-17.5 -32t-17 -31t-23 -21.5l-2.5 5t-3.5 6q7 11 11.5 22t11.5 22q19 32 38.5 64.5t40.5 62.5q3 6 10.5 8.5
t12.5 0.5t9 -11.5t5 -15.5q0 -21 -1.5 -42.5t-1.5 -42.5q-1 -18 -1.5 -44.5t-0.5 -56t0.5 -60t1.5 -55.5t1.5 -43t1.5 -23q6 -30 13.5 -39t30.5 -7q4 0 12 1l16 2t15.5 2.5t11.5 1.5q6 1 17.5 21.5t25 51.5t28.5 68.5t27.5 72.5t22 62.5t13.5 38.5q-11 -9 -19.5 -17
t-18.5 -15q-1 -1 -2 -1q-5 0 -7.5 5t-2.5 10l2 7q9 11 17.5 22t17.5 22l36 38t35 37q1 0 1 0.5t1 0.5h1q7 5 13 -2t5 -17q0 -8 -1 -11q-6 -20 -21 -58.5t-33.5 -85.5t-38.5 -97t-37 -91.5t-28.5 -69.5t-12.5 -31q-21 -42 -39.5 -84t-40.5 -83q-26 -52 -53.5 -101.5
t-54.5 -101.5q-23 -45 -45.5 -92.5t-44.5 -93.5q-14 -30 -23.5 -38.5t-10.5 3t8.5 43.5t33.5 83q20 46 43 89t46 87q31 60 59 122.5t50 135.5z" />
    <glyph glyph-name="Z" unicode="Z" horiz-adv-x="535" 
d="M874 331q-22 -5 -25 -13q-4 -1 -10 -7q-18 -10 -65 -32t-112 -52t-142 -65t-155.5 -70.5t-152.5 -69t-132.5 -60t-96 -43.5t-42.5 -20q-14 -7 -24 8.5t-9 41.5q2 2 2 5v5q3 26 8 49.5t10 48.5q2 20 25.5 51t54.5 65t63 67.5t52 59.5q19 24 44.5 62t49.5 75.5t42.5 67.5
t23.5 38q22 36 -5 57q-12 9 -34 18t-50 17t-58.5 14t-59 10t-51.5 5t-35 -1q-14 -1 -28.5 -4.5t-29 -11t-29 -21t-28.5 -34.5q-8 -10 -16.5 -21.5t-14.5 -26.5q-5 -12 -8.5 -20.5t-10.5 -16.5q-4 -4 -8 -2.5t-7 7t-3.5 13t2.5 14.5q16 43 34.5 75t40 55.5t46.5 40.5t54 30
q45 10 83 14.5t74 3t73 -9t81 -20.5q17 -4 34 -14.5t34 -20.5q12 -9 13.5 -25.5t-6.5 -33.5q-23 -50 -46.5 -99t-49.5 -97q-17 -30 -41.5 -70t-52.5 -83t-57 -85.5t-53.5 -78t-41.5 -61t-22 -33.5q9 -2 14 -3.5t10 0.5q28 11 81.5 33t119.5 50t138 59t138 59.5t119.5 52
t81.5 36.5q35 17 72 27.5t75 23.5q8 2 13.5 -7.5t5.5 -26.5z" />
    <glyph glyph-name="a" unicode="a" horiz-adv-x="577" 
d="M359 395q16 12 30.5 25t31.5 24q14 9 27 0t9 -25q0 -1 -2 -5q-19 -49 -39 -97.5t-40 -97.5q-8 -19 -2.5 -37t22.5 -22q39 -8 81 3t79 31q25 15 50.5 30.5t51.5 29.5q3 2 10 2q11 1 17 -8t0 -18q0 -1 -2 -3q-25 -21 -63 -48t-81 -52.5t-85 -47.5t-74 -33q-30 -8 -53 3
t-40 34q-13 17 -23 16t-25 -12q-33 -23 -67 -45t-69 -42q-23 -13 -45.5 -8t-42.5 16q-28 17 -22 55q9 54 29.5 100.5t49 89t62 81.5t67.5 78q27 28 52 45.5t47.5 28.5t41 16.5t30.5 8.5q7 2 16.5 -1.5t12.5 -8.5q3 -7 1.5 -16.5t-6.5 -17.5q-10 -17 -21.5 -33t-22.5 -33
l3.5 -3.5t3.5 -2.5zM315 409q-18 0 -43.5 -15t-54 -39t-56 -54.5t-50 -61.5t-36 -59t-13.5 -47q22 8 43.5 14t40.5 14q28 13 54 29t48.5 35t41 42.5t31.5 53.5q4 11 5 24t4 30q-8 -3 -14 -5.5t-12 -4.5q-6 8 -7.5 9.5t-6.5 10.5q5 7 11.5 12.5t13.5 11.5z" />
    <glyph glyph-name="b" unicode="b" horiz-adv-x="500" 
d="M359 440q-9 -3 -29.5 -13.5t-42 -19.5t-39 -13t-19.5 6q-2 8 17.5 26t49 38.5t62 40t56.5 31.5q29 16 58.5 6.5t55.5 -29.5q17 -13 20.5 -31.5t-7.5 -35.5q-19 -30 -38.5 -59.5t-44.5 -55.5q-85 -91 -176.5 -169.5t-199.5 -139.5q-36 -20 -75.5 -35t-78.5 -29
q-23 -8 -33 0t-12 33q-1 16 -2.5 31.5t-0.5 30.5q0 7 5 14.5t12 10.5q17 9 34.5 16t34.5 18q11 6 19.5 15t13.5 19q9 18 31.5 58t51 90.5t60 105.5t58.5 104.5t45.5 87t22.5 52.5q-4 2 -6 2h-2q-13 -1 -20.5 9.5t-1.5 22.5q11 22 26.5 39t40.5 28q10 4 19 4.5t15 -2.5
t8.5 -9.5t-1.5 -16.5q-4 -9 -23.5 -48t-48 -94.5t-62 -120t-63.5 -123t-54 -103.5t-33 -62q11 2 37.5 20t59.5 44.5t68 58.5t64 61.5t48 52.5t20 33z" />
    <glyph glyph-name="c" unicode="c" horiz-adv-x="605" 
d="M324 372q1 0 1 1q11 30 1.5 51.5t-37.5 23.5q-22 1 -42 -4t-39 -14.5t-37 -22t-36 -24.5q-48 -33 -81 -82t-56 -109q-20 -54 25 -67q26 -7 52.5 -12.5t51.5 -0.5q54 4 112.5 25.5t115 52.5t109 66.5t94 67.5t69.5 55t36 30q4 4 9 9.5t9.5 8.5t9.5 2t10 -10q1 -3 0.5 -9
t-3 -13t-6.5 -14t-8 -10l-92 -82t-96 -75q-73 -48 -146 -93t-150 -80q-24 -11 -61 -25.5t-77 -21t-77 0.5t-61 37q-21 25 -19.5 60.5t18.5 76.5t47 83.5t67 82.5t78.5 74.5t82 58t76 33.5t61.5 1q32 -13 43.5 -40.5t-2.5 -63.5q-4 -11 -12 -23t-17 -23q-4 -5 -9 -5.5t-9 2.5
t-5.5 9t0.5 12z" />
    <glyph glyph-name="d" unicode="d" horiz-adv-x="434" 
d="M513 721q1 -3 0 -5q-5 -35 -11 -70t-14 -69q-5 -26 -11 -64t-17 -80.5t-28 -84.5t-44 -76q-26 -33 -55.5 -63t-64.5 -54q-16 -11 -30 -22.5t-28 -22.5q-13 -9 -18 -21t-6.5 -24.5t-0.5 -26t1 -25.5q-2 -22 -0.5 -43.5t1.5 -42.5q1 -48 16 -89.5t41 -79.5
q15 -22 37.5 -38.5t42.5 -34.5q5 -6 10 -15t9 -17q-8 -4 -14.5 -8.5t-13.5 -5.5q-75 -8 -110 27t-50 103q-6 26 -9 69.5t-5 87.5t-3.5 79.5t-2.5 46.5q-13 -10 -23 -16.5t-20 -14.5q-21 -18 -52 -13t-58 27t-43.5 57.5t-8.5 78.5q12 49 39 79t60.5 47t69 23t66 8t50.5 2
t23 4q29 55 55.5 110.5t58.5 109.5q27 46 59 88.5t64 86.5q0 1 5 3q9 8 20 4t13 -15zM57 72q19 0 41 15t41.5 37t34.5 46.5t19 43.5q-7 14 -31 22t-52 8t-54 -9t-39 -29.5t-6 -53.5t46 -80zM421 444q3 13 8 36t9 48.5t5 49.5t-4 39q-13 -13 -33.5 -47t-43.5 -78.5t-46 -93.5
t-41.5 -92t-30 -74t-11.5 -39q16 7 41.5 24.5t53 47t53 73.5t40.5 106z" />
    <glyph glyph-name="e" unicode="e" horiz-adv-x="462" 
d="M149 350q-69 -48 -95.5 -86.5t-8.5 -64.5q37 -50 97 -79t129 -43.5t140 -17t128.5 -0.5t94.5 5.5t39 2.5q-5 -7 -8 -15.5t-10 -12.5q-17 -9 -63.5 -19t-109 -15.5t-134.5 -5t-141.5 12t-130 36.5t-99.5 68q-22 25 -25.5 52.5t8.5 56.5q17 44 42 79t56.5 63t68.5 50.5
t78 41.5q35 16 72 30t78 10q41 -2 68 -17t32 -46q4 -29 -7.5 -60.5t-40 -57.5t-74 -42t-108.5 -15q-17 0 -28 12t-17 29q-4 15 -5 27.5t-2.5 20t-6.5 8.5t-17 -8zM276 404q-2 -12 1 -24.5t13 -20.5q15 -9 28 -2q17 3 26.5 16t7.5 29q-2 13 -9.5 25.5t-21.5 16.5
q-9 3 -16.5 0.5t-13 -9t-9.5 -15t-6 -16.5z" />
    <glyph glyph-name="f" unicode="f" horiz-adv-x="355" 
d="M-15 13q15 23 29.5 45t29.5 44q0 1 1 2q5 7 13.5 3.5t6.5 -11.5v-1q-3 -16 -12 -27q-19 -32 -38.5 -63t-39.5 -61q0 -1 -0.5 -1t-0.5 -1q-9 -11 -24 -10.5t-21 14.5q-1 2 -1 6q-2 29 -3 58.5t5 57.5q18 85 49 164t79 152q1 2 2 3.5t2 3.5v6q-10 0 -15 -1q-12 -5 -24 -9.5
t-25 -9.5q-5 -2 -12 6t-5 13q25 43 54 87q1 2 9.5 3.5t19 3t20.5 2t15 0.5q31 -1 50.5 14.5t35.5 38.5q11 15 29 36t39.5 43.5t43.5 44t40.5 38t31.5 26t17 7.5q9 -4 7 -22.5t-10.5 -42t-19.5 -48.5t-19 -43q-3 -8 -12 -13q-4 -2 -8 -1.5t-9 -0.5q-1 4 -2 8.5t0 8.5
q4 8 8 16.5t8 17.5l4 10t2 11q-40 -28 -75 -59.5t-66 -68.5l4 -6l78 9q18 2 35.5 4.5t34.5 4.5q2 0 4 -3.5t3 -8t1 -8.5t-2 -5q-5 -4 -11.5 -4t-11.5 -2t-10 -2.5t-10 -2.5q5 -5 4 -5q6 -2 15 -2t7 -11q-2 -5 -10 -9.5t-16 -6.5q-42 -8 -84.5 -13.5t-84.5 -13.5
q-10 -2 -18.5 -11.5t-16.5 -18.5q-33 -45 -61.5 -91t-44.5 -100q-13 -45 -22 -89.5t-1 -92.5q0 -3 1 -6t1 -5q4 -1 7 -1z" />
    <glyph glyph-name="g" unicode="g" horiz-adv-x="312" 
d="M199 290q-46 -17 -88 -32.5t-84 -30.5q-18 -7 -36.5 -13.5t-36.5 -11.5q-2 0 -4 -1t-4 -1q-14 -1 -22.5 8t-8.5 21q0 11 3 19q17 29 36 56.5t42 52.5q51 52 110.5 88t131.5 53q11 4 28 0.5t22 -11.5q13 -20 20.5 -42t-6.5 -47q-11 -18 -27.5 -47.5t-32.5 -58.5t-26.5 -50
t-9.5 -22q20 7 40.5 14t40.5 13q23 7 45.5 13.5t45.5 11.5h5q11 -1 14.5 -12.5t-5.5 -19.5q-2 -1 -3.5 -2.5t-3.5 -1.5q-38 -13 -77 -24t-77 -23q-26 -8 -45 -22t-34 -40q-40 -70 -83.5 -138.5t-86.5 -138.5q-26 -41 -51 -82t-51 -81v-1q-8 -11 -21.5 -8t-15.5 17
q-3 27 -3.5 54t-3.5 53q-10 72 14 130t75 110q48 48 99 85.5t113 64.5q14 7 23 18t15.5 24.5t11.5 27.5t12 28zM-80 -164q4 0 10 -2q55 71 104.5 144.5t91.5 158.5q-5 -1 -23.5 -12t-42 -26.5t-48.5 -32t-41 -29.5q-21 -16 -33 -35t-18.5 -40.5t-8 -44.5t-0.5 -47
q0 -9 3.5 -17t5.5 -17zM12 299q20 2 52.5 16.5t64 33t55 37.5t25.5 30q-18 2 -48.5 -9.5t-61 -29.5t-55.5 -39.5t-32 -38.5z" />
    <glyph glyph-name="h" unicode="h" horiz-adv-x="385" 
d="M-50 144q30 20 55 36.5t50 31.5q73 46 144.5 90.5t143.5 89.5q7 4 15.5 4.5t13.5 -1.5q4 -2 5 -10t1 -15q0 -18 -7 -32.5t-16.5 -27t-20 -25t-18.5 -25.5q-23 -35 -47.5 -69t-47.5 -69q-19 -30 -7 -53t47 -26q14 -1 29 -1.5t29 -1.5q2 0 17 4t32.5 8t33.5 7t19 1
q-2 -3 -17 -12t-33 -18.5t-33.5 -17t-18.5 -8.5q-32 -17 -64.5 -33.5t-67.5 -26.5q-21 -5 -38.5 0.5t-28.5 18.5t-14.5 32t2.5 40q8 29 20 57t26 62q-14 -8 -23 -13t-17 -10q-49 -28 -97 -55.5t-98 -55.5q-6 -2 -16 -2t-12 4q-5 6 -8 15.5t0 17.5q14 43 28.5 86.5t35.5 83.5
q43 85 88 168.5t95 165.5q46 75 97 145.5t102 144.5q6 9 12.5 19t13.5 19q8 9 17 11q2 0 7 -5t5 -7q-3 -32 -5.5 -64t-5.5 -64q-7 0 -11 -1q-2 10 -5.5 20.5t-8.5 26.5q-17 -26 -32 -47.5t-30 -44.5q-38 -55 -75 -108t-72 -109q-38 -60 -72.5 -120.5t-69.5 -121.5
q-12 -20 -21.5 -39.5t-17.5 -39.5q-3 -5 -4 -11.5t-4 -18.5z" />
    <glyph glyph-name="i" unicode="i" horiz-adv-x="264" 
d="M113 386q-9 8 -17.5 13.5t-8.5 10.5q-1 6 5 14t13 12q26 17 53 32.5t53 29.5q4 2 13 -3.5t9 -7.5q0 -16 -3 -29.5t-17 -27.5q-21 -20 -36.5 -45t-32.5 -50q-14 -22 -28.5 -45t-28.5 -46q-33 -51 -59.5 -103t-43.5 -111q-2 -7 0 -15t0 -16q-1 -2 -1.5 -5t-1.5 -5
q-5 -10 -15.5 -12t-17.5 6q-3 1 -3 4l-6 24t-4.5 24.5t0 25t8.5 25.5q41 72 81.5 143.5t81.5 143.5l3.5 7t3.5 6zM369 688q-14 -39 -34.5 -73t-52.5 -60q-11 -9 -17 -3.5t-6 17.5q1 17 10 34l22 40l22 40q7 11 21 20q5 3 11.5 5t11.5 0q4 -2 6.5 -8.5t5.5 -11.5z" />
    <glyph glyph-name="j" unicode="j" horiz-adv-x="305" 
d="M298 332q23 9 41 17.5t36 15.5h1q11 5 21 -3t8 -20q0 -2 -0.5 -2.5t-0.5 -1.5q-5 -17 -10.5 -32.5t-11.5 -31.5l-4 -10t-6 -8q-2 -2 -4 -2q-8 -3 -14 2.5t-4 13.5q4 13 9 26.5t11 30.5q-23 -8 -50 -30t-55.5 -51t-57.5 -63t-57 -66.5t-53.5 -60.5t-46.5 -46
q-19 -17 -37.5 -33.5t-38.5 -32.5q-7 -5 -14 -9t-15 -8q-25 -11 -34.5 -5t-6.5 32q2 17 9.5 33.5t18.5 27.5q57 54 114 105.5t117 101.5q12 10 28 33.5t29.5 49.5t21 51t4.5 39t-17.5 23.5t-33.5 15t-39.5 7.5t-36.5 2q-25 0 -52 -9t-54 -22t-52.5 -28t-47.5 -28
q-5 -2 -8.5 -5t-8.5 -5h-6.5t-8 2t-5 6t3.5 12q24 40 69 69t97 46.5t103 23.5t87 0q10 -2 21.5 -13.5t20.5 -29t15 -38t5 -39.5v-53zM-30 9q18 -1 47.5 18t58.5 46.5t52.5 57.5t28.5 53q-50 -44 -97 -85t-90 -90zM159 549q-8 -7 -13 -2.5t-5 13.5q1 12 8 25q8 15 16.5 30.5
t16.5 29.5q5 8 16 15q4 2 8.5 4t8.5 0q8 -5 8.5 -19.5t-7 -32t-22 -35.5t-35.5 -28z" />
    <glyph glyph-name="k" unicode="k" horiz-adv-x="269" 
d="M27 52q-11 -8 -26 -19t-31 -22q-13 -6 -26 -9q-26 -7 -40.5 4t-13.5 37q0 16 2.5 31.5t7.5 30.5q13 48 26.5 94.5t30.5 93.5q8 21 22.5 60.5t32.5 86t36.5 95.5t33.5 88.5t24.5 65l9.5 25.5q5 9 14.5 -2.5t19.5 -29t17 -33.5l7 -16q-20 15 -32 11.5t-19.5 -16t-11.5 -30
t-7 -29.5q-2 -10 -6.5 -30t-10 -42t-10 -42t-6.5 -30q-13 -53 -26 -104.5t-25 -104.5q-4 -14 -6.5 -28.5t-5.5 -28.5q1 -1 15 10.5t36 29.5t47.5 40.5t50.5 44t45 39.5l30 27q1 1 2 1q7 5 14.5 0t6.5 -14q-1 -6 -16 -21.5t-36.5 -36t-46.5 -43.5t-44 -44.5t-29 -39t-2 -26.5
q11 -35 38.5 -60t58.5 -36q19 -8 44 -1.5t51 16t51 16t45 -0.5q11 -4 13 -14.5t-7 -17.5q-2 -3 -7 -5q-16 -6 -35.5 -17t-36.5 -15q-23 -4 -43.5 -10t-42.5 -8.5t-45.5 0.5t-52.5 16q-13 7 -23 15.5t-19.5 17t-19.5 16.5t-23 14z" />
    <glyph glyph-name="l" unicode="l" horiz-adv-x="298" 
d="M-48 127q-8 33 1 81t27 102.5t42 111.5t48.5 108t45 92.5t31.5 64.5q5 12 10.5 25t12.5 24l4 4q8 7 18.5 3.5t13.5 -13.5v-6q-9 -26 -18.5 -50.5t-19.5 -50.5q-32 -83 -63 -165t-66 -163q-21 -53 -22 -86.5t10.5 -53.5t30.5 -28t37 -8q50 -2 96 7t87 40q4 2 12 5.5t9 3.5
q15 1 25 -10t5 -25q0 -1 -17 -15.5t-44 -34.5t-61.5 -41.5t-70.5 -36.5q-30 -11 -60 -8t-54.5 18.5t-43 42t-26.5 62.5z" />
    <glyph glyph-name="m" unicode="m" horiz-adv-x="509" 
d="M240 350q38 22 70 40.5t62 36.5q25 15 35.5 10t17.5 -34q5 -19 13.5 -38t19.5 -35q4 -7 17 -8.5t21 0.5q36 17 71.5 34.5t71.5 34.5q2 0 3 0.5t3 0.5q12 2 21 -8t4 -23q0 -4 -4 -5q-27 -24 -55.5 -46.5t-57.5 -45.5q-17 -12 -33 -23.5t-32 -22.5q-31 -21 -55 -18.5
t-50 29.5q-7 5 -18 8.5t-18 1.5q-18 -7 -35 -16t-33 -19q-35 -20 -69.5 -41.5t-69.5 -42.5q-17 -10 -22.5 -2.5t-2.5 22.5q5 26 10.5 50t10.5 50q3 11 5.5 20t5.5 19q-4 3 -4.5 3.5t-3.5 2.5q-31 -29 -60.5 -59t-59.5 -59l-100 -100q-12 -12 -28 -8t-19 21q-1 5 -1.5 8.5
t-0.5 9.5q-2 46 6 90t22 86t33 82.5t40 80.5q19 34 35 68t33 69q4 7 10 10t12.5 2.5t12 -4.5t8.5 -11q2 -3 4 -9q8 -36 6 -73q-1 -7 -9.5 -13t-16.5 -9q-4 -2 -11 2.5t-16 9.5q-33 -53 -55 -109t-27 -118q5 -2 6 -3t5 -3q35 29 70.5 57t67.5 60q27 27 50.5 57t49.5 58
q2 2 3 4q12 7 23.5 1.5t13.5 -19.5q2 -2 2 -5q0 -13 -3 -25.5t-5 -24.5q-1 -13 -0.5 -26.5t0.5 -32.5z" />
    <glyph glyph-name="n" unicode="n" horiz-adv-x="375" 
d="M47 185q5 4 26 25.5t49.5 52.5t62.5 67t64.5 69t55.5 58.5t36 36.5q1 1 4 3q12 6 23.5 -1.5t11.5 -21.5v-6q-3 -18 -10 -53t-14.5 -73t-13.5 -71t-8 -46q-7 -35 -15.5 -70.5t-16.5 -71.5q-4 -17 -4.5 -27.5t4 -16.5t14 -8t26.5 -2q8 0 19 -2.5t12 -5.5q2 -9 -0.5 -19
t-7.5 -17q-7 -11 -18.5 -19t-24 -12.5t-24 -5t-18.5 3.5q-23 14 -30.5 40.5t0.5 55.5q15 55 27 109.5t26 109.5q1 5 -0.5 16.5t-3.5 14.5q-45 -47 -88 -92t-88 -90q-29 -29 -60 -55.5t-63 -52.5q-8 -7 -21 -9.5t-21 2.5q-7 4 -11 17.5t-1 22.5q8 34 19 67.5t22 66.5
q11 32 22 63.5t25 61.5q20 44 43 85t46 83q5 8 16.5 14.5t16.5 3.5q15 -7 17 -21t-3 -28q-8 -20 -16.5 -39t-16.5 -39q-2 -4 -7 -10t-8 -6q-15 0 -24.5 -5.5t-15.5 -14.5t-10 -19.5t-8 -20.5q-8 -23 -13.5 -46.5t-11.5 -46.5q4 -3 8 -5z" />
    <glyph glyph-name="o" unicode="o" horiz-adv-x="463" 
d="M117 356q-8 1 -11 1h-5h-4q-13 2 -18.5 13.5t1.5 21.5v1q20 29 47.5 51t60.5 31q23 6 45 10t45.5 3t49.5 -6t57 -17q36 -17 53 -52t20 -74t-5.5 -75t-23.5 -55q-44 -58 -97 -103.5t-124 -68.5q-35 -12 -72.5 -19t-75.5 -8q-21 -1 -37.5 7t-26.5 22t-12 33t4 40
q8 32 17.5 62t23.5 58q12 25 30.5 47.5t35.5 45.5l10 14t12 17zM94 133q9 1 20.5 2.5t24.5 3.5q98 20 177 79q18 13 28 29.5t12.5 33.5t-3.5 33.5t-19 28.5q-13 13 -34 21.5t-43.5 11t-44 -1t-36.5 -13.5q-50 -35 -80 -83t-42 -108q-5 -21 4 -29t36 -8z" />
    <glyph glyph-name="p" unicode="p" horiz-adv-x="332" 
d="M235 459q5 -2 17 -7.5t26 -16t27.5 -26.5t21 -38.5t7.5 -51.5t-14 -65q-11 -32 -29 -58.5t-39.5 -49.5t-47 -42.5t-51.5 -38.5q-30 -22 -64 -37.5t-75 -21.5q-6 0 -11 -12t-8 -19q-23 -67 -47 -134t-47 -135q-4 -12 -5 -25.5t-4 -24.5q-2 -2 -2.5 -3t-1.5 -1
q-5 -8 -15.5 -6.5t-11.5 12.5v5q23 71 47 141.5t48 142.5q6 20 16 47.5t18 45.5q18 47 36.5 91.5t36.5 90.5q19 46 37 92t36 93q9 20 19 39.5t18 39.5q3 7 12.5 8t20 -3t19 -12t10.5 -20zM55 127q8 2 11 3t7 1q42 11 77.5 36t67.5 54q20 21 29 45t3 53q-1 3 -7 11.5
t-15.5 16.5t-22.5 13t-27.5 0.5t-30 -21t-31.5 -51.5q-11 -24 -19 -49t-17 -49q-10 -28 -25 -63z" />
    <glyph glyph-name="q" unicode="q" horiz-adv-x="236" 
d="M-14 -317q-2 -4 -2.5 -7t-1.5 -5q0 -1 -1 -1.5t-2 -2.5q-7 -6 -15.5 -2t-8.5 13q0 5 1 6q4 11 10.5 21.5t10.5 21.5q23 65 44.5 128.5t42.5 128.5q3 7 6.5 18.5t-0.5 16.5q-28 28 -44.5 59.5t-25.5 66.5q-18 59 -26.5 117.5t12.5 121.5q16 52 44 76t56.5 30.5t52 3
t30.5 -5.5q8 7 19.5 8t21.5 -2t16.5 -9t4.5 -13q-5 -21 -9 -41.5t-9 -40.5q-13 -46 -26.5 -91t-27.5 -90q-12 -45 -24.5 -89.5t-26.5 -89.5q-5 -19 -13.5 -45t-16.5 -43q-19 -57 -38 -111t-39 -109l263 169q9 5 17.5 0.5t8.5 -14.5zM45 299q6 -42 17 -80.5t37 -72.5
q2 -2 3.5 -5t6.5 -8q5 17 9.5 32t8.5 30q8 23 16.5 47t14.5 48q13 52 3.5 75.5t-27.5 30t-36 2t-21 -6.5q-23 -18 -30 -42t-2 -50z" />
    <glyph glyph-name="r" unicode="r" horiz-adv-x="486" 
d="M496 309q-8 -14 -21 -20.5t-30 -2.5q-28 7 -69 17t-84.5 15t-83 2t-64.5 -21q-29 -22 -50 -54.5t-38 -70t-31 -75.5t-28 -70q-5 -12 -11.5 -26.5t-23.5 -14.5q-9 4 -13 10t-4.5 13.5t1.5 15.5t4 15q15 45 31.5 88.5t36.5 87.5q23 52 49 103l52 102q9 17 17.5 33.5
t18.5 32.5q2 2 3.5 2.5t3.5 2.5q10 8 21 1t9 -19l-2 -2q-6 -17 -15.5 -35t-20.5 -38q29 8 55 15t52 12q6 1 16.5 3t29.5 3.5t48 2t72 -0.5q41 -3 63.5 -11.5t32 -19.5t8.5 -24.5t-7 -26.5t-14.5 -24.5t-13.5 -20.5z" />
    <glyph glyph-name="s" unicode="s" horiz-adv-x="418" 
d="M172 86q-35 4 -70.5 8t-72.5 6q-23 2 -29 9t1 30q10 38 21 74.5t24 74.5q5 9 14 17t19 13q20 11 40 21t40 21q63 35 125 70t125 70q5 4 11.5 3t12.5 -3q2 -1 2 -7.5t-2 -11.5q-9 -25 -18.5 -50.5t-23.5 -48.5q-5 -8 -15.5 -14.5t-20.5 -8.5q-58 -13 -104.5 -42.5
t-91.5 -65.5q-2 -2 -4 -5.5t-7 -10.5q15 -2 28.5 -3.5t26.5 -3.5q25 -2 49.5 -6t49.5 -6q15 -2 19.5 -9t4.5 -21q2 -44 -20.5 -74.5t-53.5 -53.5q-63 -50 -127.5 -97.5t-129.5 -95.5q-11 -9 -21 -18t-21 -17q-7 -5 -14.5 -1.5t-9.5 12.5v3q-2 15 -1.5 30.5t-1.5 29.5
q-4 25 3.5 36t32.5 21q18 8 36 18.5t36 21.5q24 12 47.5 24.5t47.5 26.5q11 7 21 18t22 16z" />
    <glyph glyph-name="t" unicode="t" horiz-adv-x="511" 
d="M218 360q16 2 28.5 3.5t24.5 3t24.5 3t27.5 3.5q27 4 54.5 9t55.5 3q19 0 37.5 -8.5t38.5 -16.5q3 -2 5 -8t1 -11q-2 -6 -7 -11t-10 -7q-70 -23 -140.5 -44t-142.5 -42q-4 -2 -6.5 -3.5t-5.5 -2.5q-1 -13 -11.5 -39t-20.5 -51.5t-13.5 -43.5t8.5 -15q18 4 51 27
t68.5 52.5t66.5 57.5t44 43q3 3 4 3q7 3 13.5 -1t7.5 -12q3 -8 0 -14q-6 -12 -30 -36.5t-57.5 -53t-72.5 -58t-74.5 -52t-64 -34.5t-41.5 -6q-6 2 -5 17t5.5 36.5t12 46.5t14 47.5t11.5 40t5 23.5q1 8 -3.5 8.5t-11.5 -3.5t-15.5 -9t-15.5 -8q-23 -11 -44 -20.5t-43 -18.5
q-8 -3 -19.5 -3t-16.5 5q-5 4 -5 14.5t2 19.5q3 15 8 30.5t7 31.5q3 23 16.5 34t32.5 17q23 6 45.5 12t44.5 11q11 2 21.5 2.5t21 6t21 20t22.5 44.5q5 13 11.5 29.5t12.5 33t11.5 30t8.5 21.5q-15 -5 -25.5 -9.5t-21.5 -6.5q-8 -2 -14.5 5.5t-1.5 16.5q0 2 1 3t1 3
q1 2 2.5 2t3.5 1q40 18 65 49.5t44 69.5q6 10 14 19t16 17q2 3 8 4t10 -1q3 -2 4.5 -7.5t-0.5 -10.5q-11 -32 -22.5 -62.5t-26.5 -61.5q-11 -23 -19 -46t-16.5 -46t-17.5 -47t-22 -49z" />
    <glyph glyph-name="u" unicode="u" horiz-adv-x="497" 
d="M91 479q6 9 14.5 10.5t16 -2t12 -11.5t1.5 -18q-3 -6 -5 -14q-15 -38 -32 -75t-30 -75q-8 -24 -10 -50l-4 -52q0 -11 6 -26t14 -18q13 -5 31 -4.5t29 8.5q38 27 69.5 63t52.5 80q16 33 29.5 66.5t29.5 66.5q4 2 3 2q8 9 19.5 6.5t16.5 -13.5q1 -3 1 -10q-3 -20 -9.5 -39
t-9.5 -40q-8 -38 -8 -73q0 -22 9.5 -39.5t25 -28t35.5 -13.5t40 5q14 5 26 13.5t25 13.5q4 0 5 1q14 2 23.5 -9t1.5 -24q0 -3 -4 -5q-38 -26 -75.5 -51t-79.5 -47q-23 -13 -45.5 -6t-41.5 24q-11 9 -17.5 13t-12 2.5t-11.5 -8t-15 -16.5q-12 -14 -26 -30t-29.5 -30
t-32 -23.5t-34.5 -9.5q-57 4 -87.5 15t-42 31.5t-8 50t13.5 69.5q18 67 39.5 131.5t46.5 129.5q6 16 14.5 30.5t19.5 28.5z" />
    <glyph glyph-name="v" unicode="v" horiz-adv-x="328" 
d="M98 485q2 6 7.5 8.5t11 1t9.5 -5.5t3 -11q-2 -4 -2 -7.5t-1 -8.5q-5 -14 -10.5 -27t-11.5 -27q-53 -118 -12 -240q1 -3 3.5 -9.5t5 -14t5 -14t4.5 -8.5q2 2 14.5 22.5t29 46.5t32.5 53t25 43q27 47 52 94t49 95q6 11 11 21t13 19l1 2q8 6 16.5 1.5t8.5 -13.5q0 -4 -2 -4
q-5 -14 -12 -26.5t-14 -25.5q-41 -76 -81 -151.5t-82 -151.5q-20 -38 -42.5 -73.5t-44.5 -71.5q-12 -17 -21 -16t-21 18q-22 33 -31.5 66.5t-10.5 68t5.5 68.5t17.5 69q17 53 36 103t36 102q1 1 1 2t2 2z" />
    <glyph glyph-name="w" unicode="w" horiz-adv-x="709" 
d="M207 164q-23 -20 -43.5 -39t-43.5 -37q-20 -18 -42 -35l-44 -34q-5 -4 -14 -6t-14 1q-4 5 -7 13.5t-1 15.5q2 21 8.5 40.5t10.5 42.5q8 52 17 104.5t10 106.5q1 28 10.5 48.5t24.5 36.5t33 29t38 25q20 14 32 4.5t9 -35.5q-2 -29 -7.5 -57t-7.5 -57q-2 -7 -3.5 -23.5
t-2.5 -34t0 -30.5t4 -14q2 4 16.5 25.5t34 48t38.5 51.5t30 36q3 4 11.5 6t11.5 -1q5 -5 8.5 -13t3.5 -14q0 -29 -3.5 -57t1.5 -56q5 -29 15.5 -58.5t24.5 -58.5q6 -17 19 -16t24 14q22 32 43.5 63t40.5 65q20 38 38.5 76.5t32.5 78.5q16 38 27 77.5t20 78.5q9 36 15 72.5
t14 72.5q3 13 17 16t23 -7q2 -2 2 -3t1 -3q8 -38 16 -75t10 -75q2 -33 -2.5 -65t-13 -62.5t-19.5 -61t-23 -60.5q-21 -51 -53.5 -96t-66.5 -90q-22 -30 -49 -54.5t-56 -47.5q-25 -21 -52 -23.5t-52 7.5t-45.5 29.5t-31.5 40.5q-11 17 -19 35t-19 39z" />
    <glyph glyph-name="x" unicode="x" horiz-adv-x="559" 
d="M540 -203q-74 14 -130 56.5t-97 111.5q-23 38 -52.5 81.5t-57.5 79.5q-3 2 -7 0.5t-8 -4.5t-8 -7l-6 -6q-32 -20 -60.5 -43.5t-58.5 -45.5q-5 -5 -9.5 -10.5t-11.5 -8.5q-5 -2 -13 -3.5t-10 1.5q-5 3 -7.5 10.5t-2.5 14.5q0 60 1 118.5t1 118.5q2 31 1 62t1 63q0 8 6 14
t11 13q11 15 23 30.5t23 31.5q11 17 22.5 19t22.5 -15q36 -47 70.5 -93.5t67.5 -93.5q11 -16 21 -20t24 7q5 3 20 12.5t36 22t44 26.5t43.5 26.5t35.5 22t19 13.5q4 3 -7.5 0.5t-32.5 -7.5t-46.5 -11.5t-49 -10.5t-41 -5t-21.5 5q-2 1 9.5 5t26.5 8.5t28.5 8t16.5 5.5
q30 13 59.5 23.5t59.5 20.5q17 6 32.5 2t23.5 -23q10 -17 0 -28.5t-23 -21.5q-47 -35 -94.5 -67.5t-94.5 -65.5q-20 -14 -23 -26t13 -34q37 -52 71.5 -107t75.5 -105q32 -39 63.5 -64t59 -40.5t51 -23.5t40.5 -12.5t26 -7t8 -8.5q-1 -4 -13.5 -6.5t-31 -4.5t-40.5 -3
t-42 -1.5t-36 0t-22 0.5zM38 88q24 22 44 39.5t40 33.5q15 13 17 24.5t-7 27.5q-16 25 -31.5 48.5t-30.5 47.5q-3 3 -8 11.5t-10.5 17.5t-11 17t-8.5 10q-2 -3 -2 -13t0.5 -20.5t1 -20.5t0.5 -13q0 -51 2 -103t4 -107z" />
    <glyph glyph-name="y" unicode="y" horiz-adv-x="347" 
d="M355 328q2 -22 -7 -37.5t-18 -32.5q-21 -42 -38.5 -85t-34.5 -88q-26 -68 -51 -136t-52 -134q-15 -40 -37 -87.5t-40.5 -88.5t-30 -68t-5.5 -26q4 1 17 8t27.5 15t27.5 15t18 7l-3 -12t-4 -17t-3.5 -17.5t-2.5 -11.5q-1 0 -9 -4.5t-20.5 -11t-28.5 -14.5t-32 -14
q-17 -7 -33.5 1.5t-20.5 27.5q-2 5 3 17.5t12 26.5t13.5 26t8.5 16q43 108 86 215t87 215q1 3 5.5 14t9 24t8 24t3.5 15q-6 -3 -13.5 -9.5t-16 -14t-15.5 -13.5t-11 -8q-21 -13 -42.5 -26t-45.5 -21q-17 -6 -33 -3.5t-29 11.5t-21 23.5t-9 32.5q-2 23 9.5 59.5t27 74.5
t32.5 72.5t27 54.5q1 4 14 5.5t17 -2.5q4 -3 -0.5 -26t-11.5 -50.5t-13 -51t-6 -26.5t-2.5 -12t-6 -19.5t-6 -20t-2.5 -13.5q9 -6 20 -3.5t21 8.5t17.5 12.5t10.5 8.5q62 34 107 82.5t90 103.5q0 2 1 2h1q8 8 19.5 3.5t14.5 -15.5v-1v0z" />
    <glyph glyph-name="z" unicode="z" horiz-adv-x="523" 
d="M487 354q-6 -27 -11 -50t-12 -44.5t-17.5 -42.5t-28.5 -43q-18 -20 -52 -49t-74 -62t-82 -66.5t-77 -62.5t-58.5 -50t-26.5 -28q7 -1 31.5 4.5t57.5 14t69.5 19t69 19.5t57 16l31.5 9q94 21 185.5 42.5t185.5 44.5h2q8 2 14.5 -2t10 -11t2.5 -15.5t-8 -14.5q0 -1 -1 -1
q-1 -1 -4 -1q-8 -5 -41 -15t-82 -24.5t-109.5 -31.5t-125 -35l-129 -36t-120 -34t-98.5 -29t-65 -21q-35 -12 -65.5 -4t-44.5 42q-6 15 7.5 34.5t38.5 40.5t56.5 42.5t61.5 40t55 32.5t35 20q34 23 73 58t71 73.5t52.5 77t18.5 67.5q-1 33 -12.5 50.5t-28.5 25t-37.5 6
t-39.5 -5.5q-69 -18 -125 -53t-94 -101q-1 -2 4 15.5t14.5 45t22.5 61t28 63.5t30.5 51.5t30.5 25.5q109 27 180 24t111 -22.5t53.5 -50t9.5 -59.5z" />
    <glyph glyph-name="exclam" unicode="!" horiz-adv-x="223" 
d="M14 143q-1 4 1 10q8 40 17 80t18 81q17 79 35 157t33 157q4 19 12 34t19 27.5t24 23t26 21.5q10 8 16 3t4 -17q-1 -15 -7 -27q-32 -83 -61.5 -166.5t-49.5 -170.5q-12 -51 -24.5 -101t-26.5 -101q-9 -29 -21.5 -30t-14.5 19zM26 103q8 -5 11 -15t0 -19q-8 -18 -14 -35.5
t-17 -33.5q-4 -6 -9 -6.5t-9.5 2t-7.5 7t-2 9.5q9 47 30 89q6 12 18 2z" />
    <glyph glyph-name="question" unicode="?" horiz-adv-x="341" 
d="M33 596q0 -27 13 -28t30 8t31.5 20.5t17.5 10.5h1q13 -4 18.5 -15.5t-1.5 -23.5q-2 -2 -3 -3.5t-3 -1.5q-23 -12 -46.5 -22.5t-48.5 -18.5q-15 -4 -28.5 0t-23.5 13.5t-14 23.5t-1 29t10 29.5t18 24.5q52 52 114.5 81.5t134.5 40.5q24 3 43.5 -5t31.5 -23.5t15 -36
t-6 -41.5q-16 -35 -35 -67t-41 -62q-35 -50 -74 -96.5t-72 -97.5q-28 -43 -49 -89.5t-44 -92.5q-8 -16 -20 -33q-2 -3 -7.5 -5.5t-8.5 -0.5q-4 2 -6.5 7t-2.5 9q2 9 3.5 18.5t5.5 17.5q35 76 75.5 146.5t97.5 133.5q14 15 37 50t44.5 73.5t35 73t8.5 49.5q-3 12 -15 14.5
t-25 0.5t-24 -6t-12 -4q-13 -4 -41 -12.5t-57 -21t-51.5 -29.5t-24.5 -38zM-23 0q-20 8 -25 16.5t3 28.5q3 7 3 16t1 17.5t4.5 15t13.5 9.5q7 2 13 -15.5t7 -38.5t-3.5 -37.5t-16.5 -11.5z" />
    <glyph glyph-name="numbersign" unicode="#" horiz-adv-x="365" 
d="M109 454q-11 -3 -33 -7t-44 -6t-38 -2.5t-16 3.5q2 10 5.5 19t5.5 19q2 13 9 17.5t19 5.5q25 2 50 3.5t50 3.5q13 1 29.5 19.5t32.5 41t29.5 43t19.5 25.5q4 2 8.5 4t7.5 0t5 -7t0 -8q-5 -11 -10 -20l-10 -18q-9 -15 -18.5 -29t-18.5 -28q2 -2 2 -3.5t2 -3.5q26 3 52 5
t52 6q4 0 7.5 4.5t7.5 7.5q10 12 19.5 23.5t20.5 22.5q4 3 10.5 4.5t11.5 -0.5q2 -2 3 -8.5t1 -11.5q0 -3 -4.5 -7.5t-9.5 -10t-10 -10.5t-6 -8q4 -1 12 0.5t16 3.5t15 4t11 2q13 1 17.5 -5.5t-2.5 -15.5q-17 -26 -35.5 -51t-37.5 -50q-1 -1 -3 -2q-5 -2 -10.5 1.5t-5.5 8.5
q0 2 -0.5 4.5t-0.5 4.5q1 0 1 1q0 3 5.5 12t12.5 18.5t12.5 18.5t6.5 12q-8 -3 -23 -7t-20 -10q-6 -6 -15 -20.5t-19.5 -30.5t-20 -31.5t-16.5 -24.5q18 0 33.5 7.5t28.5 8.5q11 1 20 -2t10 -17q3 -31 -25 -37q-25 -6 -50 -11t-50 -12q-19 -7 -29 -23q-25 -45 -48.5 -89
t-47.5 -89q-4 -6 -3 -6q-3 -3 -5 -4q-8 -5 -16 -0.5t-7 13.5q0 1 0.5 1.5t0.5 1.5q17 40 35.5 78.5t36.5 76.5q2 8 3 10q-1 1 4 10q2 4 5 9q-15 6 -29.5 9t-28 1t-26 -11t-22.5 -27q-9 -17 -23 -41.5t-29 -50t-29.5 -49.5t-25.5 -40q-5 -8 -14.5 -16t-14.5 -6
q-13 6 -10.5 16.5t7.5 19.5q18 33 35.5 66t37.5 65q24 39 49 76t50 75q5 7 16.5 25t18.5 30zM109 380q27 3 50 0q16 -2 30 5t25.5 18.5t20.5 25.5t15 25q2 2 1.5 6.5t-0.5 9.5q-10 0 -15 -1q-12 -2 -24.5 -4.5t-24.5 -4.5q-29 -5 -50 -25t-28 -55z" />
    <glyph glyph-name="ampersand" unicode="&#x26;" horiz-adv-x="651" 
d="M317 52q-9 -6 -28 -16t-47.5 -19t-66.5 -13t-84 3q-24 3 -43.5 17t-33.5 33.5t-22.5 43.5t-11.5 48q-5 51 7.5 96t47.5 82q32 35 65.5 66t65.5 65q14 11 19 28q19 77 67 125.5t117 80.5q46 23 94 32.5t97 13.5q32 2 65 -4t67 -11q14 -2 16.5 -11t-5.5 -21
q-13 -20 -22.5 -42t-23.5 -41q-8 -10 -21 -17t-26 -10q-60 -20 -119.5 -37t-120.5 -35q-34 -10 -42 -30.5t4 -56.5q2 -7 3 -11.5t2 -11.5q1 -5 6 -25.5t13 -51.5t18 -69.5t20 -78t20 -78t18 -68.5q16 -48 34 -69.5t35 -29t32 -6.5t25 -1q4 0 5 -1q8 -7 8 -16t-6 -16t-12 -7
q-38 -4 -74 0.5t-74 12.5q-18 5 -30 14t-19.5 21t-12.5 26.5t-9 29.5q-5 16 -8.5 32t-8.5 34zM196 400q-21 -15 -36.5 -27t-27.5 -24.5t-22 -26t-20 -31.5q-19 -32 -13.5 -63t31.5 -55q24 -23 52.5 -27.5t57.5 0.5q17 3 28.5 4.5t17 6.5t4.5 15.5t-8 30.5q-4 9 -5.5 17
t-4.5 17q-13 40 -26.5 80.5zM420 585q-43 -2 -63 -12.5t-27 -35.5q25 14 46.5 25.5t43.5 22.5z" />
    <glyph glyph-name="dollar" unicode="$" horiz-adv-x="355" 
d="M-10 -284q-3 -8 -9.5 -10.5t-13 -1t-10.5 7.5t-2 14q0 3 1 4q12 43 24.5 85.5t24.5 84.5q2 9 7 25.5t6 26.5q-2 2 -7.5 -5t-7.5 -5q-17 -17 -35 -34.5t-36 -34.5q-8 -8 -18 -6.5t-15 11.5q0 1 -2 5q-2 7 -3 13t-3 13q-2 17 1.5 29t23.5 22q74 36 135 86q16 14 24 36.5
t17 42.5q11 26 20.5 50.5t20.5 50.5q12 28 6.5 37t-34.5 12q-12 1 -24 3.5t-23 7.5q-73 39 -31 116q23 39 53.5 70t68.5 52q38 20 60 47.5t27 70.5q4 35 22 63.5t46 51.5q9 7 19 3t12 -15v-3q-1 -23 -2.5 -46.5t-3.5 -46.5q-2 -15 2.5 -22t21.5 -4q8 2 20 -1.5t12 -15.5
q-11 -8 -22 -15t-22 -16q-8 -7 -18.5 -15t-15.5 -19q-6 -15 -14.5 -42.5t-15 -54.5t-9.5 -48t2 -24q17 -9 34 -18.5t34 -17.5q16 -8 19 -18.5t-8 -25.5q-57 -77 -118 -148.5t-137 -131.5q-14 -12 -23.5 -30.5t-16.5 -37.5q-17 -56 -32 -112.5t-32 -113.5v-2zM111 89
q40 29 77 60.5t65 73.5q2 3 0.5 11.5t-5.5 11.5q-23 20 -42.5 16.5t-32.5 -32.5l-30 -70t-32 -71zM226 513q-9 -7 -24.5 -14t-31 -16.5t-29.5 -22t-20 -31.5q20 -6 33 -11t25 -8q1 0 8.5 12.5t15.5 30t15 34.5t8 26z" />
    <glyph glyph-name="period" unicode="." horiz-adv-x="250" 
d="M72 8q-35 2 -45 15.5t1 46.5q7 20 14 40.5t16 40.5q4 7 11.5 12.5t15.5 6.5q32 4 63 6t63 4q18 2 23 -7t3 -25q-3 -32 -17 -58.5t-35.5 -45t-50.5 -28.5t-62 -8z" />
    <glyph glyph-name="comma" unicode="," horiz-adv-x="303" 
d="M279 222q14 -17 17.5 -38.5t-5.5 -41.5q0 -1 -2 -5q-47 -85 -93.5 -169.5t-97.5 -169.5q-2 -5 -6 -7q-10 -9 -22 -11t-23.5 2t-19.5 13.5t-10 22.5q-1 5 -1 10.5v10.5q1 16 10.5 31t15.5 31q10 30 8.5 56.5t-36.5 46.5q-5 3 -9 10.5t-6.5 16.5t-3 18t2.5 15
q21 43 43 87.5t56 75.5q12 10 28.5 16t36 8.5t39 2.5t37.5 -2q11 -1 21 -10t20 -20z" />
    <glyph glyph-name="colon" unicode=":" horiz-adv-x="309" 
d="M60 134q-35 2 -45 15.5t1 46.5q7 20 14 40.5t17 40.5q3 7 10.5 12.5t15.5 6.5q32 4 63 6t63 4q18 2 23.5 -7t3.5 -25q-3 -32 -17 -58.5t-36 -45t-51 -28.5t-62 -8zM101 433q-36 2 -45.5 15.5t1.5 46.5q7 21 14 41t16 40q3 7 11 12.5t16 7.5q32 3 63 5l62 4q19 2 24 -7
t3 -25q-3 -32 -17 -58.5t-36 -45t-50.5 -28.5t-61.5 -8z" />
    <glyph glyph-name="semicolon" unicode=";" horiz-adv-x="282" 
d="M90 486q-35 2 -45 15.5t1 46.5q7 20 14 40.5t16 40.5q4 7 11.5 12.5t15.5 6.5q32 4 63 6t63 4q18 2 23 -7t3 -25q-3 -32 -17 -58.5t-35.5 -45t-50.5 -28.5t-62 -8zM229 382q11 -14 14.5 -32t-3.5 -35q-2 -2 -2 -3q-39 -71 -77.5 -141.5t-80.5 -139.5q-2 -2 -2.5 -3.5
t-2.5 -3.5q-8 -8 -18.5 -9t-20 2.5t-16.5 11t-8 18.5q0 5 -0.5 9t0.5 9q1 13 8.5 25.5t12.5 25.5q4 12 6.5 24t1 22.5t-8.5 20t-22 18.5q-4 2 -7.5 8.5t-5.5 14t-2 15t2 12.5q17 35 35 71.5t47 62.5q19 17 53 21t63 1q10 -1 18 -8.5t16 -16.5z" />
    <glyph glyph-name="quotesingle" unicode="'" horiz-adv-x="239" 
d="M209 725q11 -13 13.5 -29t-3.5 -31q-2 -2 -2 -3q-35 -63 -69.5 -126t-71.5 -125q-2 -2 -2.5 -3.5t-2.5 -3.5q-7 -7 -16.5 -8t-17.5 2t-14.5 10t-7.5 17q0 4 -0.5 8t0.5 8q1 11 7.5 23t11.5 23q7 22 6 41t-27 35q-8 4 -12 20t0 25q16 32 32 64.5t42 55.5q17 15 47.5 18.5
t56.5 0.5q8 0 15.5 -7t14.5 -15z" />
    <glyph glyph-name="quotedbl" unicode="&#x22;" horiz-adv-x="451" 
d="M209 725q11 -13 13.5 -29t-3.5 -31q-2 -2 -2 -3q-35 -63 -69.5 -126t-71.5 -125q-2 -2 -2.5 -3.5t-2.5 -3.5q-7 -7 -16.5 -8t-17.5 2t-14.5 10t-7.5 17q0 4 -0.5 8t0.5 8q1 11 7.5 23t11.5 23q7 22 6 41t-27 35q-8 4 -12 20t0 25q16 32 32 64.5t42 55.5q17 15 47.5 18.5
t56.5 0.5q8 0 15.5 -7t14.5 -15zM425 731q11 -13 13.5 -29t-3.5 -31q-2 -2 -2 -3q-35 -63 -69.5 -126t-71.5 -125q-2 -2 -2.5 -3.5t-2.5 -3.5q-7 -7 -16.5 -8t-17.5 2t-14.5 10t-7.5 17q0 4 -0.5 8t0.5 8q1 11 7.5 23t11.5 23q7 22 6 41t-27 35q-8 4 -12 20t0 25
q16 32 32 64.5t42 55.5q17 15 47.5 18.5t56.5 0.5q8 0 15.5 -7t14.5 -15z" />
    <glyph glyph-name="at" unicode="@" horiz-adv-x="538" 
d="M391 295q-11 0 -23 -5.5t-20 -16.5q-19 -16 -34.5 -34t-29.5 -33q-13 -11 -27 -18q-13 -6 -29 -8.5t-33 5.5q-12 5 -18 22.5t-6 31.5q0 10 1.5 21t1.5 21q17 64 51.5 106.5t77.5 74.5q11 4 23 4.5t26 0.5q29 6 40 -13t11 -61q0 -20 11.5 -25t23.5 11q14 20 28 42t24 46
q8 21 15 45t14 50q4 31 -5.5 49t-27.5 18q-26 0 -48.5 -5.5t-44.5 -15.5q-31 -11 -60 -28.5t-59 -37.5q-52 -30 -96 -74.5t-81 -100.5q-17 -26 -17.5 -54.5t4.5 -60.5q11 -57 33 -88.5t50 -45t58 -13.5t56.5 6.5t45.5 15t25 12.5q43 20 80 48.5t73 60.5l5 4q11 0 16 -8.5
t3 -22.5l-5 -9q-25 -26 -46 -46.5t-42 -39t-45 -36.5t-55 -37q-8 -6 -35.5 -16.5t-63.5 -19.5t-74.5 -12t-68.5 7q-25 7 -48.5 45.5t-29.5 101t12 144.5t75 178q25 40 53.5 73t59 62t62.5 54.5t65 51.5q22 15 50 20.5t55 4t49.5 -10t34.5 -20.5q22 -26 27 -53.5t-2 -68.5
q-29 -150 -100 -266q-14 -21 -29.5 -32.5t-36.5 -0.5zM333 367q6 4 5.5 10t-3.5 9.5t-8 4.5t-9 -3q-19 -23 -39 -37.5t-38 -29.5q-6 -4 -7.5 -10.5t-0.5 -11.5t4.5 -7t8.5 3q51 19 87 72z" />
    <glyph glyph-name="greater" unicode="&#x3e;" horiz-adv-x="429" 
d="M84 592q11 -5 16.5 -6t10.5 -1q73 -42 146 -83t146 -83q26 -15 23 -35t-23 -42q-26 -21 -48.5 -46t-48.5 -51q-21 -26 -41.5 -48t-42.5 -48q-5 -5 -18 -8.5t-24 1.5q-5 5 -8.5 17t1.5 17q3 10 11 23.5t16.5 26t15 21.5t6.5 12q11 11 17.5 24.5t11.5 24.5q-11 10 -21.5 16
t-21.5 11q-47 21 -89 39t-84 39q-26 15 -31 29t11 40q11 20 20.5 41t20.5 41q5 11 14 17t14 11z" />
    <glyph glyph-name="less" unicode="&#x3c;" horiz-adv-x="423" 
d="M150 374q15 -16 32 -24.5t33.5 -13t32 -6.5t28.5 -5q32 -5 59.5 -10.5t53.5 -11.5q11 0 19.5 -4t8.5 -10q0 -5 -4 -13.5t-10 -14.5q-16 -16 -33 -27t-37 -22q-11 -11 -26 -17t-31 -12q-64 -5 -122.5 2t-117.5 35q-26 11 -33 27t-2 42q11 37 25.5 77.5t31.5 77.5
q0 11 11.5 20t17.5 9q20 11 38 16.5t39 11.5q13 5 36.5 14.5t47 17.5t40.5 12t17 -1q-6 -17 -10 -33.5t-4 -37.5q5 -16 0 -24t-22 -19q-26 -11 -54 -25.5t-65 -30.5z" />
    <glyph glyph-name="parenleft" unicode="(" horiz-adv-x="292" 
d="M340 651q5 -26 -7 -41t-38 -28q-26 -11 -48 -26t-41 -33.5t-35 -38.5t-31 -39q-30 -38 -50 -78t-25 -88q-2 -28 -5 -55.5t-1.5 -55t9 -54.5t26.5 -52q17 -17 33.5 -31.5t29.5 -31.5q9 -9 14.5 -15t-2.5 -19q-5 -5 -17.5 -2t-16.5 7q-82 65 -110.5 152.5t1.5 190.5
q13 65 44 118t70 106q22 34 47.5 67t55.5 64q13 13 35 22.5t39 17.5q5 0 11.5 -6t11.5 -11v-40z" />
    <glyph glyph-name="parenright" unicode=")" horiz-adv-x="288" 
d="M56 498q9 42 18.5 83.5t18.5 83.5q0 14 11 18t20 -6q32 -32 66.5 -62t62.5 -67q75 -102 19 -222q-23 -51 -51.5 -96.5t-61 -88t-68 -82.5t-72.5 -79q-19 -18 -34 -36.5t-34 -37.5h-6q-9 -5 -16 3t-2 22v6q56 60 113.5 124t108.5 129q42 60 51 125t-33 134q-9 19 -33 33.5
t-47 28.5q-5 5 -13.5 -1.5t-17.5 -11.5z" />
    <glyph glyph-name="bracketleft" unicode="[" horiz-adv-x="415" 
d="M-84 -95q-14 0 -22 9t-3 23q14 33 30.5 65t26.5 65q32 90 61.5 174t62.5 169q14 38 25 78.5t25 78.5q19 42 34.5 84t33.5 90q5 5 15.5 11.5t15.5 6.5q38 5 75.5 5.5t74.5 0.5q14 0 28 -0.5t28 -5.5q19 0 20.5 -13t-7.5 -36q-5 -14 -9.5 -29t-9.5 -34q0 -29 -10.5 -36.5
t-33.5 -7.5q-42 0 -87.5 -3.5t-93.5 -8.5q-9 0 -20 -11.5t-16 -25.5q-33 -90 -66 -182t-66 -186q-5 -19 -8.5 -37t-3.5 -32q-5 -19 3 -21t22 3q47 5 90.5 13t89.5 18q24 0 44.5 3t43.5 3h6q10 -5 14 -16.5t-1 -20.5q0 -3 -1 -5l-2 -4q-2 -2 -3 -4q-14 -5 -26.5 -15
t-17.5 -29q0 -9 -12 -17.5t-26 -13.5q-8 -5 -34.5 -14.5t-62 -21t-74.5 -24t-72.5 -23t-56 -17t-24.5 -6.5z" />
    <glyph glyph-name="bracketright" unicode="]" horiz-adv-x="422" 
d="M143 82q4 17 15 47.5t25.5 68.5t30.5 79.5t31 79.5t27 68.5t18 47.5q7 18 14.5 35.5t14 35t10.5 36t4 39.5q-10 0 -19 -3t-18 -3q-37 -10 -73.5 -17.5t-72.5 -12.5q-53 -10 -43 43q5 18 7 35.5t10 31.5q5 8 17 16.5t20 13.5q10 10 25 11.5t24 1.5q42 4 82 7.5t78 3.5h41
q5 0 9 -6q2 -3 4 -5q-5 -24 -7 -43t-11 -37q-3 -9 -19 -50t-38 -99t-48.5 -125.5t-49.5 -129.5t-41 -111.5t-24 -70.5q-5 -9 -9.5 -18l-9.5 -19q-5 -14 -6 -27.5t-5 -26.5q-5 -10 -3 -18.5t-3 -18.5q-5 -23 -18.5 -27.5t-31.5 8.5q-18 19 -40.5 25.5t-50.5 6.5
q-46 -5 -95 -9.5t-100 -9.5h-7q-13 0 -19 14.5t8 28.5q7 6 15.5 11.5t16 11.5t14 14.5t8.5 22.5q0 5 7 9.5t12 9.5q21 9 41.5 18.5t42.5 16.5t45 9.5t48 -2.5q23 -4 48.5 -8.5t48.5 -9.5z" />
    <glyph glyph-name="hyphen" unicode="-" horiz-adv-x="315" 
d="M205 353q-42 -5 -83.5 -11.5t-83.5 -11.5q-21 0 -34 15t-5 36q4 4 7.5 8.5t3.5 13.5q9 25 26.5 37.5t46.5 12.5q42 5 83.5 12.5t83.5 15.5q14 0 29 -3t27 -3q13 -4 16.5 -15t-5.5 -24q-20 -21 -44 -41.5t-45 -41.5q-4 -5 -9 -6t-14 -6v12z" />
    <glyph glyph-name="equal" unicode="=" horiz-adv-x="331" 
d="M210 407q-42 -5 -83.5 -11.5t-83.5 -11.5q-21 0 -34 15t-5 36q4 4 7.5 8.5t3.5 13.5q9 25 26.5 37.5t46.5 12.5q42 5 83.5 12.5t83.5 15.5q14 0 29 -3t27 -3q13 -4 16.5 -15t-5.5 -24q-20 -21 -44 -41.5t-45 -41.5q-4 -5 -9 -6t-14 -6v12zM210 249q-42 -5 -83.5 -11.5
t-83.5 -11.5q-21 0 -34 15t-5 36q4 4 7.5 8.5t3.5 13.5q9 25 26.5 37.5t46.5 12.5q42 5 83.5 12.5t83.5 15.5q14 0 29 -3t27 -3q13 -4 16.5 -15t-5.5 -24q-20 -21 -44 -41.5t-45 -41.5q-4 -5 -9 -6t-14 -6v12z" />
    <glyph glyph-name="plus" unicode="+" horiz-adv-x="369" 
d="M186 476q15 0 36 2.5t36 3.5q23 1 47 2t47 2q9 0 17.5 -3t6.5 -14q-1 -5 -9 -8.5t-15 -5.5q-28 -8 -55.5 -13.5t-54.5 -12.5q-11 -3 -22.5 -6.5t-22.5 -6.5q-11 -2 -17.5 -5t-10 -7.5t-6 -12l-6.5 -19.5q-9 -23 -23.5 -48.5t-19.5 -42.5q-1 -4 -4 -6.5t-7 -5.5
q-3 -3 -7 -1q-6 6 -7.5 12t0 12t3.5 12t3 12t6.5 16.5t12 21.5t12 21.5t6.5 18.5q-6 -1 -10.5 -0.5t-7.5 -1.5q-27 -9 -53.5 -18t-53.5 -17q-5 -2 -12.5 -2t-10.5 3t-2.5 10t2.5 12q14 32 33 67q3 7 11 7q28 5 56 9t56 9q8 2 14.5 8t11.5 13q7 10 11 21.5t10 22.5
q2 5 8 20.5t10 19.5q3 -4 11.5 -12t11.5 -13q1 -1 -3 -9t-10 -18l-12 -20t-9 -14q1 -2 -4 -7.5t-4 -7.5z" />
    <glyph glyph-name="one" unicode="1" horiz-adv-x="234" 
d="M89 442q-20 -11 -35.5 -20t-32.5 -17q-5 5 -6.5 6t-6.5 5q32 66 62 131.5t64 128.5q8 11 28 17q19 5 36 -5.5t19 -31.5q0 -5 -2 -9q-25 -116 -52.5 -230.5t-53.5 -232.5q-6 -20 -7.5 -43t-3.5 -45q-3 -17 -5.5 -32.5t-9.5 -29.5q-4 -10 -15.5 -15t-22.5 -11
q-6 10 -14 20.5t-7 20.5q8 45 16.5 89.5t16.5 89.5q8 44 16 87.5t16 88.5q1 9 0.5 18.5t-0.5 19.5z" />
    <glyph glyph-name="zero" unicode="0" horiz-adv-x="475" 
d="M83 356q-24 -5 -41 -10t-33 -5q-15 0 -26 5.5t-16 14.5t-3.5 20t11.5 22q23 23 51.5 43t60.5 31q63 22 109 62t91 86q20 20 46.5 36t52.5 27q16 6 32.5 1.5t30.5 -16.5t22.5 -29.5t7.5 -37.5q-1 -51 -5.5 -104t-21.5 -102q-23 -63 -53.5 -124.5t-68.5 -119.5
q-23 -38 -57.5 -70.5t-70.5 -61.5q-27 -22 -61 -25t-64 19q-29 19 -41 47.5t-2 64.5q11 44 21.5 88t21.5 88q2 11 3 23t3 27zM176 173q11 -7 33.5 16.5t48 64t50.5 90t42 93t21.5 75t-10.5 34.5q-55 -28 -93 -65t-62 -76.5t-35.5 -78t-13.5 -71t3.5 -54.5t15.5 -28z" />
    <glyph glyph-name="two" unicode="2" horiz-adv-x="530" 
d="M100 215q41 7 74.5 13.5t66.5 10.5q32 5 63.5 11.5t63.5 10t63.5 1t63.5 -16.5q11 -5 23 -13.5t14 -18.5q2 -9 -7 -21.5t-19 -19.5q-48 -36 -99.5 -62t-106 -45t-111 -32.5t-113.5 -24.5q-12 -2 -24 -4.5t-23 -2.5q-19 0 -30.5 3.5t-17.5 11t-8 20t-2 30.5q0 42 12.5 77
t32 66.5t43.5 60.5l48 58q40 53 82 101.5t81 99.5q11 13 15.5 29t12.5 32l-18 13l-22 -26t-24 -24q-4 -6 -8 -7q-9 -7 -19 -7t-18 5t-12.5 14t-1.5 20v1q16 62 58 95t94 30q57 -4 57 -57q-1 -48 -17 -88t-51 -76q-54 -56 -102 -114t-99 -117q-4 -5 -6.5 -12.5t-8.5 -24.5z
" />
    <glyph glyph-name="three" unicode="3" horiz-adv-x="364" 
d="M230 478q22 -8 41 -14.5t37 -15.5q21 -11 32.5 -22t16.5 -24.5t4 -31t-5 -40.5q-8 -45 -26.5 -82t-44 -68.5t-57.5 -58.5t-67 -51q-24 -17 -47 -34.5t-47 -31.5q-21 -13 -40 -11.5t-33 26.5q-19 35 -15.5 57t28.5 39q51 30 99.5 61t99.5 63q7 5 14 9.5t11 11.5q5 8 7 18
t-1 17q-4 5 -14.5 7.5t-18.5 0.5q-19 -4 -37 -10.5t-37 -11.5q-22 -8 -30.5 2t-5.5 30q3 19 9.5 37t11.5 37q2 7 11 30.5t16 48.5t8 46t-13 24q-2 0 -18.5 -6.5t-35.5 -13.5t-34 -12t-15 -2q5 30 20.5 52.5t36.5 43t45 39.5t45 41q8 8 20.5 16t20.5 4q11 -3 21.5 -15
t11.5 -23q2 -26 -1 -52.5t-6 -52.5q-2 -21 -8 -40.5t-10 -36.5z" />
    <glyph glyph-name="four" unicode="4" horiz-adv-x="440" 
d="M98 363q16 9 40 19t48.5 20t46 20.5t33.5 19.5q22 18 39 52.5t32.5 72t32 72t38.5 53.5q1 1 2.5 1.5t2.5 1.5q10 8 21.5 7t20 -8t12 -18t-1.5 -23q-58 -136 -117.5 -269.5t-119.5 -269.5q-10 -23 -17 -47t-18 -47q-2 -2 -3.5 -4.5t-3.5 -4.5q-6 -7 -14 -8.5t-15 1.5
t-12 9.5t-4 15.5q0 1 0.5 2.5t0.5 2.5q15 54 32.5 106.5t34.5 106.5q2 9 2 18t1 19q-11 -2 -20.5 -3t-19.5 -5q-26 -11 -50 -23.5t-50 -23.5q-29 -11 -53 4t-25 45q-1 68 8 133.5t43 126.5q14 25 22.5 52.5t22.5 52.5q20 38 39 42.5t45 -19.5q37 -34 0 -68
q-11 -11 -24.5 -40.5t-25 -65t-19 -71t-7.5 -58.5z" />
    <glyph glyph-name="five" unicode="5" horiz-adv-x="418" 
d="M168 514q-21 -35 -24.5 -53.5t4 -26t24.5 -6.5t35.5 5.5l37 9t30.5 4.5q23 -5 31 -17t7.5 -27t-6.5 -31.5t-11 -31.5q-26 -78 -68 -144.5t-114 -112.5q-26 -17 -49.5 -38t-49.5 -41q-5 -3 -14.5 -5t-13.5 2q-5 3 -7.5 12.5t-0.5 15.5q12 45 26 88t30 87q3 8 12 15t17 13
q4 3 23 12t39.5 18.5t37.5 18.5t18 13q3 13 -7.5 17.5t-29 3.5t-41 -5.5t-43.5 -9t-37 -7.5t-21 0q-3 1 -3.5 7t0 13.5t2 15.5t4.5 14q21 46 44 90.5t46 89.5q16 30 30.5 59.5t31.5 58.5q5 10 16 18.5t22 10.5q51 8 100.5 13.5t100.5 11.5q12 1 18.5 -2t9 -8.5t1 -12.5
t-5.5 -13q-20 -32 -41 -63.5t-47 -60.5q-4 -5 -12 -7t-17 -2.5t-18 0.5t-16 3q-16 5 -28.5 11.5t-23.5 8t-23 -5.5t-26 -29z" />
    <glyph glyph-name="six" unicode="6" horiz-adv-x="573" 
d="M602 680q-1 -7 -30.5 -27t-73 -49t-93 -65.5t-89.5 -75.5t-63 -79.5t-13 -77.5q10 0 34.5 6t52.5 13.5t52.5 13.5t33.5 6q17 0 33.5 2t33.5 -3q35 -8 58 -21t33 -32.5t5 -48t-26 -68.5q-25 -47 -66.5 -83.5t-91 -59t-104 -29.5t-106.5 5q-12 3 -24 11t-23 19t-21 24
t-19 25q-13 18 -22.5 23t-29.5 -11q-7 -6 -19 -8.5t-17 0.5q-7 6 -10.5 17.5t-1.5 22.5q3 28 7.5 56t13.5 54q3 11 16.5 22t26.5 13q35 5 56 22.5t32 52.5q11 38 30 70.5t43.5 61t52.5 54.5l56 52q16 14 32 27t30 28q18 20 39 30t44 15t46.5 8t46.5 9q4 1 10 -1.5t11.5 -6.5
t9.5 -9t4 -8zM411 206q4 11 -12 11t-41 -5t-52.5 -12.5t-46.5 -11.5q-12 -3 -14.5 -7.5t0.5 -10.5t10.5 -13t15.5 -16q24 -24 46.5 -24t41 13.5t32.5 35t20 40.5z" />
    <glyph glyph-name="seven" unicode="7" 
d="M323 571q-23 -5 -43.5 -8.5t-40.5 -9.5q-29 -9 -57.5 -20t-57.5 -20q-8 -2 -16.5 -0.5t-17.5 2.5q2 9 3 17t5 16q12 23 26.5 45.5t26.5 45.5q7 14 15 21t23 9q59 8 117.5 16t116.5 15q20 2 26 -10.5t-5 -30.5q-11 -19 -25 -36t-28 -35q-16 -22 -47 -68t-68.5 -104
t-77.5 -121.5t-75 -120t-60 -100t-32 -60.5q-1 -3 -5 -7q-7 -8 -17.5 -5t-12.5 14q0 3 1 5q4 13 26.5 53t54 94t68.5 115t71.5 116.5t62 98.5t39.5 61q1 2 1.5 5.5t2.5 6.5z" />
    <glyph glyph-name="eight" unicode="8" horiz-adv-x="408" 
d="M404 569q2 -26 -2 -48t-11.5 -42t-17 -38.5t-19.5 -37.5q-26 -49 -52 -97.5t-52 -97.5q-3 -6 -4 -14t1 -14q11 -32 1.5 -56.5t-29.5 -45.5q-18 -19 -35.5 -37.5t-33 -39t-27 -43t-16.5 -49.5q-1 -5 -10 -11t-14 -4t-8.5 10t-6.5 14q-2 3 -1 6t2 5q5 25 6.5 38.5t-3.5 22
t-18 14t-37 13.5q-28 11 -34.5 23t3.5 41q5 17 11.5 32t10.5 31q7 23 3 43.5t-16 44.5q-16 29 -18 66.5t-1 72.5q17 62 44.5 111.5t60 87t67.5 64t68 42.5q35 18 68 17t59 -16t42.5 -43t18.5 -65zM57 390q-9 -50 1 -83.5t29.5 -51t44 -20t44.5 8.5q11 5 15 11l6 9
q40 50 64.5 105.5t30.5 119.5q2 19 -2.5 35.5t-14 28.5t-23 17.5t-28.5 4.5q-26 -3 -53 -20t-50 -43.5t-40.5 -58.5t-23.5 -63zM79 54q32 5 46.5 17t14.5 34q0 10 -5 20t-14 17.5t-21 12.5t-24 5q-6 0 -14 -7.5t-15.5 -18.5t-11.5 -22.5t-2 -19.5q5 -12 19.5 -20.5
t26.5 -17.5z" />
    <glyph glyph-name="nine" unicode="9" 
d="M477 653q8 -14 4.5 -32t-26.5 -27q-6 -2 -10.5 -11.5t-6.5 -17.5q-8 -30 -15 -61t-15 -62q-14 -52 -29.5 -103t-24.5 -105q-7 -45 -27 -80.5t-49 -66.5q-20 -20 -44.5 -39t-50.5 -27q-49 -17 -98.5 -15.5t-97.5 21.5q-58 23 -61 87q0 13 -3.5 25.5t-5.5 25.5v2
q0 11 10 18t20 0q9 -6 16 -13.5t15 -15.5q56 -54 118 -58t128 36q38 23 57.5 53.5t30.5 70.5q8 29 17 57t16 57q5 16 6 32t3 32q-3 2 -4.5 2.5t-3.5 2.5q-8 -5 -16 -11t-17 -12q-26 -19 -50.5 -37t-50.5 -37q-13 -9 -21.5 -5t-16.5 15q-29 44 -30.5 97t19 101.5t59 84.5
t90.5 45q27 5 54.5 9.5t53.5 2.5q16 -2 32.5 -14.5t24.5 -26.5zM365 581q3 11 4 20q0 7 -2.5 12t-10.5 2q-23 -8 -45.5 -20t-41 -28.5t-31.5 -38t-17 -46.5q-2 -12 8.5 -19.5t20.5 2.5q27 29 57 53.5t54 55.5q2 2 4 7z" />
    <glyph glyph-name="slash" unicode="/" horiz-adv-x="255" 
d="M6 27q0 8 1 11q11 51 22 99.5t22 98.5q22 97 43 193t41 194q4 23 14 41.5t23.5 33.5t29.5 28l32 26q11 10 19 4t6 -21q-2 -18 -9 -33q-41 -102 -76 -204.5t-60 -209.5q-15 -63 -31 -124t-33 -124q-11 -35 -25.5 -37t-18.5 24z" />
    <glyph glyph-name="fraction" unicode="&#x2044;" horiz-adv-x="234" 
d="M-20 41q0 8 1 11q11 51 22 99.5t22 98.5q22 97 43 193t41 194q4 23 14 41.5t23.5 33.5t29.5 28l32 26q11 10 19 4t6 -21q-2 -18 -9 -33q-41 -102 -76 -204.5t-60 -209.5q-15 -63 -31 -124t-33 -124q-11 -35 -25.5 -37t-18.5 24z" />
    <glyph glyph-name="backslash" unicode="\" horiz-adv-x="258" 
d="M248 42q-2 -25 -17 -23.5t-25 36.5q-17 60 -32 119t-29 119q-24 103 -58 202t-73 197q-4 8 -5.5 16t-2.5 16q-3 14 4.5 20t18.5 -4q31 -25 59 -52.5t37 -71.5q19 -94 39.5 -186.5t40.5 -186.5q11 -48 21.5 -95t21.5 -95q2 -6 0 -11z" />
    <glyph glyph-name="asciicircum" unicode="^" horiz-adv-x="250" 
d="M138 638q-12 -12 -18.5 -24.5t-10 -25t-5 -24.5t-3.5 -22q-5 -24 -9 -45t-9 -41q0 -8 -3 -14.5t-8 -6.5q-3 0 -9.5 3t-11.5 8q-12 12 -20 25t-16 29q-8 8 -12.5 19.5t-9.5 23.5q-4 49 1.5 93.5t26.5 89.5q8 19 20.5 24t32.5 1q28 -8 59 -19t59 -24q8 0 14.5 -8.5
t6.5 -13.5q8 -16 12 -29t9 -30q4 -10 11.5 -28t13.5 -36t9 -31t-1 -13q-13 5 -25.5 8t-28.5 4q-12 -4 -18.5 0t-14.5 17q-8 20 -19 41t-23 49z" />
    <glyph glyph-name="underscore" unicode="_" horiz-adv-x="703" 
d="M433 -58q-91 -3 -183 -7t-185 -7q-23 0 -43 2.5t-32.5 6.5t-16 10t5.5 12q8 2 16 5t8 8q20 15 58 23t103 8q91 2 184 7t184 10q29 0 63 -2t60 -2q28 -2 36 -9t-12 -15q-45 -13 -97 -25t-99 -25q-8 -3 -19 -4t-31 -3v7z" />
    <glyph glyph-name="quotedblright" unicode="&#x201d;" 
d="M209 725q11 -13 13.5 -29t-3.5 -31q-2 -2 -2 -3q-35 -63 -69.5 -126t-71.5 -125q-2 -2 -2.5 -3.5t-2.5 -3.5q-7 -7 -16.5 -8t-17.5 2t-14.5 10t-7.5 17q0 4 -0.5 8t0.5 8q1 11 7.5 23t11.5 23q7 22 6 41t-27 35q-8 4 -12 20t0 25q16 32 32 64.5t42 55.5q17 15 47.5 18.5
t56.5 0.5q8 0 15.5 -7t14.5 -15zM425 731q11 -13 13.5 -29t-3.5 -31q-2 -2 -2 -3q-35 -63 -69.5 -126t-71.5 -125q-2 -2 -2.5 -3.5t-2.5 -3.5q-7 -7 -16.5 -8t-17.5 2t-14.5 10t-7.5 17q0 4 -0.5 8t0.5 8q1 11 7.5 23t11.5 23q7 22 6 41t-27 35q-8 4 -12 20t0 25
q16 32 32 64.5t42 55.5q17 15 47.5 18.5t56.5 0.5q8 0 15.5 -7t14.5 -15z" />
    <glyph glyph-name="quotedblleft" unicode="&#x201c;" horiz-adv-x="446" 
d="M235 418q-11 12 -14 28t2 31q2 2 2 3q32 65 64 129.5t66 127.5q2 2 2.5 3.5t2.5 3.5q7 7 16 8.5t17.5 -1.5t15 -9.5t8.5 -16.5q0 -4 0.5 -7.5t-0.5 -8.5q0 -11 -6 -23t-11 -23q-3 -11 -4.5 -21.5t0.5 -20t8.5 -18t19.5 -15.5q8 -4 13 -20t1 -25q-14 -32 -29 -65t-40 -58
q-8 -8 -20 -13t-26 -7.5t-29 -3t-28 0.5q-8 -1 -15.5 6t-15.5 15zM20 402q-11 13 -14.5 29t1.5 31q2 2 2 3q32 65 64 129.5t67 127.5q2 2 2 3.5t2 3.5q7 7 16.5 8.5t18 -1.5t14.5 -9.5t8 -16.5q0 -4 1 -8t0 -8q-1 -11 -7 -23t-10 -23q-6 -23 -4.5 -42t28.5 -33
q8 -4 12.5 -20t1.5 -25q-14 -32 -29 -65t-40 -58q-16 -16 -46.5 -20.5t-56.5 -2.5q-8 -1 -16 5.5t-15 14.5z" />
    <glyph glyph-name="quoteright" unicode="&#x2019;" horiz-adv-x="232" 
d="M211 727q11 -13 13.5 -29t-3.5 -31q-2 -2 -2 -3q-35 -63 -69.5 -126t-71.5 -125q-2 -2 -2.5 -3.5t-2.5 -3.5q-7 -7 -16.5 -8t-17.5 2t-14.5 10t-7.5 17q0 4 -0.5 8t0.5 8q1 11 7.5 23t11.5 23q7 22 6 41t-27 35q-8 4 -12 20t0 25q16 32 32 64.5t42 55.5q17 15 47.5 18.5
t56.5 0.5q8 0 15.5 -7t14.5 -15v0z" />
    <glyph glyph-name="quoteleft" unicode="&#x2018;" horiz-adv-x="224" 
d="M21 409q-11 13 -14 29t2 31q2 2 2 3q32 65 64 129t67 127q2 2 2.5 3.5t2.5 3.5q7 7 16 8.5t17.5 -1t14.5 -9.5t8 -16q1 -4 1.5 -8t-0.5 -8q0 -11 -6.5 -23.5t-10.5 -23.5q-6 -22 -4.5 -41.5t28.5 -33.5q7 -4 12 -20t1 -25q-14 -32 -29 -65t-40 -58q-16 -15 -46.5 -19.5
t-56.5 -2.5q-8 -1 -16 5.5t-15 14.5v0z" />
    <glyph glyph-name="A" unicode="A" horiz-adv-x="475" 
d="M292 415q-8 -4 -16.5 -7.5t-13.5 -7.5q-17 -10 -32.5 -19.5t-31.5 -20.5q-7 -5 -24.5 -16.5t-37 -25t-38.5 -26t-29 -18.5q-3 -2 -7.5 -14t-9 -28t-9 -32.5t-7.5 -26.5q-4 -16 -7.5 -31.5t-5.5 -32.5q0 -3 -1.5 -10t-3 -14.5t-2 -14.5t-0.5 -10q1 0 4.5 6t8.5 15t12 18
t14 15q2 3 6 5l8 4q0 -5 0.5 -10.5t-1.5 -7.5q-20 -20 -31 -44t-23 -48q-2 -4 -4 -5q-3 -3 -6.5 -2.5t-5.5 3.5v2q-2 19 -2.5 36.5t0.5 36.5q3 52 11 95.5t19 81.5q-23 -6 -34 -8t-19 -3q-25 -3 -27 22v12q0 7 -2 11t-10 6q-19 3 -4 17q3 1 15.5 2.5t30 4.5t37 9t34.5 17
q10 22 18.5 44.5t19.5 44.5q27 56 67 111t81.5 99t77.5 71.5t55 27.5q15 0 22.5 -17.5t8 -46.5t-6 -65.5t-20.5 -73.5q-11 -27 -20.5 -54t-20.5 -55q-10 -24 -19 -49t-20 -50q-16 -37 -32.5 -73.5t-32.5 -74.5q-14 -29 -20 -60.5t-11 -63.5q-3 -20 5 -35t27 -14
q19 2 41 20.5t44.5 46t43.5 60t38.5 62t30 52t16.5 30.5t3.5 16.5t9.5 12.5q3 1 6.5 1.5t6.5 1.5q0 -4 1 -8.5t-1 -6.5q-8 -17 -18.5 -33.5t-19.5 -33.5q-6 -11 -23 -44.5t-42 -74t-55.5 -79.5t-63.5 -61q-11 -8 -22.5 -12t-25.5 -3q-15 1 -22.5 7t-7.5 21q0 21 1 42.5
t3 43.5q2 17 5 33.5t8 33.5q9 31 19.5 56t23.5 58q5 12 10 25t10 24q20 43 40 89q0 2 2.5 7t3.5 11zM103 377q2 2 10 7t11 7q1 0 20.5 15t48 35t59.5 41.5t54 34.5q7 4 15 8t11 11q9 17 16 34.5t13 36.5q2 5 1.5 11.5t-3.5 9.5q-8 8 -19 7t-22 -6q-31 -15 -63 -42t-59 -56
t-46 -55t-24 -40q-3 -6 -7 -16t-8 -19.5t-6.5 -16.5t-1.5 -7z" />
    <glyph glyph-name="B" unicode="B" horiz-adv-x="440" 
d="M452 389q-5 -1 -13 -4.5t-16 -8t-15.5 -8.5t-10.5 -5q-15 -7 -37.5 -18.5t-48.5 -24.5t-52.5 -27t-49.5 -26t-40 -21.5t-23 -12.5q-14 -8 -39 -22.5t-50.5 -28.5t-47 -26t-27.5 -15q-14 -9 -20 -6.5t-9 19.5q0 3 -1 5.5t-2 7.5q-8 -7 -15.5 -23t-12 -34t-4.5 -34.5
t7 -25.5q5 -6 12.5 0t15 17.5t14.5 24t13 19.5q7 -3 5 -12q-2 -6 -4 -13t-5 -14q-13 -24 -28 -42q-6 -8 -14.5 -14.5t-18.5 -8.5q-11 -3 -16.5 5t-6.5 18q0 18 7 49.5t17.5 66.5t22 69t19.5 57q11 33 25 66t26 65q8 21 15.5 41.5t15.5 41.5q2 7 5 23q-9 -5 -15.5 -9
t-12.5 -6q-4 -2 -8.5 -2.5t-6.5 1.5q-5 6 -0.5 22t13 34.5t18.5 37t17 30.5q22 35 46 68.5t37 49.5q0 1 1 2q5 5 10.5 2t7.5 -8q4 -14 5 -31.5t-9 -26.5q1 0 13 6t28.5 14.5t34.5 16t30 10.5q48 10 77 12.5t46 -0.5t23.5 -10.5t9.5 -16.5q2 -23 -13.5 -60t-37 -74t-42 -68
t-29.5 -41l-30 -37.5t-35 -44t-30.5 -38t-16.5 -19.5q3 0 19.5 8t39 19t46.5 23t41 20q52 26 105 51t107 50q4 2 10 1.5t9 -2.5q2 -3 2 -8.5t-1 -10.5q-4 -18 -7.5 -35.5t-7.5 -35.5q-3 -7 -6 -13t-8 -11q-34 -35 -67 -69.5t-68 -69.5q-43 -44 -86.5 -87.5t-88.5 -85.5
q-21 -20 -53.5 -52t-69.5 -68t-74.5 -72.5t-68 -66t-50.5 -49t-22 -21.5q-1 4 -3 13t-3.5 19t-3 19.5t-1.5 14.5q-1 18 22.5 46.5t57 60t70 62t60.5 51.5q18 17 44 41.5t56 53t62 58t62 56.5q10 8 25 22.5t32 31.5l34 34t30.5 32t22 24.5t8.5 11.5zM-18 258q2 -2 3 -4
q23 -4 49 8.5t51.5 33.5t50 48.5t46.5 54.5t40 50.5t30 37.5q14 17 29 38.5t27.5 42t20.5 36t9 21.5q2 11 -3 15t-17 3q-34 -3 -64.5 -15.5t-60.5 -26.5q-17 -8 -33.5 -17t-32.5 -19q-19 -13 -36 -26t-24 -38q-17 -52 -35 -101.5t-36 -100.5q-4 -11 -7.5 -21t-6.5 -20z" />
    <glyph glyph-name="C" unicode="C" horiz-adv-x="387" 
d="M437 351q-11 -29 -30 -69.5t-55.5 -91t-94.5 -110.5t-146 -127q-15 -12 -40.5 -23.5t-52.5 -16t-51.5 3t-37.5 33.5q-19 41 -15 81t21 84q18 45 46 97.5t61 107.5t69 109t69 101.5t61 85.5t45 60q26 29 61 53q15 13 35.5 13.5t33.5 -8.5q26 -20 32 -34.5t-1 -40.5
q-17 -63 -39.5 -101.5t-44 -61t-39 -32.5t-23.5 -14q-5 1 -8 8q2 2 16 19.5t31 42.5t32 53t18 50q2 15 -3.5 17.5t-19.5 0.5q-14 -1 -33 -15.5t-39.5 -38t-43 -53.5t-44 -61t-41 -61.5t-34.5 -54.5l-20 -30t-31.5 -50t-36.5 -64t-35.5 -71t-27.5 -71.5t-12 -65.5
q0 -6 2.5 -13.5t7 -13.5t10.5 -9.5t11 -1.5q70 18 127 53t102 77t78.5 86.5t56 82t35 63t15.5 30.5q5 5 15 1t8 -9z" />
  </font>
</defs>
</svg>
