<?xml version="1.0" standalone="no"?>
<!DOCTYPE svg PUBLIC "-//W3C//DTD SVG 1.1//EN" "http://www.w3.org/Graphics/SVG/1.1/DTD/svg11.dtd" >
<svg xmlns="http://www.w3.org/2000/svg" xmlns:xlink="http://www.w3.org/1999/xlink" version="1.1">
<metadata>
Created by FontForge 20160407 at Fri Apr 15 15:33:00 2016
 By Rabins
The Alphabets were designed by Suman and the numbers &#38; symbols are designed by Rabins. The developer of this font is Rabins.  Copyright (c) 2016 Rabins Sharma Lamichhane,  Copyright (c) 2016 Suman. All right reserved. 
</metadata>
<defs>
<font id="Nepali.pw" horiz-adv-x="9" >
  <font-face 
    font-family="Patriotic Nepal"
    font-weight="500"
    font-stretch="normal"
    units-per-em="1000"
    panose-1="2 0 6 3 0 0 0 0 0 0"
    ascent="800"
    descent="-200"
    x-height="733"
    cap-height="777"
    bbox="8.98701 -76 1010 801.033"
    underline-thickness="50"
    underline-position="-250"
    unicode-range="U+0020-20AC"
  />
<missing-glyph horiz-adv-x="364" 
d="M33 0v666h265v-666h-265zM66 33h199v600h-199v-600z" />
    <glyph glyph-name=".notdef" horiz-adv-x="364" 
d="M33 0v666h265v-666h-265zM66 33h199v600h-199v-600z" />
    <glyph glyph-name=".null" horiz-adv-x="0" 
 />
    <glyph glyph-name="nonmarkingreturn" horiz-adv-x="333" 
 />
    <glyph glyph-name="space" unicode=" " horiz-adv-x="420" 
 />
    <glyph glyph-name="exclam" unicode="!" horiz-adv-x="411" 
d="M24 782q12 18 27 18h15l-16 -31q-15 -29 -12.5 -67.5t27.5 -136.5q23 -97 27 -131q6 -48 14 -56.5t46 -8.5q45 0 49 5q3 5 14 70q9 58 29 140q20 80 23.5 112t-6.5 55q-10 24 -21 37q-9 10 -3 11q4 1 19 1q11 0 19.5 -2t17 -7.5t21.5 -15.5q56 -44 78 -97q13 -32 9 -78.5
t-28 -141.5q-31 -120 -34 -168q-3 -34 -1.5 -46t11.5 -26q15 -20 18.5 -52t-7.5 -48q-17 -27 -67.5 -35.5t-98.5 7.5q-25 9 -51 24t-48 33.5t-34 36.5q-10 13 -14.5 22t-6 18.5t-1.5 24.5q0 23 3.5 32.5t18 24.5t17.5 22t-2 16q-6 12 -11 61q-4 43 -30 160
q-22 94 -24.5 143.5t13.5 73.5zM181 316q-13 0 -25 4q-14 3 -40 -7.5t-36 -22.5q-12 -15 -12 -36q0 -30 24.5 -49t59 -18.5t60.5 22.5q20 18 20.5 43t-20.5 45q-19 19 -31 19zM84 780q10 10 16.5 13.5t17 5t35.5 1.5q32 0 43.5 -2.5t20.5 -11.5q24 -27 26 -61.5t-16 -110.5
q-16 -67 -22 -80t-21 -10q-9 1 -14 -0.5t-6 -6.5t2 -14t10 -22l17 -32l-17 -24q-17 -27 -19 -32q-3 -7 -11 3q-5 6 -22 34l-14 20l19 31q29 47 -2 43h-5q-15 -3 -22 11t-23 80q-17 68 -15 106t22 59zM159 682q0 13 -3 13q-6 -1 -15 -34q-8 -34 -21 -53l-13 -17l21 -28
q5 -6 11 -14t9.5 -12t3.5 -5q2 -3 5 3l1 2q4 10 19 28l16 19l-17 42q-17 43 -17 56z" />
    <glyph glyph-name="quotedbl" unicode="&#x22;" horiz-adv-x="274" 
d="M23 782q1 7 2.5 10t7 5.5t12.5 2.5h25h44l-5 -54q-1 -4 -2 -13q-5 -53 -10.5 -61.5t-35.5 -8.5h-8h-43l5 50q4 47 8 69zM173 779l4 21h45q16 0 24 -0.5t13.5 -1.5t5 -3t-0.5 -6q-2 -13 -7 -58q-5 -49 -13 -58.5t-44 -9.5h-40l5 47q6 57 8 69z" />
    <glyph glyph-name="numbersign" unicode="#" horiz-adv-x="709" 
d="M298 776q5 13 8.5 17t10 5.5t23.5 1.5q33 0 33 -1t-9.5 -27t-18 -52t-6.5 -28q3 -3 77 -3q73 0 79 8.5t22 53.5l17 46l34 2q34 2 34 -2l-10 -26t-18 -51.5t-3 -27.5q8 -3 67 -4q49 -2 57.5 -10t-3.5 -45l-9 -26l-150 -6l-21 -53q-20 -51 -18 -56q4 -6 66 -6h63l-4 -30
q-2 -16 -4.5 -23t-6 -13.5t-14.5 -8t-23 -2.5t-39 -1q-66 0 -72 -8q-7 -13 -32 -84l-28 -75l-24 -2q-33 -3 -35.5 7.5t19.5 69.5q26 74 26 83q0 2 -3 4t-12 3t-23 1.5t-37 0.5h-14h-29.5t-20 -3.5t-14.5 -6t-10.5 -14t-10.5 -21t-11 -33.5l-1.5 -4.5t-1.5 -4t-2 -5.5
q-21 -62 -28 -70q-5 -7 -30.5 -7.5t-29.5 5.5q-2 3 10.5 41.5t25.5 76.5t13 39q0 7 -71 7t-75 5q-3 5 4 34t12 35q3 4 91 6h25.5t20 0.5t17 1t6.5 1.5q4 2 14 25.5t19 48t9 30.5q0 8 -70 10l-71 2l3 17q1 15 10 39l7 23l75 2q74 1 82 7q7 6 16 32q5 21 17 49zM459 600
q-6 6 -78.5 4t-77.5 -8q-7 -9 -21 -49t-14 -51q0 -8 11.5 -9t60.5 1q71 1 81 11q8 10 25 54t13 47z" />
    <glyph glyph-name="dollar" unicode="$" horiz-adv-x="648" 
d="M14 744q-2 29 -4 56h629q-2 -27 -4 -56l-134 -2q-135 -1 -142 -4q-8 -3 -1 -21q6 -14 11 -58l4 -38l47 -8q42 -7 64 -17.5t42 -34.5q17 -19 25.5 -34t12 -32t4.5 -46q0 -33 -3 -47t-14 -35q-21 -34 -30.5 -37t-37.5 16t-32 26.5t11 15.5q12 7 28.5 35.5t20.5 51.5
q3 17 -0.5 32.5t-12.5 26.5t-23 17.5t-30 6.5q-19 0 -64 -14q-29 -8 -46 -18.5t-47 -37.5q-47 -44 -62 -54l-15 -10l14 -31q13 -31 88 -107q37 -39 58 -60.5t33 -36.5t15 -21.5t1 -11.5q-4 -10 -9 -10q-7 0 -153 149q-69 71 -105 110t-54.5 69t-17.5 46t15 34q10 13 21 15
t57 2h65l23 23q16 16 19.5 26t3.5 39q0 19 -1.5 29t-4.5 17t-11 16l-16 20l-119 1z" />
    <glyph glyph-name="percent" unicode="%" horiz-adv-x="659" 
d="M99 744q39 13 79.5 6.5t77 -31t55.5 -59.5q16 -30 20 -29q5 3 43 58l38 55l94 4l16 -24q17 -26 17 -31q0 -4 -46 -73q-49 -74 -49 -82q1 -6 25 -6q74 0 128 -56t53 -133q0 -17 -4 -35t-11 -33.5t-15 -24.5q-24 -27 -78.5 -35.5t-102.5 7.5q-30 11 -59.5 40.5t-40.5 61.5
q-12 32 -17 32t-51 -69l-46 -69h-96l-17 25q-17 26 -17 30.5t49 76.5q20 29 33 50.5t11 22.5q-4 2 -34 11q-47 12 -83.5 44t-51.5 72q-10 29 -8.5 67.5t12.5 62.5q22 44 76 64zM173 734.5q0 6.5 -26 6.5t-26 -6.5t26 -6.5t26 6.5zM216 721q-30 18 -30 9q1 -6 22 -18
q44 -28 44 -102q0 -40 -13 -63t-43 -37q-20 -12 -18 -15q9 -4 32.5 9t33.5 27q33 46 24 104.5t-52 85.5zM474 728q0 7 -25 7h-25l-151 -227q-153 -225 -149 -232q5 -5 27 -5q17 0 38.5 28.5t133.5 196.5q151 227 151 232zM77 705q27 23 16 23q-6 0 -18.5 -11.5t-24.5 -28
t-18 -29.5q-13 -30 -6.5 -71t28.5 -64q11 -13 30 -22.5t22 -4.5q5 4 -3 8q-8 2 -31 22q-23 19 -30 55q-16 80 35 123zM180 694q-15 23 -33 22t-34 -25q-9 -16 -12 -31t-3 -50q0 -55 8 -69q10 -18 17 -15q4 1 -3 14t-7 69.5t7 74.5t23 18.5t28 -16.5q10 -15 7 -82
q-2 -72 5 -65q3 3 6 15q4 15 4 66q0 53 -13 74zM154 518.5q0 6.5 -7 6.5t-7 -6.5t7 -6.5t7 6.5zM507 512q-40 12 -77.5 1.5t-62.5 -39.5q-28 -34 -23 -103q2 -20 7.5 -35t16 -27t27.5 -23q23 -16 64.5 -16t69.5 16q30 16 44 51t10.5 70t-23.5 65.5t-53 39.5zM167 492.5
q0 6.5 -20 6.5t-20 -6.5t20 -6.5t20 6.5zM361 617q70 105 82 105q9 0 9 -5q-1 -10 -74 -115q-71 -104 -84 -103q-3 2 -3 7q0 7 70 111zM442 469q12 16 19 16.5t19 -12.5q9 -8 11 -22t2 -57q0 -37 -2.5 -56t-8.5 -27t-18 -8q-20 0 -28 19.5t-8 69.5q0 38 2.5 52t11.5 25z" />
    <glyph glyph-name="ampersand" unicode="&#x26;" horiz-adv-x="1019" 
d="M10 -69.5q0 6.5 500 6.5t500 -6.5t-500 -6.5t-500 6.5z" />
    <glyph glyph-name="parenleft" unicode="(" horiz-adv-x="438" 
d="M123 778q20 22 37 22q11 0 11 -3q-1 -4 -24 -28q-29 -29 -54 -68.5t-37 -73.5q-39 -115 -15 -228.5t106 -201.5q30 -32 40 -38t33 -6q29 0 34 4q4 4 -15 41q-61 122 -61.5 282t61.5 281l18 36l44 2q31 1 42 -2t34 -21q32 -24 32 -29q0 -3 -25 -53q-53 -98 -66 -208
t16 -210q29 -99 71 -162q24 -34 24 -40t-82 -6h-83l-54 39q-131 94 -180 241q-12 37 -15.5 60t-4.5 67q0 89 27 162t86 141zM163 765q20 22 30 28.5t23 6.5h21l-25 -50q-46 -93 -56 -211l-5 -55l-19 -1q-19 0 -20.5 -8.5t15.5 -28.5q13 -14 15 -22t-2 -29q-6 -28 -2 -64
q4 -34 -3 -34q-6 0 -38 62l-31 63l15 26q13 22 10.5 30.5t-20.5 6.5q-13 -2 -15 3t-1 36q3 59 31.5 122.5t76.5 118.5zM137 599q-4 51 -9 51t-24.5 -33.5t-23.5 -49.5q-3 -8 2.5 -24.5t14 -29.5t12.5 -10q6 4 6 11t13 21q8 8 9.5 19.5t-0.5 44.5z" />
    <glyph glyph-name="parenright" unicode=")" horiz-adv-x="408" 
d="M23 797q0 4 14 2q25 -4 57 -97.5t38 -179.5q5 -80 -12.5 -168.5t-51.5 -156.5q-19 -38 -19 -41t36 -3q18 0 26 2t16 8.5t25 24.5q104 109 119 249q10 91 -17 176t-86 149l-35 38h31q64 0 125.5 -67.5t94.5 -174.5q9 -31 12 -56t3 -78q0 -67 -9.5 -110t-36.5 -95
q-16 -31 -47 -72.5t-53 -58.5q-12 -10 -20 -13.5t-20 -5t-42 -1.5h-57l-52 37q-52 36 -52 39t16 27q45 68 67.5 183.5t8.5 210.5q-7 47 -26 107t-37 93q-16 29 -16 32zM75 797q0 3 19 3t53 -37q29 -31 51 -70t36.5 -82t19.5 -87l5 -38h-20q-20 0 -22.5 -8t9.5 -28l15 -24
l-36 -71q-34 -71 -38 -71q-3 0 -3 75q1 53 4 67t15 28q14 17 12 24.5t-21 7.5q-14 0 -16.5 7t-5.5 48q-9 111 -54 206q-23 48 -23 50zM209 603q-25 47 -29 47q-5 0 -9 -47q-2 -31 0 -42.5t14 -29.5q16 -25 20 -23q4 4 17 26l12 23z" />
    <glyph glyph-name="asterisk" unicode="*" horiz-adv-x="564" 
d="M55 784q46 30 80 3q27 -21 25 -5q0 2 -1 5q-3 13 10 13q12 0 22 -23q6 -13 8 -24.5t0.5 -18t-7 -6.5t-24.5 11.5t-35.5 25t-16.5 16.5q0 5 -8 5.5t-19 -3t-20 -10.5q-16 -11 -28 -31t-8 -30q4 -8 53 -16q66 -11 68 -18q2 -5 -21 -12q-21 -5 -73 -15q-26 -5 -27.5 -16.5
t20.5 -36.5q26 -28 39 -30t38 18q15 13 31 23t27.5 15t13.5 2q4 -3 -1.5 -22t-16.5 -39q-12 -23 -1 -29.5t60 -6.5q65 0 66 15q0 6 -7 16q-9 15 -16 37t-3 27q2 4 13 0t27 -14t33 -24q21 -17 26.5 -18.5t19.5 7.5q20 13 33 30.5t14 31.5q0 13 -6.5 15.5t-40.5 5.5
q-76 6 -70 17q2 6 24 13q19 5 59 11q15 2 21.5 4t9.5 5t3 8q0 9 -7 21.5t-18 23.5t-22 17q-14 7 -20 6t-24 -15t-34.5 -25t-27.5 -15.5t-13 -1.5q-3 5 2 24.5t13 34.5q5 10 15 12t46 2h54l42 -32q20 -15 37.5 -31.5t30 -32t20.5 -30t8.5 -24t-5.5 -14.5q-9 -6 -17 -6
q-19 0 9 -23l17 -13l-11 -28q-9 -21 -38 -50.5t-42 -29.5q-9 0 -39 17q-29 18 -32 14q-2 -2 2 -13t9.5 -23t5.5 -13q0 -13 -70 -15t-112 10q-44 12 -115 59t-89 77q-13 21 -13 39.5t13 22.5q13 3 13 8q0 7 -13 10q-10 4 -12.5 10t-0.5 26q3 41 44 69zM210 780l-10 20h78
l-9 -27q-5 -15 -7.5 -32t-1.5 -28t6 -11t23.5 8.5t40 21t33.5 20.5q20 16 34 12q11 -4 22.5 -19.5t7.5 -21.5t-45 -15q-22 -4 -43 -10t-34 -12t-13 -10t15.5 -10.5t39 -12.5t42.5 -8q32 -3 37 -12.5t-14 -29.5q-17 -17 -24 -17.5t-26 15.5q-20 18 -58 36q-25 13 -32.5 14.5
t-9.5 -5.5q-2 -5 -2 -15.5t2 -22t5.5 -23.5t8.5 -20q9 -17 5 -23q-5 -3 -43 -3q-28 0 -33 2t-1 13q27 85 18 93q-7 7 -42 -11q-38 -18 -62 -36q-21 -15 -28.5 -14.5t-22.5 19t-12 25t27 10.5q20 3 47 10.5t46 15t19 10.5q0 13 -85 31q-48 10 -55 15q-4 5 18 30l23 25l19 -17
q13 -13 54.5 -35.5t52.5 -22.5q5 2 5 14.5t-4.5 32t-11.5 31.5z" />
    <glyph glyph-name="plus" unicode="+" horiz-adv-x="646" 
d="M271 740q3 8 57 6l55 -2q3 -91 6 -183l248 -6v-72q-124 -3 -248 -7l-4 -192h-116l-4 192q-128 4 -255 7v72l255 6l2 85q1 86 4 94z" />
    <glyph glyph-name="comma" unicode="," horiz-adv-x="350" 
d="M72.5 431.5q24.5 8.5 64.5 4.5t72 -18q67 -30 106 -96t21 -119q-9 -27 -42.5 -54.5t-71.5 -40.5q-51 -16 -71.5 -12t-71.5 41l-58 44l2 33q2 23 5 28.5t19 9.5q21 6 21 10t-27 26q-43 38 -26 89q7 21 20 33.5t37.5 21zM177 407q-14 6 -43 9.5t-44 0.5q-19 -4 -35 -25
t-16 -40q0 -26 18 -40.5t51 -14.5q32 0 32 -10q0 -12 -19 -27.5t-42 -23.5q-13 -4 -18.5 -7.5t-7.5 -8t-2 -12.5q0 -13 3.5 -16t16.5 -1q14 1 36 10t43 20.5t31 21.5q17 16 30 43t13 47q0 19 -14.5 42t-32.5 32z" />
    <glyph glyph-name="hyphen" unicode="-" horiz-adv-x="405" 
d="M15 514q3 5 162 5h157q31 -32 62 -63l-4 -88q-166 1 -333 1l-24 24q-18 17 -21.5 27t-3.5 43q0 48 5 51zM314 431v72l-136 2h-17q-96 1 -111.5 -4t-12.5 -36v-6l2 -28h275zM58 484q3 6 25 7t92 1l113 -2v-46h-229l-2 15q-2 15 1 25z" />
    <glyph glyph-name="period" unicode="." horiz-adv-x="339" 
d="M91 474q22 5 34 4.5t43 -8.5q62 -16 111 -66q19 -21 34.5 -51t16.5 -48q0 -45 -49.5 -66.5t-111.5 -3.5q-69 20 -115 66q-53 55 -42 105.5t79 67.5zM148 454q-23 6 -34 5.5t-29 -8.5q-38 -16 -45 -47t20 -56q10 -8 17 -12t16.5 -5.5t27.5 -1.5q28 0 37.5 3.5t24.5 19.5
q22 22 22 38q0 18 -18 38t-39 26z" />
    <glyph glyph-name="slash" unicode="/" horiz-adv-x="346" 
d="M207 766q8 8 51 8q32 0 41 -3t21 -19q17 -23 17 -31t-95.5 -237.5t-102.5 -237.5q-6 -8 -44 -8q-27 0 -36 3.5t-25 22.5q-24 26 -24 37q0 5 47 118.5t96 226.5t54 120zM239 755q0 11 -13 4q-9 -4 -13 -13q-25 -65 -161 -381q-22 -51 -22 -56.5t26 -5.5q25 0 33 15
q10 17 93 218.5t84 210.5q1 4 -2 7.5t-8 4.5q-7 2 -9 0t1 -9q4 -12 -38 -114q-25 -61 -36 -81.5t-20 -21.5q-13 -2 -13 3t22 57t44.5 102t25.5 51q6 3 6 9z" />
    <glyph glyph-name="zero" unicode="0" horiz-adv-x="807" 
d="M115 779q24 21 42 21q9 0 9 -2q0 -4 -22 -22q-51 -43 -79 -109t-28 -145q0 -54 8.5 -97t26 -78.5t45.5 -64.5q53 -56 132.5 -77t175.5 -4q114 21 175.5 103t61.5 215q0 151 -95 243l-38 38h43q31 0 43 -4t36 -22q72 -54 109.5 -136.5t37.5 -183.5q-1 -100 -23.5 -164
t-74.5 -112q-49 -47 -109.5 -66.5t-149.5 -19.5q-68 1 -119.5 14.5t-109.5 45.5q-65 36 -117 104t-73 146q-13 46 -12 116t15 115q12 41 37.5 82.5t52.5 63.5zM181 781q21 13 34.5 16t54.5 2q47 0 47 -2q1 -1 -11 -5q-26 -7 -48 -32.5t-29 -58.5q-8 -31 -10 -100l-2 -66h-22
q-39 -1 -44 -7.5t16 -29.5l18 -18l-11 -38q-11 -37 -11 -72q0 -34 -6 -34q-2 0 -12.5 20t-23.5 49t-21 51q-7 19 -5.5 25.5t17.5 21.5q11 12 13.5 16t1 6.5t-9.5 6.5q-14 8 -32 3q-19 -4 -22.5 5.5t2.5 44.5q25 138 116 196zM182 618q-7 14 -12 60l-4 47l-24 -33
q-23 -30 -35 -60q-8 -20 -7.5 -26.5t12.5 -19.5q17 -22 22 -30q4 -8 9.5 -4.5t21.5 22.5t19 27t-2 17zM389 793l-13 4q2 2 49 2q43 1 57 -2t35 -16q49 -31 80.5 -90.5t37.5 -132.5q2 -10 0.5 -15t-4.5 -6t-12 0q-20 1 -36 -6l-17 -6q21 -22 42 -43l-13 -36
q-44 -110 -53 -110q-6 0 -6 31t-11 72l-10 41l17 20q17 21 17 26q0 6 -32 6h-32l-4 74q-3 71 -13 106q-10 30 -31.5 52t-47.5 29zM561 688q-18 27 -25 27t-7 -34q-1 -35 -9 -54q-6 -14 -4 -21t18 -28q21 -28 21 -34q0 -5 6.5 -5t6.5 9q0 8 17 33q13 19 13.5 25.5t-7.5 27.5
q-12 31 -30 54zM300 769q46 23 96 2q26 -11 38.5 -45.5t18.5 -113.5q6 -85 0 -175t-21 -123q-14 -31 -35.5 -44t-56.5 -11q-22 2 -32 6.5t-21 16.5q-24 26 -32.5 68t-10.5 143q-4 136 8.5 197t47.5 79zM427 604q-3 42 -6.5 55.5t-10.5 15.5q-6 1 -10 -1t-7.5 -8.5
t-5.5 -17.5t-3.5 -30t-2 -43t-1.5 -59q-3 -198 16 -204q4 -2 8.5 3t7.5 12q4 12 8 46.5t6.5 76t3 84t-2.5 70.5z" />
    <glyph glyph-name="one" unicode="1" horiz-adv-x="582" 
d="M139 795q2 3 15.5 4t26 0.5t12.5 -3.5q0 -7 -33 -16t-68 -12l-53 -4v-59q66 -3 131 -6v-204v-22q0 -152 -6 -178.5t-44 -34.5q-4 0 -5 -1q-19 -3 -25 -7.5t-9 -18.5q-3 -21 1 -27q4 -8 177 -6l173 2v26q0 20 -4 24t-27 7q-33 7 -40 15q-15 16 -17 115q0 29 -1 156l-2 252
l45 2q32 1 41.5 -1.5t24.5 -17.5l22 -22v-472q49 -44 99 -89q-2 -51 -4 -100l-210 -2l-210 -1l-45 40q-22 19 -30.5 28.5t-12.5 18.5t-7 23q-3 33 0 51q2 14 7.5 18t28.5 6q43 5 50 27t6 140l-2 134l-15 2q-15 3 -67 50l-52 47l1 52l2 53l61 4q59 3 65 7zM207 783
q14 10 25.5 13t38.5 2l43 -1l2 -46q2 -50 -2 -132l-5 -87h-17q-21 0 -22.5 -6.5t14.5 -22.5l19 -20l-15 -44q-16 -43 -20 -76q-5 -34 -10 -34q-4 0 -11 42q-9 44 -23 75l-13 34l17 18q17 18 16 25.5t-20 9.5l-21 2q-3 89 -7 177l-65 3q-48 2 -56.5 5t-8.5 13q0 8 2 11
t8.5 4.5t23.5 2.5q68 5 107 32zM265 691q0 12 -5 11q-8 -1 -15 -27q-9 -32 -20 -50l-12 -22l14 -19q13 -15 24 -30q8 -12 11 -4q4 8 19 30l15 23l-15 38q-16 39 -16 50z" />
    <glyph glyph-name="two" unicode="2" horiz-adv-x="743" 
d="M64 779q23 21 42.5 21t19.5 -2.5t-27 -20.5q-58 -41 -58 -114q0 -37 10.5 -61.5t32 -38t55.5 -16.5q49 -4 80 20t22 58q-7 29 -62 40q-35 7 -39 25t25 45q29 28 70.5 36t77.5 -1.5t62 -36.5t26 -62q0 -51 -38 -92.5t-133 -96.5q-76 -43 -109.5 -73t-53.5 -70
q-10 -18 -14 -31t-6 -26t-2 -36l-1 -51l38 -2q27 -1 35.5 2t24.5 21q17 17 25 20t36 0q38 -4 100 -25q86 -30 160.5 -20t107.5 55q16 22 24.5 57.5t6.5 69.5l-2 32h-85l-3 -31q-6 -44 -31 -53.5t-93 8.5q-108 29 -185 -2q-37 -16 -41 -11q-3 5 12 19.5t39 31t45 26.5
q24 12 103 41.5t102 40.5q55 29 88 72.5t37 94.5q5 46 -10.5 78.5t-54.5 60.5l-26 19h38q17 0 33 -4t32 -13t31.5 -22.5t33.5 -33.5q60 -67 62 -136.5t-56 -129.5q-35 -36 -35 -39q0 -2 49 -48l49 -46v-59q0 -55 -11 -83.5t-41 -54.5q-31 -26 -66.5 -36.5t-92.5 -9.5
q-39 0 -65 5t-76 20q-69 22 -95.5 21t-44.5 -24q-10 -14 -20 -16.5t-53 -2.5h-59q-47 43 -95 86v50q0 68 24 118t75 91q38 29 38 33q0 3 -27 20q-26 16 -62 55q-53 57 -53 124t54 114zM358 643q-11 13 -26 13t-30 -13l-16 -13l23 -20q20 -16 27.5 -16t20.5 18q10 13 10 17
t-9 14zM154 790q20 9 157 10q63 0 90 -0.5t52 -6.5t36 -13.5t33 -26.5q18 -16 27 -30t12 -30.5t2 -42.5q-4 -53 -29 -90.5t-52 -31.5q-16 5 -40 0q-15 -3 -21.5 -9t-14.5 -24t-15 -24t-25 -11q-84 -21 -129.5 -41t-79.5 -50q-30 -27 -30 -20q2 8 32 41q25 28 55 51
t59.5 38.5t54.5 19.5q43 8 58 14q18 7 10 14q-7 6 -25 3q-20 -3 -21.5 1.5t15.5 16.5q15 10 36 45q18 32 20 72.5t-15 66.5q-14 25 -49 40t-77 16q-122 2 -157 -69q-13 -28 -3.5 -43.5t45.5 -24.5q25 -6 42 -18t17 -24q0 -6 -19 -25q-12 -13 -22 -16t-36 -3q-24 0 -34.5 3
t-21.5 12q-20 19 -26.5 53.5t2.5 69.5q6 20 34 48t53 39zM505 668q-18 39 -23 39q-3 0 -3 -13q0 -10 -2.5 -21.5t-6 -22.5t-9 -21.5t-11.5 -17.5q-17 -18 -17 -46q0 -26 4 -26q5 0 28 12.5t39 24.5q20 15 20 33t-19 59z" />
    <glyph glyph-name="three" unicode="3" horiz-adv-x="764" 
d="M73 780q15 12 25.5 16t28.5 4l30 -1l-21 -8q-20 -9 -47.5 -34.5t-37.5 -42.5q-10 -21 -10 -59.5t12 -57.5q15 -27 34.5 -37.5t54.5 -10.5q86 1 100 56q4 18 -12.5 35t-46.5 25t-38 19t2 30q17 31 74.5 45.5t107.5 1.5q48 -13 70 -55.5t9 -88.5t-56 -69q-29 -15 -41 -18
q-9 -2 -11.5 -8t-2.5 -22q0 -22 7 -26t46 -11q26 -4 46.5 -29.5t24.5 -56t-9 -59.5q-11 -22 -28 -35t-42 -19t-61 -6q-78 0 -108 35q-6 8 -4.5 12.5t14.5 14.5q33 27 44 40.5t11 26.5q0 29 -25 44.5t-71 15.5q-50 0 -79.5 -32.5t-25.5 -78.5t41 -82q17 -17 39.5 -29t53 -21
t72.5 -16q81 -12 150 -4.5t122 34.5t79 69q13 20 16.5 34t3.5 40q0 27 -3.5 41.5t-14.5 32.5q-28 48 -79 72q-17 8 -17 12q0 5 25 18q50 28 70 77.5t0 95.5q-8 18 -33 43t-46 36l-20 10l37 1q38 0 67 -17q37 -21 71 -55t50 -67q26 -51 18 -92.5t-53 -80.5q-29 -26 -29 -29
q0 -2 38 -42q32 -32 46 -64.5t14 -74.5q-1 -64 -54 -113t-144 -72t-197 -13q-188 18 -288 127q-45 47 -58 100.5t8 94.5t71 56q34 10 34 13q0 4 -41 41q-39 37 -54.5 67.5t-16.5 74.5q-1 29 2 42.5t14 32.5q17 29 42 51zM370 656q-32 17 -60 -6l-16 -13l26 -26
q22 -23 31.5 -25.5t20.5 13.5q10 15 9.5 33t-11.5 24zM345 406q-30 28 -49 28q-8 0 -13 -2t-4 -5q3 -10 48.5 -60.5t51.5 -50.5q10 0 12 16t-7 29q-8 14 -39 45zM148 776l46 24h251l46 -22q55 -27 76.5 -61.5t10.5 -81.5q-5 -19 -18 -39t-31.5 -35.5t-37.5 -22.5
q-24 -8 -26 -20q-1 -5 -4 -7.5t-7.5 -2t-8 1.5t-10 3t-10.5 3q-13 2 -14 1l6 -8q11 -10 20 -10q16 0 50.5 -15.5t38.5 -24.5q8 -14 4.5 -51t-14.5 -64q-17 -42 -22 -19q-1 6 -1 16q0 23 -12.5 50.5t-26.5 37.5t-25 32q-10 20 -39 36t-48 13q-20 -4 -18 2q4 8 30 20
q32 13 43 25q17 15 28 42.5t11 54.5q-1 60 -42.5 94t-114.5 34q-98 1 -141 -48q-24 -25 -24 -38q0 -11 17 -25.5t30 -14.5q6 0 13 -2t13.5 -5.5t12.5 -7.5t10 -8.5t5 -8.5q8 -26 -12.5 -42.5t-59.5 -16.5q-13 0 -21 1.5t-14.5 6t-16.5 13.5q-12 13 -17.5 24.5t-8.5 33.5
q-6 46 13.5 76.5t69.5 55.5zM516 655q-10 34 -18 34q-5 -1 -5 -16q0 -18 -9.5 -39t-22.5 -33q-14 -13 -14 -20q0 -9 -16 -32q-15 -22 -7 -22q9 -1 55 25q33 18 40 25.5t7 22.5q0 21 -10 55z" />
    <glyph glyph-name="four" unicode="4" horiz-adv-x="811" 
d="M165 629q91 101 126 136t44 35q10 0 10 -3q0 -8 -105 -124q-6 -7 -54 -59l-147 -162v-74q164 -3 327 -6l2 -33q2 -31 -10 -55q-7 -14 -15 -19.5t-29 -10.5q-25 -5 -29 -9t-4 -23v-27h347v51l-36 9q-30 7 -41 18t-15 40q-7 43 1.5 51t60.5 11l62 3v72q-62 4 -124 7l-2 172
l-1 171h44q31 0 41 -3.5t27 -20.5l25 -24v-278l132 -114l-4 -86l-62 -3q-62 -4 -64 -11q-2 -6 41 -44l43 -38q-2 -45 -4 -87l-202 -2l-201 -1q-49 42 -97 85q-1 47 -3 94l-142 4q-49 43 -97 87v101zM268 668l122 132h123l-1 -135l-2 -136l-16 -2q-26 -3 -28.5 -8t13.5 -22
l21 -21l-16 -41q-16 -39 -21 -70q-3 -28 -10 -28q-5 1 -8 17q-3 15 -21 70l-16 51l16 17q17 18 16.5 25.5t-20.5 9.5l-21 2l-2 79q-1 32 -2.5 50t-5 29.5t-9 13t-13.5 -0.5q-10 -4 -86 -88q-32 -34 -45 -47.5t-25.5 -23.5t-18 -11t-17.5 -1q-28 -1 -28 3t121 136zM464 675
q-7 32 -17 8l-5 -15q-7 -24 -21 -50l-13 -23l16 -17q16 -17 19 -28q5 -12 13 -11q5 1 5 7q0 7 17 30l16 22l-13 27q-12 27 -17 50zM268 568q92 101 97 101q4 0 3 -106l-2 -106l-97 -2q-98 -2 -94 4q1 6 93 109z" />
    <glyph glyph-name="five" unicode="5" horiz-adv-x="757" 
d="M68 792q0 8 13 8t13 -19.5t-10 -132.5q-11 -115 -7 -126q4 -10 42 -10q23 0 35 3.5t25 13.5q40 29 107 29q66 0 97 -38q20 -23 26.5 -50t3.5 -75q-2 -52 -15 -77t-45 -41q-25 -12 -65 -14t-64 8q-12 4 -24 12t-19.5 16.5t-7.5 13.5q0 8 29 31q26 22 32 39t-6 35
q-24 37 -85.5 35.5t-89.5 -39.5q-12 -17 -15.5 -47t4.5 -54q30 -91 193 -118q134 -22 231 16.5t136 127.5q13 31 12 85t-16 86q-14 34 -46 63.5t-69 43.5q-53 20 -129.5 19t-153.5 -23l-16 -5l4 57q3 56 7 62q4 5 185 6l182 1q6 34 11 66h44q32 0 41 -3.5t27 -21.5l26 -27
l-12 -120l-83 1q-84 2 -84 -4q0 -5 48 -28q32 -15 64 -41t56.5 -55.5t33.5 -55.5q14 -38 14 -86t-14 -86q-21 -56 -85 -105.5t-143 -70.5q-47 -13 -114.5 -12t-116.5 15q-112 31 -185 97.5t-79 142.5q-6 67 36 105l24 22q-15 15 -29 30l13 143q13 142 13 152zM377 423
q-14 13 -36.5 15t-41.5 -8q-22 -11 -22 -15t47 -46q39 -35 49.5 -34t13.5 41q1 14 0.5 23t-3 14t-7.5 10zM111 673l12 127h423q-2 -24 -4 -49q-186 -3 -372 -7l-8 -81q-9 -82 -6 -84q3 -3 38 11q56 23 117 30t111 -4q22 -4 48 -15.5t47 -24.5t28 -24q12 -16 8.5 -21.5
t-25.5 -5.5t-22 -4.5t30 -22.5q12 -7 20.5 -15t8.5 -12q0 -21 -31.5 -88t-41.5 -67q-5 0 -5 42q-2 41 -11 66q-13 34 -13.5 43.5t10.5 22.5q21 27 9 62t-46 45q-14 4 -43 6t-52.5 0.5t-23.5 -4.5q0 -2 2.5 -3.5t13 -5t27 -8l49.5 -13.5q30 -7 50.5 -18t20.5 -19
q0 -6 -17.5 -7t-37 2.5t-24.5 9.5q-31 37 -122 37q-24 0 -38 -2t-26.5 -6t-31.5 -14q-67 -33 -79 -13q-5 6 7 134z" />
    <glyph glyph-name="six" unicode="6" horiz-adv-x="770" 
d="M184 779q24 12 39.5 16t41.5 4h42l-34 -9q-82 -22 -138.5 -79t-82.5 -143q-13 -42 -13 -115t13 -111q65 -189 285 -189q137 0 212.5 53t76.5 149q1 112 -110 161q-19 9 -43.5 15t-39.5 6.5t-18 -3.5q0 -6 32 -11q30 -3 44 -14q7 -5 8 -6.5t-1.5 -2t-11.5 -1.5
q-18 0 -18 -5q3 -7 24 -16q25 -10 53 -27q21 -14 24 -20t0 -28q-3 -29 -28 -80l-24 -49l-4 50q-1 23 -3.5 35t-7 20.5t-13.5 20.5q-21 26 -18 38q7 26 -24.5 48.5t-62.5 13.5q-17 -5 -64 -1l-45 4l24 11q26 11 38 11q13 0 13 7q0 15 -45 0q-28 -9 -49 -23q-24 -16 -28 -16
q-4 4 -2.5 26.5t7 55.5t12.5 50q12 32 38 61t52 40q24 10 70.5 10t71.5 -11q28 -11 21.5 -30t-38.5 -19q-17 0 -37.5 -14t-24.5 -28q-7 -28 19 -46t73 -19q107 -1 113 100q2 36 -11 57q-28 45 -98 64l-36 9h42q25 1 42.5 -3.5t51.5 -20.5q83 -40 120 -94.5t25 -119.5
q-4 -19 -34 -53.5t-43 -34.5q-9 0 -18 -6q-2 -2 -2.5 -5t4 -8.5t12 -13t21.5 -20.5q43 -39 60.5 -73t20.5 -84q2 -32 0 -46.5t-11 -33.5q-31 -64 -125 -101t-212 -32q-61 3 -103.5 13t-86.5 32q-101 49 -156.5 142t-55.5 213q0 116 45 201t129 128zM402 538.5
q0 6.5 -16.5 6.5t-16.5 -6.5t16.5 -6.5t16.5 6.5zM305 780q70 13 148.5 0t104.5 -41q15 -16 21 -44t0 -49q-13 -39 -53 -54.5t-78 3.5q-31 17 -22.5 38t49.5 30q37 9 47.5 26.5t-10.5 36.5q-29 26 -95.5 28.5t-107.5 -21.5q-45 -27 -74 -78.5t-33 -112.5l-4 -49h-29
q-12 0 -18 -1t-8 -3.5t-2 -8.5q0 -12 19 -36q15 -16 16.5 -23t-3.5 -29q-7 -29 -5 -72q3 -43 -1 -43q-7 0 -43 61.5t-36 74.5q0 8 17 40q15 31 12 36q-6 4 -27 4q-15 0 -18 3t-3 18q0 23 20 77.5t36 76.5q70 92 180 112zM183 655q8 26 -12 5l-33 -43l-38 -53l12 -32
q11 -31 18 -31q4 0 11 13q7 14 22 30q13 15 14 55q0 39 6 56zM307 462q52 13 91.5 -8.5t50.5 -69.5q9 -40 -0.5 -74.5t-32 -53t-55 -24t-69.5 11.5q-52 24 -53 103q0 45 18.5 76t49.5 39zM412 324q0 24 -2.5 29.5t-14.5 7.5q-18 2 -25.5 -9.5t-5.5 -39.5q3 -40 21 -42
q14 -2 22 22q5 15 5 32z" />
    <glyph glyph-name="seven" unicode="7" horiz-adv-x="836" 
d="M10 677q0 114 6 121q2 2 7 2q8 0 10 -10q3 -14 4 -102l2 -113h125l4 35q5 31 19.5 59t33.5 42q43 32 169 4q62 -13 76 -17q10 -2 -36 -56q-190 -229 -193 -394l-2 -53h196l2 55q2 61 18 115t50.5 112.5t95.5 136.5q80 100 91 157l6 26l37 2q26 1 36 -2.5t31 -20.5
q29 -23 29 -39q0 -21 -18 -59t-47 -77q-113 -152 -149 -236t-45 -211l-4 -66h-135h-135l-90 85l4 67q4 79 32.5 154t87.5 164q28 42 24 47q-4 8 -23.5 5t-28.5 -14q-8 -8 -14.5 -23t-10.5 -32.5t-4 -32.5v-22h-53q-50 0 -87 -4q-24 -2 -34 2.5t-43 32.5l-44 37v123zM66 594
l-4 206h23q23 0 39 -10q10 -7 20 -7t42 7q49 10 163.5 10t144.5 -10q26 -9 57.5 -9t49.5 9q18 10 44 10q20 0 22.5 -2.5t-0.5 -18.5q-6 -26 -18 -51.5t-35.5 -59t-67.5 -89.5q-32 -40 -41 -47t-32 -7q-28 0 -33.5 -5.5t5.5 -27.5l11 -21l-36 -36q-36 -37 -60 -74
q-36 -58 -34 -27q0 3 1 7q4 30 7 62q3 47 11.5 63t37.5 31q32 20 32 24t-23 4t-23 4q0 10 77 100q23 26 34.5 40.5t17.5 24t6 13t-5 5.5q-21 7 -100 18t-108 11q-59 0 -90.5 -23t-49.5 -79l-15 -45h-70zM544 637q15 41 14 47q-1 1 -6.5 -2.5t-14 -10.5t-18.5 -17
q-29 -28 -57 -50q-21 -16 -27 -43q-6 -25 -3 -28q2 -3 50 29q33 23 42.5 34t19.5 41zM535 795q-7 3 3 3q3 1 8 1q15 0 14 -2q0 -1 -2 -2q-12 -2 -23 0z" />
    <glyph glyph-name="eight" unicode="8" horiz-adv-x="820" 
d="M54 729q10 17 24.5 32.5t35 26.5t40.5 11l26 1l-29 -17q-56 -32 -77 -71q-11 -20 -10 -54.5t13 -58.5q7 -12 24 -31t34 -34t23 -15q13 0 3 -13q-7 -7 -16 -12q-25 -11 -55 -40.5t-41 -55.5q-14 -29 -15 -48t9 -47q20 -58 85.5 -87t185.5 -34q137 -6 228 25t119 92
q12 27 12 62t-13 59q-11 24 -45 54.5t-56 37.5q-23 8 -23 13q0 6 33 29q68 48 68 115q0 71 -70 111l-34 20h35q66 0 143 -68q60 -54 60 -124q0 -65 -43 -110l-25 -24l44 -40q37 -34 50.5 -63.5t13.5 -79.5q0 -28 -5.5 -48.5t-17 -38.5t-31.5 -36q-27 -24 -53.5 -38.5
t-69.5 -27.5q-87 -26 -184 -27t-180 20t-149 63.5t-93 97.5q-11 24 -14.5 40.5t-3.5 45.5q0 32 3.5 46.5t14.5 33.5q18 31 41 49q17 13 38 29q10 8 8 12.5t-22 22.5q-43 38 -54 94t15 100zM194 784q27 11 51.5 13.5t108.5 2.5q108 0 149.5 -10t76.5 -45q46 -46 31.5 -100
t-86.5 -102l-44 -29l-61 3q-60 4 -60 -3q0 -6 92 -20q93 -14 107 -23q29 -20 29 -112q0 -53 -8 -49q-3 2 -7 19q-4 21 -31 49.5t-56 42.5q-33 16 -56 37q-24 19 -80 44q-37 16 -51 19t-35 -1q-12 -3 -26.5 -7t-19.5 -4.5t-15 3t-26 13.5q-60 39 -80.5 85.5t1.5 95.5
q21 47 96 78zM445 765q-26 13 -78 14t-86 -11q-65 -24 -65 -73q0 -51 89 -95l48 -24l45 17q46 19 75 44q20 18 25 27t5 28q0 22 -13.5 39t-44.5 34zM172 681q-3 27 -9 27q-5 0 -15 -31t-14 -58q-3 -20 -0.5 -25.5t17.5 -15.5q24 -14 70.5 -30.5t57.5 -14.5q10 2 -2 11l-11 7
q-25 16 -36 39q-11 25 -32 43q-22 20 -26 48zM304 758q32 9 53 9q16 0 38 -5.5t41.5 -14.5t29.5 -19q27 -27 14 -52.5t-69 -55.5q-33 -17 -43.5 -19.5t-26.5 2.5q-40 12 -73 41.5t-33 53.5q0 15 22 34t47 26zM422 673q-11 8 -15.5 8t-26.5 -7q-22 -8 -29.5 -19t3.5 -22
q20 -20 62 14q14 11 14.5 14.5t-8.5 11.5zM228 441q25 13 52.5 11.5t78.5 -18.5q80 -26 110.5 -49t24.5 -52q-6 -28 -30 -44t-74 -26q-59 -10 -123.5 7t-83.5 49q-21 33 -8 66.5t53 55.5zM445 359q-13 11 -41 14q-50 4 -73 -26q-20 -26 5 -46q8 -7 21 -11q45 -15 81 12
q31 23 14 49q-3 4 -7 8z" />
    <glyph glyph-name="nine" unicode="9" horiz-adv-x="786" 
d="M55 779q18 21 38 21h20l-29 -31q-19 -20 -29 -38t-14.5 -39.5t-3.5 -51.5q0 -65 36.5 -107t112.5 -66q56 -17 118.5 -11.5t104.5 31.5q21 12 25 8q5 -6 3.5 -52.5t-8.5 -73.5q-17 -62 -53 -88t-101 -22q-25 1 -46 6.5t-34 13t-16 16.5q-4 7 24 37q24 26 25 44t-20 34
q-19 14 -57.5 17t-55.5 -9q-28 -18 -38.5 -54.5t5.5 -65.5q14 -28 53 -54t88 -39q33 -10 108 -8.5t111 11.5q97 28 150.5 91.5t68.5 165.5q8 59 -3.5 122t-37.5 108q-13 22 -40.5 51.5t-46.5 41.5l-19 12h46q24 0 35 -2t20.5 -6.5t29.5 -19.5q83 -61 119.5 -140.5
t31.5 -187.5q-11 -228 -191 -313q-46 -23 -85 -31t-98 -8q-101 0 -188 32.5t-137.5 89t-50.5 122.5q0 44 21 71t67 42q5 4 -31 37q-37 34 -55 68q-12 22 -15 38t-3 51q0 46 10 76t35 60zM391 359q-3 2 -26 4t-42 2t-22 -2q0 -8 29.5 -34t35.5 -22.5t17 26.5t8 26zM123 778
l29 22h308l31 -20q56 -36 88 -98q14 -28 25 -66.5t11 -61.5v-22h-35q-35 0 -39 -4q-4 -3 17 -36l19 -33l-11 -24q-12 -25 -38.5 -65.5t-30.5 -40.5q-6 0 -2 36q3 34 -4 64q-6 21 -4.5 28.5t13.5 25.5q20 30 16.5 39.5t-35.5 9.5q-35 0 -50 -12q-44 -34 -110 -47
q-52 -11 -113 5.5t-103 50.5q-34 29 -43.5 77t7 96t54.5 76zM386 775q-13 8 -22 11.5t-20 5t-29 1.5q-79 0 -112 -58q-7 -13 -10.5 -23.5t-5 -24t-1.5 -37.5q0 -35 5.5 -56.5t18 -36t35.5 -24.5q28 -14 69 -14t69 14q33 15 45.5 40.5t12.5 76.5q0 35 -5 57.5t-16.5 38
t-33.5 29.5zM545 654q-23 38 -35 51q-10 10 -11 4q-1 -5 0 -34q1 -44 -8 -60q-6 -12 -5.5 -17t9.5 -16q14 -15 21 -28q8 -16 15 -14t21 25q17 25 15.5 39.5t-22.5 49.5zM262 766q22 14 52 14q28 0 50 -12t36 -35t18 -55q9 -62 -14 -99t-73 -44q-23 -3 -35.5 -1t-31.5 12
q-23 11 -34.5 25t-15.5 34.5t-3 55.5q2 45 11.5 65t39.5 40zM355 565q12 0 23 23t9.5 47t-21.5 26q-19 2 -29 -11.5t-10 -39.5q0 -45 28 -45z" />
    <glyph glyph-name="colon" unicode=":" horiz-adv-x="323" 
d="M91 720q53 10 108.5 -14.5t87.5 -69.5t26.5 -88t-47.5 -62q-55 -25 -124 3q-112 46 -130 128q-8 37 14 66t65 37zM171 692q-33 16 -64 12t-51 -29q-22 -26 -13.5 -53t42.5 -40q36 -12 66.5 -4t46 33t1.5 52q-9 19 -28 29zM31 408q33 37 86 37t102 -29.5t75 -75.5
q23 -40 19 -74.5t-30 -52t-66 -20t-90 21.5q-72 32 -102 93t6 100zM159 418q-29 13 -58 5.5t-48 -31.5q-27 -34 3 -68q18 -22 44 -28.5t53 4.5q52 20 52 59q0 40 -46 59z" />
    <glyph glyph-name="semicolon" unicode=";" horiz-adv-x="357" 
d="M90 688q48 8 102 -14t89.5 -63t35.5 -84q0 -38 -37.5 -63.5t-87.5 -21.5q-19 2 -40.5 9t-41.5 18t-37.5 25t-31.5 30t-21 32q-9 17 -10 45t6 42q8 15 29.5 28t44.5 17zM174 654q-18 12 -40 14.5t-40.5 -3.5t-33.5 -17.5t-19 -28t3 -33.5q21 -43 71 -45t80 38q13 18 7 39
t-28 36zM20 352q29 61 121 52q56 -5 107.5 -41.5t79 -88t18.5 -99.5q-4 -25 -25 -48t-54.5 -40t-75.5 -26l-37 -7l-132 94l2 33q2 24 5 29.5t19 9.5q21 6 21 9q0 4 -27 28q-47 42 -22 95zM156 382q-33 7 -55.5 2.5t-42.5 -23.5q-16 -14 -16 -42q0 -55 66 -55q31 0 34 -4
q5 -5 -2.5 -15.5t-22.5 -21.5t-31 -16q-19 -8 -27 -14t-9 -14q-3 -19 7.5 -21.5t44.5 8.5q37 11 66.5 34.5t44.5 52.5q21 41 4 80t-61 49z" />
    <glyph glyph-name="less" unicode="&#x3c;" horiz-adv-x="621" 
d="M309 636q284 98 289 98q6 0 11 -30.5t1 -42.5q-2 -4 -77.5 -31t-165 -56t-163.5 -54t-74 -28q0 -5 234 -81q233 -76 239 -82q5 -6 6 -43q0 -12 -0.5 -19t-1.5 -11t-3 -5.5t-4 -0.5q-5 1 -151 50.5t-290.5 99.5t-145.5 51q-2 1 -3 39q0 38 9 43q12 8 290 103z" />
    <glyph glyph-name="equal" unicode="=" horiz-adv-x="498" 
d="M12 634q1 3 10 4.5t37.5 3t71 1.5h120.5h235v-65l-236 1l-237 2l-2 22q-3 21 1 31zM12 471q2 5 46 7t193 2q235 0 237 -5q3 -7 0 -33l-3 -28l-236 2l-236 2l-2 21q-3 22 1 32z" />
    <glyph glyph-name="greater" unicode="&#x3e;" horiz-adv-x="618" 
d="M12 668q-2 6 -1.5 23.5t3.5 37t5 19.5q5 0 295 -101l291 -100l4 -84l-290 -99q-293 -100 -299 -101t-8 6.5t-2 33.5v41l232 76q248 84 248 87q-2 3 -238.5 81t-239.5 80z" />
    <glyph glyph-name="question" unicode="?" horiz-adv-x="706" 
d="M88 789q14 11 39 11h23l-26 -14q-20 -10 -37.5 -25t-29.5 -31t-16 -31q-11 -40 3 -80.5t46 -59.5q42 -26 95 -15t71 49q12 25 -11 48t-69 30q-12 2 -15 18.5t5 31.5q14 26 68 37t92 -4q22 -8 39 -26.5t21 -36.5q6 -35 -7 -59t-69 -79q-57 -57 -72 -83.5t-12 -68.5l2 -29
l107 -4l4 18q11 53 32.5 78.5t90.5 69.5q50 31 71 61t24 74q2 39 -10.5 62t-49.5 48l-32 21h31q42 0 99 -41t84 -90q18 -34 18 -72q0 -31 -11 -54t-38 -46.5t-78 -55.5q-109 -68 -112 -160q-1 -17 3 -27.5t18 -28.5q23 -28 26 -62q2 -24 -1.5 -32t-19.5 -23q-23 -19 -47 -24
q-68 -13 -145.5 24t-105.5 95q-15 29 -12.5 58t21.5 49q18 19 12 28q-8 9 -10 58q-2 50 -12 62q-9 11 -73 52q-60 39 -79.5 66t-22.5 74q-2 46 15.5 77.5t62.5 61.5zM337 301q-22 15 -49.5 15.5t-49 -10.5t-32.5 -31t-3 -42q6 -20 29.5 -33.5t51.5 -13.5q38 0 61.5 20t22 48
t-30.5 47zM167 788q23 8 50 10t99 1q86 -2 105 -4.5t46 -17.5q88 -48 65 -133q-10 -38 -58.5 -81.5t-80.5 -43.5q-33 0 7 24q12 7 31 17l52 28l2 32q4 61 -9 74q-5 5 -10 -10q-1 -4 -3 -9q-11 -50 -46 -73q-16 -11 -32 -36t-16 -39q0 -8 -9.5 -8t-20.5 -18t-12 -34
q-1 -18 -19 -39t-18 -31q0 -4 -2 -6t-5 -1q-7 2 -16.5 30.5t-6.5 37.5q4 8 41 33q29 20 30 23q0 2 -10 4q-18 2 -17 6q0 5 33 31q34 27 54 51q13 17 16.5 28t3.5 35q0 36 -12.5 55t-45.5 36q-32 16 -81 16.5t-82 -15.5q-34 -16 -48.5 -40t-4 -43.5t42.5 -25.5
q48 -9 55.5 -38.5t-33.5 -46.5q-54 -22 -97.5 7.5t-43.5 88.5q0 41 28 74t78 51z" />
    <glyph glyph-name="at" unicode="@" horiz-adv-x="777" 
d="M373 793q36 6 95 3q210 -13 278 -152q10 -21 14.5 -33t6 -27t1.5 -45q-1 -40 -7 -69t-19.5 -54t-36.5 -51q-54 -58 -137.5 -78t-119.5 16q-8 8 -10.5 18t-1.5 32l1 36l-36 -32q-56 -50 -108.5 -66.5t-75.5 8.5q-20 21 -22 67t14 94q9 26 33 60.5t44 50.5q25 21 59.5 37.5
t72 25.5t70.5 9q30 0 64 -6t38 -13q3 -4 -19 -94q-25 -105 -31 -143t2 -48q9 -11 34 -9t48 14q11 7 23 18.5t22 25.5t18.5 30t12.5 31q10 35 8.5 89t-14.5 80q-8 18 -22.5 37.5t-32 36.5t-35.5 27q-25 15 -77 28.5t-84 13.5q-72 0 -144.5 -28t-118.5 -74
q-68 -68 -86.5 -168.5t21.5 -184.5q16 -34 55 -70t73 -49q37 -14 89.5 -21t87.5 -3q42 4 88 19t78 34q25 15 32.5 17t14.5 -5t5 -12t-18 -17q-22 -20 -69.5 -43t-83.5 -32q-46 -13 -104.5 -15t-100.5 7q-135 29 -200 122.5t-49 233.5q15 124 114.5 212.5t245.5 108.5z
M479 591q-7 9 -32 12q-53 3 -94.5 -56t-42.5 -139q0 -42 10.5 -49t43.5 14q36 22 64.5 63t41.5 90q14 54 9 65z" />
    <glyph glyph-name="A" unicode="A" horiz-adv-x="677" 
d="M336 773q18 29 36 28t45 -33q27 -31 27 -39v-2q0 -5 -3 -5q-4 1 -30 8h-1h-1l-1 1h-1h-2q-35 10 -38 7q-4 -4 10.5 -22t33.5 -34q27 -22 27 -28q-5 -4 -35 -1.5t-67.5 9.5t-42.5 12q-3 3 2.5 18.5t16.5 37.5t24 43zM379 754.5q0 6.5 -7 6.5q-9 0 0 -10q3 -3 4 -3
q3 0 3 6.5zM304 640q5 10 10 10q7 0 16 -17t13 -36q4 -22 10 -32.5t17 -15t33 -5.5l38 -2l78 -177q32 -72 66.5 -149t54.5 -125q12 -28 23 -50q8 -18 5 -21t-166.5 -4t-326.5 0.5t-165 4.5q-3 6 147 344q63 146 67 156q7 17 13.5 20.5t28.5 4.5q23 1 56 0q39 -2 14 19
q-11 8 -24 0q-17 -10 -17 -2q0 6 12 18q9 10 10.5 15t-4.5 11q-8 10 -20 10t-12 6.5t10 6.5t13 10zM438 192q-6 0 -26.5 13t-26.5 13q-10 0 -23 17q-10 17 -24 13q-14 -2 -40 20q-19 17 -55 31t-57 8q-5 -3 -24 -6q-18 -4 -35 -32q-16 -28 -15.5 -39t16.5 -15q16 -3 47 -23
q35 -24 74.5 -38t70.5 -14q38 0 56 -15q14 -11 40 -17t101 -15q53 -7 64.5 -0.5t9.5 44.5l-2 36l-64 3q-65 4 -70 10q-7 6 -17 6zM111 107.5q0 6.5 -3 6.5t-7 -8q-3 -5 3 -5q7 0 7 6.5z" />
    <glyph glyph-name="B" unicode="B" horiz-adv-x="591" 
d="M11 407l-1 393h195q196 0 200 -7q4 -6 14 -6q12 0 33.5 -18t18.5 -25q-1 -4 2 -7t10 -4q14 -2 30 -31q7 -12 10.5 -22.5t4.5 -23t2 -32.5q0 -45 -13 -73t-46 -55q-30 -25 -30 -29q0 -6 36 -25q105 -59 105 -194q0 -53 -15 -85q-16 -35 -48 -65.5t-71 -48.5
q-56 -26 -108.5 -33t-177.5 -6l-149 2zM369 728.5q0 6.5 -6.5 6.5t-6.5 -6.5t6.5 -6.5t6.5 6.5zM402 701.5q0 6.5 -6.5 6.5t-6.5 -6.5t6.5 -6.5t6.5 6.5zM339 687q-18 12 -95 15t-80 -8q-4 -8 -2 -97l2 -88l80 1q59 0 72 2.5t28 16.5q39 37 37.5 84t-42.5 74zM337 388
q-23 6 -79.5 9t-74.5 -2l-19 -3v-262l61 -2q73 -2 116.5 11t63.5 43t20 82q0 55 -20 83t-68 41zM216 341l4 20l44 -19q47 -18 66 -22q20 -5 19.5 -11t-21.5 -6q-23 0 -26 -6q-2 -2 10 -12.5t28 -21.5t25 -14q21 -7 -28 -13q-15 -2 -37 -4q-66 -5 -74 -8q-3 -1 -5 0.5t-3.5 7
t-2.5 14.5t-1 25q-2 45 2 70zM271 264.5q0 6.5 -6.5 6.5t-6.5 -6.5t6.5 -6.5t6.5 6.5z" />
    <glyph glyph-name="C" unicode="C" horiz-adv-x="683" 
d="M10 219v581h664l-4 -180h-72h-17q-42 0 -48.5 -4.5t-1.5 -33.5l3 -12q2 -18 0.5 -21.5t-14.5 -3.5q-19 0 -36 20q-23 28 -63 27t-65 -30q-14 -17 -29.5 -22.5t-21.5 4.5q-2 3 6 37t6 35q-3 3 -70 2t-69 -4q-2 -2 -5 -150l-2 -148q42 -52 85 -104l207 -2l207 -2l2 -96
q1 -70 -0.5 -84t-12.5 -20q-14 -7 -178 -3q-175 5 -177 5q-14 0 -50 -4q-23 -3 -35 -3t-24 2t-24 13.5t-24 24.5t-35 41q-62 79 -64 87q-4 11 -21 30zM412 558.5q0 6.5 10 6.5t10 -6.5t-10 -6.5t-10 6.5zM368 515q13 12 23.5 16t29.5 5q20 0 30 -3.5t24 -17.5q23 -22 19 -29
q-5 -7 -76 -6.5t-71 7.5q0 8 21 28zM343 459q4 8 77 6q45 -1 59.5 -3t14.5 -8q0 -3 -3 -5t-11 -3.5t-21.5 -2.5t-36.5 -1q-81 -2 -81 11q0 3 2 6zM346 426q1 3 76 1.5t77 -4.5q4 -6 7 -48l5 -44l-86 -1q-85 -1 -91 2q-2 2 3 42.5t9 51.5zM447 386q-26 24 -27 20q0 -2 3 -9
q3 -8 22 -28t23 -20q13 0 -9 26q-6 5 -12 11zM315 308q10 10 79 9t77 -10q3 -5 3.5 -7t-2 -4.5t-8 -3.5l-16.5 -3q-13 -2 -13 -12q0 -4 -4 -7t-9.5 -3t-9 3t-3.5 7q0 6 -10.5 8.5t-40.5 3.5q-49 2 -49 9q1 5 6 10zM488 312q6 5 20 4t20 -8q19 -18 -11 -18q-22 0 -29 13
q-2 5 0 9z" />
    <glyph glyph-name="D" unicode="D" horiz-adv-x="662" 
d="M218 788q6 11 14 12t13.5 -8.5t5.5 -24.5q0 -13 -6.5 -13t-6.5 -20q0 -14 4 -16q3 0 6 6t3 13q0 10 8.5 22.5t5.5 24.5q-3 16 7 17q9 0 15 -13v-2q3 -10 13 -23t20.5 -21t13.5 -5q5 5 -10 17q-14 11 -21 30q-4 12 -2.5 14t13.5 1q18 -2 18 -15q0 -12 9 -15q5 -2 6.5 0
t-0.5 7l-1.5 6t2 2.5t6.5 0.5t13 -2q24 -4 42 -17q11 -7 19 -8.5t16 -3.5t18 -10q20 -16 36 -20q45 -11 85 -80q20 -34 47.5 -114.5t22.5 -88.5q-4 -7 -18 -7q-7 0 -9 -2.5t0 -8.5q32 -74 18.5 -159t-67.5 -145q-21 -24 -64.5 -49t-85.5 -37q-54 -15 -106 -19.5t-146 -3.5
l-123 2l-1 223v222l-21 2q-11 1 -15.5 4.5t-4 17t6 33.5t17.5 62q8 26 41.5 69.5t71.5 78.5q53 49 57 41q1 -1 1 -4q0 -7 7 -7t3 11q-3 9 3 23zM296 731.5q0 9.5 -6.5 9.5t-6.5 -9.5t6.5 -9.5t6.5 9.5zM362 728.5q0 6.5 -6.5 6.5t-6.5 -6.5t6.5 -6.5t6.5 6.5zM287 643
q5 6 4 17t-5.5 22t-7.5 15q-10 10 -10 -5l3 -18q6 -22 5 -29.5t-9 -7.5q-10 0 -10 -17q0 -15 6.5 -15t10.5 15q4 16 13 23zM368 692q0 10 -6.5 10t-6.5 -10t6.5 -10t6.5 10zM330.5 672.5q-3.5 22.5 -7.5 22.5q-18 0 -8 -28q7 -18 21 -33q19 -19 24 -14q6 4 -10 17
t-19.5 35.5zM511 680q-12 15 -15 -1q-1 -8 -2 -23q-1 -32 5 -32q7 0 7 15t6 24q6 10 -1 17zM381 652q0 9 -6 14q-5 3 -9.5 -3.5t-0.5 -12.5q4 -8 10 -7t6 9zM473 659.5q0 9.5 -6.5 9.5t-6.5 -9.5t6.5 -9.5t6.5 9.5zM128 629q-3 22 -6.5 24.5t-19.5 -8.5t-15 -23q1 -6 10 -2
q10 3 19 -11q13 -18 13 -3q1 7 -1 23zM159 633.5q0 16.5 -6.5 16.5t-6.5 -16.5t6.5 -16.5t6.5 16.5zM238 636.5q0 6.5 -7 6.5t-7 -6.5t7 -6.5t7 6.5zM308 609q8 -8 12 3q2 8 -3 13q-7 8 -11 -3q-2 -8 2 -13zM587 607q-5 10 -10 10q-6 0 -2 -10q5 -10 10 -10t2 10zM506 576
q0 18 -10 19q-3 1 -6 -3q-2 -4 1.5 -16.5t10 -25t11.5 -15.5q12 -7 11 2q-1 6 -7 13q-11 11 -11 26zM159 588q0 3 -6.5 3t-6.5 -7q0 -9 10 0q3 3 3 4zM393.5 575q3.5 -3 7 -0.5t4 6t-3 6.5t-7 0.5t-4 -6t3 -6.5zM566 571q-11 0 -23 11q-11 11 -11 3t10 -24q10 -15 3 -28
q-5 -10 -2.5 -22t9.5 -12q6 0 6 15q1 16 10 31q9 16 8.5 21t-10.5 5zM604 574q0 10 -7 14q-2 1 -4 -0.5t-2 -5.5q0 -10 6 -14q7 -3 7 6zM368 552q-10 30 -16 30q-4 1 -7 -4q-4 -8 7 -29.5t29 -38.5q19 -18 20 -9q0 11 -12 17q-13 7 -21 34zM308 559q-2 14 -10 17t-8 -2
q1 -6 9 -21q9 -17 13 -29t11 -12q4 0 5.5 5t-1 11t-7.5 11q-9 6 -12 20zM68 537q0 21 -8 21q-3 0 -7 -4q-5 -4 -1 -19q3 -15 -10 -23q-14 -7 -10 -13q5 -6 19 5q16 12 17 33zM152 542.5q3 -2.5 7 -0.5t4 6t-3.5 6.5t-7 0.5t-3.5 -6t3 -6.5zM427 531q0 5 -8 17q-9 11 -13 6
t2 -16q8 -14 16 -12q3 0 3 5zM130 523q-4 21 -12 22q-5 1 -5 -10t-13 -6q-10 3 -11.5 1t1.5 -15q6 -22 10 -22q3 -1 6 6q4 4 10 1t20 -18q23 -26 23 -15t-12 22q-13 13 -17 34zM270 522q0 8 -5 12.5t-10 0.5q-4 -4 0 -13.5t9 -9.5q6 0 6 10zM179 508q0 17 -10 17t-10 -9
q0 -8 10 -17q6 -5 8 -3t2 12zM309 507q-15 9 -17 2.5t2 -18.5l1.5 -4.5t0.5 -4v-4.5q0 -9 9 -3q5 4 8 12q5 14 -4 20zM360 482q5 5 -4 13q-6 4 -10 -1q-2 -3 -1 -6t4 -5t5.5 -2.5t5.5 1.5zM74 486.5q0 6.5 -6.5 6.5t-6.5 -6.5t6.5 -6.5t6.5 6.5zM100 466q0 6 -5.5 9.5
t-9.5 -0.5q-6 -5 -4 -10t10 -5q9 0 9 6zM443 446q3 6 -2 10.5t-9 -0.5q-4 -3 0 -13q1 -4 -2 -7t-9 -2t-10 5q-6 6 -107 7.5t-108 -5.5q-4 -4 -3 -171l2 -166l43 -3q96 -9 163 28t91 111q16 49 3.5 116.5t-40.5 78.5q-6 2 -9.5 5.5t-2.5 5.5zM545 447.5q0 6.5 -6.5 6.5
t-6.5 -6.5t6.5 -6.5t6.5 6.5zM584 447.5q0 6.5 -6.5 6.5t-6.5 -6.5t6.5 -6.5t6.5 6.5z" />
    <glyph glyph-name="E" unicode="E" horiz-adv-x="681" 
d="M12 782q4 5 332 4l328 -2v-157h-182l-55 -71q-56 -71 -51 -75q5 -5 146 -5h142v-149l-108 -2q-107 -3 -112 -7.5t52 -82.5l57 -79q55 -3 111 -6v-138h-660l-2 382q-1 382 2 388zM221 597q-12 13 -31 13t-35 -15q-12 -9 -13.5 -14.5t3.5 -14.5q10 -19 -4 -18q-10 1 -28 11
q-32 18 -31 6q1 -6 15 -20q28 -29 94 -31.5t94 25.5q20 21 13 28q-4 4 -17 -6q-6 -4 -21.5 -7t-29 -3t-13.5 4t8 16q9 13 -4 26zM207 352q-4 10 -12.5 10t-12.5 -10q-4 -11 -27 -7q-15 3 -19 1.5t-4 -10.5q0 -8 -6 -13t-10.5 -6.5t-15.5 -4.5q-5 -2 -4.5 -5t8.5 -11
q9 -10 9 -13.5t-11 -9.5q-24 -16 -11 -21q2 -1 6 -1q11 0 7 -11q-8 -29 -3 -30q2 0 5 1q18 4 24 2t6 -12q1 -31 16 -12q8 9 17.5 9t12.5 -9q4 -10 11 -9.5t15 10.5q6 9 9 9t12 -9q21 -19 21 -2q0 11 7 14.5t15 -3.5q9 -7 13 -2.5t-3 12.5q-7 9 -2 16t17 3t11 2q0 7 -15 21
q-12 10 -13 14.5t6 11.5q7 8 5 12t-18 13q-23 14 -21 29q1 10 -2.5 12t-17.5 1q-21 -2 -25 8z" />
    <glyph glyph-name="F" unicode="F" horiz-adv-x="712" 
d="M112 785q15 15 33 15q12 0 15.5 -3.5t3.5 -14.5q0 -17 -10 -52t-15 -35q-6 2 -23 38l-18 36zM19 743q-5 24 -2 30.5t23 6.5q19 0 49 -30q44 -44 20 -39q-2 0 -4 1q-13 4 -12.5 -0.5t13.5 -15.5q30 -24 -14 -26q-10 0 -25 1q-43 4 -52 15q-5 8 -5 11.5t5 9.5q10 9 4 36z
M66 715q0 7 -16.5 7t-16.5 -7t16.5 -7t16.5 7zM116 652q3 4 295 3l292 -2v-137l-216 -2q-212 -1 -224 -5q-8 -3 -6 -34l2 -31l217 -2q217 -1 217 -7q0 -4 -67 -72l-67 -66h-296l-4 -102q-5 -97 -2 -137q2 -26 0 -32.5t-13 -10.5q-17 -6 -67.5 -5.5t-57.5 7.5q-8 8 -8 319
q0 312 5 316z" />
    <glyph glyph-name="G" unicode="G" horiz-adv-x="717" 
d="M203 780l35 20h259l34 -22q72 -46 118 -135q16 -29 19 -39.5t-3 -15.5q-10 -10 -79 -45q-53 -26 -63 -29t-17 8q-10 13 -10 19q0 4 -20 34q-33 48 -83.5 58.5t-98.5 -18t-74 -88.5q-39 -89 -28 -198t67 -170q20 -23 46.5 -37t48.5 -15q19 0 18 -8q-1 -4 -8 -6
q-8 -4 -15 -32t-13.5 -28t-8.5 27q-2 28 -5 28q-5 0 -20 -19t-15 -26q0 -8 -14.5 -14t-20.5 0q-7 6 -22 6t-15 9t-19 22.5t-37 17.5q-20 4 -38 -10q-14 -11 -18 -11t-11 9q-15 20 -38.5 75.5t-30.5 90.5q-15 72 -12.5 158t22.5 152q22 76 67 137.5t103 94.5zM411 421
q34 2 158.5 1t133.5 -4q7 -2 5 -64q-4 -92 -21.5 -156t-43.5 -78q-12 -7 -16 -14t-5 -24q-3 -29 -9 -26q-5 2 -7 23q-2 17 -5.5 21t-16.5 5q-21 1 -37 -14t-25 -10q-8 6 -17 2q-9 -3 -15 11q-8 14 -25 12q-8 -1 -11.5 -3t-5.5 -6.5t-3 -13.5q-2 -22 -8 -22t-6 6q0 5 -11 17
q-9 11 -11.5 8t-6.5 -8t-8 -2q-7 7 2 17.5t31 19.5q30 14 49 41q15 21 25 48.5t6 37.5q-2 8 -70 8h-68v164z" />
    <glyph glyph-name="H" unicode="H" horiz-adv-x="880" 
d="M281 773l31 27h57q58 0 58 -5q0 -22 -48 -17q-29 3 -61 -8t-52 -30q-14 -10 -15 -4q0 11 30 37zM128 642q8 8 57 6l49 -2q4 -104 7 -209l42 -9q29 -6 36.5 -5.5t12.5 7.5q3 6 36 52q21 30 25.5 43.5t6.5 58.5l4 62h98q4 -22 7 -44l67 1q67 1 67 -5q0 -7 -14 -7
q-34 0 -91 -25q-29 -13 -83.5 -72t-79.5 -106q-30 -55 -39 -54t-49 16q-44 15 -100 12t-96 -23q-38 -20 -57 -42q-26 -28 -24 -12q1 6 5 18q6 14 33.5 41.5t54.5 45.5l17 12v116q0 116 8 124zM464 462q30 37 36 37t6 -120.5t2 -120.5t41 22q27 17 42 21.5t49 5.5
q9 0 14.5 3.5t11.5 12t18 29.5q31 58 84 102.5t89 44.5q26 0 0 -18q-7 -4 -19 -11q-28 -16 -56 -47.5t-51 -70t-36 -76.5l-8 -25h-50q-33 0 -49 -3.5t-41 -16.5q-29 -14 -64.5 -47t-48.5 -57q-5 -9 -3 -9q4 1 22 17q31 26 39 23.5t6 -39.5l-2 -41h-98l-2 134l-1 134l19 39
q21 40 50 77zM136 323q17 7 49.5 6t38.5 -9q8 -8 6 -125l-2 -117h-111l-2 26q-3 29 2 120q3 65 6 80t13 19z" />
    <glyph glyph-name="I" unicode="I" horiz-adv-x="250" 
d="M89 771q19 10 50 6q49 -6 50 -37q2 -24 34 6q18 17 18 7q0 -11 -27.5 -33.5t-45.5 -26.5q-87 -18 -140 39q-23 25 -17 30q5 5 25 -15l22 -21l6 17q7 17 25 28zM43 645q5 5 87 4.5t90 -5.5t7 -317q-1 -206 -3 -258.5t-9 -53.5q-111 -8 -148 -3l-28 4v313q0 313 4 316z" />
    <glyph glyph-name="J" unicode="J" horiz-adv-x="605" 
d="M417 780l5 20h174v-263q-1 -264 -6 -308q-11 -84 -68.5 -140t-150.5 -74q-57 -11 -123.5 -2.5t-113.5 31.5q-28 15 -58 45.5t-42 58.5q-10 25 -18.5 67t-4.5 49q4 6 72 6t85 -6q15 -5 23 -32q15 -54 64.5 -75.5t104.5 2.5q32 15 42.5 47t10.5 117q0 72 -4.5 85.5
t-30.5 18.5q-14 3 -17 7.5t-3 22.5q-1 53 -5 63.5t-27 20.5q-28 11 -39 11t-15 -10.5t3 -17.5q18 -18 -6 -17q-26 2 -38 9q-3 3 14 19q26 24 15 29l-4 1q-6 0 -13 -13t-16 -13q-12 0 -9 15q3 11 12 17q12 7 16 58q3 35 6.5 45.5t14.5 17.5q16 10 12 16q-5 9 4.5 21t22.5 12
q16 0 19.5 -9.5t-7.5 -25.5q-13 -21 -3 -28q4 -2 11 0q8 4 12 -2q5 -8 17.5 -6.5t12.5 8.5q0 9 -10 17q-16 13 -8 19q2 1 4 1q7 0 7 -7q0 -8 16 -27q15 -17 12.5 -24t-24 -7t-29 -6.5t-11.5 -27.5q-3 -16 1 -23t28 -26l34 -25l-3 -37q-3 -22 -1 -31.5t9 -15.5q10 -11 16 -11
q4 0 4 156q0 155 4 177z" />
    <glyph glyph-name="K" unicode="K" horiz-adv-x="710" 
d="M265 776l10 24h52q51 0 51 -8q0 -3 -7 -10q-7 -8 5 -21t30.5 -13t27.5 14q11 14 13 11q2 -2 -10 -44t-16 -46q-6 -6 -6 4q-1 8 3 17q8 21 -1 22l-8 -4q-8 -7 -30 0t-31 -3q-9 -9 -3.5 -17t28.5 -20q22 -11 24 -16t-8 -19q-10 -13 -10 -19q0 -10 12 4q5 7 8 15q6 15 21 22
q16 6 37 29l23 24h101q27 0 49.5 -1t35.5 -2.5t13 -2.5q-1 -4 -70 -69.5t-138 -131.5t-70 -68q-2 -3 151 -217q152 -214 149 -217.5t-96 -3.5q-33 0 -49.5 0.5t-28.5 1.5t-16.5 3.5t-8.5 6.5q-2 3 -102.5 157t-102.5 157q-5 6 -18.5 -2.5t-52.5 -44.5l-62 -58v-99
q0 -99 -9 -111q-5 -7 -18.5 -9t-57.5 -1l-69 2v706h150l1 -145q1 -147 7 -153q7 -6 47 37q29 32 36 45.5t-3 20.5q-8 4 -3 18q21 70 24.5 115t-11.5 55q-9 7 -8 19.5t15 45.5zM350 650q-4 6 -17 6q-8 0 -16.5 -12t-22.5 -44q-36 -75 -14 -75q9 0 31.5 27.5t20.5 34.5
q-5 10 9 33q13 23 9 30z" />
    <glyph glyph-name="L" unicode="L" horiz-adv-x="721" 
d="M11 413l-1 387h201l1 -318q0 -317 4 -323q3 -6 49 -6q41 0 47.5 9.5t6.5 65.5v52l-24 -2q-24 -2 -24 5q0 6 70 45q21 12 53.5 30t37.5 21q15 9 21 9t22 -8q15 -7 20.5 -7t11.5 6q8 10 31 8q10 -1 13.5 -1.5t7 -4.5t4 -8.5t1.5 -16.5q1 -16 3 -22t8.5 -11t24.5 -14
q33 -18 35 -25q2 -5 0 -6t-7 1q-11 5 -26 -1q-10 -4 -11.5 -13t0.5 -51l3 -58l118 -6v-138l-344 -1q-130 -1 -207 -0.5t-109 2.5t-34 5q-6 9 -7 395zM375 222q6 -5 10 4q1 5 -2 8q-4 3 -7.5 0.5t-4 -6t3.5 -6.5zM415 227q0 9 -3 10.5t-7 -5.5q-4 -6 3 -10t7 5zM529 189
q0 26 -6.5 32t-26.5 -3q-14 -5 -17.5 -14.5t0.5 -29.5q2 -15 6 -18t20 -2l24 2v33zM382 201q0 9 -2.5 10.5t-7.5 -5.5q-3 -6 3 -10q7 -4 7 5zM415 201q0 9 -3 10.5t-7 -5.5q-4 -6 3 -10t7 5zM179 124q6 -5 10 4q1 5 -3 8q-3 3 -6.5 0.5t-4 -6t3.5 -6.5zM120 98q-8 9 -17 9
t-9 -10q0 -6 3 -6.5t6.5 0.5t7.5 -3q5 -8 11 -3q3 6 -2 13zM225 48.5q0 6.5 -6.5 6.5t-6.5 -6.5t6.5 -6.5t6.5 6.5z" />
    <glyph glyph-name="M" unicode="M" horiz-adv-x="730" 
d="M12 407l-2 393h227l25 -103q5 -22 92 -389q5 -25 11.5 -25t31.5 110q79 345 94 396q1 4 4.5 6t16.5 3t33 1.5t59 0.5h110l4 -119q4 -127 2 -394l-1 -275h-281l-2 30q-1 19 3 31t19 35l24 35q-20 16 -41 32l14 15q15 15 6 15q-9 1 -24 -14q-15 -14 -14 -21.5t19 -14.5
q14 -6 16 -9t-4 -10q-8 -10 -42 -32q-35 -23 -69 -58q-21 -23 -32 -30t-25 -7q-22 0 -21 7q0 12 99 79q31 20 36.5 34.5t-8.5 31.5q-8 8 -7.5 10t8.5 5q13 5 20.5 11.5t4.5 11.5t-24 -6q-30 -15 -33 -20t9 -17q14 -16 6 -24q-11 -9 -72 -35q-95 -41 -97 -54q-1 -7 13 -15
q1 0 2 -1q17 -7 17 -12t-113 -4l-113 1zM651 316q-22 12 -39 3t-11 -31q4 -16 -6.5 -24t-30.5 -5q-13 3 -39 -2.5t-54.5 -13t-36.5 -8.5q-25 -4 -25 -11t23 -4q20 4 37.5 -2t17.5 -15t10 -17q10 -9 3 -16q-8 -8 -5.5 -22.5t14.5 -25.5q15 -15 22.5 -7t30.5 -4.5t23 -24.5
q0 -27 44 11q35 30 61.5 83t13.5 66q-3 3 -45.5 7t-45.5 6q-4 5 8 18t20 13q9 0 15 9q5 6 4 9.5t-9 7.5zM286 245q-41 16 -49.5 17t-36.5 -8q-29 -9 -82 -16q-63 -8 -75.5 -12t-12.5 -16q0 -33 47 -86q13 -16 24.5 -23.5t19.5 -5.5t11 12q4 13 13 13q7 0 29.5 12.5
t74.5 12.5q32 0 51.5 3t27.5 9t6 16q-3 7 1 11.5t18 10.5q21 9 21 17.5t-21 11.5q-18 2 -67 21z" />
    <glyph glyph-name="N" unicode="N" horiz-adv-x="816" 
d="M10 709v91l128 -1l129 -2l65 -92q62 -87 69 -101q4 -10 28.5 -40t24.5 -35q0 -7 12 -18q11 -12 17 -24q2 -4 11 -16.5t22.5 -31.5t25.5 -31.5t16 -10.5q4 3 3 203l-2 200h248v-69q0 -64 -5 -66l-8 1q-14 5 -31 -8q-8 -7 -2 -11q6 -5 22 0q7 3 11 0.5t6 -7.5t4 -22
q4 -31 -2 -45q-7 -12 0 -22q4 -8 5.5 -26t-3.5 -32.5t-16 -11.5q-12 3 -11 -6q2 -10 13 -16l15 -7l2 -214q1 -214 -5 -218t-18 10q-19 19 -66 61q-27 23 -39.5 32.5t-23 13t-28.5 5.5q-34 4 -51 12q-19 11 -58 47.5t-64 67.5q-31 39 -49 51q-11 8 -16.5 7t-20.5 -13
q-14 -12 -61 -46q-26 -18 -37 -22.5t-29.5 -2.5t-30 -2t-35.5 -20q-47 -33 -77 -63q-31 -28 -55 -43t-29 -10q-4 5 -4 234q0 230 8 237.5t0 24.5q-8 18 -8 108zM100 692q2 2 -0.5 7t-6.5 6.5t-7 -2.5q-4 -6 2.5 -11t11.5 0zM67 658q4 10 1 11q-6 0 -11 -3t-6.5 -7t1.5 -8
q4 -3 15 7zM79 605q-15 -9 -30 -1q-10 5 -11.5 4t1.5 -10q4 -14 -5 -28q-10 -15 -4 -30q5 -13 12 -11t7 17q0 13 11 10q11 -5 16.5 -0.5t-1.5 13.5q-5 6 -4 8.5t10 4.5q9 3 15.5 12.5t1.5 14.5q-3 4 -19 -4zM445 513q-8 13 -29 -10q-15 -16 -8.5 -19.5t23.5 10t14 19.5z
M141 466.5q0 6.5 -10 6.5t-10 -6.5t10 -6.5t10 6.5zM401 293q2 2 31.5 -26.5t58 -60t29.5 -35.5q0 -11 -37 12q-20 12 -29 22q-14 17 -21 18.5t-20 -9.5q-10 -9 -10 -5q-1 3 2 23q5 32 -2 44q-8 13 -2 17zM198 218q23 12 32 13q10 0 11.5 -6.5t-6.5 -12.5q-20 -18 12 -51
q20 -21 15.5 -25.5t-34.5 25.5q-26 29 -40.5 27.5t-50.5 -36.5q-35 -34 -42 -30q-5 1 14 21.5t46.5 43.5t42.5 31zM517 103q31 29 45 30q7 0 7.5 -2t-3.5 -7q-11 -13 -42.5 -35t-34.5 -19q-4 5 28 33zM592 128q1 3 12 2.5t28.5 -5t28.5 -9.5q12 -5 30.5 -21.5t32 -32
t10.5 -18.5q-6 -4 -23 12q-23 22 -37 26.5t-28 -5t-19 -6t-6 21.5q0 17 -14 24q-15 6 -15 11z" />
    <glyph glyph-name="O" unicode="O" horiz-adv-x="894" 
d="M213 768l48 32h120h44t31.5 -0.5t25 -1.5t16.5 -1.5t15 -3.5t12.5 -5l16.5 -6q37 -18 65 -48t37 -61q12 -43 0.5 -98.5t-40.5 -96.5q-6 -8 -5 -12t10 -11q15 -12 17 -30t-5 -61q-9 -56 -9 -82q0 -20 -3 -27t-13 -11q-10 -5 -17 -4t-19 10l-20 15l-8 -15q-10 -20 5 -86
q3 -12 -0.5 -16.5t-19.5 -10.5q-37 -16 -66 -8q-15 4 -6 13q5 5 6 25q2 21 -10 23q-14 4 -12 15q1 7 9 7q15 0 6 15.5t-25 18.5q-13 2 -13 11.5t-12 13.5q-22 5 -9 13q8 4 23 5q29 2 27 9q-3 4 -14 7t-11 5.5t7 11.5q10 10 12 53.5t-7 48.5q-13 8 3 12h23q26 -4 26 4
q0 7 -8 10q-13 4 -51 16q-48 16 -69 11.5t-31 -31.5q-3 -11 -24 -19l-21 -9l4 -42q3 -26 1.5 -36.5t-10.5 -21.5q-20 -28 -21.5 -87.5t17.5 -95.5q8 -14 24.5 -31.5t36.5 -33t37 -22.5q32 -14 82 -17q97 -6 188.5 37.5t154 122.5t76.5 174q20 136 -47 246.5t-201 163.5
q-36 15 -56 20q-10 3 34 4q34 1 47 -3.5t48 -28.5q28 -18 56.5 -44t52 -53t35.5 -50q50 -88 55 -189q2 -45 -0.5 -65t-16.5 -61q-57 -173 -212 -249q-105 -52 -212 -52.5t-207 50.5q-50 24 -104 79t-78 106q-71 149 -28.5 291t187.5 238zM474 688.5q0 6.5 -6.5 6.5
t-6.5 -6.5t6.5 -6.5t6.5 6.5zM434 611q5 9 5 13t-5 10q-6 6 -18 -3t-48 -46q-58 -57 -64 -82q-8 -28 0 -30.5t32 20.5q19 19 23.5 21t10.5 -7q7 -14 23 -14q9 0 9 8q0 6 16 28q11 15 20.5 18t44.5 3q51 2 70 -8q20 -11 19 -4q-1 6 -21 20q-13 10 -25.5 13t-40.5 3
q-45 1 -53 12q-6 11 2 25zM494 604q18 -13 18 -8q1 8 -20 26q-18 15 -18 2q0 -5 20 -20zM566 431q0 3 -6.5 3t-6.5 -7q0 -9 10 0q3 3 3 4zM581 351q5 18 -1 17t-16 -22q-17 -36 -5 -36q13 0 22 41zM355 554q12 2 17 -1q7 -3 -7 -15q-7 -5 -12 -6q-11 0 -9 11q2 8 11 11z
M340 435q5 7 29.5 5t34.5 -11q11 -10 11 -26t-13 -28q-28 -28 -50 11q-9 16 -7.5 19.5t14.5 -0.5q20 -4 20 4q1 10 -12 15q-6 3 -10 0q-7 -4 -13.5 0.5t-3.5 10.5zM286 266.5q-2 10.5 8.5 10.5t8.5 -11t-8.5 -10.5t-8.5 11z" />
    <glyph glyph-name="P" unicode="P" horiz-adv-x="632" 
d="M11 497l-1 303h244h34q83 0 115 -1t66.5 -2t46 -8t21 -13.5t24.5 -24.5q5 -5 7 -8q30 -34 42.5 -72t12.5 -96q1 -62 -12.5 -100t-48.5 -76q-44 -48 -103 -64.5t-194 -18.5q-84 0 -89.5 -5t-6.5 -155l-2 -150l-30 -2q-32 -3 -76 2l-48 4v42q0 85 17 79q9 -4 13 2t-13 13
q-9 4 -13 10t-4 18q0 5 -0.5 47.5t-0.5 125.5t-1 150z" />
    <glyph glyph-name="Q" unicode="Q" horiz-adv-x="735" 
d="M248 790q24 10 129 8l105 -1l42 -23q40 -21 88 -68.5t67 -83.5q56 -111 45 -226.5t-85 -207.5l-24 -28l24 -71q8 -26 13 -42t7 -26t2 -14t-2 -4q-3 0 -50 26q-25 14 -76 40l-28 14l-51 -12q-123 -30 -233.5 22t-166.5 166q-71 143 -26 289q26 84 84.5 148.5t135.5 93.5z
M469 608q-14 9 -21.5 13.5t-18 7.5t-20.5 4t-30 2q-45 2 -70.5 -5t-53.5 -29q-37 -28 -58 -71t-22 -93q0 -50 13.5 -85t47.5 -68q56 -56 126.5 -58.5t128.5 49.5q50 45 65.5 109t-8 125.5t-79.5 98.5zM132 195q6 4 3 12q-4 8 -8 3l-1 -9q0 -4 2 -5.5t4 -0.5z" />
    <glyph glyph-name="R" unicode="R" horiz-adv-x="614" 
d="M11 423l-1 377h595v-178l-109 -140q-108 -141 -110 -148q-3 -9 101 -142q105 -134 105 -142t-101 -8l-101 2l-22 23q-24 27 -90 112q-25 32 -42 54t-30 39t-20.5 26.5t-13 15t-7.5 7t-3 0.5q-2 -4 -4 -139l-1 -137h-144zM324 617q-29 18 -63 -16q-22 -22 -22 -32
q0 -23 16 1q2 3 5 8q9 15 26 25.5t23 4.5q5 -5 -6 -11q-11 -7 -31 -35.5t-20 -38.5q0 -12 7.5 -14t9.5 9q4 14 16 14t15.5 7.5t-3.5 16.5q-6 7 -3.5 13t11.5 6q6 0 17 18q8 12 8 16t-6 8zM223 537q14 5 1 12q-15 5 -18 -3q0 -7 5 -9.5t12 0.5zM186 497q17 14 7 15
q-12 0 -25.5 -11.5t-20.5 -27.5q-10 -24 -3 -23q4 1 13 15q14 20 29 32zM223 470q8 7 6 15t-12 8q-5 0 -18 -11.5t-26 -27t-18 -24.5t-3.5 -11t12.5 1q8 1 11.5 4t1.5 7q-3 10 5 13q4 2 8 -3q5 -8 10.5 -6.5t8.5 12.5q4 13 14 23zM276 485q-11 14 -24 -1q-11 -13 -8.5 -27
t18.5 -24q22 -11 24 -11q2 1 1.5 13.5t-4 28.5t-7.5 21z" />
    <glyph glyph-name="S" unicode="S" horiz-adv-x="718" 
d="M277 781q0 13 3.5 16t19.5 3q15 0 19 -3t4 -13q0 -16 23 -31q20 -12 31 -31t20 -57l9 -38q146 -3 293 -7l2 -64q2 -65 -6 -74q-5 -5 -37 -7t-123 -2h-153l-32 -34q-32 -34 -30 -39q3 -5 189 -5t191 -8q5 -9 7 -133l2 -124q-52 -55 -103 -111l-261 -4q-261 -4 -266 1
q-5 4 12 19q25 24 8 28q-10 3 -39 2h-48l-2 42q-2 41 4 47q10 10 360 11l152 1l35 33q36 34 32 40q-3 6 -206 5q-202 0 -208 4q-5 7 -8 112q-3 65 -2 87t7 27q10 7 10 16q0 8 15 27q16 19 24 57q5 24 12 36.5t24 30.5q29 27 30 36q3 46 2 59.5t-7 18.5q-9 7 -9 26z" />
    <glyph glyph-name="T" unicode="T" horiz-adv-x="775" 
d="M14 682l-4 118h756l-4 -114q-36 -4 -72 -7l2 -23q2 -25 6 -32t17 -7q17 0 27 -12t6.5 -26.5t-19.5 -20.5t-27 -23q-8 -12 -6.5 -20t17.5 -37q20 -40 36 -58q16 -17 16 -24q0 -16 -18 -2q-9 7 -17 17t-13 14t-10 5.5t-11 -0.5q-15 -3 -22 10q-5 9 -11.5 10.5t-27.5 -0.5
q-43 -6 -43 -12q1 -5 9 -13q11 -12 11.5 -15t-9.5 -8q-30 -16 -32 0q0 3 1 6q5 14 -14 33q-35 38 23 46q56 8 42 46q-6 16 -4 16t5 -3q9 -8 19 10q9 12 8 28t-14 63q-2 7 -34 -1q-21 -5 -57 -6t-58 4q-5 1 -6 -7q-5 -20 -7 -291l-1 -301h-170l-1 309q-1 309 -5 319
q-2 6 -18 8t-72 1q-87 -1 -140 0h-54zM678 639q-7 37 -14 37q-3 -1 -6 -9q-3 -7 1.5 -33.5t9.5 -35.5q11 -16 12 6q1 13 -3 35z" />
    <glyph glyph-name="U" unicode="U" horiz-adv-x="662" 
d="M13 534l-3 266h152l1 -194l2 -195l23 -2q22 -1 50 -8q21 -6 28.5 -3.5t28.5 22.5q38 34 50.5 35t41.5 -28q33 -31 49.5 -29t41.5 41l24 36v325h151l-3 -253q-3 -207 -9.5 -267.5t-32.5 -112.5q-67 -132 -279 -132q-51 0 -101.5 11t-84.5 29q-13 6 -32 21.5t-33 30.5
t-14 19q0 7 -13 25q-24 32 -30 90.5t-8 272.5zM94 175q3 3 0.5 7.5t-6.5 6.5t-7 -2q-4 -6 2.5 -11t10.5 -1z" />
    <glyph glyph-name="V" unicode="V" horiz-adv-x="774" 
d="M11 796q7 6 76.5 4t74.5 -8q6 -7 33 -74q26 -65 33 -65t30 39q21 39 37 49q17 9 38 35q14 16 22.5 20t28.5 4q25 0 35 -8.5t29 -45.5q17 -32 37 -46q23 -17 45 -27t26 -6q3 4 27 63t27 62q4 5 42.5 7t75.5 0.5t37 -6.5q0 -7 -240 -585q-64 -151 -71 -160q-11 -12 -115 -7
q-16 1 -30 27.5t-69 159.5q-116 279 -116 288q0 7 -17 40q-11 20 -39.5 91t-34.5 84q-28 58 -22 65z" />
    <glyph glyph-name="W" unicode="W" horiz-adv-x="878" 
d="M11 786q-2 10 5.5 12t55.5 2h66l7 -37q13 -67 43 -205q10 -50 25.5 -126t18.5 -88q7 -35 13 -32q6 1 26 83q11 51 19.5 86.5t18.5 74t22 93.5q26 112 31 129l6 22h142l17 -76q12 -50 42.5 -176.5t40.5 -170.5q15 -68 22 -65q6 2 18 57q10 56 34.5 170t29.5 140
q22 106 23 110q3 7 14.5 9t53.5 2h64l-72 -299q-16 -69 -36 -154.5t-32.5 -139t-16.5 -67.5q-5 -23 -7.5 -34t-7 -22t-7 -14t-9 -5t-12.5 -1t-18 5q-32 8 -208 10.5t-190 -4.5q-14 -8 -42 -9q-22 -1 -26.5 2t-8.5 23q-25 111 -83.5 353.5t-81.5 341.5zM448 467q-4 13 -9 13
q-6 0 -9 -11.5t2 -16.5q7 -7 13 -2t3 17zM455 418q0 13 -15 15q-12 2 -18 -8t3 -18q8 -8 19 -4t11 15zM455 340q-11 39 -20 35q-3 -1 -6 -8q-9 -27 -14.5 -52t-3.5 -27q5 -4 29 -4q22 0 24.5 8.5t-9.5 47.5zM465 257.5q0 6.5 -25 6.5q-27 0 -30 -6q-1 -2 -0.5 -3.5t2.5 -2.5
t6 -1q12 0 20 -8t8 0t9.5 8t9.5 6.5zM512 197q-47 26 -98.5 17.5t-88.5 -49.5q-31 -35 -29 -42q3 -12 81 -12h60q142 1 144 7q3 10 -22 39t-47 40zM397 61q2 4 6 6t7 1t3 -5q0 -5 -11 -16q-7 -7 -21.5 -9.5t-57.5 -2.5q-41 0 -54 2t-13 8t13 8t55 2q69 0 73 6zM465 63
q0 9 12 3q3 -2 5 -5q7 -6 70 -7q61 -2 62 -9t-64 -7q-62 -1 -73 9q-12 9 -12 16z" />
    <glyph glyph-name="X" unicode="X" horiz-adv-x="738" 
d="M90 716q59 61 73.5 72t35.5 11q21 1 34 -8.5t65 -63.5l70 -74l75 74l7 7l30.5 30.5t24.5 20t20 13.5t18.5 2.5t18 -4t20.5 -16t25.5 -22.5t32.5 -34l2 -2l2 -2l2 -2q81 -85 82 -89q2 -5 -80 -91l-82 -86l32 -36q24 -30 81 -87q50 -48 50 -54q0 -4 -55 -62t-111.5 -114.5
t-60.5 -56.5q-14 0 -24 21.5t-10 49.5v37l-48 47q-48 47 -54 47q-5 0 -50 -47q-32 -34 -38 -45t-7 -37q0 -28 -11.5 -51.5t-24.5 -20.5q-7 2 -116 114t-109 118t76 81q76 76 82 86q3 7 -11.5 25.5t-64.5 71.5q-82 84 -82 88q0 5 80 89zM311 305q0 7 -44.5 51.5t-50.5 44.5
q-9 0 -16 -15.5t-7 -33.5q0 -27 14.5 -47.5t35.5 -24.5q13 -2 29 1t27.5 10t11.5 14zM539 389q-7 12 -15 12q-7 0 -51.5 -44.5t-44.5 -51.5q0 -4 7 -9.5t17 -9.5q35 -14 64.5 5t29.5 57q0 27 -7 41z" />
    <glyph glyph-name="Y" unicode="Y" horiz-adv-x="703" 
d="M11 786q-2 10 2.5 12t26.5 2q15 0 24 -2t16 -6.5t19 -14.5q26 -23 36 -23t6 -10q-4 -11 41 -58q43 -45 96 -110q51 -64 62 -62q10 2 103 100q22 23 35.5 37.5t24 26.5t15.5 18.5t7.5 12t2 7.5t-2.5 4q-10 7 -28.5 8t-22.5 -6q-3 -5 -23 -10q-20 -3 -42 -27
q-15 -17 -25.5 -21t-41.5 -6q-84 -7 -103 39q-10 22 -19 30q-11 9 -8 14q2 3 -15 14.5t-35 23t-18 13.5q1 2 9.5 0.5t22.5 -7.5t26 -14q24 -15 76 -19q61 -5 76 -5t39 7q22 7 28.5 6.5t15.5 -8.5q13 -13 38 -8t62 6q38 1 53 17q17 15 13 24q-2 5 7 7t37 2h47l-4 -18
q-6 -29 -6 -34q-2 -16 -21 -21q-17 -5 -43 -29.5t-107 -113.5q-85 -94 -95 -121q-8 -27 -4 -210q3 -138 1.5 -162.5t-12.5 -32.5q-23 -16 -59 -13.5t-59 22.5q-8 8 -9.5 27t2.5 100q10 266 -49 359q-18 28 -87 102t-97 95q-30 22 -34 36z" />
    <glyph glyph-name="Z" unicode="Z" horiz-adv-x="790" 
d="M697 779q5 12 10.5 16.5t16.5 4.5q12 0 19 -7t20 -33q21 -41 17 -46q-3 -5 -29 8q-25 13 -32 9q-4 -2 0.5 -15t15.5 -30.5t23 -31.5q33 -37 9 -37q-12 0 -54.5 11.5t-50.5 16.5q-5 4 6.5 48.5t28.5 85.5zM726 748q9 0 0 10l-4 3q-3 0 -3 -6.5t7 -6.5zM111 720
q14 3 123 4.5t212 -0.5t103 -6q0 -7 -41 -81q-7 -13 -25 -46t-32.5 -59t-31 -55t-28 -46.5t-15.5 -18.5q-10 -4 -10 -19q0 -14 -45 -96t-41 -87q4 -4 171.5 -5.5t174.5 2.5q6 4 7 143v140l28 2q42 2 42 10q0 3 -4 8q-8 10 -24 6q-12 -3 -12 2t15 23q7 7 6.5 11t-8.5 13
q-11 13 -20 13t-9 6.5t10 6.5t10 9t6 14q5 3 11 -6t11 -26.5t7 -37.5q3 -22 6.5 -32t11 -14.5t22.5 -5.5l19 -2l2 -210q1 -155 -0.5 -185t-11.5 -42l-13 -18h-261q-194 0 -227.5 2t-35.5 12l-4 13l-13 -13q-7 -7 -15.5 -9.5t-25.5 -3.5t-57 -1q-85 0 -89 6t19 45
q6 11 62.5 111.5t107.5 191.5t63 112q26 43 26 52q0 5 -27 6t-108 0q-58 0 -98.5 1t-42.5 3q-7 7 10 33q18 31 27 51q12 29 29 49t33 24z" />
    <glyph glyph-name="bracketleft" unicode="[" horiz-adv-x="1019" 
d="M10 -69.5q0 6.5 500 6.5t500 -6.5t-500 -6.5t-500 6.5z" />
    <glyph glyph-name="bracketright" unicode="]" horiz-adv-x="1019" 
d="M10 -69.5q0 6.5 500 6.5t500 -6.5t-500 -6.5t-500 6.5z" />
    <glyph glyph-name="a" unicode="a" horiz-adv-x="513" 
d="M222 709q104 8 113 -2q7 -9 53 -159q77 -242 84 -262q36 -113 31.5 -120t-249.5 -7q-152 0 -198 2t-46 8q0 8 39 132q32 98 56 179q18 56 23 62q6 6 6 19q2 18 22 79l21 65zM201 441q-23 15 -34.5 17t-32.5 -4q-12 -3 -24.5 -20.5t-17.5 -40.5q-5 -17 7 -22q10 -3 49 -33
q35 -28 42 -28t15 -8q9 -9 38 -9q29 -1 47 -18q19 -16 40 -21q30 -6 68.5 -7.5t42.5 2.5q5 5 2 36q-2 24 -12 30t-55 10q-12 1 -27.5 8t-32 16.5t-23.5 11.5q-14 7 -18 20q-4 14 -20 14t-20 13q-4 14 -34 33z" />
    <glyph glyph-name="b" unicode="b" horiz-adv-x="504" 
d="M12 726q3 8 129 8.5t147 -7.5q19 -7 50 -9q55 -5 88 -36q8 -8 9.5 -14t-2.5 -20q-8 -28 -3 -28q2 -1 10 3q12 7 20.5 -2.5t-0.5 -19.5q-8 -10 -3 -17q10 -16 -37 -58.5t-82 -49.5q-22 -5 -22 -9q0 -7 22 -10q21 -5 57 -21.5t47 -25.5q12 -10 7 -26q-5 -22 5 -25q4 -2 9 5
q6 7 9 7t11 -9q11 -12 8 -27q-5 -15 2 -25q6 -12 -4 -20q-11 -9 -15 6q-1 4 -1 9q0 9 -2 9q-2 1 -14 -14q-26 -31 -9 -47q7 -8 0 -20q-7 -13 -15.5 -20t-22.5 -10.5t-40 -6.5q-16 -1 -21 -11q-4 -6 -37.5 -7.5t-133.5 -1.5h-166l-2 271q-1 273 2 279zM279 621q-25 9 -76 9
t-54 -8q-3 -7 -1 -71l1 -61h43q64 1 100.5 21t36.5 53q0 22 -11 34.5t-39 22.5zM289 414q-24 10 -76 17.5t-62 1.5q-6 -4 -6 -80.5t6 -82.5q5 -4 87 4q60 6 73 10t27 20q17 22 17 42q0 39 -66 68z" />
    <glyph glyph-name="c" unicode="c" horiz-adv-x="682" 
d="M20 761q8 6 330 4l320 -1v-163l-72 -1h-10q-48 0 -55 -4t-2 -30q1 -4 2 -6q3 -16 1 -18.5t-17 -2.5q-20 0 -25 9q-12 33 -111 24q-6 0 -27 -18q-24 -19 -42 -13q-8 2 -5 11q3 12 5 29l3 20l-68 -2q-66 -3 -69 -4q-2 -3 -4 -122l-3 -120l80 -82l210 -2l209 -2l2 -76
q0 -27 0.5 -42.5t-1 -24t-4 -11.5t-7.5 -6q-14 -7 -248 -4l-236 2l-65 64q-65 66 -65 72t-18 20l-18 15v240q0 155 1.5 198.5t8.5 46.5zM422 545q-3 0 -7 7q-2 6 3 6q7 0 7 -6.5t-3 -6.5zM428 535q8 3 9 3q7 2 30 -16.5t23 -26.5q0 -9 -68 -9t-72 7q-5 8 11 20.5t36 15.5
q29 5 31 6zM314 341q0 4 8 14t9 12q0 7 9 56l9 51l72 -2q22 -1 35.5 -1.5t21.5 -2t11 -3t3 -4.5q-2 -10 4 -17q3 -3 10.5 -46t13.5 -45q16 -6 8 -12q-6 -5 -19 -4q-22 3 -22 11q0 7 -9 14t-20 7q-9 0 2 -12q11 -11 11 -16t-78.5 -5t-78.5 5zM471 388q0 6 -23 22
q-23 18 -23 9t20 -23q25 -17 26 -8zM360 362.5q0 6.5 -6.5 6.5t-6.5 -6.5t6.5 -6.5t6.5 6.5z" />
    <glyph glyph-name="d" unicode="d" horiz-adv-x="651" 
d="M222 752q19 23 25 26t22 -2q8 -2 11 -7.5t2 -18.5q-1 -21 8 -30q12 -12 11 1l-4 17q-7 18 -4 21q4 4 19 -7.5t15 -18.5q0 -6 8 -10q6 -2 5.5 3t-2.5 10t3 5q7 0 22 -4t28.5 -10t18.5 -10q10 -9 17 -6q6 5 31 -12q24 -17 35 -17q15 0 42.5 -27.5t45.5 -59.5
q20 -35 42 -98.5t18 -72.5q-3 -9 -14 -6q-10 5 -9 -7l9 -38q20 -63 -1.5 -137t-69.5 -112q-62 -50 -149 -70t-234 -17l-121 2v179q-1 206 -5 218q-4 5 -13 5q-21 0 -23.5 11.5t9.5 49.5q13 44 22 63q14 26 50 66t66 61q44 34 64 60zM261 733q-7 28 -14 26q-7 -1 -3 -24
q2 -20 11.5 -20t5.5 18zM234 712q-3 0 -11 4.5t-12.5 4.5t-4.5 -9.5t10 -4.5q10 3 14 -11q2 -9 6 -12t6.5 0.5t1.5 12.5q-3 15 -10 15zM324 701q0 7 -7 11t-7 -2.5t7 -10.5t7 2zM291 688.5q0 6.5 -6.5 6.5t-6.5 -6.5t6.5 -6.5t6.5 6.5zM363 648q0 15 -7.5 15t-3.5 -21
q7 -32 18 -32l4 2q4 5 -3.5 13t-7.5 23zM284 636q-5 13 -10 18t-7 -1t0 -20q5 -23 -6 -26q-10 -5 -10 -21q2 -7 6 -8q5 0 19 19q9 12 10.5 19t-2.5 20zM324 641q0 15 -7 15t-7 -18q0 -9 9 -23.5t19.5 -22.5t13.5 -2q4 6 -12 20q-16 16 -16 31zM503 644q-5 8 -10.5 5
t-4.5 -14q0 -17 -4 -29q-5 -15 5 -15q3 0 7 6.5t6 15.5t2.5 18t-1.5 13zM466 625q2 12 -8.5 12t-8.5 -10.5t8.5 -11t8.5 9.5zM121 605q0 16 -4.5 17t-16.5 -12q-14 -18 -3 -19q9 0 19 -15t15 -9q5 5 -2 12q-8 8 -8 26zM224 596q8 -8 12 3q2 8 -3 13q-7 8 -11 -3q-3 -8 2 -13
zM146 583q9 -9 12 6q2 11 -3 16q-9 9 -12 -6q-2 -11 3 -16zM303 576q7 -7 11 3q3 8 -2 13q-8 8 -12 -3q-2 -7 3 -13zM592 547q0 10 -20 32q-6 8 -7 5q0 -5 10.5 -25t13.5 -20t3 8zM82 558q9 0 0 10l-4 3q-3 0 -3 -6.5t7 -6.5zM493 555q0 10 -6.5 10t-6.5 -10t6.5 -10t6.5 10
zM395 551.5q0 6.5 -6.5 6.5t-6.5 -6.5t6.5 -6.5t6.5 6.5zM558 542q-10 0 -22 10q-8 6 -9 5t2 -12q6 -18 6 -40q-2 -25 5 -25q6 0 6 16q0 17 13 23q11 6 10.5 14.5t-11.5 8.5zM304 534q0 8 -5.5 13t-9.5 1q-3 -4 8 -28q19 -34 2 -31l-6 2q-6 2 -7.5 0.5t0.5 -7.5q5 -12 5 -21
q0 -18 11 -4l10 19q7 16 7.5 21.5t-5.5 12.5q-10 11 -10 22zM363 525q-15 29 -24 27q-2 -1 -2 -6q0 -8 14 -28.5t29.5 -36.5t18.5 -12q4 3 -3.5 16.5t-13.5 13.5t-19 26zM67 512q-3 26 -10 25q-2 -1 -4 -4q-2 -4 -1.5 -10.5t2 -13t4 -11.5t5.5 -5q5 0 4 19zM422 505
q0 4 -9 17q-9 12 -14 4q-4 -5 0 -16q5 -12 17 -11q6 1 6 6zM512 516q-1 11 -11 15q-4 1 -6 -1.5t0 -7.5q1 -11 10 -15q5 -1 6.5 1.5t0.5 7.5zM127 507q0 11 -5.5 12t-9.5 -10q-2 -5 -6 -5.5t-8 0.5t-7 -1t-3 -9q0 -8 3.5 -13.5t8 -5.5t8.5 5q5 7 25 -14q21 -22 20 -11
q0 7 -12 23q-14 16 -14 29zM265 499q0 7 -8 10q-4 -1 -5 -6q0 -10 6.5 -10t6.5 6zM176 495q-3 8 -7 10t-6.5 -2.5t-2.5 -12.5q0 -17 10 -17q15 0 6 22zM354 463q3 2 0.5 7t-6.5 6.5t-7 -1.5q-4 -6 2.5 -11.5t10.5 -0.5zM95 450q0 9 -3 10t-7 -6q-3 -6 3 -10q6 0 7 6z
M384 428q-10 -5 -81 0.5t-85 8.5q-17 3 -24 -5q-6 -8 -4 -99q0 -54 2 -152l1 -60l25 -5q25 -5 82.5 3t83.5 20q32 14 55 36.5t36.5 52t16.5 65.5q6 79 -37 121q-16 16 -21.5 18.5t-9.5 -4.5q-8 -11 -20 -3q-13 8 -20 3z" />
    <glyph glyph-name="e" unicode="e" horiz-adv-x="544" 
d="M12 707q3 8 263 7l260 -2v-131l-68 -2q-67 -1 -77 -8q-2 -2 -23.5 -30t-41.5 -58t-14 -33q8 -3 116 -4l108 -2v-124l-87 -4q-86 -3 -88 -7q-1 -3 44 -73l44 -69q44 -2 87 -4v-118h-523l-2 327q-1 328 2 335zM178 551q-10 12 -25 12.5t-27.5 -10t-9.5 -24.5
q4 -16 -1.5 -18.5t-21.5 5.5q-25 14 -24 3q2 -5 9 -13q28 -30 96 -24q29 2 46.5 11.5t17.5 23.5q0 9 -13 2q-14 -7 -30 -7q-10 0 -12.5 2.5t-0.5 10.5q4 13 -4 26zM190 331q-12 -3 -24 8q-8 7 -11 7t-9 -7q-9 -10 -23 -6q-10 3 -13 1t-3 -11q0 -15 -13 -18q-11 -3 -9.5 -18
t-7.5 -19q-8 -3 -8 -5.5t9 -11.5q7 -8 7.5 -12.5t-4.5 -10.5q-8 -10 1 -10q5 -1 17 0q10 1 12 -1.5t-1 -10.5q-3 -11 1.5 -13t13.5 7q8 7 17 -1q10 -8 24 -3.5t22 -2.5q9 -8 12 6q2 8 6 10t12 -1q12 -3 12 2.5t-3.5 13t7.5 7.5q6 0 8.5 3t0 7.5t-8.5 10.5q-10 8 -7 23
q5 14 -8 22q-13 5 -15 21q-2 15 -14 13z" />
    <glyph glyph-name="f" unicode="f" horiz-adv-x="714" 
d="M130 705q5 13 8 14t11 -7q10 -10 10.5 -43.5t-8.5 -56.5q-10 -23 -17 -21q-4 1 -4 9t-17 33l-16 25l13 14q13 13 20 33zM17 672q9 9 29 0.5t44 -31.5q26 -26 20 -33q-2 -3 -9 0q-10 4 -10 0q2 -6 14 -16q28 -23 -9 -26h-25q-52 4 -60 24q-3 6 2 12q7 8 4 37q-4 27 0 33z
M115 547q4 5 296 3l291 -2l2 -58q2 -58 -4 -65q-8 -7 -225 -9l-217 -2v-62l217 -2q217 -1 217 -7q0 -5 -66 -68l-66 -63h-146q-145 0 -150 -7q-3 -7 -7 -132q-3 -125 -11 -131q-10 -6 -65.5 -4.5t-61.5 7.5q-8 8 -8 303q0 296 4 299z" />
    <glyph glyph-name="g" unicode="g" horiz-adv-x="716" 
d="M312 715q90 12 158 -8.5t127 -77.5q31 -29 54.5 -66t16.5 -43q-5 -5 -81 -38q-53 -22 -64.5 -25t-17.5 6q-3 5 -26 39q-45 61 -119 59t-121 -65q-26 -34 -37 -72.5t-11 -94.5q0 -40 3.5 -57.5t14.5 -43.5q19 -39 34 -59q10 -13 29.5 -26t41 -21t35.5 -8q21 0 22 -7
q0 -4 -9 -8q-10 -4 -15 -28q-4 -21 -11.5 -20t-9.5 22t-4 21q-3 0 -12 -8t-16.5 -17t-7.5 -12q0 -8 -14.5 -11t-31 0.5t-23.5 11.5q-5 6 -19.5 15t-30 15t-22.5 6q-14 0 -23 -10q-17 -21 -41 12q-71 94 -71 237q0 63 8.5 105.5t33.5 91.5q37 77 105.5 125.5t154.5 59.5z
M367 373q2 6 34.5 7.5t130.5 0.5q157 0 169 -3q7 -3 6 -50.5t-9 -92.5q-6 -28 -15.5 -53.5t-21.5 -42.5t-22 -19q-5 -1 -8.5 -2.5t-5.5 -5t-3 -8t-2 -12.5q-2 -24 -8 -23q-5 2 -7 17q-1 11 -5.5 15t-17.5 5q-21 2 -36 -7q-16 -11 -34 -10t-24 13q-7 12 -24 10q-6 0 -9 -1
t-5.5 -3.5t-3.5 -6t-2 -8.5q-4 -31 -24 -3q-12 14 -15 6q-3 -9 -9 -8t-6 9q0 10 35 26q34 14 52 35q15 18 24 43t2 31q-6 6 -70 7l-65 2l-2 62q-2 61 1 70z" />
    <glyph glyph-name="h" unicode="h" horiz-adv-x="850" 
d="M392 780q13 20 32 20h18l-12 -18q-14 -23 -23 -41l-10 -24l-37 3q-20 2 -36 -0.5t-31.5 -9.5t-32.5 -19q-21 -15 -21 -8q0 5 13 22q15 18 44.5 33.5t54.5 18.5q17 1 25 5.5t16 17.5zM122 590q9 8 55 6l45 -2q4 -101 7 -202q40 -10 78 -19l13 19q14 19 34 45
q15 21 21 50.5t8 92.5v18q48 -2 94 -4l4 -23q1 -11 3 -15t7 -6t16 1q64 6 87 2q16 -3 17 -9q0 -5 -15 -5q-27 0 -83 -25q-29 -13 -80.5 -69t-76.5 -103q-30 -55 -36 -54q-1 1 -8 3t-17.5 6t-19.5 7q-39 13 -95 11q-92 -5 -146 -61q-24 -25 -24 -13q0 21 26 51t59 47l20 11
v115q0 117 7 125zM804 448q6 1 13.5 2t12 2t5.5 1q6 1 6 -1q-1 -7 -28 -21q-27 -12 -53 -37.5t-49 -62t-41 -79.5l-18 -44h-45q-103 -2 -168 -86q-29 -37 -21 -37q4 1 20 15q24 20 30 20q7 0 5 -41l-2 -40q-48 -2 -95 -4v269l19 37q15 31 43.5 68.5t35.5 37.5t7 -117.5
t5 -117.5q6 0 15 10q22 26 87 39l39 7l29 48q69 119 148 132zM126 276q11 8 45 7.5t41 -8.5q8 -9 6 -123l-2 -113h-105l2 114q1 51 2 74.5t3.5 34t7.5 14.5z" />
    <glyph glyph-name="i" unicode="i" horiz-adv-x="203" 
d="M95 786q0 14 5 14q7 -3 11 -20q6 -21 27 -34l22 -13v-74q0 -53 2.5 -64.5t14.5 -19.5q15 -10 16.5 -29t-13.5 -22q-10 -3 -11 -22t2 -122q6 -122 6 -237v-98l-72 -2q-72 -1 -77.5 5t2.5 161q8 147 9 228q0 50 -2 61.5t-12 18.5q-16 10 -15 27.5t17 30.5q9 7 12 13.5
t4.5 19.5t2.5 50l1 69l24 23q24 22 24 36z" />
    <glyph glyph-name="j" unicode="j" horiz-adv-x="522" 
d="M364 776q5 4 76 3l73 -2v-510l-18 -32q-51 -96 -176 -115q-66 -10 -122.5 -1.5t-100.5 34.5t-64 65q-10 21 -17.5 58t-2.5 42t76 4l71 -2l6 -23q5 -22 22.5 -40.5t39.5 -25.5q20 -7 50.5 -3.5t46.5 13.5q37 24 34 138l-2 65l-22 7q-15 4 -19 9t-5 17q-2 46 -5.5 54
t-26.5 14q-26 7 -34.5 3.5t-4.5 -21.5q3 -10 1.5 -12.5t-8.5 -0.5q-11 5 -21 5q-9 0 -9 7q0 8 -11 16q-8 6 -8 9.5t10 14.5q15 15 19 51q5 36 16 49q12 13 15 26q2 13 18 13q12 0 15 -8t-3 -27q-1 -5 3.5 -8.5t13.5 -5.5t11 -3q11 -4 14.5 2.5t-5.5 13.5q-15 13 -8 19
q2 1 5 1q6 0 6 -8t9 -18q14 -15 11.5 -22.5t-22.5 -10.5q-9 -1 -14 -2.5t-8.5 -3.5t-5 -5.5t-3.5 -9.5q-1 -6 -1.5 -10t2.5 -8.5t8 -9.5t15 -13q20 -17 24.5 -25t4.5 -30q0 -37 14 -44q4 -2 8 2t4 153q0 148 5 152zM228 559q0 6 -6.5 6t-6.5 -11q0 -12 9 -3z" />
    <glyph glyph-name="k" unicode="k" horiz-adv-x="578" 
d="M226 720q17 34 23 40.5t19 3.5q16 -4 32 -20q11 -10 12 -15.5t-4 -16.5q-9 -16 -3 -23t29 -7q16 0 21 -2t3 -9q-1 -7 -8.5 -9.5t-28.5 -2.5q-42 0 -39 -12q1 -6 18 -12q20 -8 20 -13q0 -17 42 14l5 4l29 23h80q22 0 40 -0.5t28.5 -2t10.5 -2.5t-34.5 -32t-76 -67
t-76.5 -66.5t-36 -30.5q-6 -8 71 -104q89 -114 121 -153q45 -58 45 -64q0 -8 -77 -8h-78l-75 106q-76 109 -89 124l-15 19q-52 -45 -103 -87l-4 -158h-118v522h118l2 -107q1 -107 6 -113q5 -3 40 27q23 21 28 28.5t0 15.5q-7 14 6 49q10 28 10 55t-9 37q-9 8 -6.5 19.5
t21.5 49.5zM283 606q-10 10 -20.5 1t-26.5 -41q-22 -43 -5 -41q15 1 35 24q8 10 6 14q-3 9 6 24q10 15 5 19zM323 601q1 2 1.5 4.5t0.5 3.5t-1 1q-2 0 -10 -9q-8 -10 -1 -10q5 0 10 10z" />
    <glyph glyph-name="l" unicode="l" horiz-adv-x="557" 
d="M12 775q4 5 77 4l73 -2l2 -252q1 -252 4.5 -259.5t36.5 -7.5q28 0 35.5 10.5t6.5 51.5q0 23 -3 28t-17 8q-11 2 -11 4q-1 3 38 24q38 21 62 36q16 10 67 11l50 2v-21q0 -13 5.5 -19.5t22.5 -16.5q22 -13 22 -16q0 -2 -10 -4q-12 -3 -14.5 -10t-2.5 -39v-46q46 -3 92 -7
l-2 -39q0 -38 -1 -54l-1 -14h-261q-261 0 -266 8q-4 7 -6.5 310.5t1.5 309.5zM404 284q0 14 -3 19t-12 5q-12 2 -17 -6t-3 -26q2 -15 19 -15q7 0 10.5 1.5t4.5 6t1 15.5zM152 231q0 7 -6 10q-7 4 -7 -2.5t7 -10.5q6 -3 6 3z" />
    <glyph glyph-name="m" unicode="m" horiz-adv-x="657" 
d="M12 714q3 8 100 6l96 -2l38 -143q76 -293 82 -298q2 -2 4 1l29 107.5t57.5 214.5l28.5 107q4 11 20 13q14 2 77 2q91 0 96 -7q4 -7 6.5 -301t-0.5 -328l-4 -38l-126 2l-125 2l2 28q1 27 17 50q16 20 16.5 27.5t-13.5 17.5q-9 5 -10.5 9t3.5 9q11 11 8 14t-16 -6
q-32 -23 -3 -32q32 -11 -21 -41q-35 -20 -64 -50q-18 -17 -28 -23.5t-23 -6.5q-21 0 -21 6.5t62 47.5q72 46 61 62q-2 3 -6 5q-8 5 -6 10.5t13 9.5q13 3 13 14q0 8 -24 -4q-1 0 -2 -1q-19 -10 -21.5 -13.5t5.5 -12.5q11 -13 2 -22t-47 -23q-40 -15 -71.5 -31t-31.5 -21.5
t17 -10.5q40 -10 -13 -13q-26 -1 -74 -1l-103 2l-2 326q-1 328 2 336zM591 295q0 6 -11.5 8t-24 -1t-15.5 -9q-3 -10 3 -17q6 -5 27 2.5t21 16.5zM266 241q-45 14 -54.5 14.5t-40.5 -7.5q-29 -9 -79 -13q-47 -4 -60 -12q-7 -6 -6.5 -11t9.5 -24q14 -27 40 -52l26 -26l12 15
q12 14 29 19q18 3 21 10q4 5 44 5q38 0 67 6q11 2 16.5 4t7 5.5t0.5 9.5q-2 15 10 15q16 0 24 12q4 8 -3 10q-18 4 -63 20zM632 246q-10 7 -86.5 7.5t-95.5 -5.5q-25 -9 -44 -9q-11 -1 -15.5 -4.5t0.5 -6.5t16 -3q20 0 34 -19t5 -33q-5 -8 -4.5 -13t7.5 -13q11 -12 20 -13.5
t13 8.5q3 8 13 -5q11 -11 20 -8q10 5 10 -9q0 -12 7 -16q5 -3 21 8t33.5 29.5t26.5 33.5q13 23 19 45t0 26z" />
    <glyph glyph-name="n" unicode="n" horiz-adv-x="648" 
d="M10 434l1 301h189l58 -90q35 -55 71 -108.5t64 -97.5q37 -57 45 -57q7 0 7 175l-1 174l56 2q50 2 96 -2l40 -4l2 -37q2 -41 0 -61q-2 -16 -5 -20.5t-12 -4.5q-5 0 -9 -1t-7 -3t-5 -4.5t-2 -5t2 -4.5q3 -2 17 3.5t16 2.5q3 -5 3 -71q0 -47 -2 -57t-12 -13l-14 -3l15 -16
q10 -11 12 -36t2 -157q0 -178 -1 -178q-3 0 -54 49q-54 50 -71 53q-4 1 -17.5 3t-18.5 3q-15 3 -55 39.5t-78 81.5l-30 35l-20 -15q-4 -3 -22 -17t-26 -20q-26 -22 -55 -22q-23 0 -41 -11.5t-75 -64.5q-44 -42 -54 -42q-3 0 -5 10.5t-3 42t-1 91v157.5zM81 634q0 3 -6.5 3
t-6.5 -8t10 1zM55 601q0 9 -2 9t-11 -9q-5 -6 -4.5 -8t7.5 -2q4 0 7 3t3 7zM75 545q0 10 -6 12.5t-10 -5.5q-5 -7 -17 -4q-8 3 -9 -0.5t0.5 -9.5t-3.5 -9q-7 -4 -7 -20t6 -19q7 -4 11 7q5 13 11 17q8 5 8 13q0 6 8 7.5t8 10.5zM349 474q0 6 -6 6q-4 0 -9 -5t-8 -11t-1 -8
q4 -4 14 3.5t10 14.5zM319 258q0 32 5 32q6 0 29 -31q25 -31 45 -49q20 -16 15 -21q-4 -5 -20 3.5t-32 23.5q-17 17 -29 13q-8 -3 -10 2t-3 27zM143 219q25 19 33 19q20 0 9 -20q-5 -7 -3 -13.5t13 -18.5q18 -21 13 -26q-4 -4 -26 22q-20 23 -36 21.5t-36 -27.5
q-17 -23 -27 -23q-14 0 25 36q16 16 35 30zM391 108q-3 5 29 35q30 26 27 12q0 -2 -1 -3q-3 -9 -27 -28t-28 -16zM491 129q-2 25 10 24q13 -1 44 -30q37 -34 33 -39q-3 -2 -23 16q-21 18 -25.5 19t-20.5 -9q-7 -5 -11.5 -7.5t-5.5 -1.5q0 7 -1 28z" />
    <glyph glyph-name="o" unicode="o" horiz-adv-x="765" 
d="M189 773l41 27h99q65 0 87 -2.5t41 -11.5q60 -28 84.5 -79t9.5 -117q-10 -42 -23 -59q-11 -16 -11.5 -26.5t9.5 -18.5q7 -6 8 -17t-2 -42q-5 -47 -6 -79q-1 -43 -22 -50q-11 -4 -21 9q-9 9 -17 9t-11.5 -26.5t2.5 -45.5q8 -20 -2 -30t-39 -13l-29 -4v25q-2 24 -8 31
q-8 7 -7 12.5t9 5.5q10 0 10 5t-11.5 15t-22.5 14q-12 5 -12 15q0 7 -8 8t-9 7q-2 4 3 5.5t17 1.5q23 0 23 8q0 4 -10 8t-5 12q5 7 10 44q3 22 2 31.5t-8 15.5q-8 10 -2 11l19 1q27 0 27 6q0 3 -20 11.5t-43.5 15t-32.5 6.5q-15 0 -29 -20q-16 -20 -31 -26q-11 -4 -12.5 -11
t0.5 -34q3 -39 -5 -46q-9 -7 -16 -36q-22 -90 24.5 -154.5t138.5 -69.5q76 -4 136.5 20t119.5 83q60 60 83.5 121t18.5 146q-5 69 -28.5 121.5t-71.5 98.5q-25 23 -70.5 49t-79.5 37l-26 8h40q27 1 39.5 -3t39.5 -22q80 -53 125.5 -131t50.5 -170q6 -91 -45 -193
q-40 -78 -126.5 -131t-185.5 -59q-131 -9 -236.5 71t-140.5 214q-29 109 18 220t150 178zM403 703q-3 8 -12 10q-3 1 -4 -1q0 -2 2 -6q4 -11 12 -10q4 0 2 7zM378 646q0 2 -9 6q-8 3 -58.5 -51t-50.5 -66q0 -7 -3 -19q-4 -11 4 -10q11 1 25 16q15 16 14 27q-2 17 0 23t10 6
q10 0 6 -13q-3 -10 3 -25t13 -15q6 0 20 23q7 11 12 15.5t14 7t31 4.5q44 4 62 -6t18 -4q0 5 -14 17q-15 14 -54 15q-70 2 -51 33q8 14 8 16zM411 638q0 -9 9 -12q7 -3 8 1q1 3 -7 10q-10 8 -10 1zM483 466.5q0 6.5 -6.5 6.5t-6.5 -6.5t6.5 -6.5t6.5 6.5zM496 390q0 8 -10 3
q-6 -2 -8 -8q-5 -15 3 -16q4 0 8 6q7 9 7 15zM298 475q6 7 22.5 4.5t26.5 -10.5q24 -22 -2 -48q-13 -14 -23 -12.5t-20 19.5l-10 21l17 -5q11 -2 14 -1t2 9q-3 11 -17 10q-11 -1 -14 3t4 10zM247 324q0 5 6.5 5t6.5 -10q0 -12 -8 -4z" />
    <glyph glyph-name="p" unicode="p" horiz-adv-x="633" 
d="M11 429l-1 247l225 -1q160 -2 198 -4.5t65 -12.5q74 -30 108 -99q11 -23 14.5 -39t3.5 -47t-3.5 -46.5t-15.5 -37.5q-11 -19 -28.5 -37.5t-39.5 -33.5t-45 -23q-59 -23 -227 -24q-85 -1 -90 -6t-6 -122l-2 -118h-150l-4 30q-4 26 2 49t17 23q10 0 0 5q-1 1 -4 1
q-14 6 -15 28q0 5 -0.5 40t-0.5 105t-1 123z" />
    <glyph glyph-name="q" unicode="q" horiz-adv-x="723" 
d="M281 678q87 22 176 -3.5t155 -90.5q95 -96 101.5 -223t-79.5 -234l-26 -34l21 -68q9 -27 14.5 -48.5t3.5 -23.5q-4 -4 -77 34l-72 37l-45 -10q-42 -11 -92 -11t-88 9q-101 26 -172.5 105t-87.5 181q-12 84 19 164t97 138t152 78zM436 516q-26 11 -64 13q-48 3 -77 -8
t-67 -46q-42 -42 -53.5 -99.5t12.5 -109.5q20 -43 55 -71t76 -36t81.5 -1.5t76 34t56.5 69.5q14 29 16.5 43t0.5 46q-3 47 -17 74q-12 25 -42.5 53.5t-53.5 38.5zM178 154q0 12 -13 -4q-5 -7 -4.5 -8t7.5 2q10 3 10 10zM130 125q4 8 0 13q-3 3 -4 -4q0 -2 1 -5q0 -5 1 -6.5
t2 2.5z" />
    <glyph glyph-name="r" unicode="r" horiz-adv-x="554" 
d="M12 779q3 8 266 7l264 -2l1 -85l2 -85l-98 -128q-99 -128 -98 -137q0 -10 94 -131t91 -126t-89.5 -4t-96.5 7q-12 6 -104 125t-96 118q-5 -2 -8 -124l-4 -123h-124l-2 340q-1 341 2 348zM286 613q-12 4 -20 4q-10 0 -32 -22.5t-22 -32.5t-14 -10q-9 0 -12 -5.5t5 -10.5
q3 0 4.5 -0.5t8 5.5t14.5 15t25 27q28 30 33 18l1 -4q0 -6 -6 -6t-26 -30q-29 -43 -18 -48q7 -4 27 15q10 10 12 16.5t3.5 13.5t10.5 17q28 30 6 38zM185 513q0 6 -10 6q-8 0 -28 -19.5t-20 -26.5q0 -13 12 -2l10 11q8 15 23 21q13 3 13 10zM198 480q10 6 3 13t-27.5 -9.5
t-30.5 -36.5q-9 -16 -4 -16q2 0 7 1q13 4 13 11q0 8 15 8q15 -1 15 11t9 18zM258 461q-3 22 -12 28.5t-20 -4.5q-10 -10 -7 -21.5t19 -19.5q19 -10 21 -10q1 0 0.5 8t-1.5 19zM293 350q6 8 2 9q-5 2 -12 -7q-8 -10 -0.5 -10t10.5 8z" />
    <glyph glyph-name="s" unicode="s" horiz-adv-x="677" 
d="M257 788q0 7 5 9.5t18 2.5q10 0 14.5 -1t7 -4.5t3.5 -12.5q2 -18 18 -26q34 -16 46 -74q9 -36 14 -43q6 -8 138 -7l132 1v-137l-26 -4q-25 -5 -147 -5l-122 -1l-32 -32q-32 -32 -28 -36q3 -5 181 -4l177 1l3 -15q3 -12 6 -125l3 -110l-38 -43q-6 -8 -16 -20
q-33 -39 -61.5 -46t-168.5 -9q-42 0 -66 -1q-244 -4 -246 2q-2 2 5 11.5t15.5 18.5t8.5 10q0 5 -44 7l-45 2l-2 39q-2 38 4 44q11 11 334 12h145l29 28q30 29 30 35q-1 11 -84 12h-109h-196l-2 104q-1 58 1 85.5t8.5 44.5t21.5 34q11 13 19 52q4 16 8 26t10 18.5t17 18.5
q18 16 22.5 26t5.5 36q2 37 -7 51q-10 14 -10 25z" />
    <glyph glyph-name="t" unicode="t" horiz-adv-x="673" 
d="M14 646l-4 112q325 -1 651 -2v-110l-28 -2q-28 -2 -31 -10q-4 -11 4 -27t18 -16q22 0 26.5 -22.5t-15.5 -29.5q-22 -9 -25 -26t12 -48q16 -36 30 -48q16 -15 12 -25q-3 -3 -6 -4q-5 0 -21 20q-14 19 -29 19q-14 0 -22 10q-9 11 -32 6q-30 -5 -34.5 -8t2.5 -14
q8 -13 0 -20q-9 -10 -22 -2q-5 4 -2 9q3 6 -13 29q-16 20 -13 28t25 8q17 0 33.5 12t16.5 25q0 10 10 26q7 11 7.5 18.5t-4.5 25.5q-3 10 -11 36q-2 8 -14 2q-15 -8 -55.5 -10.5t-47.5 3.5q-11 8 -14 3q-5 -5 -5 -264v-259l-72 -2q-71 -2 -76 6q-4 7 -1.5 260t-3.5 270
l-7 18l-119 1zM590 604q-6 33 -12 33q-4 0 -5 -13t1.5 -27t6.5 -18q13 -13 13 -1q0 8 -4 26z" />
    <glyph glyph-name="u" unicode="u" horiz-adv-x="580" 
d="M15 731q3 4 64 2l58 -2q4 -183 7 -366h26q24 0 46 -6q14 -3 22.5 0.5t28.5 21.5q31 27 42 27q10 0 32 -26q25 -29 40.5 -25.5t43.5 42.5q9 13 11.5 40.5t4.5 135.5l4 156h124l2 -189q1 -106 -1.5 -175t-8 -112.5t-15.5 -70.5q-40 -108 -169 -135q-37 -8 -91.5 -7
t-89.5 10q-33 8 -64 22t-31 20t-18 16q-19 10 -39.5 52.5t-27.5 85.5q-5 39 -6 258t5 225z" />
    <glyph glyph-name="v" unicode="v" horiz-adv-x="698" 
d="M291 733q52 54 57 54t25 -26.5t33 -50.5q6 -10 15 -20.5t20 -19t23 -15t22 -9.5q7 -4 12 0t9.5 12t12.5 32q1 3 3 8q20 52 31 60.5t59 8.5h9q65 0 67 -4q2 -5 -135.5 -342t-145.5 -347t-46 -9h-8q-48 1 -58 5t-19 25q-1 3 -2 4q-13 29 -53.5 127t-75 185.5t-34.5 91.5
q0 8 -14 32q-7 15 -75 182q-17 37 -13 44q5 7 70 4l67 -1l25 -65q26 -67 31 -72q2 -1 5 1.5t7 8t8 13.5q17 32 68 83z" />
    <glyph glyph-name="w" unicode="w" horiz-adv-x="682" 
d="M10 749q4 6 51 4l47 -2l21 -111q25 -141 30 -173q12 -69 17 -85q0 -1 4 -19t7.5 -29t7.5 -11q3 0 12.5 39.5t18.5 82.5t9 45q6 18 26 115.5t22 108.5l8 36l47 2q45 3 52 -6q6 -7 27 -103q68 -327 74 -327q3 0 32 146q25 137 41 217l14 72l48 2q32 1 39.5 -0.5t7.5 -10.5
q0 -23 -56 -269q-18 -84 -43 -199q-33 -156 -38 -163q-6 -5 -38 1q-30 7 -155 7t-156 -7q-32 -6 -38 0t-60 260q-62 281 -69 313q-13 58 -10 64zM339 438q3 -3 7 -1t4 6t-3.5 6.5t-7 0.5t-3.5 -5.5t3 -6.5zM358 410q-3 8 -13.5 9.5t-14.5 -5.5q-5 -8 2 -14q7 -7 17.5 -3
t8.5 13zM357 335q-9 36 -15 38q-3 1 -8.5 -14.5t-9 -33.5t-0.5 -22q1 -3 12 -5t20 -2t10 3q-1 0 -9 36zM334 259q17 0 21 11q3 5 -6 6q-4 1 -9 1q-19 0 -22 -10q-2 -5 6 -7q4 -1 10 -1zM392 226q-23 11 -53 11t-48 -12q-11 -5 -24 -17.5t-22.5 -25t-9.5 -17.5q0 -6 -1 -9
t53 -4t109.5 -0.5t57.5 2.5q3 3 -7.5 18.5t-27 32t-27.5 21.5zM260 103q45 1 56 3q2 0 2 -1q0 -3 -4 -8q-9 -9 -57 -9q-44 0 -47 5q-3 7 50 10zM372 99q-6 7 -6 8t8 -2q12 -4 58 -4q45 0 45 -6.5t-48.5 -6.5t-56.5 11z" />
    <glyph glyph-name="x" unicode="x" horiz-adv-x="673" 
d="M93 695q83 91 87 91q3 1 82 -81l78 -82q76 84 150 165l87 -90q85 -90 87 -97q0 -7 -72 -83.5t-72 -84t72 -84.5t72 -82q0 -4 -99 -111.5t-103 -107.5q-3 0 -19 15q-9 8 -12 18t-3 33q0 20 -2.5 28.5t-10 18t-32.5 34.5q-45 45 -50 42q-5 -2 -47 -45q-30 -32 -35.5 -42.5
t-5.5 -36.5q0 -25 -9.5 -45t-20.5 -20q-5 0 -105 107t-100 112t72 82q72 75 72 84q0 7 -70 83q-70 75 -73 82q-2 7 82 97zM285 296q0 4 -40.5 48t-44.5 44t-12 -8q-14 -21 -13 -45.5t18 -44t41 -19.5q15 0 33 8.5t18 16.5zM490 374q-10 14 -15 14q-4 0 -46 -46
q-23 -26 -30 -38.5t-2 -19t25 -10.5q27 -6 49.5 10t27.5 40.5t-9 49.5z" />
    <glyph glyph-name="y" unicode="y" horiz-adv-x="584" 
d="M13 781q8 4 16 4t23 -2.5t18 -2.5q8 0 9.5 -2.5t-0.5 -10.5q-4 -12 6.5 -25.5t27.5 -20.5q15 -6 15 -17t51 -63q62 -67 77 -86l28 -33l81 82q23 23 38 38.5t24 26.5t12 17t1 8q-6 7 -21.5 7.5t-19.5 -6.5q-4 -6 -16 -6q-14 0 -36 -21q-25 -20 -59 -24q-30 -2 -55.5 7.5
t-32.5 25.5q-12 26 -22 37.5t-25 18.5q-14 6 -15 10q0 2 2 2q11 3 26 -8q17 -13 76.5 -18t88.5 4q17 5 23.5 4t15 -9t15 -8.5t23.5 4.5q18 6 30.5 4t26 -0.5t23.5 10.5q19 15 17 20q-1 5 22 15t33 11q8 0 12.5 -15.5t1.5 -30.5q-3 -21 -25 -30q-17 -7 -102.5 -95t-92.5 -106
q-5 -12 -5 -166q1 -110 -1 -132t-12 -30q-14 -9 -36.5 -9t-45.5 9l-23 10l3 99q2 59 -0.5 111t-10 91.5t-17.5 61.5q-12 25 -67 84.5t-90 85.5q-23 17 -33.5 36.5t-2.5 32.5z" />
    <glyph glyph-name="z" unicode="z" horiz-adv-x="686" 
d="M602 740q20 47 24.5 47t29 -46.5t21.5 -49.5q-4 -4 -23 4q-35 14 -28 -6q4 -12 25 -37q34 -42 15 -42q-10 0 -49.5 11t-43.5 15q-10 9 29 104zM94 695q13 6 194.5 6.5t184.5 -5.5q1 -1 -3 -10t-10.5 -22.5t-16 -30.5t-20 -35.5l-21 -37t-20 -35.5t-17 -29.5t-12.5 -21
l-5 -8.5q-8 -16 -18 -25t-10 -17q0 -9 -18 -38q-26 -41 -43 -76t-14 -42q4 -9 9.5 -10t9.5 5q3 7 136 6q133 0 141 4q8 5 8 115q0 74 2 93.5t9 23.5q11 6 50 3t48 -10q6 -4 7 -38t0 -138q-2 -115 -4 -143.5t-10 -37.5q-10 -11 -40.5 -12.5t-195.5 -1.5q-223 0 -230.5 7
t-20.5 0q-11 -6 -80.5 -7t-73.5 5q-3 5 117 212q121 207 121 214t-116 7t-121 4q-4 3 19.5 46.5t37.5 59.5t26 20zM573 597q20 20 31 -23q2 -6 3 -15q8 -41 0 -40q-2 0 -7 5q-7 7 -16 3q-10 -3 -9 3q2 7 10 16q7 7 7.5 11.5t-4.5 10.5q-9 10 -17 10q-13 0 -5 11z" />
    <glyph glyph-name="braceleft" unicode="{" horiz-adv-x="405" 
d="M122 792q8 8 19 8q8 0 7.5 -4t-11.5 -25q-17 -29 -22 -96q-5 -59 -11.5 -80.5t-22.5 -32.5q-4 -2 -7 -5.5t-3.5 -5.5t0.5 -3q6 -6 22.5 4t22.5 23q7 16 13 16q4 0 5 -6t-1 -13.5t-7 -12.5q-8 -7 0 -7t34 24l26 25l-7 31q-7 31 -11.5 31t-13.5 -28q-19 -53 -22 -15
q-1 13 0 38q3 48 9 73.5t19 47.5q7 11 11.5 14.5t12 5t26.5 1.5q33 0 32 -4q0 -2 -6 -8q-12 -14 -21 -47.5t-9 -65.5q0 -91 -37 -123q-23 -20 -35 -20q-30 0 20 -32l34 -21l-4 -30q-4 -33 -4 -48q0 -19 -6.5 -19t-6.5 13q0 17 -34 75q-24 38 -32.5 47t-23.5 12q-20 4 -19 12
q0 3 -3.5 5t-8.5 2q-4 0 -6.5 -1t-4 -3.5t-2 -6.5t-0.5 -11q0 -15 4.5 -20t23.5 -12q28 -9 38.5 -31.5t16.5 -82.5q7 -86 39 -120.5t105 -36.5q43 -1 46 5q1 2 1 9t-1.5 10.5t-5.5 6t-12 4.5q-30 9 -45.5 39.5t-19.5 94.5q-4 53 -12 77.5t-26 39.5l-20 18l16 14
q22 18 31 44.5t13 87.5q6 81 26 104t83 23q39 0 49.5 -6.5t12.5 -32.5q1 -27 -1.5 -33t-13.5 -6q-57 0 -67 -112q-5 -59 -10 -77.5t-20 -36.5l-20 -22l17 -26q36 -55 36 -126q0 -30 5 -40t34 -40q28 -28 34 -39t6 -33q0 -29 -10.5 -33.5t-56.5 3.5q-103 17 -163 70
q-33 30 -49.5 64t-21.5 85q-6 57 -12 67q-8 15 -40 37q-18 13 -23.5 19t-7.5 14t-2 27q0 36 8 38q47 12 59 30.5t17 84.5q9 92 28 116z" />
    <glyph glyph-name="bar" unicode="|" horiz-adv-x="1019" 
d="M10 -69.5q0 6.5 500 6.5t500 -6.5t-500 -6.5t-500 6.5z" />
    <glyph glyph-name="braceright" unicode="}" horiz-adv-x="407" 
d="M53 759l-41 41h34q21 0 29.5 -3t17.5 -14q11 -15 15.5 -35.5t7.5 -80.5q2 -34 7 -56t13.5 -36t22.5 -22q19 -11 19 -14.5t-19 -14.5q-35 -21 -43 -100q-4 -54 -7 -75.5t-8 -32.5t-16 -23q-19 -22 -32 -22q-10 0 -19 -14q-8 -15 2 -20.5t38 -1.5q80 10 110 45.5t35 124.5
q4 57 19 79.5t55 29.5q7 1 10 6t3 19q0 10 -1.5 15t-5.5 7t-14 4q-33 7 -44 29t-16 92q-5 64 -16 87q-11 24 -11 25q0 2 25 2q16 0 24 -5t22 -24q37 -53 45 -130q4 -49 12 -64.5t39 -35.5q19 -12 25.5 -19t7.5 -11t-1.5 -18t-2.5 -28q0 -19 -4.5 -23.5t-29.5 -10.5
q-22 -5 -31.5 -26.5t-12.5 -75.5q-5 -62 -20 -94q-18 -38 -62.5 -60t-102.5 -22q-29 0 -39.5 5t-39.5 30q-28 24 -34.5 34t-7.5 28t2 23t15 8q36 7 48.5 29.5t17.5 88.5q4 56 11 81.5t22 41.5q9 11 8.5 15.5t-12.5 21.5t-20 54.5t-9 78.5q0 17 -6.5 28.5t-33.5 38.5z
M117 779l-11 22l34 -2q26 -2 32.5 -6t16.5 -24q14 -28 19 -92q4 -59 13 -82.5t32 -34.5q32 -15 20 -20l-11 -1q-7 0 -18 -6.5t-18.5 -15t-7.5 -14.5t-20 -36q-19 -27 -24 -50q-7 -39 -14 -8q-2 11 -4 30l-4 44l24 22q26 20 33 20q14 0 6 9q-5 6 -16 11q-19 7 -37 26
q-13 13 -17 29t-9 74q-7 83 -19 105zM189 638q-13 38 -18 38q-2 0 -5.5 -12t-6.5 -26.5t-4 -15.5q-4 -12 21 -34q25 -23 30 -23q11 0 -17 73z" />
    <glyph glyph-name="asciitilde" unicode="~" horiz-adv-x="519" 
d="M91 574q27 10 72 10q28 0 48.5 -4.5t61.5 -21.5q65 -26 85 -26q18 0 40.5 10.5t36.5 26.5q15 15 23 14t29 -18l23 -20l-26 -23q-93 -84 -213 -33q-77 33 -112.5 34t-73.5 -28l-30 -22l-23 13q-22 14 -22 23q0 10 29 33t52 32z" />
    <glyph glyph-name="cent" unicode="&#xa2;" horiz-adv-x="1019" 
d="M10 -69.5q0 6.5 500 6.5t500 -6.5t-500 -6.5t-500 6.5z" />
    <glyph glyph-name="sterling" unicode="&#xa3;" horiz-adv-x="620" 
d="M95 769q30 31 45 31q11 0 6 -7l-24 -22q-33 -30 -44 -59.5t-7 -78.5l3 -48l-23 -2q-16 -1 -20.5 -4.5t-4.5 -13.5q0 -11 5.5 -14t27.5 -6q23 -2 30 -6.5t14 -20.5q13 -26 16 -60q3 -25 0.5 -33.5t-16.5 -21.5q-21 -20 -39 -29q-31 -16 -19 -43.5t49 -27.5q26 0 37.5 5
t16.5 19q3 10 10 12.5t29 2.5q34 0 92 -20q38 -13 57.5 -16t52.5 -1q46 2 66 13t37 45q15 28 13 71l-2 42h-29q-21 0 -25.5 -3t-5.5 -19q-4 -35 -27.5 -43t-77.5 7q-27 8 -64.5 7.5t-67.5 -8.5q-12 -3 -12.5 -2t7.5 10q17 19 24 43t1 43q-7 24 -2 29q5 4 57 6q38 2 45.5 4.5
t7.5 14.5t-7.5 14t-48.5 3q-61 2 -63 2q-8 0 -15 25.5t-7 51.5q0 53 36.5 86t94.5 33q43 0 54 -24q9 -21 -20 -35q-54 -25 -23 -64q20 -25 61.5 -23.5t66.5 27.5q24 26 22 65.5t-29 60.5l-17 13h25q12 0 19 -2.5t15.5 -9t21.5 -20.5q72 -75 31 -158q-27 -52 -89 -52
q-19 0 -36 5t-36 16.5t-44 31.5q-40 29 -42 21q0 -14 11.5 -27.5t21.5 -13.5q15 0 43 -24q20 -16 24.5 -24t2.5 -27l-2 -26l-36 -4q-26 -2 -31 -5.5t-6 -18.5q0 -8 -1 -11.5t4 -7.5t10.5 -6t20.5 -7q32 -10 43 -4t17 36l6 28q48 2 95 3l84 -75v-48q0 -37 -7.5 -62.5
t-23.5 -44.5t-44 -34q-29 -16 -86 -14.5t-103 19.5q-85 32 -115 1q-15 -17 -38 -21q-34 -6 -78.5 15.5t-73 56.5t-22.5 63q3 15 15 26.5t39 27.5q20 10 25 35q8 43 -24 47q-17 3 -40 22q-13 10 -17.5 16t-6 13.5t-1.5 25.5q0 26 2.5 30.5t17.5 4.5h19v44q0 46 10 73.5
t36 54.5zM150 779l31 21h239l24 -26q15 -17 19.5 -27t4.5 -29t-4 -28.5t-15 -20.5q-13 -12 -22.5 -15.5t-29.5 -3.5q-33 0 -43 12q-25 27 21 52q17 10 22 16t4 16q-5 45 -86 44q-40 -1 -62.5 -10t-45.5 -35q-21 -24 -25 -59t6 -98q1 -9 -2 -11t-14 -1q-19 3 -18 -8t23 -27
q20 -17 22 -33.5t-14 -47.5q-23 -44 -27 -26q-1 5 0 18q3 26 -7 50q-12 24 -8 33q5 14 -3 28.5t-22 14.5q-16 0 -23 14.5t-10 52.5q-3 27 -0.5 40t15.5 37q18 35 50 57zM147 693q0 27 -9 21q-11 -7 -27 -51q-6 -18 -5.5 -25.5t11.5 -23.5q13 -22 18 -23q5 0 16 21
q10 22 3 40q-7 20 -7 41z" />
    <glyph glyph-name="section" unicode="&#xa7;" horiz-adv-x="1019" 
d="M10 -69.5q0 6.5 500 6.5t500 -6.5t-500 -6.5t-500 6.5z" />
    <glyph glyph-name="questiondown" unicode="&#xbf;" horiz-adv-x="1019" 
d="M10 -69.5q0 6.5 500 6.5t500 -6.5t-500 -6.5t-500 6.5z" />
    <glyph glyph-name="Agrave" unicode="&#xc0;" 
 />
    <glyph glyph-name="Aacute" unicode="&#xc1;" 
 />
    <glyph glyph-name="Acircumflex" unicode="&#xc2;" 
 />
    <glyph glyph-name="Adieresis" unicode="&#xc4;" 
 />
    <glyph glyph-name="Ccedilla" unicode="&#xc7;" 
 />
    <glyph glyph-name="Egrave" unicode="&#xc8;" 
 />
    <glyph glyph-name="Eacute" unicode="&#xc9;" 
 />
    <glyph glyph-name="Ecircumflex" unicode="&#xca;" 
 />
    <glyph glyph-name="Edieresis" unicode="&#xcb;" 
 />
    <glyph glyph-name="Icircumflex" unicode="&#xce;" 
 />
    <glyph glyph-name="Idieresis" unicode="&#xcf;" 
 />
    <glyph glyph-name="Ntilde" unicode="&#xd1;" 
 />
    <glyph glyph-name="Oacute" unicode="&#xd3;" 
 />
    <glyph glyph-name="Ocircumflex" unicode="&#xd4;" 
 />
    <glyph glyph-name="Odieresis" unicode="&#xd6;" 
 />
    <glyph glyph-name="Ugrave" unicode="&#xd9;" 
 />
    <glyph glyph-name="Uacute" unicode="&#xda;" 
 />
    <glyph glyph-name="Ucircumflex" unicode="&#xdb;" 
 />
    <glyph glyph-name="Udieresis" unicode="&#xdc;" 
 />
    <glyph glyph-name="germandbls" unicode="&#xdf;" 
 />
    <glyph glyph-name="agrave" unicode="&#xe0;" 
 />
    <glyph glyph-name="aacute" unicode="&#xe1;" 
 />
    <glyph glyph-name="acircumflex" unicode="&#xe2;" 
 />
    <glyph glyph-name="adieresis" unicode="&#xe4;" 
 />
    <glyph glyph-name="ccedilla" unicode="&#xe7;" 
 />
    <glyph glyph-name="egrave" unicode="&#xe8;" 
 />
    <glyph glyph-name="eacute" unicode="&#xe9;" 
 />
    <glyph glyph-name="ecircumflex" unicode="&#xea;" 
 />
    <glyph glyph-name="edieresis" unicode="&#xeb;" 
 />
    <glyph glyph-name="icircumflex" unicode="&#xee;" 
 />
    <glyph glyph-name="idieresis" unicode="&#xef;" 
 />
    <glyph glyph-name="oacute" unicode="&#xf3;" 
 />
    <glyph glyph-name="ocircumflex" unicode="&#xf4;" 
 />
    <glyph glyph-name="odieresis" unicode="&#xf6;" 
 />
    <glyph glyph-name="ugrave" unicode="&#xf9;" 
 />
    <glyph glyph-name="uacute" unicode="&#xfa;" 
 />
    <glyph glyph-name="ucircumflex" unicode="&#xfb;" 
 />
    <glyph glyph-name="udieresis" unicode="&#xfc;" 
 />
    <glyph glyph-name="eogonek" unicode="&#x119;" horiz-adv-x="1019" 
d="M10 -69.5q0 6.5 500 6.5t500 -6.5t-500 -6.5t-500 6.5z" />
    <glyph glyph-name="quoteright" unicode="&#x2019;" horiz-adv-x="201" 
d="M10 776v24h151l13 -27q32 -62 7 -120q-14 -31 -26 -44.5t-37 -24.5q-33 -16 -48.5 -11.5t-35.5 34.5q-42 64 -13 96q8 9 8 13.5t-8 17.5q-11 20 -11 42zM155 752q-15 13 -32 15t-30 -8q-10 -8 -16.5 -26t-2.5 -29q4 -12 18 -23.5t25 -11.5t11 -8t-14 -21.5t-27 -17.5
q-11 -5 -11 -17q0 -17 7 -17q5 0 7 11q3 15 17 22q27 13 37 47q1 4 1.5 6.5t-0.5 4t-4 2.5t-7.5 1h-12.5q-16 0 -22.5 3.5t-11.5 13.5q-8 19 2 35.5t31 18.5q10 1 17 -0.5t12.5 -5t9 -10t5.5 -16.5q5 -19 10 -19q12 0 -1 27q-8 15 -18 23zM174 673q0 9 -6.5 9t-6.5 -13
q0 -10 4 -10q7 2 9 14zM150 631q5 9 7.5 14t1.5 5q-2 -2 -28 -27q-21 -22 -18 -22q2 0 9 3q17 8 28 27z" />
    <glyph glyph-name="quotedblleft" unicode="&#x201c;" horiz-adv-x="592" 
d="M15 368q15 37 59.5 51t95.5 4.5t89 -36.5q7 -5 10.5 -4.5t7.5 7.5q15 27 77.5 33.5t106.5 -13.5q76 -35 106.5 -96t2.5 -120q-11 -23 -35.5 -43t-58 -33.5t-71.5 -19.5q-22 -3 -31.5 0.5t-38.5 28.5l-39 34l-15 -13q-35 -33 -114 -47q-35 -6 -47 -1t-55 44q-27 25 -32 34
t-5 33q0 20 2.5 28t10.5 12q13 7 12 15t-18 28q-35 40 -20 74zM265 327q-41 17 -83 4t-52 -45q-8 -30 13 -49t62 -19q26 0 26 -8q0 -10 -19.5 -26.5t-35.5 -22.5q-17 -5 -25 -15.5t-3 -21.5q8 -22 73 11q88 44 88 118q0 56 -44 74zM529 319q-17 13 -57 15.5t-60 -8.5
q-21 -12 -28.5 -33.5t1.5 -44.5q2 -6 9 -11.5t16.5 -9.5t21.5 -6.5t24 -2.5q30 0 30 -6q0 -3 -4.5 -9t-11.5 -12.5t-15 -12.5t-16 -11t-14 -6q-17 -5 -25 -15t-4 -22q4 -10 15.5 -9.5t43.5 12.5q36 14 62.5 39t37 52.5t4.5 55t-30 45.5zM165 305q15 13 23.5 16t33.5 1
q36 -3 51.5 -19t15.5 -49q0 -36 -21 -65.5t-58 -44.5q-39 -16 -42 -9q-3 8 33 23q22 11 39 30t17 35q0 9 -7 11t-36 1q-15 0 -23.5 0.5t-14.5 2t-9.5 4.5t-8.5 8q-13 16 -11.5 26.5t18.5 28.5zM419 310q20 15 54 12t50 -21q14 -17 15 -47.5t-13 -52.5q-8 -13 -23 -27
t-32.5 -24.5t-30.5 -12.5q-22 -5 -22 -1q1 6 25 18q24 10 43.5 29.5t19.5 32.5v14q0 5 -41 5q-37 0 -50 8t-13 31q0 22 18 36z" />
    <glyph glyph-name="quotedblright" unicode="&#x201d;" horiz-adv-x="590" 
d="M33 774q19 26 36 26h18l-22 -23q-47 -50 -28 -103q10 -27 29.5 -40t53.5 -16q44 -3 68.5 13t24.5 48q0 56 -79 56q-23 0 -24 7t19 26t48.5 25.5t89.5 5.5l69 -1l-22 -23q-34 -35 -33 -77t36 -66q25 -17 64.5 -16.5t59.5 18.5q16 13 20 34t-6 40q-4 8 -14.5 14t-25.5 9.5
t-29 3.5q-41 0 -8 31q36 34 111 34q46 0 61.5 -12t15.5 -47q0 -19 -2.5 -27t-10.5 -12q-13 -7 -12 -15.5t19 -30.5q39 -49 8 -89.5t-107 -41.5q-36 0 -60.5 7t-51.5 24q-16 10 -21 10.5t-12 -6.5q-20 -24 -72.5 -31.5t-97.5 8.5q-88 32 -122 103.5t9 133.5zM88 776
q23 24 43 24h20l-21 -13q-32 -19 -44 -58q-4 -11 0.5 -12.5t33.5 1.5q24 3 34 1.5t22 -11.5q16 -12 17 -30.5t-13.5 -31.5t-51.5 -13t-52 13q-24 22 -20.5 61t32.5 69zM337 776q27 24 45 24h17l-20 -12q-42 -26 -42 -58q0 -11 5 -12.5t30 1.5q21 2 31 0.5t21 -11.5
q18 -13 18 -32q0 -23 -19.5 -35t-51.5 -10q-29 3 -44 14t-21 34q-7 26 1.5 52t29.5 45z" />
    <glyph glyph-name="bullet" unicode="&#x2022;" horiz-adv-x="1019" 
d="M10 -69.5q0 6.5 500 6.5t500 -6.5t-500 -6.5t-500 6.5z" />
    <glyph glyph-name="Euro" unicode="&#x20ac;" horiz-adv-x="614" 
d="M189.5 787.5q26.5 12.5 100.5 12.5q72 0 88 -7q14 -8 16 0q2 7 60 7h57q45 -40 87 -80l-1 -112l-2 -112l-69 -3q-49 -3 -59 -5.5t-13 -14.5q-2 -10 -7.5 -13.5t-19.5 -4.5q-18 -2 -20.5 -5t0.5 -21q4 -31 10.5 -36t44.5 -5h48l48 -43q47 -43 47 -55q0 -20 -16.5 -54.5
t-34.5 -51.5q-47 -46 -142 -59q-70 -9 -129.5 5.5t-105.5 51.5t-75 95q-25 52 -30 77q-2 15 -9 25.5t-24 24.5q-20 16 -24.5 24.5t-4.5 27.5q0 28 8 35.5t0 15.5t-8 39.5t8 31.5q8 2 18 2.5t12.5 1t6.5 5.5t6 13t5 25q9 46 25 73q15 26 43.5 51.5t55 38zM371 773
q-45 22 -101 17t-100 -36q-66 -45 -84 -143q-6 -32 -10 -38t-21 -8q-9 -2 -13.5 -4t-6.5 -5.5t-2 -10.5q0 -10 4.5 -14t18.5 -6q15 -1 19 -5t4 -17.5t-4 -17t-19 -5.5q-14 -2 -18.5 -6t-4.5 -14t4.5 -14t18.5 -5q16 -3 20 -8.5t10 -35.5q9 -49 22 -76.5t39 -51.5
q29 -29 67 -41t93 -12q31 0 59.5 5t51 13.5t36.5 19.5q17 15 29 43.5t9 48.5q-1 15 -7 17t-37 2h-43l-4 -32q-2 -16 -6.5 -27t-12.5 -18.5t-19 -11t-29 -4.5q-56 -5 -77 19t-21 91l-1 55l40 4q19 1 26.5 3t10 5t2.5 11q0 6 -1 9t-5.5 5.5t-11 3t-21.5 2.5q-17 1 -23 2
t-11 3.5t-5.5 5.5t-0.5 12v19l63 3q46 3 54 5.5t8 14.5q0 13 -9 15q-8 2 -53 5l-63 3l-1 46q-6 121 71 121q39 0 60 -22.5t27 -70.5q1 -3 2 -9q5 -37 10.5 -43t33.5 -5q6 1 9 1l43 2q2 99 4 199h-34q-20 0 -28.5 -3t-16.5 -11l-12 -15zM369 647q-8 9 -17 9t-13 -9
q-3 -10 -1 -34q2 -17 5 -21t13.5 -4t13.5 4t5 20q2 26 -6 35zM379 343q0 14 -3 18.5t-13 5.5q-16 2 -21 -3.5t-5 -25.5q0 -22 10 -26q9 -3 16.5 -0.5t11.5 11t4 20.5zM244 772q29 8 63 5t59 -16t43.5 -13t25.5 13q7 14 21 12q11 -2 13 -14t2 -73v-85h-26q-14 0 -19 1.5
t-7 6.5t-5 21q-8 43 -16 62.5t-25 34.5q-11 10 -18.5 14t-16.5 5.5t-26 1.5q-57 0 -76 -26.5t-22 -111.5l-3 -78h-19q-18 0 -21.5 -8t9.5 -21q11 -12 11.5 -18t-7.5 -29q-11 -30 -11 -69q0 -38 -5 -38t-18.5 34.5t-21.5 68.5q-5 19 -4 26.5t10 20.5q14 20 12 26.5t-22 6.5
h-24l3 51q11 152 141 189zM182 626q-4 50 -10 50q-5 0 -24.5 -40.5t-19.5 -51.5q0 -8 12 -23.5t18 -15.5t17 16q7 9 8 21.5t-1 43.5z" />
  </font>
</defs>
</svg>
