<?xml version="1.0" standalone="no"?>
<!DOCTYPE svg PUBLIC "-//W3C//DTD SVG 1.1//EN" "http://www.w3.org/Graphics/SVG/1.1/DTD/svg11.dtd" >
<svg>
<metadata>
Created by FontForge 20090914 at Sat Feb 27 01:01:39 2016
 By www-data
Copyright (c) 2016, root
</metadata>
<defs>
<font id="Whoknows?" horiz-adv-x="158" >
  <font-face 
    font-family="Who knows?"
    font-weight="400"
    font-stretch="normal"
    units-per-em="1000"
    panose-1="2 0 5 3 0 0 0 0 0 0"
    ascent="800"
    descent="-200"
    x-height="376.996"
    cap-height="641.997"
    bbox="28.6249 -200 821.33 800.005"
    underline-thickness="50"
    underline-position="-100"
    unicode-range="U+0020-U+0094"
  />
<missing-glyph horiz-adv-x="364" 
d="M33 0v666h265v-666h-265zM66 33h199v600h-199v-600z" />
    <glyph glyph-name=".notdef" horiz-adv-x="364" 
d="M33 0v666h265v-666h-265zM66 33h199v600h-199v-600z" />
    <glyph glyph-name="space" unicode=" " horiz-adv-x="472" 
 />
    <glyph glyph-name="exclam" unicode="!" horiz-adv-x="218" 
d="M80 140c6.66699 7.33301 18.3311 10.999 34.998 10.999s31.334 -3.66699 44.001 -11s20.667 -18 24 -32s0.666016 -24.333 -8.00098 -31c-2 -1.33301 -5.66699 -4.16602 -11 -8.49902s-9 -7.16602 -11 -8.49902c-7.33301 -6.66699 -18.166 -9.33398 -32.499 -8.00098
s-25.5 6 -33.5 14c-9.33301 8.66699 -14.666 21 -15.999 37s1.66699 28.333 9 37zM83.9971 633.999c15.333 6.66699 30.334 10.167 45.001 10.5s24.667 -2.83398 30 -9.50098c12 -14.667 20.667 -52.5 26 -113.5s5 -119.833 -1 -176.5c-4 -41.333 -7.5 -67.5 -10.5 -78.5
s-8.83301 -20.167 -17.5 -27.5c-10.667 -9.33301 -22.834 -14.666 -36.501 -15.999s-23.5 1.66699 -29.5 9s-12.333 32.333 -19 75c-13.333 77.333 -26 144.333 -38 201c-5.33301 29.333 -3.33301 55.5 6 78.5s24.333 38.833 45 47.5z" />
    <glyph glyph-name="quotedbl" unicode="&#x22;" horiz-adv-x="278" 
d="M195 611c16.667 11.333 31.333 8 44 -10c7.33301 -11.333 10.166 -43.333 8.49902 -96s-6.16699 -81.334 -13.5 -86.001c-8.66699 -4.66699 -18.167 -4.66699 -28.5 0s-18.166 12.334 -23.499 23.001c-10 19.333 -13.333 50.5 -10 93.5s11 68.167 23 75.5zM44.999 599
c8.66699 14 18.167 20.5 28.5 19.5s19.5 -6.5 27.5 -16.5c6 -10 8.33301 -45 7 -105c0 -27.333 -0.5 -47.833 -1.5 -61.5s-3.33301 -24 -7 -31s-8 -10.333 -13 -10s-12.167 3.16602 -21.5 8.49902c-13.333 6.66699 -22.333 23.334 -27 50.001c-13.333 63.333 -11 112 7 146z
" />
    <glyph glyph-name="dollar" unicode="$" horiz-adv-x="414" 
d="M209 -18c-8 4 -12.666 5 -13.999 3c-1.33301 -2.66699 2.66699 -6.66699 12 -12c6 -4 10.333 -4.66699 13 -2c1.33301 1.33301 -2.33398 5 -11.001 11zM305.001 263c-10.667 20.667 -18.333 31.002 -23 31.002c-6 0 -10.333 -23.333 -13 -70v-2
c-2.66699 -52.667 -2.66699 -80.334 0 -83.001c17.333 4.66699 30.5 21.167 39.5 49.5s7.83301 53.166 -3.5 74.499zM138.002 243.002c0 -54 2.16699 -87.165 6.5 -99.498s15.833 -18.833 34.5 -19.5c7.33301 -1.33301 12.166 1 14.499 7s3.5 14.5 3.5 25.5
s0.333008 17.833 1 20.5c3.33301 26 5.33301 52.333 6 79c1.33301 31.333 1.33301 50.166 0 56.499s-6.66602 11.166 -15.999 14.499c-23.333 8.66699 -40 14 -50 16v-100zM213.002 486.004c1.33301 40.667 1.5 65.668 0.5 75.001s-4.16699 14 -9.5 14
c-11.333 -1.33301 -20.333 -6.33301 -27 -15s-10.667 -17.334 -12 -26.001s-2.83301 -22 -4.5 -40s-3.16699 -31.333 -4.5 -40l-5 -47c34 -9.33301 52.667 -13.333 56 -12c2.66699 2.66699 4.66699 33 6 91zM279.002 800.005l6.00293 -0.0117188c12 0 18.667 -2.66699 20 -8
c2.66699 -6.66699 1.66699 -33.667 -3 -81c-0.666992 -6.66699 -1.33398 -11.667 -2.00098 -15l-8 -80c23.333 -19.333 36.666 -35.666 39.999 -48.999c4 -11.333 11.333 -21.666 22 -30.999c10 -10 15.167 -18.667 15.5 -26s-3.83398 -16.333 -12.501 -27
c-6.66699 -7.33301 -11.5 -11.166 -14.5 -11.499s-8.83301 2.16699 -17.5 7.5c-6.66699 2.66699 -14.167 10.5 -22.5 23.5s-13.5 20.5 -15.5 22.5c-2.66699 -3.33301 -4.83398 -25.166 -6.50098 -65.499s-2.83398 -61.5 -3.50098 -63.5c-2 -10 -0.833008 -17.833 3.5 -23.5
s16.5 -15.834 36.5 -30.501c27.333 -19.333 46.666 -45.166 57.999 -77.499s12.333 -65.166 3 -98.499c-4.66699 -17.333 -17 -36.833 -37 -58.5s-38.667 -35.5 -56 -41.5c-10 -3.33301 -16.667 -8.33301 -20 -15s-6.66602 -22.667 -9.99902 -48
c-3.33301 -21.333 -8.16602 -34.833 -14.499 -40.5s-16.833 -5.5 -31.5 0.5c-10 4.66699 -16 9.33398 -18 14.001s-3 16.334 -3 35.001c0 18 -1 29.333 -3 34s-6.66699 8 -14 10c-2.66699 0 -6.16699 0.833008 -10.5 2.5s-8 3.16699 -11 4.5s-6 2.33301 -9 3
s-5.33301 -0.166016 -7 -2.49902s-2.5 -6.5 -2.5 -12.5c0 -10 -3.33301 -19.167 -10 -27.5s-14 -12.5 -22 -12.5c-7.33301 0 -16.333 5.33301 -27 16c-11.333 11.333 -15.666 29 -12.999 53c3.33301 17.333 0.5 35.333 -8.5 54s-13.833 32.334 -14.5 41.001
c-4.66699 19.333 -6.33398 39.166 -5.00098 59.499s10 32.833 26 37.5c7.33301 2.66699 11.833 7 13.5 13s2.83398 20.667 3.50098 44c0.666992 33.333 -3.66602 56 -12.999 68c-9.33301 11.333 -14 20 -14 26c0 6.66699 -3.33301 11 -10 13c-6 2.66699 -7 17.667 -3 45
c8 52.667 25.333 89.667 52 111c7.33301 6.66699 12.166 14.834 14.499 24.501s4.5 32.167 6.5 67.5c2 40 5 65.833 9 77.5s11.667 17.5 23 17.5c19.333 0 29.333 -28 30 -84c0.666992 -16 1.5 -28.667 2.5 -38s2.5 -13.666 4.5 -12.999c2.66699 0.666992 20.334 1 53.001 1
c3.33301 42.667 9.66602 89.334 18.999 140.001c1.33301 6.66699 4 10.834 8 12.501s11.667 2.5 23 2.5z" />
    <glyph glyph-name="percent" unicode="%" horiz-adv-x="667" 
d="M554 256c-12.667 25.333 -30.833 34.499 -54.5 27.499s-42.834 -27.5 -57.501 -61.5c-8.66699 -18 -10 -32.667 -4 -44c6 -12 11.667 -27.667 17 -47c6.66699 -22 15.334 -33.667 26.001 -35s25 7.33398 43 26.001c18.667 18.667 30.667 40.667 36 66s3.33301 48 -6 68z
M474.001 343.999c10 4 25.1641 5.5 45.4971 4.5s35.166 -4.16699 44.499 -9.5c18.667 -9.33301 35.334 -26.333 50.001 -51s22.334 -47.667 23.001 -69c0.666992 -32.667 -10.166 -67.5 -32.499 -104.5s-46.833 -61.167 -73.5 -72.5c-29.333 -12 -57.5 -12.333 -84.5 -1
s-44.167 30.666 -51.5 57.999c-6.66699 25.333 -12.334 43 -17.001 53c-7.33301 18.667 -10.666 34.5 -9.99902 47.5s6.33398 30.5 17.001 52.5c8.66699 18.667 22.167 37.334 40.5 56.001s34.5 30.667 48.5 36zM440.998 614.999c8 10.667 20.666 10.001 37.999 -1.99902
c10 -6.66699 15 -15.334 15 -26.001s-5.33301 -26.334 -16 -47.001c-6.66699 -11.333 -19.334 -36.833 -38.001 -76.5s-32.667 -66.5 -42 -80.5c-15.333 -24 -35.166 -57 -59.499 -99l-57.5 -97c-12 -20 -22 -43 -30 -69c-13.333 -45.333 -34 -62.333 -62 -51
c-14.667 6.66699 -20.167 17.834 -16.5 33.501s21.5 56.5 53.5 122.5c12 26.667 24.167 49.167 36.5 67.5s22.5 35.5 30.5 51.5c8.66699 20 21.334 41.333 38.001 64c7.33301 9.33301 27 45.5 59 108.5zM210.997 568c-7.33301 10 -18.833 15.499 -34.5 16.499
s-28.167 -3.16699 -37.5 -12.5c-5.33301 -5.33301 -12.333 -19.333 -21 -42c-8.66699 -22 -9.66699 -39.667 -3 -53c4 -6 7.5 -23.167 10.5 -51.5s4.83301 -44.166 5.5 -47.499c2.66699 -4 11.334 -4.5 26.001 -1.5s24.667 7.83301 30 14.5
c13.333 15.333 23.166 45.5 29.499 90.5s4.5 73.833 -5.5 86.5zM99.9971 636.999c1.33301 4 3.33203 7.00098 5.99902 9.00098s6.16699 3.16699 10.5 3.5s8.83301 0.5 13.5 0.5s11.334 -0.333008 20.001 -1s16.667 -1 24 -1c11.333 -0.666992 26.833 -1.66699 46.5 -3
s31.834 -2 36.501 -2c18 -1.33301 27 -4.66602 27 -9.99902c0 -4 2.5 -7.16699 7.5 -9.5s7.16699 -6.83301 6.5 -13.5c0 -9.33301 -2.33301 -14 -7 -14s-5.66699 -17.667 -3 -53c3.33301 -39.333 0.5 -77.666 -8.5 -114.999s-21.833 -64 -38.5 -80
c-10.667 -9.33301 -23 -18 -37 -26c-25.333 -13.333 -52 -15.833 -80 -7.5s-48.333 21.5 -61 39.5c-6.66699 9.33301 -13.834 26.666 -21.501 51.999s-11.5 44.666 -11.5 57.999c0 15.333 5.5 38.166 16.5 68.499s21.833 52.833 32.5 67.5c14 20.667 21 33 21 37z" />
    <glyph glyph-name="ampersand" unicode="&#x26;" horiz-adv-x="518" 
d="M237 130c2.66699 2.66699 12.332 8.5 28.999 17.5s26.667 15.5 30 19.5c6 6 7.5 12.833 4.5 20.5s-15.5 28.5 -37.5 62.5c-30.667 48 -48 71.333 -52 70c-11.333 -2 -26.666 -10.5 -45.999 -25.5s-36.666 -32.5 -51.999 -52.5
c-6.66699 -7.33301 -4.83398 -21.5 5.49902 -42.5s22.833 -36.167 37.5 -45.5c8 -5.33301 18.667 -10.5 32 -15.5s24.5 -8.33301 33.5 -10s14.167 -1.16699 15.5 1.5zM300.998 557c0 10 -6 17.6719 -18 23.0049c-20.667 7.33301 -40.5 8.16602 -59.5 2.49902
s-33.167 -16.834 -42.5 -33.501s-9.33301 -33.334 0 -50.001c3.33301 -4.66699 9.33301 -17.334 18 -38.001c5.33301 -13.333 11.333 -21.666 18 -24.999s12.667 -1.33301 18 6c0 3.33301 8.66699 3.66602 26 0.999023c6.66699 -0.666992 10 -0.333984 10 0.999023
s-1.66699 3.66602 -5 6.99902c-4 4.66699 -5.5 8.83398 -4.5 12.501s5.16699 9.16699 12.5 16.5c18 17.333 27 43 27 77zM103.998 549.005c0 17.333 5.83398 34.3311 17.501 50.998s26.5 29 44.5 37c22 10 38.667 16 50 18c25.333 4 51.166 0.333008 77.499 -11
s46.833 -28 61.5 -50c9.33301 -14.667 14.833 -26 16.5 -34s1.5 -22.667 -0.5 -44c-2 -19.333 -5 -33.666 -9 -42.999s-11.667 -21 -23 -35c-12 -14.667 -38.667 -39.667 -80 -75l43.5 -64l44.5 -64l16 40c8.66699 19.333 15 30.833 19 34.5s11.667 4.83398 23 3.50098
c16 -1.33301 26.667 -6 32 -14c6 -8.66699 6 -21.334 0 -38.001c-2.66699 -6.66699 -5.33398 -9 -8.00098 -7c-0.666992 0 -1.5 -0.666992 -2.5 -2s-2 -3.5 -3 -6.5s-1.5 -6.5 -1.5 -10.5c-1.33301 -15.333 -5.33301 -29 -12 -41c-5.33301 -10 -7.16602 -17 -5.49902 -21
s10.5 -13.667 26.5 -29c18.667 -18 33.5 -35.167 44.5 -51.5s14.833 -27.166 11.5 -32.499c-8 -7.33301 -15.5 -12 -22.5 -14s-14.833 -0.666992 -23.5 4s-16.667 10.167 -24 16.5s-18 16.5 -32 30.5l-24 28c-17.333 -14.667 -41.666 -29.167 -72.999 -43.5
s-55.333 -21.166 -72 -20.499c-12.667 0 -29.167 4.5 -49.5 13.5s-36.833 19.167 -49.5 30.5c-14 12.667 -23 19 -27 19c-3.33301 0.666992 -13.333 14.834 -30 42.501s-26.334 46.167 -29.001 55.5c-4 17.333 3.5 39.166 22.5 65.499s43.833 49.166 74.5 68.499
c20 12.667 31.667 23 35 31s0.333008 18.333 -9 31c-10 14 -20.833 36.5 -32.5 67.5s-17.5 52.167 -17.5 63.5z" />
    <glyph glyph-name="quotesingle" unicode="'" horiz-adv-x="136" 
d="M89 591c-0.666992 -12.667 -0.666992 -20.835 0 -24.502s2.5 -7.5 5.5 -11.5s5.5 -10.333 7.5 -19c5.33301 -16.667 3.66602 -30 -5.00098 -40c-5.33301 -10 -12 -13.667 -20 -11s-15.167 6.83398 -21.5 12.501s-11.166 11.167 -14.499 16.5
c-4.66699 9.33301 -8 26.833 -10 52.5s-1.66699 45.5 1 59.5c1.33301 9.33301 3.5 14.833 6.5 16.5s9.16699 1.5 18.5 -0.5c14 -3.33301 23 -8.16602 27 -14.499s5.66699 -18.5 5 -36.5z" />
    <glyph glyph-name="parenleft" unicode="(" horiz-adv-x="274" 
d="M183 518c-4 0 -5.99707 -3.33496 -5.99707 -10.002c0 -4.66699 -4.33301 -17.834 -13 -39.501s-16.667 -39.167 -24 -52.5c-6 -10.667 -14.167 -38.5 -24.5 -83.5s-15.5 -75.167 -15.5 -90.5c0 -38.667 8.66699 -78.167 26 -118.5s39.666 -73.166 66.999 -98.499
c14.667 -14 22.834 -25.333 24.501 -34s-2.5 -17.334 -12.5 -26.001c-6.66699 -6 -12 -8.66699 -16 -8s-13.667 5.66699 -29 15c-14 8.66699 -28.667 21.834 -44 39.501s-23 30.167 -23 37.5c0 2.66699 -5.66699 13.334 -17 32.001c-18.667 29.333 -32 65.833 -40 109.5
s-7.66699 77.167 1 100.5c4 11.333 8.66699 32 14 62c7.33301 46 29.5 107.167 66.5 183.5s65.167 119.166 84.5 128.499c11.333 5.33301 19.666 7.5 24.999 6.5s10 -6.16699 14 -15.5c3.33301 -7.33301 3.66602 -15.666 0.999023 -24.999s-10.334 -26.666 -23.001 -51.999
c-20.667 -40.667 -32.667 -61 -36 -61z" />
    <glyph glyph-name="parenright" unicode=")" horiz-adv-x="228" 
d="M73 -66c-10 0 -19.6709 4.16895 -29.0039 12.502s-14 16.833 -14 25.5c0 6.66699 1.83301 15 5.5 25s7.83398 18.167 12.501 24.5s8.33398 8.83301 11.001 7.5c3.33301 -2.66699 4 -0.666992 2 6c-2.66699 7.33301 3.33301 26.666 18 57.999
c23.333 50.667 38.833 105 46.5 163s6.5 111.667 -3.5 161c-6 28 -20.333 64.667 -43 110c-14 28 -22.833 47.667 -26.5 59s-4.16699 19.666 -1.5 24.999c4 7.33301 9.5 11.333 16.5 12s13.833 -2.33301 20.5 -9c51.333 -52.667 86 -135.334 104 -248.001
c6 -37.333 6.33301 -82.666 1 -135.999c-3.33301 -35.333 -7.66602 -62.833 -12.999 -82.5s-16.666 -50.167 -33.999 -91.5c-19.333 -49.333 -33.833 -82 -43.5 -98s-19.5 -24 -29.5 -24z" />
    <glyph glyph-name="asterisk" unicode="*" horiz-adv-x="351" 
d="M142 610c0.666992 12 1.16504 20.166 1.49805 24.499s2.83301 8.5 7.5 12.5s12 5.33301 22 4c8.66699 -0.666992 15 -2.83398 19 -6.50098s7.66699 -10.5 11 -20.5c3.33301 -11.333 6.83301 -18.166 10.5 -20.499s11.834 -3.16602 24.501 -2.49902
c31.333 2.66699 52 3.66699 62 3s16.667 -3.66699 20 -9c4 -6.66699 2.33301 -18.834 -5 -36.501s-14.333 -26.5 -21 -26.5c-5.33301 0 -19 -10.333 -41 -31c-16.667 -15.333 -26 -25.333 -28 -30s-1.33301 -13.667 2 -27c3.33301 -12 4.5 -20.333 3.5 -25
s-4.83301 -9.66699 -11.5 -15c-8.66699 -8 -17.334 -9.66699 -26.001 -5s-14 11 -16 19c-1.33301 8 -7.16602 13.833 -17.499 17.5s-19.166 1.83398 -26.499 -5.49902c-10 -6.66699 -18.333 -10 -25 -10c-6 0 -11.5 5.16699 -16.5 15.5s-7.83301 22.166 -8.5 35.499
c-0.666992 14 -7 22.667 -19 26c-9.33301 2 -17.833 9.33301 -25.5 22s-10.167 22.667 -7.5 30c2 6 17.333 10.667 46 14c24 3.33301 40.833 8.33301 50.5 15s14.5 17.334 14.5 32.001z" />
    <glyph glyph-name="plus" unicode="+" horiz-adv-x="425" 
d="M255 439l-0.000976562 -43.0049l44 5c25.333 2 42.833 1.16699 52.5 -2.5s19.5 -13.834 29.5 -30.501c9.33301 -14 14 -22.667 14 -26s-3.66699 -9.66602 -11 -18.999c-6.66699 -7.33301 -13.667 -10.666 -21 -9.99902s-13.666 5.33398 -18.999 14.001
c-4 6.66699 -7.66699 6.66699 -11 0c-3.33301 -4.66699 -28 -10 -74 -16c-3.33301 -69.333 -2 -114.666 4 -135.999c4 -14 5.66699 -23.333 5 -28s-4.33398 -10.334 -11.001 -17.001c-7.33301 -7.33301 -12.666 -11.166 -15.999 -11.499s-10.666 2.16699 -21.999 7.5
c-10.667 5.33301 -15.667 9 -15 11c0 0.666992 0.666992 1 2 1c5.33301 0.666992 3.66602 3 -5.00098 7c-8.66699 3.33301 -14 11.333 -16 24s-3.33301 45.667 -4 99v28l-52 -2c-66 -2 -99 14 -99 48c0 12.667 3.5 21.834 10.5 27.501s15.833 7.16699 26.5 4.5
c10 -2.66699 31.5 -1.5 64.5 3.5s51.167 9.83301 54.5 14.5c1.33301 2.66699 3 25.834 5 69.501s5 66.5 9 68.5c8.66699 10 19 9 31 -3c16 -16 24 -45.333 24 -88z" />
    <glyph glyph-name="comma" unicode="," 
d="M49 79c-15.333 13.333 -21.502 28.6689 -18.502 46.002s13.5 25.333 31.5 24c10 -2 19 -4.33301 27 -7c8.66699 -2.66699 17.167 -12.334 25.5 -29.001s12.833 -33 13.5 -49c0.666992 -14.667 -3.16602 -31.5 -11.499 -50.5s-17.166 -31.167 -26.499 -36.5
c-9.33301 -6 -20.333 -6 -33 0c-8.66699 4 -14 8.33301 -16 13s-2.66699 14 -2 28c0.666992 20 4.66699 33 12 39c5.33301 3.33301 7.83301 6.16602 7.5 8.49902s-3.5 6.83301 -9.5 13.5z" />
    <glyph glyph-name="hyphen" unicode="-" horiz-adv-x="294" 
d="M44 226c-13.333 12.667 -16.668 25.499 -10.001 38.499s18.667 21.833 36 26.5c68 10.667 104 15 108 13c0.666992 -0.666992 2.5 -0.833984 5.5 -0.500977s5.5 1.16602 7.5 2.49902c4 2.66699 13 2.33398 27 -0.999023s25.667 -7.66602 35 -12.999
c6.66699 -4.66699 10.334 -13 11.001 -25s-2 -20.667 -8 -26c-7.33301 -4.66699 -20.833 -8.5 -40.5 -11.5s-42.167 -5.33301 -67.5 -7s-42 -3.16699 -50 -4.5c-26.667 -3.33301 -44.667 -0.666016 -54 8.00098z" />
    <glyph glyph-name="period" unicode="." horiz-adv-x="155" 
d="M42 122c7.33301 8 16.833 10.665 28.5 7.99805s23.167 -9.66699 34.5 -21s17.833 -21.666 19.5 -30.999s-0.5 -20.666 -6.5 -33.999c-3.33301 -7.33301 -6.83301 -11.5 -10.5 -12.5s-12.167 -0.166992 -25.5 2.5c-25.333 4.66699 -41.5 16 -48.5 34s-4.16699 36 8.5 54z
" />
    <glyph glyph-name="slash" unicode="/" horiz-adv-x="326" 
d="M244 658c7.33301 4 16.1719 3.49707 26.5049 -1.50293s17.833 -12.5 22.5 -22.5c5.33301 -12 2.66602 -34.667 -8.00098 -68c-3.33301 -9.33301 -10.833 -33.166 -22.5 -71.499s-22.834 -73.166 -33.501 -104.499s-19.334 -53.333 -26.001 -66
c-0.666992 0.666992 -4 -5.5 -10 -18.5s-13.333 -29.833 -22 -50.5l-27 -63.5l-27 -64c-8.66699 -21 -15.334 -36.167 -20.001 -45.5c-4 -7.33301 -10.333 -11.333 -19 -12s-16.667 2.33301 -24 9c-4 3.33301 -7.16699 5.5 -9.5 6.5s-3.83301 0.833008 -4.5 -0.5
c0 -2.66699 -1.33301 -1.66699 -4 3c-0.666992 2 -1.66699 4.33301 -3 7c-5.33301 7.33301 -4.33301 22 3 44s18.166 48 32.499 78s22.833 48.333 25.5 55c14 32 24 50 30 54c7.33301 6 9.33301 10.333 6 13c-2.66699 2.66699 0.333008 11.667 9 27
c14.667 24.667 41.667 105.334 81 242.001c8 29.333 16 46 24 50z" />
    <glyph glyph-name="zero" unicode="0" horiz-adv-x="454" 
d="M287 519c-8 8 -15.5039 14.0039 -22.5039 18.0039s-12.167 6.5 -15.5 7.5s-11 2.16699 -23 3.5s-21.333 2.33301 -28 3c-11.333 2 -19.5 1.83301 -24.5 -0.5s-13.5 -9.5 -25.5 -21.5c-15.333 -15.333 -23.666 -26.833 -24.999 -34.5s3 -16.5 13 -26.5
c4.66699 -3.33301 8 -8.33301 10 -15s2.5 -14.834 1.5 -24.501s-2.16699 -18.334 -3.5 -26.001s-3.16602 -16.5 -5.49902 -26.5s-3.83301 -16.333 -4.5 -19c-7.33301 -24.667 -6.16602 -62.667 3.50098 -114s22.5 -85.333 38.5 -102c8 -8 14.667 -12.667 20 -14
s17.333 -1.33301 36 0c18 2 30.833 5 38.5 9s17.834 12.667 30.501 26c11.333 12.667 19.5 24 24.5 34s9.5 25 13.5 45c12.667 57.333 14.167 111.166 4.5 161.499s-28.5 89.166 -56.5 116.499zM278.996 610.004c2.66699 0 20.334 -15.667 53.001 -47
c22 -22 36.167 -38.5 42.5 -49.5s15.833 -34.167 28.5 -69.5c25.333 -75.333 27 -151.666 5 -228.999s-57.667 -125.666 -107 -144.999c-12.667 -5.33301 -35.334 -8.83301 -68.001 -10.5s-55 -0.5 -67 3.5c-10 3.33301 -14 9 -12 17c1.33301 4 2 6.33301 2 7
c0.666992 2 -0.333008 1.33301 -3 -2l-2 -3c-3.33301 -4.66699 -6.33301 -6.5 -9 -5.5s-7 5.16699 -13 12.5c-21.333 26 -39 64.833 -53 116.5s-19.333 96.167 -16 133.5c2 19.333 2.33301 32.166 1 38.499s-6 13.166 -14 20.499c-24 22.667 -22.667 60 4 112
c12.667 24.667 25.5 44 38.5 58s29.833 26.333 50.5 37c13.333 7.33301 39 10 77 8c8.66699 0 18 -0.333008 28 -1s18 -1.16699 24 -1.5s9.33301 -0.5 10 -0.5z" />
    <glyph glyph-name="one" unicode="1" horiz-adv-x="406" 
d="M278 617c7.33301 0 16.6709 -4.33398 28.0039 -13.001c8 -6.66699 12.333 -12.667 13 -18s-1 -17.666 -5 -36.999c-10 -41.333 -18.5 -111.166 -25.5 -209.499s-11.167 -154.166 -12.5 -167.499c24 2.66699 41.333 6.33398 52 11.001
c7.33301 3.33301 17.166 -0.166992 29.499 -10.5s18.5 -20.5 18.5 -30.5c0 -12.667 -4.33301 -21.167 -13 -25.5s-25.334 -6.5 -50.001 -6.5c-24 0.666992 -54.833 -1.83301 -92.5 -7.5s-63.167 -8.83398 -76.5 -9.50098c-33.333 -2.66699 -54 -5.33398 -62 -8.00098
c-10 -4 -18.667 -1.33301 -26 8l-9 9c-0.666992 0 0.333008 -3.33301 3 -10c2 -6.66699 2.66699 -10 2 -10s-3.66699 2 -9 6c-20.667 16.667 -18.667 32.334 6 47.001c18.667 10.667 45.667 17.667 81 21c37.333 4 59.666 10 66.999 18
c5.33301 7.33301 7.33301 15.166 6 23.499s-0.333008 19.5 3 33.5c3.33301 10.667 7.16602 46 11.499 106s7.16602 94 8.49902 102c3.33301 12 -0.666992 16.667 -12 14c-10 -2 -24 -9.66699 -42 -23c-3.33301 -2.66699 -9.16602 -5.83398 -17.499 -9.50098
s-17.5 -7.33398 -27.5 -11.001s-16.667 -6.16699 -20 -7.5c-6.66699 -2.66699 -14.167 1.33301 -22.5 12s-10.833 20 -7.5 28c0 4 15.833 14.833 47.5 32.5s47.5 28.167 47.5 31.5c0 2 0.833008 3.16699 2.5 3.5s3.5 0.166016 5.5 -0.500977s3.83301 -1.16699 5.5 -1.5
s3 -0.166016 4 0.500977s0.833008 2.33398 -0.5 5.00098c-2.66699 6 10 25.5 38 58.5s45 48.167 51 45.5z" />
    <glyph glyph-name="two" unicode="2" horiz-adv-x="450" 
d="M319 254c0 -11.333 -16.998 -32.999 -50.998 -64.999c-18 -15.333 -27 -25.666 -27 -30.999c0 -8.66699 36 -14 108 -16c37.333 -1.33301 59.333 -7 66 -17c10.667 -15.333 7 -29.333 -11 -42s-42.333 -18.667 -73 -18c-14 0.666992 -28.5 3.66699 -43.5 9
s-28.5 8 -40.5 8c-13.333 0 -35.5 -3.66699 -66.5 -11s-48.167 -12.666 -51.5 -15.999c-2.66699 -4.66699 -11.834 -10.834 -27.501 -18.501s-26.167 -11.5 -31.5 -11.5c-6.66699 0 -15 6 -25 18s-15 21.667 -15 29c0 9.33301 18.667 29 56 59
c39.333 31.333 75.666 63.333 108.999 96s53.666 57 60.999 73c6.66699 12.667 14.667 25.667 24 39c17.333 24 32.333 51.167 45 81.5s18.667 54.166 18 71.499c0 14.667 -1.5 25.167 -4.5 31.5s-9.83301 14.166 -20.5 23.499c-14.667 12.667 -26 19.167 -34 19.5
s-23.333 -4.83398 -46 -15.501c-20.667 -10 -39.167 -22.167 -55.5 -36.5s-27.166 -28.166 -32.499 -41.499c-3.33301 -9.33301 -10.666 -17.166 -21.999 -23.499s-21.333 -7.83301 -30 -4.5c-5.33301 2 -11.666 9 -18.999 21c-4 8 -5.5 14.833 -4.5 20.5
s5.5 15.834 13.5 30.501c10.667 19.333 29.5 40.666 56.5 63.999s50.833 38.666 71.5 45.999c42 16 85.333 9 130 -21c27.333 -19.333 46.166 -39.333 56.499 -60s14.5 -47.667 12.5 -81c0 -23.333 -2.66699 -42.833 -8 -58.5s-13.333 -32.167 -24 -49.5
s-18.334 -32 -23.001 -44c-4 -8.66699 -11.167 -19 -21.5 -31s-16.833 -21.333 -19.5 -28z" />
    <glyph glyph-name="three" unicode="3" horiz-adv-x="395" 
d="M352 189c0 -8.66699 -11.001 -28.499 -33.001 -59.499s-38 -49.167 -48 -54.5c-12.667 -6.66699 -42.667 -7 -90 -1c-49.333 6.66699 -78.333 13 -87 19c-8 5.33301 -17.5 18 -28.5 38s-16.5 35 -16.5 45c0 5.33301 3.5 12 10.5 20s12.833 12 17.5 12
c4 0 14.667 -8.66699 32 -26c11.333 -11.333 20.666 -18.5 27.999 -21.5s21.666 -5.16699 42.999 -6.5l45 -3c2.66699 3.33301 8.66699 9.83301 18 19.5l23.5 24.5c6.33301 6.66699 12 14.667 17 24s6.83301 17 5.5 23c0 3.33301 1.33301 18.333 4 45
c2.66699 14.667 -0.666016 24.167 -9.99902 28.5s-26.666 5.16602 -51.999 2.49902c-20 -2 -33 -2.33301 -39 -1s-13 5.66602 -21 12.999c-20.667 18.667 -21.334 41.667 -2.00098 69c14.667 20.667 35.334 57.334 62.001 110.001l-61 6c-36.667 3.33301 -58.5 5 -65.5 5
s-15.167 -1.66699 -24.5 -5c-13.333 -4 -26 1.83301 -38 17.5s-15.333 30.834 -10 45.501c4 7.33301 39 11 105 11c67.333 -1.33301 107.333 0.333984 120 5.00098c28 11.333 49.833 4.16602 65.5 -21.501s13.834 -50.834 -5.49902 -75.501
c-8 -10.667 -16.167 -24.167 -24.5 -40.5s-14.5 -30.666 -18.5 -42.999s-5 -18.833 -3 -19.5c17.333 -5.33301 34 -14 50 -26s26.667 -23 32 -33c6.66699 -12.667 10.5 -36.834 11.5 -72.501s-1.16699 -55.167 -6.5 -58.5c-4 -2 -6 -7 -6 -15z" />
    <glyph glyph-name="four" unicode="4" horiz-adv-x="432" 
d="M402 373c0 -10.667 -3 -22.667 -9 -36s-13 -23.666 -21 -30.999c-9.33301 -8.66699 -13.666 -21.667 -12.999 -39c2 -63.333 1.5 -101.833 -1.5 -115.5s-12.833 -20.5 -29.5 -20.5c-16 0 -27.167 5.5 -33.5 16.5s-10.5 33.5 -12.5 67.5l-3 66l-31 9
c-17.333 5.33301 -38 6.5 -62 3.5s-44.667 -8.83301 -62 -17.5c-34 -18 -60.333 -15.333 -79 8c-10 11.333 -15.167 22.5 -15.5 33.5s3.83398 34.167 12.501 69.5c9.33301 40 13 77.333 11 112c-1.33301 24 -1.33301 40 0 48s4.66602 14.667 9.99902 20
c19.333 19.333 38.666 13.333 57.999 -18c6.66699 -10.667 10.667 -21.834 12 -33.501s1.66602 -34.5 0.999023 -68.5l-3 -77l144 -4c-2 20.667 -6.66699 55 -14 103c-4.66699 26 -6 53.667 -4 83s6.66699 49.333 14 60l9 14c1.33301 2 3.5 3.33301 6.5 4
s5.5 0.333984 7.5 -0.999023l13 -9c8 -5.33301 13 -11.333 15 -18s3 -21.334 3 -44.001c1.33301 -42 4.33301 -74 9 -96c4 -22 7.33301 -35 10 -39s8.33398 -5.66699 17.001 -5c10.667 1.33301 20.167 -2.5 28.5 -11.5s12.5 -20.167 12.5 -33.5z" />
    <glyph glyph-name="five" unicode="5" horiz-adv-x="378" 
d="M85 196c2.66699 -0.666992 6 -0.667969 10 -0.000976562s7.16699 1 9.5 1s3.83301 -1.33301 4.5 -4c0 -6.66699 6 -15.167 18 -25.5s21.667 -15.5 29 -15.5c9.33301 0 23.166 4.33301 41.499 13s30.166 16.667 35.499 24c12 16.667 22.667 41.334 32 74.001
s14.333 63.667 15 93c-32 2 -63.5 -0.833008 -94.5 -8.5s-48.833 -18.167 -53.5 -31.5c-2.66699 -6.66699 -10.334 -13.334 -23.001 -20.001c-8.66699 -4.66699 -15.5 -6.83398 -20.5 -6.50098s-12.167 2.83301 -21.5 7.5c-13.333 6.66699 -22.666 14.167 -27.999 22.5
s-8.33301 20.5 -9 36.5c-0.666992 16.667 3.5 55 12.5 115s15.5 93 19.5 99c5.33301 8.66699 29 17.667 71 27s78 13.333 108 12c11.333 -0.666992 20.166 -0.5 26.499 0.5s12.333 2.33301 18 4s11.5 2.83398 17.5 3.50098c11.333 0 21.833 -6.5 31.5 -19.5
s13.834 -26.167 12.501 -39.5c-1.33301 -10 -3.66602 -16.5 -6.99902 -19.5s-11 -5.5 -23 -7.5c-2.66699 -0.666992 -29.334 -3 -80.001 -7s-79 -7.66699 -85 -11c-3.33301 -4 -8.66602 -7.33301 -15.999 -10s-12.333 -17.667 -15 -45s-3.33398 -41.666 -2.00098 -42.999
c1.33301 -2 10.333 0.666992 27 8c18.667 7.33301 41.834 10.833 69.501 10.5s50.5 -4.83301 68.5 -13.5c14.667 -6.66699 26.834 -15.5 36.501 -26.5s12.834 -19.167 9.50098 -24.5c-2.66699 -4 -2 -6 2 -6c8 0 13 -8.33301 15 -25s0.833008 -38 -3.5 -64
s-11.5 -52 -21.5 -78c-10 -26.667 -21.167 -46.834 -33.5 -60.501s-29.5 -26.167 -51.5 -37.5c-28.667 -16 -63.167 -19.167 -103.5 -9.5s-61.833 27.5 -64.5 53.5c-2.66699 14 -2.33398 26.333 0.999023 37s8.33301 16.334 15 17.001z" />
    <glyph glyph-name="six" unicode="6" horiz-adv-x="411" 
d="M269 249c0 -7.33301 0.333008 -12 1 -14s2 -2.66699 4 -2s6 3 12 7c10.667 6 20 20 28 42c10 29.333 9.33301 43.333 -2 42c-2.66699 -0.666992 -5.66699 -2 -9 -4c-8 -4.66699 -15.667 -14.5 -23 -29.5s-11 -28.833 -11 -41.5zM178 180h28.001c0 6 -0.666992 18 -2 36
s-2.16602 32 -2.49902 42s0.166992 21.5 1.5 34.5s4 23.167 8 30.5c10.667 20.667 25.667 38.5 45 53.5s37.666 22.5 54.999 22.5c14.667 0 25 -1.83301 31 -5.5s14 -13.167 24 -28.5c18 -26 19.667 -63 5 -111c-6.66699 -22.667 -24.167 -48.834 -52.5 -78.501
s-49.833 -44.5 -64.5 -44.5c-13.333 0 -20 -2 -20 -6c0 -5.33301 -10.333 -9.33301 -31 -12c-62.667 -10 -110.334 35.667 -143.001 137c-18.667 59.333 -28.5 125.833 -29.5 199.5s7.16699 127.834 24.5 162.501c6.66699 12.667 15.334 19 26.001 19s20.334 -6 29.001 -18
c7.33301 -11.333 11.166 -22.5 11.499 -33.5s-3.16699 -32.5 -10.5 -64.5c-10.667 -44 -12.834 -99.667 -6.50098 -167s18.833 -118 37.5 -152c5.33301 -10.667 17.333 -16 36 -16z" />
    <glyph glyph-name="seven" unicode="7" horiz-adv-x="490" 
d="M393 370c28.667 0 47.833 -6.00586 57.5 -18.0059s11.167 -31.333 4.5 -58c-2 -7.33301 -4.5 -11.666 -7.5 -12.999s-10.167 -1 -21.5 1c-16 3.33301 -34.167 5.16602 -54.5 5.49902s-32.166 -0.833984 -35.499 -3.50098c-2 -2 -6.66699 -39 -14 -111
c-6 -72 -12.333 -111.333 -19 -118c-6 -6 -15 -7.66699 -27 -5s-22.333 8.66699 -31 18c-5.33301 6 -8.33301 12 -9 18s0.333008 17 3 33c4.66699 24 7.66699 56 9 96c0.666992 36 -0.666016 54 -3.99902 54l-3 -2c-6.66699 -7.33301 -16.334 -10.166 -29.001 -8.49902
s-24.334 6.83398 -35.001 15.501c-10 9.33301 -16.167 17.5 -18.5 24.5s-1.5 16.167 2.5 27.5c3.33301 8.66699 8 14.334 14 17.001s24.333 7.33398 55 14.001c12.667 2 22.334 4.83301 29.001 8.5s11 6.83398 13 9.50098s4 9 6 19s3.66699 17.333 5 22
c3.33301 10.667 6.33301 22.334 9 35.001s5.33398 29.167 8.00098 49.5s4.66699 33.833 6 40.5c-12 -1.33301 -26.667 -3.33301 -44 -6s-31 -4.5 -41 -5.5s-23.333 -2 -40 -3s-34.667 -1.5 -54 -1.5c-28 -0.666992 -46.333 -0.166992 -55 1.5s-16.667 5.83398 -24 12.501
c-18.667 18 -22.834 32.833 -12.501 44.5s31.166 15.834 62.499 12.501c20.667 -2 51 -0.833008 91 3.5s70.667 9.83301 92 16.5c43.333 13.333 73 4.66602 89 -26.001s15.667 -77.667 -1 -141c-10.667 -40.667 -15 -64 -13 -70s14.333 -9 37 -9z" />
    <glyph glyph-name="eight" unicode="8" horiz-adv-x="449" 
d="M89 196c0 -32 15.001 -56.668 45.001 -74.001s64.5 -23.333 103.5 -18s70.5 22 94.5 50c16.667 19.333 25 33.333 25 42c0 7.33301 -9 20.5 -27 39.5s-33 30.833 -45 35.5c-8.66699 3.33301 -35.334 7 -80.001 11c-31.333 2.66699 -50.5 3.33398 -57.5 2.00098
s-14.833 -7 -23.5 -17c-23.333 -25.333 -35 -49 -35 -71zM209.001 355.999c23.333 0 41.499 3.33105 54.499 9.99805s30.167 22.334 51.5 47.001c18.667 21.333 30.167 36 34.5 44s5.5 16.667 3.5 26c-4 16 -16.333 31.333 -37 46c-32 24 -67.333 29 -106 15
c-29.333 -10 -52 -38.333 -68 -85l-14 -41c1.33301 -0.666992 5.16602 -3.5 11.499 -8.5s11.833 -8.83301 16.5 -11.5s8.33398 -3.66699 11.001 -3c1.33301 0.666992 3.33301 -0.666016 6 -3.99902s5.33398 -8 8.00098 -14c6 -14 15.333 -21 28 -21zM244 623.997
c22 0 37.166 -1.50293 45.499 -4.50293s23.166 -12.167 44.499 -27.5c50 -36 78 -74.333 84 -115c4.66699 -32 -12.333 -69.333 -51 -112c-19.333 -22.667 -29.333 -36.667 -30 -42c-1.33301 -7.33301 7.33398 -19.666 26.001 -36.999
c1.33301 -1.33301 3 -2.66602 5 -3.99902c18.667 -16 31 -28.833 37 -38.5s10 -22.5 12 -38.5s0.5 -29.5 -4.5 -40.5s-17.5 -27.833 -37.5 -50.5c-22 -25.333 -44.833 -44 -68.5 -56s-52.5 -19.333 -86.5 -22c-23.333 -2 -39.666 -2 -48.999 0s-24 8 -44 18
c-26 14 -44 25.333 -54 34s-18.333 20.667 -25 36c-16.667 37.333 -22.167 73.833 -16.5 109.5s21.5 65.834 47.5 90.501l32 30c-32.667 39.333 -44.334 73.333 -35.001 102c7.33301 32 20.333 62.333 39 91s39.334 50 62.001 64c12.667 8.66699 35 13 67 13z" />
    <glyph glyph-name="nine" unicode="9" horiz-adv-x="448" 
d="M98 437c0 -10 5.66699 -28.333 17 -55c7.33301 -16.667 13.666 -27.667 18.999 -33s14.333 -10 27 -14c18.667 -6 35.667 -5.66699 51 1c15.333 6 31.666 15 48.999 27s28 21.667 32 29c14 25.333 21.333 41.166 22 47.499s-4.33301 19.833 -15 40.5
c-2 4 -5.16699 9.83301 -9.5 17.5l-8 14c-1 1.66699 -3.16699 4.83398 -6.5 9.50098s-6.16602 7.33398 -8.49902 8.00098s-6.16602 2 -11.499 4s-11 3.33301 -17 4s-13.667 1.33398 -23 2.00098c-18.667 2 -31.667 2.16699 -39 0.5s-17.333 -6.83398 -30 -15.501
c-14 -10 -25.667 -23.333 -35 -40s-14 -32.334 -14 -47.001zM326 558c4.66699 -7.33301 8.5 -14 11.5 -20s4.83301 -9.83301 5.5 -11.5s2.16699 -4 4.5 -7s4.83301 -6 7.5 -9s7.66699 -8.16699 15 -15.5l24 -25v-79c1.33301 -138.667 8 -214 20 -226
c5.33301 -5.33301 5.16602 -16.833 -0.500977 -34.5s-12.834 -28.5 -21.501 -32.5c-17.333 -7.33301 -31.333 -5 -42 7s-15.334 31 -14.001 57c0.666992 17.333 0.333984 38.833 -0.999023 64.5s-3.16602 47.834 -5.49902 66.501s-4.5 28 -6.5 28
c-4.66699 0 -13.334 -5.66699 -26.001 -17c-13.333 -12 -32 -24 -56 -36c-17.333 -8.66699 -29.666 -13.5 -36.999 -14.5s-19.666 0.5 -36.999 4.5c-28 7.33301 -49 17 -63 29s-28.333 33 -43 63c-17.333 35.333 -27.333 62.833 -30 82.5s1 44.5 11 74.5
c10 30.667 25.333 55 46 73c23.333 19.333 41.333 31 54 35c36 11.333 71.667 11.666 107 0.999023s61 -30 77 -58z" />
    <glyph glyph-name="colon" unicode=":" horiz-adv-x="144" 
d="M34 155c3.33301 7.33301 11.833 10.999 25.5 10.999s24.167 -3.33301 31.5 -10c8.66699 -8 11.667 -19.667 9 -35s-9.66699 -26 -21 -32c-8 -4.66699 -13.833 -6.66699 -17.5 -6s-8.83398 4 -15.501 10c-7.33301 6.66699 -12.166 15.834 -14.499 27.501
s-1.5 23.167 2.5 34.5zM47 436.999c16 24.667 33.666 24.6689 52.999 0.00195312c17.333 -22 17.333 -40.667 0 -56c-6 -5.33301 -10.833 -8.33301 -14.5 -9s-9.16699 0.666016 -16.5 3.99902c-13.333 6.66699 -22.166 15.667 -26.499 27s-2.83301 22.666 4.5 33.999z" />
    <glyph glyph-name="semicolon" unicode=";" 
d="M56 140c26.667 6.66699 44.499 4.33203 53.499 -7.00098s12.833 -36.333 11.5 -75c-1.33301 -44.667 -8 -76.5 -20 -95.5s-28.333 -23.5 -49 -13.5c-12.667 6 -20 14.667 -22 26s2 20.333 12 27c20 14.667 20.667 38.667 2 72c-7.33301 14 -9.66602 27.833 -6.99902 41.5
s9 21.834 19 24.501zM87.999 362.998c-15.333 0 -26.499 11.668 -33.499 35.001s-4.83301 40.666 6.5 51.999c11.333 12 25.166 12 41.499 0s24.833 -28.333 25.5 -49c0 -7.33301 -4.5 -15.5 -13.5 -24.5s-17.833 -13.5 -26.5 -13.5z" />
    <glyph glyph-name="equal" unicode="=" horiz-adv-x="453" 
d="M368 250c0 -10.667 -4.16797 -18.667 -12.501 -24s-17.5 -5.66602 -27.5 -0.999023c-11.333 5.33301 -38.666 4.66602 -81.999 -2.00098c-114.667 -14.667 -178 -16 -190 -4c-14.667 13.333 -16.667 28 -6 44c2.66699 4.66699 27.667 8.66699 75 12
c79.333 5.33301 148 11 206 17c6.66699 1.33301 14.5 -3.16699 23.5 -13.5s13.5 -19.833 13.5 -28.5zM29.999 432c0 9.33301 2.8291 15.832 8.49609 19.499s16.834 6.5 33.501 8.5l59.5 6c27 2.66699 46.333 4.33398 58 5.00098s30.5 0.666992 56.5 0s55.333 -2.66699 88 -6
c36.667 -3.33301 60.667 -10.333 72 -21c10.667 -10 16.334 -17.167 17.001 -21.5s-3.33301 -11.5 -12 -21.5c-5.33301 -6.66699 -10.666 -10.667 -15.999 -12s-14.666 -0.333008 -27.999 3c-77.333 16 -149.666 20.667 -216.999 14c-50.667 -6 -79.334 -10 -86.001 -12
c-4.66699 -2.66699 -11.5 1 -20.5 11s-13.5 19 -13.5 27z" />
    <glyph glyph-name="greater" unicode="&#x3e;" horiz-adv-x="443" 
d="M372 286c-17.333 -1.33301 -39.502 -7.83301 -66.502 -19.5s-46.167 -19.167 -57.5 -22.5c-59.333 -20.667 -96.666 -40.334 -111.999 -59.001c-4 -4.66699 -7.66699 -7.16699 -11 -7.5s-9.33301 1.83398 -18 6.50098c-26.667 14 -33 32.333 -19 55
c4.66699 6.66699 26.167 19.167 64.5 37.5s76.833 34.166 115.5 47.499c15.333 5.33301 23 9.33301 23 12c0 3.33301 -12.667 6.33301 -38 9c-12 0 -27.667 5.16699 -47 15.5s-39.166 22.333 -59.499 36s-33.5 21.834 -39.5 24.501c-16.667 8 -33.667 19.833 -51 35.5
s-26 26.834 -26 33.501c0 8.66699 5 16.667 15 24c10.667 7.33301 18.5 10.666 23.5 9.99902s14.167 -6.33398 27.5 -17.001c60 -49.333 116.333 -78.333 169 -87c21.333 -2.66699 43.333 -9.5 66 -20.5s37.667 -21.5 45 -31.5c1.33301 -3.33301 4.33301 -5 9 -5
c7.33301 0.666992 12.5 -0.166016 15.5 -2.49902s6.16699 -7.5 9.5 -15.5c5.33301 -13.333 4 -26.5 -4 -39.5s-19.333 -19.5 -34 -19.5z" />
    <glyph glyph-name="question" unicode="?" horiz-adv-x="416" 
d="M210 108c17.333 12.667 34.668 10.001 52.001 -7.99902c7.33301 -8 11.166 -13.833 11.499 -17.5s-2.16699 -10.834 -7.5 -21.501c-17.333 -31.333 -35 -37.333 -53 -18c-9.33301 10 -14.333 21.667 -15 35s3.33301 23.333 12 30zM107.002 487.001
c0 -4.66699 -5.66211 -15.3301 -16.9951 -31.9971c-17.333 -27.333 -34 -33.333 -50 -18c-5.33301 5.33301 -8.5 17.666 -9.5 36.999s1.16699 30.666 6.5 33.999c4.66699 2 11.334 13.333 20.001 34c6 19.333 40 55 102 107c2.66699 2.66699 13 6 31 10
c34.667 6.66699 63.667 6.16699 87 -1.5s47.666 -24.834 72.999 -51.501c14 -14 22.833 -25.333 26.5 -34s6.5 -23.667 8.5 -45c3.33301 -38.667 -1.33398 -72 -14.001 -100s-38.334 -62 -77.001 -102l-47 -48c0 -2.66699 0.666992 -8.5 2 -17.5s2.33301 -16.167 3 -21.5
s1 -11.833 1 -19.5s-0.833008 -14 -2.5 -19s-4.16699 -8.5 -7.5 -10.5c-8.66699 -9.33301 -18.334 -12 -29.001 -8s-19.334 13.667 -26.001 29c-10 25.333 -13.667 59 -11 101c1.33301 6.66699 21 29 59 67c62 62 90.333 109.333 85 142c-2.66699 30 -20.5 49.333 -53.5 58
s-63.5 3 -91.5 -17c-14.667 -8.66699 -29.834 -21.5 -45.501 -38.5s-23.5 -28.833 -23.5 -35.5z" />
    <glyph glyph-name="at" unicode="@" horiz-adv-x="748" 
d="M654 -3c2 8 1.33301 12.6689 -2 14.002c-3.33301 0.666992 -5.66602 -1.66602 -6.99902 -6.99902v-7c0 -6.66699 0.5 -10.834 1.5 -12.501s2.16699 -1.33398 3.5 0.999023s2.66602 6.16602 3.99902 11.499zM458 322.002c-17.333 31.333 -29.998 48.3311 -37.998 50.998
c-16.667 4 -46.334 -7.83301 -89.001 -35.5s-69.667 -52.5 -81 -74.5c-8 -16 -12.167 -33.167 -12.5 -51.5s3.16699 -33.166 10.5 -44.499c5.33301 -7.33301 10.166 -11.666 14.499 -12.999s12.833 -1 25.5 1c41.333 6.66699 84.333 42.667 129 108zM497.002 -101
c-32 -24.667 -75.3291 -35.0049 -129.996 -31.0049c-42 0.666992 -73.5 3.83398 -94.5 9.50098s-47.167 18.834 -78.5 39.501c-58 38 -103.667 88.667 -137 152c-13.333 24.667 -21.333 42.334 -24 53.001s-3.66699 30 -3 58c0.666992 54 9 110.167 25 168.5
s36.333 105.166 61 140.499l12 17.5c6.66699 9.66699 11 16.5 13 20.5c6.66699 12 29.667 27.667 69 47c25.333 12 47.333 20.5 66 25.5s50 10.167 94 15.5c48.667 6.66699 78.667 10 90 10s21.333 -3 30 -9c5.33301 -4 24.333 -13.667 57 -29
c21.333 -9.33301 49.833 -30.833 85.5 -64.5s54.834 -56.834 57.501 -69.501c14 -73.333 17.667 -127.666 11 -162.999c-4 -22 -9.83301 -44 -17.5 -66s-13.834 -34.333 -18.501 -37c-4 -4 -10 -16.667 -18 -38c-10.667 -29.333 -27.334 -50.166 -50.001 -62.499
s-53.334 -19.166 -92.001 -20.499c-28 40.667 -43.667 84.667 -47 132c-9.33301 -22 -17.833 -37.667 -25.5 -47s-24.167 -22.333 -49.5 -39c-24 -16 -40.667 -25.667 -50 -29s-24 -4.66602 -44 -3.99902c-26.667 0.666992 -47.334 5.5 -62.001 14.5
s-27.667 25.167 -39 48.5c-18 37.333 -23.833 78 -17.5 122s22.5 75.667 48.5 95c11.333 8.66699 21.666 17.5 30.999 26.5s18.666 16.5 27.999 22.5s25.666 15.333 48.999 28c17.333 9.33301 29.833 14.5 37.5 15.5s21.834 0.166992 42.501 -2.5
c33.333 -6.66699 58 -19 74 -37l4 21c6 27.333 24 31.666 54 12.999c6.66699 -4 11.5 -9.16699 14.5 -15.5s4.33301 -14 4 -23s-1 -16.333 -2 -22s-3 -14.334 -6 -26.001s-4.83301 -19.167 -5.5 -22.5c-6.66699 -20 -10 -56.167 -10 -108.5s3.33301 -79.5 10 -81.5
c13.333 -5.33301 33.666 23 60.999 85c8 18 15.333 38.167 22 60.5s11 40.333 13 54s1.33301 21.5 -2 23.5c-3.33301 0 -6.66602 11.333 -9.99902 34c-6 45.333 -41.333 83.333 -106 114l-54 26l-41 -7c-23.333 -4 -42 -7.33301 -56 -10s-30.5 -6 -49.5 -10
s-33.5 -7.66699 -43.5 -11s-15.667 -6.66602 -17 -9.99902c-4 -4 -10 -6 -18 -6c-7.33301 0 -18.833 -8 -34.5 -24s-27.834 -32.667 -36.501 -50c-10 -19.333 -20.5 -45.833 -31.5 -79.5s-17.833 -59.834 -20.5 -78.501c-3.33301 -29.333 -6.66602 -54.666 -9.99902 -75.999
c-3.33301 -26 -3.16602 -46.667 0.500977 -62s13.167 -34.333 28.5 -57c26 -38.667 53 -64.667 81 -78c6.66699 -3.33301 11.834 -6.33301 15.501 -9s5.16699 -4.66699 4.5 -6c-1.33301 -4 0.666992 -6 6 -6c47.333 -12.667 91.166 -17.5 131.499 -14.5
s88.833 17.833 145.5 44.5c13.333 6.66699 22.666 10 27.999 10c3.33301 0 21.666 11 54.999 33c39.333 25.333 67.5 37.333 84.5 36s26.167 -16.666 27.5 -45.999c0.666992 -10.667 -0.166016 -18.167 -2.49902 -22.5s-8.16602 -8.83301 -17.499 -13.5
c-1.33301 -0.666992 -8 -4.5 -20 -11.5l-27.5 -16l-28.5 -16c-12.667 -7 -23.5 -12.5 -32.5 -16.5l-29 -13c-10.333 -4.66699 -19.833 -8.16699 -28.5 -10.5s-16 -3.5 -22 -3.5c-8.66699 -1.33301 -13 -3 -13 -5z" />
    <glyph glyph-name="A" unicode="A" horiz-adv-x="474" 
d="M292 469c-23.333 0 -32.3359 15.333 -27.0029 46c2.66699 12.667 2.83398 20 0.500977 22s-9.83301 0.333008 -22.5 -5c-25.333 -10 -55.5 -52.667 -90.5 -128s-53.833 -137.333 -56.5 -186c-1.33301 -26.667 0.333984 -54 5.00098 -82s10 -43 16 -45
c10.667 -3.33301 32.834 18.167 66.501 64.5s64.5 97.833 92.5 154.5c15.333 32 24.333 66.333 27 103c1.33301 26 1.5 41.833 0.5 47.5s-4.83301 8.5 -11.5 8.5zM330.997 566c3.33301 -5.33301 11.3359 -9.16797 24.0029 -11.501s21 -5.5 25 -9.5
c7.33301 -7.33301 10 -15 8 -23c0 -2.66699 -1.33301 -3.33398 -4 -2.00098s-4.66699 -5 -6 -19l-1 -9c-4 -125.333 -1.33301 -208 8 -248c9.33301 -37.333 16 -60.833 20 -70.5s10.333 -14.5 19 -14.5s14.667 -5.66699 18 -17c4 -16.667 1.33301 -27 -8 -31
s-23.666 -1 -42.999 9c-15.333 7.33301 -26.833 16 -34.5 26s-14.834 26 -21.501 48c-10.667 34.667 -18.334 51.334 -23.001 50.001l-1 -6c0 -9.33301 -18.333 -40 -55 -92s-58.334 -78 -65.001 -78c-2.66699 0 -12 -7.33301 -28 -22c-6 -6 -11.833 -10.333 -17.5 -13
s-10 -4 -13 -4s-8.66699 0.833008 -17 2.5s-14.5 2.83398 -18.5 3.50098c-8 1.33301 -18.667 11.666 -32 30.999c-26.667 40.667 -38 102.334 -34 185.001c3.33301 42 15.666 89 36.999 141c24.667 58 49 103 73 135s51.333 55 82 69c19.333 8.66699 39 10.167 59 4.5
s36.333 -17.167 49 -34.5z" />
    <glyph glyph-name="B" unicode="B" horiz-adv-x="609" 
d="M467 339c-10.667 -9.33301 -21.667 -15.667 -33 -19s-22 -7.66602 -32 -12.999c-20 -9.33301 -46.667 -15.666 -80 -18.999c-26 -3.33301 -41.5 -6 -46.5 -8s-7.83301 -7.66699 -8.5 -17c-2 -14 1.83301 -22.167 11.5 -24.5s24.167 1.83398 43.5 12.501
c20 11.333 36 16.333 48 15c17.333 -2.66699 21 -14.334 11 -35.001c-12 -23.333 -31.333 -40.333 -58 -51l-23 -9l19 -11c13.333 -7.33301 35.333 -10.833 66 -10.5s53.667 4.16602 69 11.499c29.333 15.333 49 44.666 59 87.999s4 78.333 -18 105
c-4 1.33301 -13.333 -3.66699 -28 -15zM275 376.999c6 0 11.3311 2.33398 15.998 7.00098c5.33301 4.66699 24 11.667 56 21s57.333 15.333 76 18c16 2 26.333 4.66699 31 8s9.66699 11.333 15 24c8.66699 20.667 11.667 39.667 9 57c-2 15.333 -5.66699 25.666 -11 30.999
s-20.666 13.333 -45.999 24c-16 7.33301 -38.333 12.333 -67 15s-48.667 2 -60 -2c-7.33301 -3.33301 -12.666 -12.333 -15.999 -27s-6.33301 -47.667 -9 -99s-0.666992 -77 6 -77zM547.998 166c-5.33301 0 -9.00391 -4.66309 -11.0039 -13.9961
c-4 -10.667 -14.667 -21.667 -32 -33c-12.667 -8.66699 -24.667 -14.167 -36 -16.5s-34.333 -4.16602 -69 -5.49902c-51.333 -2.66699 -83 0.333008 -95 9c-11.333 7.33301 -18.333 10.666 -21 9.99902s-6 -7.33398 -10 -20.001
c-5.33301 -13.333 -14.166 -21.833 -26.499 -25.5s-22.5 -0.5 -30.5 9.5c-4.66699 5.33301 -7.66699 19.666 -9 42.999s-2 76 -2 158c0 125.333 -0.666992 188 -2 188s-16.666 -14.667 -45.999 -44c-28 -29.333 -49.833 -48.333 -65.5 -57s-30.167 -9.66699 -43.5 -3
c-12.667 6.66699 -19 18 -19 34c0 10 0.833008 16.667 2.5 20s5.83398 5.33301 12.501 6c10.667 1.33301 28.334 13 53.001 35c15.333 14 24.833 24 28.5 30s4.5 13.667 2.5 23c-4.66699 23.333 11 50.666 47 81.999c17.333 16 27.666 28.667 30.999 38
c2.66699 10.667 6.33398 19 11.001 25c4 5.33301 11.667 8 23 8s21.666 -2.33301 30.999 -7c7.33301 -4 29 -7.33301 65 -10c53.333 -4.66699 89.333 -12.667 108 -24c6 -3.33301 11.667 -5.33301 17 -6c22 -2.66699 38.833 -10.667 50.5 -24s22.167 -35 31.5 -65
c5.33301 -18.667 8 -31.834 8 -39.501s-3.33301 -21.167 -10 -40.5l-14 -41c20 -20.667 34 -40 42 -58s11 -43 9 -75c-0.666992 -28 -4.16699 -53.333 -10.5 -76s-13.166 -34 -20.499 -34z" />
    <glyph glyph-name="C" unicode="C" horiz-adv-x="551" 
d="M221 616c0 5.33301 13.334 14.9941 40.001 28.9941c26.667 14.667 51.667 20.667 75 18c44 -4 85.667 -29.333 125 -76c28.667 -34 46.334 -57.167 53.001 -69.5s8.66699 -26.166 6 -41.499c-4 -24 -13 -35 -27 -33c-16.667 1.33301 -30.667 17.333 -42 48
c-2 4.66699 -3.66699 9.33398 -5 14.001c-6.66699 22 -19 41 -37 57s-36.333 23.667 -55 23c-28.667 -0.666992 -66.334 -22 -113.001 -64s-75.667 -80.333 -87 -115c-2 -7.33301 -8.33301 -20 -19 -38c-12 -19.333 -15.833 -51.5 -11.5 -96.5s14.5 -79.5 30.5 -103.5
c9.33301 -14 17 -22.333 23 -25s22.333 -5.33398 49 -8.00098c100.667 -6.66699 166 19.333 196 78c10.667 18 22 33 34 45c8.66699 7.33301 14.667 11.166 18 11.499s9.33301 -2.16699 18 -7.5c12 -8 19 -15.667 21 -23s0.666992 -19.666 -4 -36.999
c-5.33301 -20 -18.5 -41.667 -39.5 -65s-42.833 -40.666 -65.5 -51.999c-18.667 -9.33301 -34.5 -15.166 -47.5 -17.499s-39.833 -3.16602 -80.5 -2.49902c-57.333 0.666992 -96.5 5 -117.5 13s-43.167 26.667 -66.5 56c-32 42.667 -51.833 93.334 -59.5 152.001
s0.166016 100.334 23.499 125.001c6 6 12.667 21 20 45c2 10.667 7.5 22.667 16.5 36s19.5 27 31.5 41s19.667 23.333 23 28c5.33301 8.66699 17 20 35 34s28.667 20 32 18c4.66699 -3.33301 7 -2.33301 7 3z" />
    <glyph glyph-name="D" unicode="D" horiz-adv-x="545" 
d="M361 175c0 4 -6.00098 4.99902 -18.001 2.99902c-6 -0.666992 -21 -3.33398 -45 -8.00098h-1h-1h-1h-1l-1 -1h-1h-1c-32.667 -6.66699 -56.667 -8.66699 -72 -6c-11.333 2 -18.666 0.333008 -21.999 -5s-6.66602 -19.666 -9.99902 -42.999
c-2.66699 -21.333 -3 -32 -1 -32c1.33301 0 4 1.66699 8 5c6 4.66699 26.333 11 61 19c20 3.33301 35.167 7.33301 45.5 12s21.166 12.334 32.499 23.001c18.667 18.667 28 29.667 28 33zM198.999 260.999c0 -20 3.66895 -31.3301 11.002 -33.9971
s31.333 -0.333984 72 6.99902s62.667 13.333 66 18c2.66699 3.33301 6.5 4.16602 11.5 2.49902s10.333 -5.33398 16 -11.001s9.16699 -11.834 10.5 -18.501c1.33301 -6 2.5 -9.83301 3.5 -11.5s2.16699 -2 3.5 -1s3.66602 3.83301 6.99902 8.5c7.33301 10 17 36.333 29 79
c11.333 40 16.166 71.833 14.499 95.5s-10.834 53.167 -27.501 88.5c-13.333 28 -25.666 48.5 -36.999 61.5s-25 22.5 -41 28.5c-25.333 10 -56.5 10.333 -93.5 1s-58.833 -23 -65.5 -41c-19.333 -52 -16 -121.667 10 -209c6.66699 -21.333 10 -42.666 10 -63.999z
M100.001 483.002c0.666992 11.333 -0.166992 17.332 -2.5 17.999s-6.16602 -1.16602 -11.499 -5.49902s-9.66602 -6.16602 -12.999 -5.49902c-7.33301 0 -16.333 5.5 -27 16.5s-16 20.5 -16 28.5c0 10 16.333 25.667 49 47s65.667 38 99 50c68 24 124.667 26.333 170 7
c28 -12 57.167 -37.667 87.5 -77s53.5 -81.666 69.5 -126.999c11.333 -32 13.166 -71 5.49902 -117s-24.167 -93 -49.5 -141c-14.667 -28.667 -39 -56.667 -73 -84s-65.333 -44 -94 -50c-66.667 -14.667 -108.334 -17 -125.001 -7c-28.667 16.667 -48.5 40 -59.5 70
s-9.16699 57.667 5.5 83c9.33301 15.333 14 41.666 14 78.999s-4.66699 78.666 -14 123.999c-10 46 -15 76.333 -15 91z" />
    <glyph glyph-name="E" unicode="E" horiz-adv-x="430" 
d="M288 145c5.33301 -0.666992 16.1689 6.33594 32.502 21.0029s27.166 21.667 32.499 21c7.33301 0 15 -5.83301 23 -17.5s10.667 -20.834 8 -27.501s-20.834 -23.334 -54.501 -50.001s-55.834 -42 -66.501 -46c-6.66699 -5.33301 -18.167 -1.66602 -34.5 11.001
s-25.833 18.667 -28.5 18c-34 2.66699 -61 16.667 -81 42s-28.333 55.666 -25 90.999c2.66699 26.667 5.66699 43.667 9 51c3.33301 8 -0.666992 14.333 -12 19c-13.333 4.66699 -26 14.5 -38 29.5s-19.333 29.5 -22 43.5c-2.66699 17.333 2.33301 50 15 98
c9.33301 31.333 16.833 53 22.5 65s15.834 26 30.501 42c16 17.333 28.167 28 36.5 32s26.833 8.33301 55.5 13c41.333 6.66699 74.666 11 99.999 13c16.667 0 27.5 1.5 32.5 4.5s7.83301 9.5 8.5 19.5s2 18 4 24c2.66699 7.33301 8.33398 10.833 17.001 10.5
s16.667 -4.83301 24 -13.5c7.33301 -8 13.666 -35.833 18.999 -83.5s5.33301 -74.167 0 -79.5s-13.833 -5.5 -25.5 -0.5s-20.834 12.833 -27.501 23.5s-12.5 16.834 -17.5 18.501s-18.167 1.16699 -39.5 -1.5c-16 -1.33301 -33.167 -4.33301 -51.5 -9
s-31.833 -7.66699 -40.5 -9c-11.333 0 -25.333 -9.66699 -42 -29s-26.334 -37.333 -29.001 -54c-2.66699 -17.333 -7 -35.333 -13 -54c-5.33301 -16.667 -6.33301 -27.5 -3 -32.5s12.333 -6.5 27 -4.5c14.667 0.666992 26 8.33398 34 23.001c12.667 22 30 41.5 52 58.5
s44.333 27.833 67 32.5c10 2.66699 17.167 2.66699 21.5 0s10.833 -10.334 19.5 -23.001c12.667 -18.667 17.334 -35.334 14.001 -50.001c-3.33301 -16.667 -16.666 -36.5 -39.999 -59.5s-45.333 -38.167 -66 -45.5c-15.333 -5.33301 -26.166 -10.833 -32.499 -16.5
s-13.5 -15.834 -21.5 -30.501c-13.333 -24 -20 -43.333 -20 -58c0 -10 1.5 -17 4.5 -21s9.83301 -8.33301 20.5 -13c14 -5.33301 32.167 -8.5 54.5 -9.5s33.5 1.16699 33.5 6.5c0 4.66699 4.33301 7 13 7z" />
    <glyph glyph-name="F" unicode="F" horiz-adv-x="701" 
d="M387 392c27.333 0 43.666 -4.66602 48.999 -13.999c12.667 -25.333 6.33398 -41.666 -18.999 -48.999c-20 -5.33301 -33.667 -8 -41 -8c-30.667 0 -50.334 -27.333 -59.001 -82c-6 -38 -12.667 -73.333 -20 -106c-4.66699 -24 -9 -39.167 -13 -45.5
s-13 -13.833 -27 -22.5c-18.667 -10.667 -40.167 -18 -64.5 -22s-40.833 -2.66699 -49.5 4c-34 27.333 -62.333 57.333 -85 90s-31.667 56.334 -27 71.001c2 6.66699 18.667 17.834 50 33.501s52.666 23.5 63.999 23.5c10.667 0 16.667 2.66699 18 8
c2.66699 7.33301 10 3.66602 22 -11.001c11.333 -14 16 -24.667 14 -32c-2.66699 -9.33301 -19 -21.333 -49 -36c-4 -2 -9.5 -5 -16.5 -9s-11.5 -6.5 -13.5 -7.5s-4.83301 -3 -8.5 -6s-5.5 -5.33301 -5.5 -7s0.166992 -4 0.5 -7s1.83301 -6.33301 4.5 -10
s6.33398 -7.83398 11.001 -12.501c10 -10.667 22.5 -16.667 37.5 -18s29.833 2.66699 44.5 12c11.333 6.66699 19.666 15.5 24.999 26.5s10.666 30.5 15.999 58.5c6 30 8.5 51 7.5 63s-6.5 20 -16.5 24c-16.667 8 -25 25.667 -25 53c0 17.333 12 23.666 36 18.999
c10.667 -2 17.834 -0.666992 21.501 4s7.16699 16 10.5 34c4 28.667 4.66699 45 2 49s-16.334 6.33301 -41.001 7s-44.334 -2 -59.001 -8s-30.334 -17.667 -47.001 -35c-10 -10.667 -18.667 -16.5 -26 -17.5s-15.666 3.16699 -24.999 12.5c-24 22 -26.333 54 -7 96
c9.33301 21.333 13 34.333 11 39c-3.33301 6.66699 -3.33301 16 0 28c4 18 13.333 24.333 28 19c16.667 -6 27.667 -20.333 33 -43c0.666992 -5.33301 5 -8.83301 13 -10.5s25.667 -3.16699 53 -4.5c21.333 -0.666992 51.833 -3.83398 91.5 -9.50098
s80.5 -6.16699 122.5 -1.5c35.333 2.66699 59 5.66699 71 9s23.667 9.33301 35 18c33.333 24.667 56 50.667 68 78c6.66699 14.667 16.334 22.334 29.001 23.001s23.334 -6.33301 32.001 -21s10.167 -28.5 4.5 -41.5s-21.5 -34.167 -47.5 -63.5
c-29.333 -32.667 -53.666 -53.5 -72.999 -62.5s-53.666 -14.833 -102.999 -17.5c-54 -4.66699 -82.333 -8.33398 -85 -11.001c-5.33301 -5.33301 -10 -22.333 -14 -51h42z" />
    <glyph glyph-name="G" unicode="G" horiz-adv-x="620" 
d="M478 453c0 7.33301 0.164062 13.667 0.49707 19s-0.166992 8.83301 -1.5 10.5s-2.16602 2.83398 -2.49902 3.50098s-1.83301 0 -4.5 -2s-5 -4.16699 -7 -6.5s-5.16699 -5.33301 -9.5 -9s-8.16602 -7.16699 -11.499 -10.5c-42 -42 -84.667 -68.667 -128 -80
c-28 -7.33301 -44.5 -14.833 -49.5 -22.5s-0.5 -19.167 13.5 -34.5c10.667 -10.667 16.5 -18 17.5 -22s-0.833008 -9.66699 -5.5 -17c-6 -10 -20 -17 -42 -21c-20 -2.66699 -30.167 -8.33398 -30.5 -17.001s8.83398 -24.667 27.501 -48c33.333 -42 68.333 -60 105 -54
c36.667 5.33301 62.334 29 77.001 71c8 20.667 18.167 60 30.5 118s19.166 98.667 20.499 122zM589.997 689.001c0 -6.66699 -7 -29.6699 -21 -69.0029c-12.667 -36.667 -20.667 -82.334 -24 -137.001c-12.667 -185.333 -41.334 -307.666 -86.001 -366.999
c-14 -14.667 -52.667 -31.334 -116 -50.001l-42 16c-20 7.33301 -43.833 22.333 -71.5 45s-41.5 38.334 -41.5 47.001c0 13.333 -9.66699 8 -29 -16l-5 -7c-23.333 -32 -47 -53.167 -71 -63.5s-40 -6.5 -48 11.5c-5.33301 11.333 -6.5 20.666 -3.5 27.999s9.5 11 19.5 11
c11.333 0 27.666 14.333 48.999 43c3.33301 5.33301 7.16602 10.666 11.499 15.999s7.33301 9.5 9 12.5s3.83398 5.83301 6.50098 8.5s3.83398 5.16699 3.50098 7.5s-0.166016 4.33301 0.500977 6s-0.166016 4.16699 -2.49902 7.5s-4 6 -5 8s-3.83301 6.16699 -8.5 12.5
s-8.33398 11.833 -11.001 16.5c-28.667 40.667 -34.667 67.334 -18 80.001c6.66699 6 23.334 2.66699 50.001 -10c25.333 -13.333 39 -19 41 -17c1.33301 2.66699 4.66602 9 9.99902 19l17.5 33.5l12.5 24.5l-10.5 23.5c-4.33301 9.66699 -7.16602 16.334 -8.49902 20.001
s-3.33301 10.834 -6 21.501s-3.66699 20 -3 28s1 21.333 1 40c0.666992 31.333 2.16699 51.833 4.5 61.5s7.16602 18.5 14.499 26.5c10.667 12 18 16.667 22 14c2 -0.666992 3.16699 -0.666992 3.5 0s-0.166992 2.66699 -1.5 6c-2 6.66699 3 12.667 15 18
c12 6 25.667 4.66699 41 -4c22 -11.333 34.833 -25.166 38.5 -41.499s-0.5 -41.833 -12.5 -76.5c-11.333 -34 -16 -68.667 -14 -104c24.667 12 55.667 34.5 93 67.5s62.333 59.167 75 78.5c8.66699 14.667 16 34 22 58c1.33301 6.66699 3 12.667 5 18
s3.83301 9.33301 5.5 12s3.16699 3.66699 4.5 3c2 -0.666992 3 0 3 2c0 0.666992 -0.333008 2.33398 -1 5.00098c0 7.33301 1.33301 11 4 11c3.33301 0.666992 5.33301 2 6 4s1 5 1 9s1 7.66699 3 11c6 13.333 18.833 15.833 38.5 7.5s29.5 -20.5 29.5 -36.5z" />
    <glyph glyph-name="H" unicode="H" horiz-adv-x="519" 
d="M283 349l60.001 21c-28.667 2 -63 0.333008 -103 -5s-65 -11.333 -75 -18c-2.66699 -2.66699 -2.33398 -7.66699 0.999023 -15c5.33301 -14 44.333 -8.33301 117 17zM417.001 67c-0.666992 0 -0.664062 20.0039 0.00292969 60.0039c0 138.667 -2.33301 208 -7 208
c-9.33301 -2.66699 -24.5 -9.16699 -45.5 -19.5s-37.833 -17.5 -50.5 -21.5l-33 -13.5c-18.667 -7.66699 -31.667 -12.334 -39 -14.001s-18.333 -3.83398 -33 -6.50098s-27.667 -2.33398 -39 0.999023s-22.333 9.33301 -33 18l-28 21
c1.33301 -53.333 0.5 -113.166 -2.5 -179.499s-7.83301 -104.5 -14.5 -114.5c-2 -5.33301 -3.83301 -8.83301 -5.5 -10.5s-3.83398 -2.16699 -6.50098 -1.5s-7.33398 2.66699 -14.001 6c-17.333 8.66699 -28 17.667 -32 27s-5 27 -3 53
c1.33301 12 3.16602 26.167 5.49902 42.5s3.83301 27.666 4.5 33.999s1.16699 17 1.5 32s0.5 34.5 0.5 58.5c-0.666992 78 -0.5 159.667 0.5 245s2.5 129.666 4.5 132.999c3.33301 6 9.5 7.83301 18.5 5.5s17.833 -8.16602 26.5 -17.499
c7.33301 -8.66699 11.5 -17.834 12.5 -27.501s0.166992 -38.167 -2.5 -85.5l-5 -96c71.333 20.667 144.666 31.334 219.999 32.001c58.667 1.33301 91.667 0.666016 99 -2.00098c2.66699 -0.666992 4.5 -0.333984 5.5 0.999023s1.83301 4.66602 2.5 9.99902s1 13.333 1 24
v41c-0.666992 38.667 -0.166992 61.667 1.5 69s6.83398 12 15.501 14c15.333 4 25.666 -1.66699 30.999 -17c8 -23.333 12.333 -113.666 13 -270.999v-4l2 -255c0.666992 -7.33301 -0.166016 -12.166 -2.49902 -14.499s-7.83301 -3.83301 -16.5 -4.5
c-10.667 -1.33301 -22 2.5 -34 11.5s-18.333 18.5 -19 28.5z" />
    <glyph glyph-name="I" unicode="I" horiz-adv-x="464" 
d="M337 469c-5.33301 0 -11.833 -16.333 -19.5 -49s-11.5 -59.667 -11.5 -81c0 -27.333 2.66699 -40 8 -38c8.66699 3.33301 16 31.333 22 84l3 27c2.66699 38 2 57 -2 57zM61 349c12 0.666992 27.8359 3.99707 47.5029 9.99707s37.167 9.66699 52.5 11
c19.333 2.66699 31.666 3.66699 36.999 3s11 -4.66699 17 -12c14.667 -18 16.334 -35.667 5.00098 -53c-3.33301 -5.33301 -7.83301 -8.66602 -13.5 -9.99902s-16.834 -1.33301 -33.501 0c-25.333 2 -45 0.666992 -59 -4c-8.66699 -3.33301 -14 -7.33301 -16 -12
s-2.66699 -15.667 -2 -33c1.33301 -54.667 11.666 -91.667 30.999 -111c7.33301 -6.66699 13 -10.334 17 -11.001s11.667 1.33301 23 6c19.333 8 52.666 34.667 99.999 80c-9.33301 32 -15.333 69.667 -18 113s0 81.666 8 114.999c6.66699 25.333 11.5 42.833 14.5 52.5
s8.5 22.667 16.5 39s18.333 33.833 31 52.5c19.333 28.667 32 45.834 38 51.501s13.667 7.5 23 5.5c13.333 -4 23.333 -8 30 -12c12.667 -10.667 13.334 -36 2.00098 -76c-4 -13.333 -7.33301 -50 -10 -110c-1.33301 -62.667 -6.16602 -109.167 -14.499 -139.5
s-23.833 -64.833 -46.5 -103.5c2 -1.33301 7.33301 -6.16602 16 -14.499s16.667 -13.833 24 -16.5s15.666 -2.66699 24.999 0c13.333 3.33301 21.666 2.83301 24.999 -1.5s2.66602 -13.166 -2.00098 -26.499c-4.66699 -12.667 -20.167 -18 -46.5 -16
s-47.833 10.333 -64.5 25c-5.33301 5.33301 -9.66602 7.5 -12.999 6.5s-9.33301 -5.83301 -18 -14.5c-18 -18 -36.833 -34.167 -56.5 -48.5s-34.167 -22.5 -43.5 -24.5c-12.667 -2.66699 -21.667 -5 -27 -7c-8.66699 -2.66699 -22.334 0.833008 -41.001 10.5
s-32 20.167 -40 31.5c-15.333 22 -25.5 40.833 -30.5 56.5s-9.5 44.167 -13.5 85.5c-4.66699 46.667 -5.66699 75.334 -3 86.001s12.334 16 29.001 16z" />
    <glyph glyph-name="J" unicode="J" horiz-adv-x="359" 
d="M139 38c0 5.33301 -1.66602 8 -4.99902 8c-4 0 -12 -18.833 -24 -56.5s-16.333 -57.5 -13 -59.5c1.33301 -0.666992 3.66602 1.66602 6.99902 6.99902s7 12.5 11 21.5s7.83301 18.5 11.5 28.5s6.66699 19.833 9 29.5s3.5 16.834 3.5 21.501zM132.001 490
c-3.33301 0 -7.99805 -19.001 -13.998 -57.001c-6.66699 -43.333 -7.83398 -89.666 -3.50098 -138.999s13.833 -92 28.5 -128c4 -9.33301 7 -6.33301 9 9c7.33301 44.667 7.66602 112 0.999023 202c-2 27.333 -4.33301 49.333 -7 66c-6 31.333 -10.667 47 -14 47z
M228.003 207.999c2 0 12.1709 4.99902 30.5039 14.999s30.5 17.333 36.5 22c10 6.66699 18.167 7.33398 24.5 2.00098s9.5 -15.666 9.5 -30.999c0 -13.333 -2.33301 -22.5 -7 -27.5s-20 -15.167 -46 -30.5c-28 -16.667 -45.167 -28.834 -51.5 -36.501
s-10.5 -22.834 -12.5 -45.501c2.66699 -4 0.166992 -20.833 -7.5 -50.5s-15.5 -54.167 -23.5 -73.5c-7.33301 -17.333 -18.5 -32 -33.5 -44s-27.833 -16.667 -38.5 -14c-8 1.33301 -10.667 0.333008 -8 -3c2 -2.66699 0.333008 -4.66699 -5 -6
c-13.333 -2 -28 0.333008 -44 7c-14.667 6.66699 -22 15.834 -22 27.501s7.33301 42.167 22 91.5c3.33301 11.333 13 28 29 50c13.333 18.667 20.5 32.334 21.5 41.001s-3.16699 22 -12.5 40c-9.33301 19.333 -18 47.333 -26 84c-11.333 49.333 -15.333 109.666 -12 180.999
s12.666 119.333 27.999 144c4 5.33301 7 12.5 9 21.5s6.33301 15.833 13 20.5c9.33301 6.66699 17.166 9.5 23.499 8.5s15.166 -6.83301 26.499 -17.5c22 -20.667 38 -51 48 -91s17 -102 21 -186c3.33301 -66 5.66602 -99 6.99902 -99z" />
    <glyph glyph-name="K" unicode="K" horiz-adv-x="517" 
d="M97 258c3.33301 0 22.335 12.5029 57.002 37.5029s55.334 40.833 62.001 47.5c11.333 11.333 35.5 46.166 72.5 104.499s62.5 101.5 76.5 129.5c13.333 27.333 24.166 44.166 32.499 50.499s17.166 4.83301 26.499 -4.5c12.667 -12.667 13 -35 1 -67
s-39 -81.333 -81 -148c-30 -46.667 -45 -72.334 -45 -77.001c0 -4 6.33301 -12 19 -24s25.667 -22 39 -30c6 -2.66699 16.833 -14.834 32.5 -36.501s27.5 -32.5 35.5 -32.5c18.667 0 30 -5 34 -15s-0.666992 -21.333 -14 -34c-16.667 -15.333 -12.334 -23.333 12.999 -24
c12 0 20.667 -4 26 -12c5.33301 -8.66699 3.5 -17.667 -5.5 -27s-20.167 -14 -33.5 -14s-29 8.16699 -47 24.5s-30 33.833 -36 52.5c-4.66699 14.667 -16.667 31.667 -36 51s-38.666 34 -57.999 44c-9.33301 4.66699 -16.333 7 -21 7s-12 -2.33301 -22 -7
s-26.667 -17.834 -50 -39.501s-44.333 -42.834 -63 -63.501c-9.33301 -10.667 -14.333 -30.334 -15 -59.001c-0.666992 -9.33301 -1 -18.333 -1 -27s-0.166992 -14.5 -0.5 -17.5s-1.5 -6.33301 -3.5 -10s-5.33301 -8.16699 -10 -13.5
c-6.66699 -7.33301 -15.5 -8.66602 -26.5 -3.99902s-18.5 13.334 -22.5 26.001c-4 10.667 -4.33301 60 -1 148c1.33301 28 3.16602 78.333 5.49902 151s3.83301 115.334 4.5 128.001c4 100 8.66699 155.667 14 167c6 10.667 12.667 16.667 20 18s13.333 -2.66699 18 -12
c2 2.66699 3 -15.666 3 -54.999c0.666992 -32.667 0.666992 -94.667 0 -186v-147z" />
    <glyph glyph-name="L" unicode="L" horiz-adv-x="526" 
d="M216 251c12.667 34 16.998 51.333 12.998 52c-1.33301 0 -3.66602 -1.33301 -6.99902 -4c-1.33301 -1.33301 -4.16602 -3.5 -8.49902 -6.5s-9.83301 -7.16699 -16.5 -12.5l-18 -14c-24 -18 -42 -39.333 -54 -64c-10 -18.667 -18.5 -43 -25.5 -73s-8.5 -48 -4.5 -54
c2 -4 7.66699 -2.33301 17 5s19.833 18.333 31.5 33s22.167 30 31.5 46c18 32 31.667 62.667 41 92zM388.998 508c19.333 13.333 30 26 32 38c-2 -0.666992 -8.33301 -5.66699 -19 -15s-18 -17 -22 -23c-4.66699 -6 -7 -9.33301 -7 -10zM437.998 645
c24.667 0 41.3369 -7.33496 50.0039 -22.002s10.667 -39.334 6 -74.001l-8 -45c-72.667 -74.667 -119 -118.667 -139 -132c-6 -3.33301 -3.33301 -13.666 8 -30.999c16 -22.667 26.5 -45.834 31.5 -69.501s7.5 -61.5 7.5 -113.5c0 -64 -2.66699 -97.667 -8 -101
c-6.66699 -4.66699 -15.167 -4.5 -25.5 0.5s-17.5 12.5 -21.5 22.5c-6 13.333 -9 47.666 -9 102.999c0 58 -3.33301 91 -10 99c-1.33301 2.66699 -3 4.83398 -5 6.50098s-3.5 2.83398 -4.5 3.50098s-1.83301 0.666992 -2.5 0c-2.66699 -5.33301 -10.334 -23.333 -23.001 -54
s-24.667 -58.167 -36 -82.5s-21 -42.5 -29 -54.5c-18.667 -29.333 -42.334 -57.5 -71.001 -84.5s-49.334 -40.5 -62.001 -40.5c-16 0 -30 14 -42 42s-16.667 57 -14 87c5.33301 48 18.666 92.333 39.999 133c10.667 20 28.667 42.333 54 67s50 45 74 61
c-28 10.667 -50.833 23.667 -68.5 39s-35.834 38.666 -54.501 69.999c-27.333 44.667 -36.333 75.667 -27 93c10.667 20 24 21 40 3c8.66699 -10.667 16.334 -26 23.001 -46c6.66699 -21.333 29.667 -51.666 69 -90.999h99c4 34.667 12.833 64.334 26.5 89.001
s35.5 51.334 65.5 80.001c30 28 52 42 66 42z" />
    <glyph glyph-name="M" unicode="M" horiz-adv-x="839" 
d="M283 593c0 -17.333 10.002 -13.9961 30.002 10.0039c17.333 20.667 36.166 31.334 56.499 32.001s38.833 -8.66602 55.5 -27.999c12.667 -14 20.667 -29.833 24 -47.5s4 -48.167 2 -91.5c-2.66699 -46 -2 -69 2 -69s6 2 6 6c0 6.66699 12.5 27 37.5 61s44.833 58 59.5 72
c21.333 19.333 46.833 37.333 76.5 54s49.5 24.334 59.5 23.001c10.667 -1.33301 20.667 -8.33301 30 -21c6.66699 -9.33301 11 -19.833 13 -31.5s2.66699 -34.167 2 -67.5c0 -56.667 -3.33301 -102.667 -10 -138c-8.66699 -58 -8.83398 -108.333 -0.500977 -151
s22.833 -64 43.5 -64c12.667 0 23 -4 31 -12c5.33301 -5.33301 7.83301 -9.33301 7.5 -12s-3.83301 -7.33398 -10.5 -14.001c-25.333 -25.333 -54.333 -21 -87 13c-22 22.667 -36 43.667 -42 63s-8.66699 52.333 -8 99c1.33301 64 5 118.667 11 164
c7.33301 55.333 9 85.666 5 90.999c-3.33301 6 -13.666 3 -30.999 -9s-36.5 -28.667 -57.5 -50s-38.167 -42 -51.5 -62c-15.333 -23.333 -31 -58.666 -47 -105.999c-10 -28.667 -18.667 -51 -26 -67s-14.5 -27.833 -21.5 -35.5s-13.833 -10.834 -20.5 -9.50098
s-14.667 6.33301 -24 15c-7.33301 7.33301 -11.833 16.166 -13.5 26.499s-2.5 37.166 -2.5 80.499c0 63.333 2.33301 119.333 7 168c5.33301 51.333 5.33301 79.666 0 84.999c-14 14 -38.667 -8 -74 -66c-16.667 -28 -27.334 -50 -32.001 -66s-11.667 -56.667 -21 -122
c-19.333 -130.667 -33.5 -217.334 -42.5 -260.001s-18.167 -65.667 -27.5 -69c-18 -6 -32 0.333008 -42 19c-5.33301 11.333 -3.33301 36.666 6 75.999c8.66699 34.667 19.334 98.5 32.001 191.5s25.667 163.167 39 210.5c5.33301 21.333 7.5 42 6.5 62
s-4.83301 31.333 -11.5 34c-16 6 -38 -5.5 -66 -34.5s-49 -61.833 -63 -98.5c-15.333 -41.333 -33 -58.333 -53 -51c-12.667 6 -12.667 26.667 0 62c13.333 38.667 31.5 73.5 54.5 104.5s46.833 52.5 71.5 64.5c23.333 11.333 42.166 17 56.499 17s27.833 -6.33301 40.5 -19
c13.333 -13.333 20 -24 20 -32z" />
    <glyph glyph-name="N" unicode="N" horiz-adv-x="597" 
d="M401 525c10.667 0 23.6719 -5.66309 39.0049 -16.9961s26.666 -24 33.999 -38c12.667 -24.667 20.667 -52 24 -82s3.66602 -78.333 0.999023 -145c-2.66699 -76 -2 -126.5 2 -151.5s13.667 -37.5 29 -37.5c36 -6 45.667 -17.333 29 -34
c-8.66699 -10.667 -22.667 -16 -42 -16c-16 0 -29.167 4.16699 -39.5 12.5s-21.166 23.5 -32.499 45.5c-6 11.333 -9.5 25.5 -10.5 42.5s-1.16699 63.833 -0.5 140.5c0.666992 104.667 -2 166 -8 184c-7.33301 17.333 -12 26 -14 26c-4.66699 0 -12.834 -7 -24.501 -21
s-19.167 -25 -22.5 -33c-2.66699 -10.667 -6.33398 -16 -11.001 -16c-4 0 -6 -2.66699 -6 -8c0 -2.66699 -12.667 -35 -38 -97c-24 -56 -39 -94.333 -45 -115s-12.667 -55.334 -20 -104.001c-9.33301 -62.667 -16.166 -102 -20.499 -118s-11.5 -25.333 -21.5 -28
c-10.667 -2.66699 -22.334 0 -35.001 8c-8.66699 5.33301 -13.5 10.833 -14.5 16.5s-0.5 19.834 1.5 42.501c0.666992 17.333 13.5 93.666 38.5 228.999s37.5 212 37.5 230c0 31.333 -2.5 56.666 -7.5 75.999s-11.833 29 -20.5 29c-18 -6 -39.333 -30 -64 -72
s-45.667 -82.333 -63 -121c-16.667 -35.333 -30 -53 -40 -53c-3.33301 0 -5.33301 10.167 -6 30.5s0.166016 42.333 2.49902 66s5.5 39.167 9.5 46.5c38 74.667 75 125.667 111 153c19.333 14.667 34.5 22.667 45.5 24s24.833 -3.33398 41.5 -14.001
c12.667 -8.66699 25.667 -28.5 39 -59.5s20.666 -58.167 21.999 -81.5l4 -44c1.33301 -0.666992 3 1 5 5c2 3.33301 5 9.33301 9 18c11.333 23.333 24.833 42.666 40.5 57.999s29.5 23 41.5 23z" />
    <glyph glyph-name="O" unicode="O" horiz-adv-x="509" 
d="M393 458c-2.66699 11.333 -6.66992 18.5 -12.0029 21.5s-10.666 1.16699 -15.999 -5.5s-27.333 -19 -66 -37c-64 -30.667 -115.667 -39 -155 -25c-15.333 4.66699 -23.333 6.66699 -24 6c-8 -8 -12.667 -43.667 -14 -107c0 -46 4.83301 -82.5 14.5 -109.5
s27.834 -53.167 54.501 -78.5c23.333 -23.333 40.333 -35.5 51 -36.5s33.667 7.16699 69 24.5c27.333 13.333 45.833 25 55.5 35s20.834 28.333 33.501 55l22 46c-4.66699 122.667 -9 193 -13 211zM345.997 561c-4 5.33301 -29.333 7.33301 -76 6
c-48 0 -82.667 -4.66699 -104 -14c-18.667 -8.66699 -30.334 -16 -35.001 -22s-3.33398 -13 3.99902 -21c8.66699 -8.66699 10.667 -15.667 6 -21c-3.33301 -6 -2.33301 -7 3 -3c4.66699 3.33301 11.334 2 20.001 -4c4.66699 -2.66699 14.667 -2.5 30 0.5
s31.833 7.83301 49.5 14.5s34.834 14 51.501 22s30 16 40 24s13.667 14 11 18zM48.9971 530c20.667 42 46.665 70.3311 77.998 84.998s79 22 143 22c62.667 0.666992 99 -7 109 -23c2.66699 -2.66699 14.667 -5.16699 36 -7.5s32.666 -6.16602 33.999 -11.499
c4 -6.66699 5.83301 -16 5.5 -28s-2.83301 -20.333 -7.5 -25c-5.33301 -5.33301 -2.66602 -20.666 8.00098 -45.999c11.333 -13.333 18.833 -60.333 22.5 -141s1.16699 -126 -7.5 -136c-24.667 -56 -48 -96.333 -70 -121s-53.333 -44.334 -94 -59.001
c-36 -13.333 -63.167 -19.833 -81.5 -19.5s-37.5 8.5 -57.5 24.5c-10 8 -19 16.167 -27 24.5l-25 27c-8.66699 9.66699 -16 17.5 -22 23.5c-9.33301 10 -19.666 28.333 -30.999 55s-19.666 53 -24.999 79c-4 19.333 -6 35 -6 47s2 29 6 51
c11.333 56.667 11 94.334 -1 113.001c-4.66699 7.33301 -6.5 14.333 -5.5 21s7.16699 21.667 18.5 45z" />
    <glyph glyph-name="P" unicode="P" horiz-adv-x="557" 
d="M469 504c1.33301 30 -0.666016 45.667 -5.99902 47c-7.33301 2 -18.5 -1.5 -33.5 -10.5s-28.167 -19.833 -39.5 -32.5c-29.333 -34 -56.833 -76.833 -82.5 -128.5s-33.5 -80.5 -23.5 -86.5c6 -4 18.167 -3.66699 36.5 1s33.166 11 44.499 19c32 22.667 57.167 51 75.5 85
s27.833 69.333 28.5 106zM267.001 434c5.33301 0 15.668 13.665 31.001 40.998c13.333 22.667 34 49.334 62 80.001c28.667 30.667 54.167 48.167 76.5 52.5s43.833 -3.83398 64.5 -24.501c36 -35.333 34 -97.666 -6 -186.999c-22.667 -48.667 -54.667 -88 -96 -118
s-79 -41.333 -113 -34c-18 4 -28.667 3.33301 -32 -2c-4.66699 -6.66699 -12.667 -29.334 -24 -68.001s-17 -62 -17 -70c0 -11.333 -4.83301 -19 -14.5 -23s-20.167 -2.66699 -31.5 4c-10 6.66699 -15.333 14.5 -16 23.5s3.33301 32.833 12 71.5
c7.33301 32 14.666 70.167 21.999 114.5s12.666 82.166 15.999 113.499s3.66602 47 0.999023 47c-3.33301 0 -11 -6.66699 -23 -20c-17.333 -18.667 -37.5 -36.5 -60.5 -53.5s-38.167 -25.5 -45.5 -25.5c-6.66699 0 -15.5 4.33301 -26.5 13s-16.5 15.667 -16.5 21
c0 8.66699 16 23 48 43c16 10.667 31.167 23.334 45.5 38.001s30 32.334 47 53.001s30.167 36 39.5 46c19.333 22.667 34 35.167 44 37.5s19.667 -4.16699 29 -19.5c4.66699 -8 6.83398 -15 6.50098 -21s-3.16602 -17 -8.49902 -33
c-4.66699 -15.333 -8.5 -30.833 -11.5 -46.5s-4.83301 -28.167 -5.5 -37.5s0.333008 -14.666 3 -15.999z" />
    <glyph glyph-name="Q" unicode="Q" horiz-adv-x="562" 
d="M206 551c-8.66699 -1.33301 -14.5 -7.16797 -17.5 -17.501s-5.16699 -16.5 -6.5 -18.5c-4 -2 -17 -25.667 -39 -71c-24.667 -48 -38.5 -91.167 -41.5 -129.5s2.16699 -83.833 15.5 -136.5c1.33301 -2.66699 6 -6.16699 14 -10.5s16.667 -8.66602 26 -12.999
s15 -7.16602 17 -8.49902c10.667 -6.66699 27.5 -12.834 50.5 -18.501s41.833 -8.16699 56.5 -7.5c23.333 0.666992 45.333 4.66699 66 12s31 14.666 31 21.999c0 12.667 -6 15.667 -18 9c-5.33301 -4 -10.666 -9 -15.999 -15c-10 -12 -20.333 -16.333 -31 -13
c-10 3.33301 -15.833 5.83301 -17.5 7.5s-3.5 8.5 -5.5 20.5c-2.66699 14 3 28.667 17 44s23.667 23 29 23c4.66699 0 7 2 7 6c0 6.66699 4.83301 10.334 14.5 11.001s19.834 -1.66602 30.501 -6.99902c14.667 -6.66699 25 -17.334 31 -32.001
c7.33301 -14 12.666 -21 15.999 -21c4.66699 0 11.667 14 21 42s14 49 14 63c0 31.333 -13.333 77.333 -40 138c-21.333 48.667 -35 76.5 -41 83.5s-27 18.167 -63 33.5c-10 4 -29.833 6.5 -59.5 7.5s-49.834 -0.166992 -60.501 -3.5zM113 102.998
c-6.66699 0 -16.999 8.32715 -30.999 24.9941s-19.667 27.334 -17 32.001c2.66699 4 3.33398 5.66699 2.00098 5l-4 -2c-2 -1.33301 -4 -0.333008 -6 3s-3.83301 7.83301 -5.5 13.5s-3 11.334 -4 17.001s-2.33301 10.834 -4 15.501s-3.16699 7.33398 -4.5 8.00098
c-8.66699 11.333 -11.167 42.5 -7.5 93.5s11.167 88.167 22.5 111.5c9.33301 19.333 11.666 35 6.99902 47c-3.33301 7.33301 -4.5 13.5 -3.5 18.5s5.16699 12.5 12.5 22.5c28.667 37.333 58.667 67.333 90 90c16.667 11.333 32.334 17.5 47.001 18.5s50.667 -1.5 108 -7.5
c15.333 -2 31.666 -6.66699 48.999 -14s29 -14.333 35 -21c6.66699 -8 11.667 -10.667 15 -8c3.33301 2 8.5 -1.16699 15.5 -9.5s15.167 -21.666 24.5 -39.999s19.333 -40.5 30 -66.5c23.333 -57.333 38 -101.166 44 -131.499s5.33301 -59.166 -2 -86.499
c-6.66699 -24 -10 -48 -10 -72c-0.666992 -26.667 -5.83398 -46.334 -15.501 -59.001s-24.167 -17.667 -43.5 -15c-16 2 -39.667 -4 -71 -18c-57.333 -26 -116 -30.667 -176 -14c-34 10 -57.333 19.667 -70 29c-14 10 -23 15 -27 15z" />
    <glyph glyph-name="R" unicode="R" horiz-adv-x="434" 
d="M223 377c20.667 0 35.665 2.83398 44.998 8.50098s18.333 17.167 27 34.5c12 23.333 16.333 48.833 13 76.5s-13.333 47.167 -30 58.5c-10.667 7.33301 -39.834 8.16602 -87.501 2.49902s-73.167 -13.167 -76.5 -22.5c-2 -5.33301 -0.666992 -35.5 4 -90.5
s8.33398 -83.833 11.001 -86.5c0.666992 0 13.834 3.5 39.501 10.5s43.834 9.83301 54.501 8.5zM347.998 558.001c4.66699 -6.66699 8.00098 -15.499 10.001 -26.499s4.66699 -18.833 8 -23.5c6.66699 -4 7.5 -20.667 2.5 -50s-12.833 -54.666 -23.5 -75.999l-21 -40
c13.333 -16 29.333 -50.5 48 -103.5s29.334 -90.833 32.001 -113.5c0.666992 -12.667 -2.33301 -22.334 -9 -29.001s-14.667 -8.33398 -24 -5.00098c-6.66699 2 -19 28.667 -37 80c-28.667 84 -46.334 128.333 -53.001 133c-3.33301 1.33301 -25.5 -2.66699 -66.5 -12
s-62.833 -13.333 -65.5 -12c-4 0.666992 -6.83301 0.333984 -8.5 -0.999023s-2.16699 -3.66602 -1.5 -6.99902c2 -10.667 4 -36.667 6 -78c3.33301 -57.333 -0.333984 -91 -11.001 -101c-2 -2 -4.33301 -2.33301 -7 -1c-4.66699 3.33301 -7.66699 1.66602 -9 -5.00098
c-2 -6 -9.66699 -2 -23 12c-8.66699 9.33301 -13.667 17.166 -15 23.499s-1 18.5 1 36.5c1.33301 23.333 1 48.5 -1 75.5s-5.16699 58.167 -9.5 93.5s-7.16602 61.333 -8.49902 78c-6 53.333 -13.333 84.333 -22 93c-7.33301 6.66699 -10.666 14.5 -9.99902 23.5
s5.66699 26.5 15 52.5l6 16.5c2 5.66699 3.83301 10.334 5.5 14.001s2.5 6.16699 2.5 7.5c1.33301 5.33301 33.666 8.66602 96.999 9.99902c62 1.33301 106.167 -2.5 132.5 -11.5s46.166 -26.833 59.499 -53.5z" />
    <glyph glyph-name="S" unicode="S" horiz-adv-x="362" 
d="M269 141c0 20 -3.33398 30.332 -10.001 30.999c-2 0 -4 -1.66699 -6 -5s-16.333 -7 -43 -11c-20 -2 -34 -6.5 -42 -13.5s-9.16699 -14.667 -3.5 -23s17.834 -16.166 36.501 -23.499c12.667 -4.66699 22.667 -7 30 -7c9.33301 0 18 5.5 26 16.5s12 22.833 12 35.5z
M248.999 229.999c6 1.33301 7.66602 4.66797 4.99902 10.001c-2 3.33301 -5.33301 4.66602 -10 3.99902c-7.33301 0 -8.66602 -3 -3.99902 -9c3.33301 -3.33301 6.33301 -5 9 -5zM219.998 455.001c8 1.33301 11.667 20.001 11 56.001s-5.66699 56.667 -15 62
c-6 2 -11.833 -1.33301 -17.5 -10s-8.16699 -18.334 -7.5 -29.001c0.666992 -12 4.66699 -28.167 12 -48.5s13 -30.5 17 -30.5zM135.998 75.002c0 10 -14.3311 5.99707 -42.998 -12.0029c-34 -22 -54 -19.333 -60 8c-4.66699 18.667 2.66602 31.667 21.999 39
c11.333 4 17.333 10.667 18 20c0.666992 5.33301 -2 8 -8 8s-13.167 5.83301 -21.5 17.5s-12.833 21.5 -13.5 29.5c0 11.333 4 19.166 12 23.499s22.667 6.5 44 6.5c22.667 0 37.334 2 44.001 6s17.667 16.333 33 37c24.667 33.333 38 61.333 40 84
s-6.66699 46.334 -26 71.001c-18 24.667 -32 50.334 -42 77.001s-12.833 54.667 -8.5 84s19.833 52.666 46.5 69.999c12.667 8.66699 23.667 13.334 33 14.001s20.666 -2.33301 33.999 -9c20.667 -10.667 33.167 -22.5 37.5 -35.5s6.83301 -44.833 7.5 -95.5
c1.33301 -68 0 -114 -4 -138c-4 -27.333 -2.33301 -49.666 5 -66.999c19.333 -42.667 31.166 -71.667 35.499 -87s7.5 -39.333 9.5 -72c3.33301 -52.667 -1.66699 -88 -15 -106s-40 -25 -80 -21c-18 2 -39.167 8.83301 -63.5 20.5s-36.5 20.834 -36.5 27.501z" />
    <glyph glyph-name="T" unicode="T" horiz-adv-x="683" 
d="M196 599c2.66699 16.667 9.66699 25.0029 21 25.0029s20.666 -5.66699 27.999 -17c4.66699 -7.33301 10.834 -12.166 18.501 -14.499s24.5 -4.16602 50.5 -5.49902c29.333 -1.33301 50.666 -4.16602 63.999 -8.49902s38.333 -16.833 75 -37.5
c27.333 -15.333 46.333 -21.333 57 -18c16.667 4.66699 35.667 13.667 57 27s34.333 24.666 39 33.999c8.66699 18.667 20 23 34 13c6.66699 -4 10.834 -10.167 12.501 -18.5s0.166992 -14.833 -4.5 -19.5c-2.66699 -2.66699 -11.667 -14 -27 -34
c-17.333 -22.667 -44.5 -40 -81.5 -52s-61.833 -11.333 -74.5 2c-5.33301 5.33301 -11 8 -17 8c-4 0 -6.83301 -1.66699 -8.5 -5s-1.5 -7 0.5 -11s5 -6.66699 9 -8c6.66699 -2.66699 10 -12.334 10 -29.001s-3.66699 -34.667 -11 -54
c-9.33301 -23.333 -21 -48.833 -35 -76.5s-22.333 -41.5 -25 -41.5c-3.33301 0 -6.33301 -4 -9 -12c-4 -11.333 -31 -44.666 -81 -99.999c-16.667 -18 -29 -34.667 -37 -50c-19.333 -33.333 -42 -40.333 -68 -21c-9.33301 6.66699 -16.333 10.334 -21 11.001
s-13.334 -1.33301 -26.001 -6c-26.667 -9.33301 -47 -14.333 -61 -15s-26.333 2.66602 -37 9.99902c-12 9.33301 -18 19.333 -18 30c2 9.33301 4.66699 18.166 8 26.499s8.33301 17 15 26l16 21l21 25l21 24.5c16 18.667 27.667 30.5 35 35.5s19 8.5 35 10.5
c23.333 4 37.666 8 42.999 12c6 4.66699 15 4.66699 27 0c24 -8.66699 23.333 -20.667 -2 -36c-6.66699 -4.66699 -16 -9.66699 -28 -15c-25.333 -13.333 -43.666 -20 -54.999 -20c-6 0 -15.333 -7.16699 -28 -21.5s-22.667 -29 -30 -44s-8.33301 -23.167 -3 -24.5
c7.33301 -2 17.833 0.166992 31.5 6.5s20.5 12.166 20.5 17.499c0 9.33301 5.33301 17 16 23s22 7.66699 34 5c11.333 -2 19.833 -1 25.5 3s16.834 17.333 33.501 40c41.333 55.333 70.333 115.666 87 180.999c8.66699 37.333 17.667 66 27 86c7.33301 16.667 10 26 8 28
c-3.33301 3.33301 -17.5 6.66602 -42.5 9.99902s-44.833 4.66602 -59.5 3.99902c-33.333 -2 -56.666 -18.667 -69.999 -50c-12 -28 -28.333 -39.667 -49 -35c-14.667 4 -21.834 12.167 -21.501 24.5s7.5 31.833 21.5 58.5c15.333 30.667 25 54.667 29 72z" />
    <glyph glyph-name="U" unicode="U" horiz-adv-x="537" 
d="M488 399l-19.001 -67.5068c-3.33301 -12.333 -6.66602 -29.166 -9.99902 -50.499s-4.16602 -41.166 -2.49902 -59.499s4.83398 -40.166 9.50098 -65.499c6 -42 14.333 -67 25 -75c6 -4.66699 10.167 -10.334 12.5 -17.001s2.33301 -12.5 0 -17.5s-6.5 -7.5 -12.5 -7.5
c-14 0 -28.5 9 -43.5 27s-26.167 40 -33.5 66c-9.33301 32 -16.333 48 -21 48s-7 -2 -7 -6s-12.667 -19.167 -38 -45.5s-42.333 -41.833 -51 -46.5c-8.66699 -4 -28.667 -8 -60 -12c-30.667 -2.66699 -56.834 1 -78.501 11s-42.167 27.667 -61.5 53
c-25.333 34 -42.833 74.167 -52.5 120.5s-14.5 113.5 -14.5 201.5c0 68.667 0.666992 109.834 2 123.501s6.33301 24.834 15 33.501c20 20 36.667 22.333 50 7c6 -6.66699 6.33301 -16 1 -28c-9.33301 -20 -11.333 -77.667 -6 -173s14.333 -163.333 27 -204
c6.66699 -21.333 17.5 -41.833 32.5 -61.5s28.167 -30.5 39.5 -32.5c24 -4.66699 50 1.33301 78 18s52.333 41 73 73s34.167 57.833 40.5 77.5s10.5 48.834 12.5 87.501c2.66699 42.667 8.66699 92.167 18 148.5s17.333 89.5 24 99.5
c5.33301 8.66699 10.666 12.834 15.999 12.501s15.333 -6.16602 30 -17.499l24 -19c-4 -108.667 -10.333 -176 -19 -202z" />
    <glyph glyph-name="V" unicode="V" horiz-adv-x="730" 
d="M700 597c0 -10.667 -17.1709 -31.167 -51.5039 -61.5s-57.5 -45.5 -69.5 -45.5c-7.33301 0 -12.333 -4 -15 -12c-3.33301 -10.667 -8.33301 -38.667 -15 -84s-9 -69.333 -7 -72c2.66699 -4 -1 -22.167 -11 -54.5s-18 -51.833 -24 -58.5c-4.66699 -4 -8 -9.33301 -10 -16
s-4 -11.334 -6 -14.001c-2 -0.666992 -17.333 -22 -46 -64c-22 -34 -38.167 -53.5 -48.5 -58.5s-25.833 -1.16699 -46.5 11.5c-24.667 15.333 -43.667 33.166 -57 53.499s-25.333 50.833 -36 91.5c-4 17.333 -12.667 47.166 -26 89.499s-22.666 78.5 -27.999 108.5
c-6.66699 40 -13.5 67.833 -20.5 83.5s-15.833 23.5 -26.5 23.5c-20 0 -38.667 -19.333 -56 -58c-14.667 -33.333 -33.667 -34.666 -57 -3.99902l-13 19l20 33c13.333 22 25 38 35 48s22.333 17.667 37 23c12 4 21 5.5 27 4.5s16.333 -5.5 31 -13.5
c28 -14 46.667 -29.833 56 -47.5s19.666 -57.834 30.999 -120.501c4.66699 -24 9.83398 -46.833 15.501 -68.5s13.667 -48.667 24 -81l19.5 -61.5c8.66699 -26.667 16.667 -46 24 -58s13.666 -16.333 18.999 -13c3.33301 2 17.5 21.5 42.5 58.5s41.5 63.167 49.5 78.5
c4.66699 10 11.334 44.667 20.001 104s14 92.333 16 99c3.33301 14.667 6.83301 33.834 10.5 57.501s7.5 42.834 11.5 57.501l36 -4c17.333 -2 29.333 -1.83301 36 0.5s18.334 10.166 35.001 23.499c24.667 18.667 38.334 28 41.001 28
c6.66699 0.666992 13.834 -2.16602 21.501 -8.49902s11.5 -12.166 11.5 -17.499z" />
    <glyph glyph-name="W" unicode="W" horiz-adv-x="851" 
d="M705 628c0 -7.33301 0.829102 -12.1729 2.49609 -14.5059s4.16699 -2.83301 7.5 -1.5c2 0.666992 13.5 3.33398 34.5 8.00098s32.5 8.66699 34.5 12c2 4.66699 9.33301 5.66699 22 3c5.33301 -1.33301 9 -2.33301 11 -3s3.33301 -2.16699 4 -4.5
s0.333984 -4.5 -0.999023 -6.5s-3.66602 -6 -6.99902 -12c-11.333 -18.667 -39.666 -35.667 -84.999 -51c-16 -5.33301 -26 -15.333 -30 -30c-6 -25.333 -12.5 -48.5 -19.5 -69.5l-23 -66.5c-8.33301 -23.333 -15.166 -43.333 -20.499 -60
c-21.333 -68.667 -39.333 -115 -54 -139s-31.667 -35.667 -51 -35c-27.333 0.666992 -52 12.5 -74 35.5s-37.667 53.167 -47 90.5c-5.33301 20.667 -10.666 31 -15.999 31c-3.33301 0 -5 -4.66699 -5 -14c0 -24.667 -11.5 -70.167 -34.5 -136.5s-40.167 -103.5 -51.5 -111.5
c-4.66699 -3.33301 -15.334 -2.66602 -32.001 2.00098c-18 4.66699 -30.667 15.334 -38 32.001c-36.667 70.667 -63.667 127.667 -81 171c-6.66699 17.333 -12.334 46.666 -17.001 87.999c-3.33301 28.667 -10.333 64 -21 106s-19.334 68.333 -26.001 79
c-4 6 -12.667 -0.5 -26 -19.5s-22.333 -33.167 -27 -42.5c-0.666992 -2 -1.33398 -1.33301 -2.00098 2c-1.33301 6.66699 -2 21.334 -2 44.001c-0.666992 34.667 2.16602 58 8.49902 70s18.5 18 36.5 18c24.667 0 47.334 -19.333 68.001 -58s35.667 -88.667 45 -150
c12 -85.333 26.333 -146.666 43 -183.999c4 -8.66699 7.66699 -17.5 11 -26.5s5.83301 -15.333 7.5 -19s4.5 -8.66699 8.5 -15s9.33301 -13.5 16 -21.5c16.667 34 30 75.667 40 125c32.667 152.667 56.667 257.667 72 315c2.66699 4 10.334 6 23.001 6
c15.333 0 26.333 -10.5 33 -31.5s11 -58.167 13 -111.5c1.33301 -57.333 5.33301 -96.333 12 -117c4.66699 -16.667 11.667 -30.5 21 -41.5s18 -15.833 26 -14.5c12.667 2.66699 25.834 33.334 39.501 92.001s30.5 156.334 50.5 293.001c2.66699 16 11.334 27 26.001 33
c20 10 37 9.16699 51 -2.5s22 -27.167 24 -46.5z" />
    <glyph glyph-name="X" unicode="X" horiz-adv-x="692" 
d="M662 92c0 -10 -1.5 -15.833 -4.5 -17.5s-12.167 -2.16699 -27.5 -1.5c-21.333 0.666992 -45.5 7.16699 -72.5 19.5s-46.5 25.833 -58.5 40.5c-8 9.33301 -22 31.5 -42 66.5l-54.5 94.5c-16.333 28 -24.833 40.667 -25.5 38
c-3.33301 -0.666992 -7.83301 -3.66699 -13.5 -9s-11.667 -12 -18 -20l-18 -23c-5.66699 -7.33301 -11.167 -14.833 -16.5 -22.5s-8.66602 -12.167 -9.99902 -13.5c-10.667 -13.333 -25.334 -38 -44.001 -74c-18.667 -34.667 -31.834 -55.5 -39.501 -62.5
s-18.167 -8.16699 -31.5 -3.5c-11.333 4 -17.666 9.33301 -18.999 16s2 18 10 34c8 15.333 30 49.166 66 101.499s62.333 88.5 79 108.5c18 21.333 27 35.333 27 42c0 6 -19.333 27 -58 63c-27.333 25.333 -46.166 41.333 -56.499 48s-25.166 11.667 -44.499 15
c-12.667 5.33301 -23.167 7 -31.5 5s-13.666 -4 -15.999 -6s-5.5 -6.16699 -9.5 -12.5s-8 -11.166 -12 -14.499c-2.66699 -2 -8.83398 -12.833 -18.501 -32.5s-17.834 -29.834 -24.501 -30.501c-9.33301 0 -19.5 3 -30.5 9s-16.833 12 -17.5 18
c-2 8.66699 3.16699 22.834 15.5 42.501s26.5 37.167 42.5 52.5c26.667 25.333 60.334 35.166 101.001 29.499s73.334 -21.167 98.001 -46.5l102 -84c1.33301 2.66699 4.83301 8.16699 10.5 16.5s10.667 16 15 23s9.33301 14.333 15 22s10.667 13.667 15 18
s7.83301 6.83301 10.5 7.5c4 -0.666992 6 0 6 2c-2.66699 13.333 6 29.666 26 48.999c24.667 24.667 42.667 27.334 54 8.00098c4.66699 -7.33301 4.66699 -15.833 0 -25.5s-16.667 -27.167 -36 -52.5c-38.667 -50.667 -62.667 -84 -72 -100s-12.666 -29.667 -9.99902 -41
c4 -21.333 27 -66.333 69 -135c16.667 -27.333 24 -44.333 22 -51c-0.666992 -2.66699 -0.833984 -4.66699 -0.500977 -6s1.16602 -1.66602 2.49902 -0.999023c1.33301 1.33301 4.16602 -0.333984 8.49902 -5.00098s8.83301 -10.667 13.5 -18
c9.33301 -14 20.666 -24.667 33.999 -32s35 -14.666 65 -21.999c10.667 -3.33301 17.5 -6.5 20.5 -9.5s4.5 -8.83301 4.5 -17.5z" />
    <glyph glyph-name="Y" unicode="Y" horiz-adv-x="756" 
d="M198 469c-1.33301 0 -7.33203 9.6709 -17.999 29.0039s-17.334 28.333 -20.001 27c-7.33301 0 -17.333 -5.83301 -30 -17.5s-22.667 -24.5 -30 -38.5c-10.667 -18.667 -20.334 -28 -29.001 -28c-7.33301 0 -16 4 -26 12s-15 15.333 -15 22
c0 9.33301 13.333 29.666 40 60.999s46.334 49.666 59.001 54.999c16 7.33301 32.333 9 49 5c11.333 0 30.666 -19.667 57.999 -59s45.666 -73.666 54.999 -102.999c2 -10.667 11.333 -30.5 28 -59.5s26 -46.833 28 -53.5c0 -13.333 14 -9.33301 42 12
c29.333 22.667 51.333 46.667 66 72c6.66699 11.333 23.167 32.666 49.5 63.999s47.166 54.666 62.499 69.999c20.667 20 36 28.667 46 26c8.66699 -3.33301 15 -2.33301 19 3c3.33301 6 11.5 7 24.5 3s25.167 -11.333 36.5 -22c12.667 -12 21.834 -25.5 27.501 -40.5
s7 -27.667 4 -38s-10.167 -15.5 -21.5 -15.5c-10.667 0 -18 6 -22 18c-4 16.667 -9.33301 25 -16 25c-10.667 -0.666992 -37 -21.667 -79 -63c-46.667 -46.667 -70 -73.334 -70 -80.001s-18.167 -29.167 -54.5 -67.5s-57.5 -57.5 -63.5 -57.5s-9 -27 -9 -81
c-0.666992 -68.667 -7 -106 -19 -112c-7.33301 -2 -18 2 -32 12c-4 6.66699 -7.16699 32.834 -9.5 78.501s-2.16602 77.834 0.500977 96.501c2 15.333 2.5 25.666 1.5 30.999s-4.83301 10.333 -11.5 15c-10 6.66699 -24.5 24.5 -43.5 53.5s-31.833 52.5 -38.5 70.5
c-6 17.333 -13.167 34.166 -21.5 50.499s-14.166 24.5 -17.499 24.5z" />
    <glyph glyph-name="Z" unicode="Z" horiz-adv-x="607" 
d="M320 328c3.33301 0 5.99707 2.49707 7.99707 7.49707s5.33301 7.16699 10 6.5c7.33301 0 11 2 11 6c0 5.33301 12 11.5 36 18.5s40.667 9.16699 50 6.5c11.333 -2.66699 22 -11.5 32 -26.5s15 -29.5 15 -43.5c0 -11.333 -5.66699 -39.166 -17 -83.499
s-19.666 -71.833 -24.999 -82.5c-5.33301 -9.33301 -5 -13.666 1 -12.999c5.33301 0.666992 14 5 26 13c20.667 14 40.167 22.333 58.5 25s32.166 -0.666016 41.499 -9.99902c18 -18 9.66699 -33 -25 -45c-32 -9.33301 -77.333 -42 -136 -98
s-113.334 -116.333 -164.001 -181h-43c-20 0 -31.667 0.833008 -35 2.5s-3.66602 6.16699 -0.999023 13.5c9.33301 30 23 55.833 41 77.5s44 43.5 78 65.5c17.333 10.667 29.333 21.167 36 31.5s18.667 37.166 36 80.499c15.333 37.333 30 77.666 44 120.999
s21 70.333 21 81c0 12.667 -16.333 6.66699 -49 -18c-27.333 -21.333 -52.333 -46 -75 -74c-24 -28.667 -45.667 -61 -65 -97c-17.333 -34 -30 -51 -38 -51c-7.33301 0 -15.833 4.66699 -25.5 14s-14.5 17.666 -14.5 24.999c0 8.66699 6.83301 32.167 20.5 70.5
s28.167 74.166 43.5 107.499c28 60.667 50.5 115.5 67.5 164.5s23.167 77.167 18.5 84.5c-1.33301 2.66699 -9.5 -0.166016 -24.5 -8.49902s-31.667 -19 -50 -32s-32.833 -24.833 -43.5 -35.5c-24.667 -24 -45.667 -46.333 -63 -67s-26 -33.667 -26 -39
c-0.666992 -7.33301 -7.16699 -13.666 -19.5 -18.999s-21.833 -3.66602 -28.5 5.00098c-12.667 11.333 -18.167 22.333 -16.5 33s10.834 26.334 27.501 47.001c34 42 71.5 79.5 112.5 112.5s78.167 55.167 111.5 66.5c22.667 7.33301 36.334 10.833 41.001 10.5
s13.334 -6.83301 26.001 -19.5c9.33301 -9.33301 15.166 -17.333 17.499 -24s3.16602 -18 2.49902 -34c-1.33301 -24.667 -9.66602 -59 -24.999 -103c-21.333 -58.667 -30.666 -89 -27.999 -91z" />
    <glyph glyph-name="underscore" unicode="_" horiz-adv-x="487" 
d="M44 -39c10.667 11.333 24.667 15.335 42 12.002c23.333 -3.33301 85 -5 185 -5c79.333 -0.666992 126.333 -1.66699 141 -3s26 -6.33301 34 -15c21.333 -22 13.666 -37.333 -23.001 -46c-14.667 -2.66699 -81 -2.33398 -199 0.999023s-179.667 6.66602 -185 9.99902
c-6.66699 4 -9.66699 10.5 -9 19.5s5.33398 17.833 14.001 26.5z" />
    <glyph glyph-name="grave" unicode="`" horiz-adv-x="172" 
d="M72 596c4.66699 0 22.666 -25.6689 53.999 -77.002c17.333 -28 20 -50 8 -66c-7.33301 -9.33301 -16.666 -10 -27.999 -2s-20.666 22.333 -27.999 43c-8 22.667 -18.333 41 -31 55c-9.33301 10.667 -14.833 20.834 -16.5 30.501s1.16602 15.834 8.49902 18.501
c0.666992 2.66699 6.16699 3 16.5 1s15.833 -3 16.5 -3z" />
    <glyph glyph-name="a" unicode="a" horiz-adv-x="580" 
d="M295 392c-6.66699 0.666992 -12.8301 1.66504 -18.4971 2.99805s-9 2.16602 -10 2.49902s-3.33301 0.333008 -7 0s-6.33398 -0.666016 -8.00098 -0.999023l-12.5 -2.5c-15.333 -3.33301 -31.5 -13.166 -48.5 -29.499s-30.5 -34.833 -40.5 -55.5
c-20.667 -42 -34.667 -95.333 -42 -160c-6.66699 -52.667 6.66602 -82.667 39.999 -90s71.666 11.334 114.999 56.001c19.333 19.333 32.833 40.333 40.5 63s13.167 55 16.5 97c2.66699 37.333 8.66699 62.666 18 75.999c8 11.333 9.16699 19.833 3.5 25.5
s-21.167 10.834 -46.5 15.501zM265.004 463.998c5.33301 -0.666992 14.4961 -1.33496 27.4961 -2.00195s21.667 -1.33398 26 -2.00098s10.833 -3.16699 19.5 -7.5s17 -10.166 25 -17.499c14.667 -11.333 24.834 -21.166 30.501 -29.499s11.167 -21.166 16.5 -38.499
c8 -27.333 9 -46 3 -56c-5.33301 -9.33301 -8 -38.666 -8 -87.999c0.666992 -32.667 2 -55.5 4 -68.5s7.33301 -28.5 16 -46.5c12 -28 24 -47.333 36 -58c8.66699 -8 15 -12.333 19 -13s10.667 1.66602 20 6.99902c18.667 9.33301 33.334 7.83301 44.001 -4.5
s9.33398 -26.5 -3.99902 -42.5c-8 -10.667 -21.667 -16.334 -41 -17.001c-16.667 0 -24.334 -1.66699 -23.001 -5c2.66699 -4.66699 1.33398 -6.66699 -3.99902 -6l-17 8c-11.333 6.66699 -26.833 19.334 -46.5 38.001s-29.5 30.334 -29.5 35.001s-5.5 13.5 -16.5 26.5
s-18.5 19.5 -22.5 19.5c-4 -0.666992 -13 -10 -27 -28c-12.667 -16.667 -32.5 -32.5 -59.5 -47.5s-51.167 -24.167 -72.5 -27.5c-16 -2 -34 0.333008 -54 7s-36.667 15.667 -50 27c-8.66699 7.33301 -17.834 19.666 -27.501 36.999s-15.834 32.666 -18.501 45.999
c-2.66699 14 -0.5 43.667 6.5 89s14.167 79 21.5 101c4.66699 14 10.334 27.667 17.001 41s12.834 23.5 18.501 30.5s9.83398 9.83301 12.501 8.5s4 -1.66602 4 -0.999023s-0.333008 1.66699 -1 3c-5.33301 8.66699 5.66699 23.667 33 45s45.666 29.333 54.999 24
c2 -1.33301 3.33301 -1.83301 4 -1.5s0.333984 1.83301 -0.999023 4.5c-4 4.66699 4 8 24 10c20.667 2 34 2 40 0z" />
    <glyph glyph-name="b" unicode="b" horiz-adv-x="495" 
d="M168 307c4 0 9.66797 17.167 17.001 51.5s12.666 67.166 15.999 98.499c2.66699 33.333 1.66699 49 -3 47c-6 -3.33301 -12 -29.666 -18 -78.999c-8 -62.667 -13 -97.667 -15 -105c-2.66699 -8.66699 -1.66699 -13 3 -13zM465.001 279
c0 -14.667 -29.3359 -32.0039 -88.0029 -52.0039c-14 -5.33301 -22.333 -10.166 -25 -14.499s-5 -16.5 -7 -36.5c-4.66699 -43.333 -17 -75.166 -37 -95.499s-51.667 -33.166 -95 -38.499c-12 0 -20.833 -0.5 -26.5 -1.5s-12 0 -19 3s-11.833 5.33301 -14.5 7
s-7 4.66699 -13 9l-15 10.5c-1.33301 -1.33301 -8.33301 -9 -21 -23s-23.667 -24.667 -33 -32s-17 -10.333 -23 -9c-11.333 1.33301 -17.333 7.83301 -18 19.5s4.33301 23.167 15 34.5c20.667 21.333 34.834 40.333 42.501 57s11.5 35.667 11.5 57
c0 26.667 3.66699 79.667 11 159c13.333 142 35 225 65 249c5.33301 4 10.333 6.66699 15 8s8.33398 2 11.001 2s7.33398 -1 14.001 -3s11.667 -3.33301 15 -4c13.333 -3.33301 22 -13.333 26 -30s4.66699 -46.667 2 -90c-6.66699 -103.333 -32.334 -203.333 -77.001 -300
c-12.667 -26.667 -18.667 -44.667 -18 -54s7.66699 -15 21 -17c14.667 -2 33.667 2.83301 57 14.5s38.333 23.834 45 36.501c6.66699 13.333 9.83398 28.333 9.50098 45s-3.83301 27.667 -10.5 33c-6.66699 6.66699 -9.33398 15.667 -8.00098 27c1.33301 8 4 13.333 8 16
s14 5 30 7c6 0 15.667 1.66699 29 5l40 10c13.333 3.33301 26.333 6 39 8s22.834 1.66699 30.501 -1s11.5 -8 11.5 -16z" />
    <glyph glyph-name="c" unicode="c" horiz-adv-x="546" 
d="M421 314c-8 6.66699 -13.6729 16.8389 -17.0059 30.5059s-10 23.167 -20 28.5c-19.333 11.333 -41.833 8.66602 -67.5 -8.00098s-39.167 -32.667 -40.5 -48c0 -6 -4.33301 -12.667 -13 -20c-12 -11.333 -20.667 -41 -26 -89c-3.33301 -19.333 1 -38 13 -56
c6.66699 -10.667 13.334 -17.667 20.001 -21s18.334 -6.33301 35.001 -9c25.333 -4 47.666 -3 66.999 3c12.667 4 23.167 9.33301 31.5 16s20.5 19.667 36.5 39c8 9.33301 17.667 14 29 14c10 0 20.333 -4.66699 31 -14s16 -18.333 16 -27c0 -8 -7.5 -23.5 -22.5 -46.5
s-26.167 -35.833 -33.5 -38.5l-13.5 -7c-7.66699 -4 -14.667 -7.16699 -21 -9.5s-11.833 -2.5 -16.5 -0.5c-3.33301 2.66699 -5 2.66699 -5 0c0 -0.666992 0.333008 -1.33398 1 -2.00098c0.666992 -6 -3.16602 -10.833 -11.499 -14.5s-18.833 -5.83398 -31.5 -6.50098
s-25.667 -0.666992 -39 0s-24.833 2.16699 -34.5 4.5s-15.5 4.5 -17.5 6.5c-0.666992 4 -5.33398 6.66699 -14.001 8c-6.66699 0.666992 -19 6.16699 -37 16.5s-29 16.166 -33 17.499c-10 5.33301 -16.667 10 -20 14c-3.33301 5.33301 -9.16602 7.66602 -17.499 6.99902
s-15.166 -4 -20.499 -10c-5.33301 -6.66699 -18.166 -10 -38.499 -10s-35.5 3.66699 -45.5 11s-15 17.666 -15 30.999c0 8.66699 1.5 14.5 4.5 17.5s10.5 6.16699 22.5 9.5c16 4.66699 30 11 42 19c8.66699 6 19.334 21.333 32.001 46s19 42.667 19 54
c0 10.667 7.83301 32.667 23.5 66s29.834 57.333 42.501 72c11.333 13.333 20.666 23.333 27.999 30s18.333 12.167 33 16.5s31.667 5.5 51 3.5c46 -5.33301 85.667 -25.333 119 -60c28.667 -30 36.667 -55.333 24 -76c-3.33301 -6 -8.66602 -11 -15.999 -15
s-13 -5.66699 -17 -5s-9.66699 4.66699 -17 12z" />
    <glyph glyph-name="d" unicode="d" horiz-adv-x="440" 
d="M137 124c21.333 -0.666992 50.334 22.333 87.001 69s53 86 49 118v38c-38.667 0 -65.334 -3.5 -80.001 -10.5s-31.334 -25.833 -50.001 -56.5c-33.333 -54.667 -42.666 -99 -27.999 -133c6.66699 -16.667 14 -25 22 -25zM280.001 420
c0.666992 39.333 5.16504 84.332 13.498 134.999s18.5 83.667 30.5 99c7.33301 10.667 18.166 15.167 32.499 13.5s26.5 -8.83398 36.5 -21.501c10 -13.333 13.333 -30 10 -50c-0.666992 -8.66699 -2 -29 -4 -61s-4.5 -61.167 -7.5 -87.5s-6.5 -44.833 -10.5 -55.5
c-13.333 -40 -19.5 -94 -18.5 -162s8.83301 -104 23.5 -108c8.66699 -2.66699 15.5 -9 20.5 -19s3.16699 -19.333 -5.5 -28c-6.66699 -6.66699 -12.334 -10 -17.001 -10s-14.667 2.66699 -30 8c-12.667 4 -22 8.5 -28 13.5s-11.333 12.5 -16 22.5l-6 12.5
c-2 4.33301 -3.33301 7.33301 -4 9s-1.5 3.33398 -2.5 5.00098s-2.66699 2.16699 -5 1.5s-4.66602 -1.66699 -6.99902 -3s-6.16602 -4 -11.499 -8c-36.667 -26.667 -62.834 -44.5 -78.501 -53.5s-30.5 -14.5 -44.5 -16.5c-25.333 -3.33301 -46.666 2.16699 -63.999 16.5
s-33.333 40.833 -48 79.5c-5.33301 15.333 -8.16602 29.5 -8.49902 42.5s2.16699 34.5 7.5 64.5c2.66699 15.333 17.834 42.333 45.501 81s48.167 61.334 61.5 68.001c14 7.33301 39.667 10.333 77 9c38.667 0 58 1 58 3z" />
    <glyph glyph-name="e" unicode="e" horiz-adv-x="321" 
d="M218 390c2.66699 28 1.33105 42 -4.00195 42c-5.33301 0.666992 -15.333 -16.333 -30 -51c-7.33301 -18 -12.666 -40.5 -15.999 -67.5s-2.33301 -42.167 3 -45.5c2 -1.33301 4.83301 0.5 8.5 5.5s7.5 12.167 11.5 21.5s8 19.333 12 30s7.33301 22 10 34
s4.33398 22.333 5.00098 31zM197.997 134c0 -6 11.668 -17.6689 35.001 -35.002c30.667 -22 42 -38.667 34 -50c-2 -2 -4.66699 -3.66699 -8 -5c-10 -4 -27.167 -1.16699 -51.5 8.5s-42.166 19.834 -53.499 30.501l-33.5 -31c-15.667 -14.667 -24.5 -23 -26.5 -25
c-6.66699 -6.66699 -15.5 -9.5 -26.5 -8.5s-19.833 5.5 -26.5 13.5c-8.66699 10 -12.334 18.5 -11.001 25.5s8.33301 16.5 21 28.5c11.333 10.667 25 26 41 46c9.33301 13.333 14.5 23 15.5 29s-0.833008 21 -5.5 45c-5.33301 27.333 -8.33301 61.5 -9 102.5
s1.33301 65.833 6 74.5c0 0.666992 7.33301 17.667 22 51c10.667 24.667 24.667 45 42 61c25.333 24 50.166 29.5 74.499 16.5s41.5 -41.167 51.5 -84.5c4.66699 -22.667 2 -57.167 -8 -103.5s-21 -75.166 -33 -86.499c-6.66699 -5.33301 -16.667 -22 -30 -50
s-20 -45.667 -20 -53z" />
    <glyph glyph-name="f" unicode="f" horiz-adv-x="448" 
d="M337 -23c-6.66699 11.333 -13.9961 19.833 -21.9961 25.5s-18.833 11.5 -32.5 17.5s-25.834 12.333 -36.501 19c-13.333 6.66699 -24 11.5 -32 14.5s-12.333 3.83301 -13 2.5c-6.66699 -54.667 1.33301 -114.667 24 -180l35 4c21.333 2.66699 36.666 7 45.999 13
s18.666 17.333 27.999 34c7.33301 12 11.166 20.5 11.499 25.5s-2.5 13.167 -8.5 24.5zM272.004 194c0 -2.66699 -9.50781 -15.5029 -28.5078 -38.5029s-28.167 -36.5 -27.5 -40.5c2 -5.33301 9 -7.5 21 -6.5s26.667 5 44 12s30 14.5 38 22.5
c13.333 13.333 19.333 21.666 18 24.999c-0.666992 2.66699 2.33301 5.83398 9 9.50098s9 7.16699 7 10.5c-3.33301 5.33301 -0.666016 13.666 8.00098 24.999s16.667 17 24 17c9.33301 0 17.666 -6 24.999 -18c14.667 -22.667 9.33398 -51.334 -15.999 -86.001
c-13.333 -17.333 -18.666 -27.333 -15.999 -30l-5 -4c-8 -4.66699 -19.333 -9.66699 -34 -15c-22 -8 -33 -13.333 -33 -16c0.666992 -1.33301 2.33398 -2.66602 5.00098 -3.99902c30 -10 48.333 -22.333 55 -37c4.66699 -10.667 9 -16 13 -16c2 0 3.5 -1.66699 4.5 -5
l3 -10.5c1 -3.66699 2.83301 -5.5 5.5 -5.5c3.33301 0 7 -8 11 -24c3.33301 -15.333 -2 -35.666 -16 -60.999c-9.33301 -16.667 -17 -27.667 -23 -33s-17.667 -11 -35 -17c-24.667 -8 -40.667 -11.333 -48 -10c-6 2.66699 -10 1.66699 -12 -3
c-8 -7.33301 -20.5 -8.83301 -37.5 -4.5s-34.333 13.333 -52 27s-26.5 26.5 -26.5 38.5c0 5.33301 -3.66699 18.5 -11 39.5s-10.666 34.167 -9.99902 39.5c1.33301 8 1.33301 25.667 0 53c-0.666992 18 -1.66699 29 -3 33s-4.66602 5 -9.99902 3
c-6 -2.66699 -19 -5.33398 -39 -8.00098c-17.333 -3.33301 -30.666 0.666992 -39.999 12c-16 18.667 -12 28 12 28c11.333 0 25 3.66699 41 11s27.667 15.333 35 24c6 6.66699 13.833 30.5 23.5 71.5s14.834 71.5 15.501 91.5c1.33301 14 8.16602 41.333 20.499 82
s19.166 63.334 20.499 68.001c7.33301 30 25 61.333 53 94c16.667 18.667 35.334 18.334 56.001 -0.999023c8.66699 -7.33301 14.667 -16.166 18 -26.499s7 -30.833 11 -61.5c0.666992 -14 -1.66602 -32.167 -6.99902 -54.5s-8.66602 -38.833 -9.99902 -49.5
c-0.666992 -11.333 -5 -27.166 -13 -47.499s-16.833 -41.333 -26.5 -63s-15.5 -35.167 -17.5 -40.5z" />
    <glyph glyph-name="g" unicode="g" horiz-adv-x="531" 
d="M236 18c-4.66699 0 -16.168 -10.668 -34.501 -32.001s-31.166 -39.333 -38.499 -54c-8 -15.333 -10.5 -24.666 -7.5 -27.999s12.167 -1.33301 27.5 6c30 14.667 48 41 54 79c3.33301 19.333 3 29 -1 29zM274.999 384.999
c-8.66699 5.33301 -17.666 6.66797 -26.999 4.00098s-25.333 -11 -48 -25c-28.667 -18 -44 -26.333 -46 -25c-2 2 -3 1.33301 -3 -2v-3c-0.666992 -4.66699 -8.83398 -25.834 -24.501 -63.501s-22.834 -61.5 -21.501 -71.5c-0.666992 -12.667 -0.166992 -20.834 1.5 -24.501
s6.16699 -5.83398 13.5 -6.50098c30.667 -4.66699 62 6.33301 94 33c17.333 15.333 30.333 31.833 39 49.5s16.334 44.167 23.001 79.5c4 20.667 6 34.334 6 41.001s-2.33301 11.334 -7 14.001zM332 232.001c0 -17.333 7.66797 -13.6689 23.001 10.998l5 9
c17.333 31.333 35.5 59.166 54.5 83.499s32.5 37.5 40.5 39.5c9.33301 2.66699 18.666 0.666992 27.999 -6s12 -13.334 8 -20.001c-2 -4.66699 -1.33301 -7 2 -7c8.66699 0 10.667 -5.33301 6 -16c-2.66699 -5.33301 -6.66699 -10.333 -12 -15
c-10 -11.333 -24.833 -32.666 -44.5 -63.999s-34.834 -53.666 -45.501 -66.999l-22 -30l-18 -24.5c-4.66699 -6.33301 -10 -13.166 -16 -20.499c-5.33301 -6.66699 -10.333 -26.667 -15 -60c-10 -61.333 -20.833 -100.5 -32.5 -117.5s-41.5 -35.833 -89.5 -56.5
c-21.333 -9.33301 -38 -13.833 -50 -13.5s-25.667 5.5 -41 15.5c-24 16.667 -29.5 38.834 -16.5 66.501s47.833 68.167 104.5 121.5c36 33.333 54 55.666 54 66.999c0 10 -2 15.5 -6 16.5s-9.33301 -2.83301 -16 -11.5c-17.333 -20.667 -49.333 -31 -96 -31
c-16 -0.666992 -28.333 0.333008 -37 3s-19 8.33398 -31 17.001c-24.667 17.333 -37.5 39.666 -38.5 66.999s10.167 65.666 33.5 114.999c17.333 36.667 41.5 68.167 72.5 94.5s63.167 42.833 96.5 49.5c17.333 2.66699 33.333 2.33398 48 -0.999023
c14.667 -2.66699 31.834 -10.667 51.501 -24s31.167 -24.666 34.5 -33.999c4 -4 -1 -30.833 -15 -80.5s-20.667 -75.167 -20 -76.5z" />
    <glyph glyph-name="h" unicode="h" horiz-adv-x="526" 
d="M168 346c12 60 15.333 111.667 10 155c-8 -31.333 -11.333 -83 -10 -155zM90 -18c0 2.66699 -2.83496 7.49609 -8.50195 14.4961s-11.5 13.167 -17.5 18.5s-9.66699 7.33301 -11 6c-2.66699 -3.33301 -8 -1 -16 7c-6 6 -8.16699 11.833 -6.5 17.5s6.16699 8.5 13.5 8.5
c6 0 15.333 8.66699 28 26c8.66699 12.667 13.834 23.834 15.501 33.501s2.5 29.834 2.5 60.501c0 103.333 4.66699 162 14 176c0.666992 1.33301 1.66699 1.66602 3 0.999023c6 -4 6 -2 0 6c-5.33301 6.66699 -8.33301 28.334 -9 65.001s1.33301 65.667 6 87
c12 55.333 30 90 54 104c26.667 14 49.334 11.667 68.001 -7c21.333 -21.333 30.333 -70.666 27 -147.999l-2 -42c6.66699 0 17 0.333008 31 1s24.5 0.833984 31.5 0.500977s15.167 -1.5 24.5 -3.5s17.333 -5.33301 24 -10c20 -14.667 33.667 -26.5 41 -35.5
s13 -21.833 17 -38.5c16 -58.667 24.667 -109.667 26 -153c4.66699 -104.667 10.334 -161.334 17.001 -170.001c2 -4 7.66699 -8.66699 17 -14c10 -5.33301 15.333 -10.5 16 -15.5s-3.33301 -12.167 -12 -21.5c-10 -10.667 -23 -15 -39 -13
c-8 1.33301 -12 4.66602 -12 9.99902c0.666992 2.66699 0.333984 4.33398 -0.999023 5.00098s-3.33301 0.666992 -6 0c-16 -6.66699 -29 6.33301 -39 39c-9.33301 32.667 -15.666 87.334 -18.999 164.001c-2 57.333 -7.33301 105 -16 143c-6 22.667 -10.833 36.5 -14.5 41.5
s-10.5 8.16699 -20.5 9.5c-9.33301 0.666992 -16.333 -0.5 -21 -3.5s-11.667 -11.167 -21 -24.5c-14.667 -22 -34.834 -68 -60.501 -138s-42.167 -124.667 -49.5 -164c-4.66699 -24 -8.33398 -39.5 -11.001 -46.5s-7.33398 -11.5 -14.001 -13.5s-16.667 -0.666992 -30 4
s-20 9 -20 13z" />
    <glyph glyph-name="i" unicode="i" horiz-adv-x="333" 
d="M240 289c0 -20.667 -2.00391 -32.332 -6.00391 -34.999c-4.66699 -2 -4.66699 -11 0 -27c2.66699 -11.333 4.83398 -29 6.50098 -53s4.16699 -42.667 7.5 -56c3.33301 -14.667 6.83301 -24.334 10.5 -29.001s10.167 -8.66699 19.5 -12
c14 -1.33301 22.167 -9.33301 24.5 -24s-3.16699 -24 -16.5 -28c-12 -4.66699 -23.833 -7 -35.5 -7s-17.5 2.33301 -17.5 7c0 2 -0.5 3.66699 -1.5 5s-2.16699 1.66602 -3.5 0.999023c-7.33301 -2 -15.5 2 -24.5 12s-15.5 22.333 -19.5 37
c-7.33301 26.667 -12.666 40 -15.999 40c-2 -1.33301 -5 -6.33301 -9 -15c-7.33301 -15.333 -19.166 -31.833 -35.499 -49.5s-31.5 -25.5 -45.5 -23.5c-16 0 -28.333 3.66699 -37 11c-9.33301 6.66699 -12.833 15.334 -10.5 26.001s8.83301 17.334 19.5 20.001
c12.667 3.33301 23.667 13.666 33 30.999c10 18 23.833 54.667 41.5 110s30.834 103 39.501 143c8 39.333 14.667 63 20 71c4.66699 5.33301 14.167 6.5 28.5 3.5s25.833 -8.83301 34.5 -17.5c4.66699 -4.66699 7 -10.667 7 -18s-1.66699 -21.333 -5 -42
c-6 -32.667 -9 -59.667 -9 -81zM198.996 552.002c12.667 12.667 29.333 10.001 50 -7.99902c12.667 -12.667 17.667 -23.667 15 -33c-3.33301 -12 -7.16602 -20 -11.499 -24s-10.333 -4.66699 -18 -2s-17.834 9 -30.501 19c-7.33301 5.33301 -11.5 13.166 -12.5 23.499
s1.5 18.5 7.5 24.5z" />
    <glyph glyph-name="j" unicode="j" horiz-adv-x="468" 
d="M208 -45c-4 0 -11.667 -10.667 -23 -32s-16 -33.333 -14 -36s6.16699 0.333008 12.5 9s12 19.167 17 31.5s7.5 21.5 7.5 27.5zM400 342c6.66699 0 15.0029 -3.3291 25.0029 -9.99609c7.33301 -4.66699 11.666 -9.16699 12.999 -13.5s0.666016 -11.166 -2.00098 -20.499
c-4.66699 -22.667 -18 -52.667 -40 -90s-43.667 -67.333 -65 -90l-43 -45v-59c0 -48.667 -3.33301 -83.834 -10 -105.501s-20.334 -42.167 -41.001 -61.5c-23.333 -21.333 -39.333 -31 -48 -29c-8 2 -13.667 0.666992 -17 -4c-6.66699 -7.33301 -15.834 -9.33301 -27.501 -6
s-23.5 11.5 -35.5 24.5s-19.333 26.5 -22 40.5c-2 10 -1.33301 20.167 2 30.5s12 28.5 26 54.5c23.333 43.333 45 78.666 65 105.999c20.667 29.333 30.334 49.666 29.001 60.999c-1.33301 7.33301 -6 7 -14 -1l-30 -35c-28.667 -35.333 -50.667 -55 -66 -59
c-32.667 -8.66699 -54.334 -2.66699 -65.001 18c-2.66699 4.66699 -4 8.16699 -4 10.5s1.16699 4.83301 3.5 7.5s6.5 6.33398 12.5 11.001c26 18.667 51.333 44.167 76 76.5s44.667 66.833 60 103.5c4 11.333 12.5 27.666 25.5 48.999s20.5 41.333 22.5 60
c2 24.667 10 40.167 24 46.5s28.333 1.16602 43 -15.501c10.667 -11.333 16.334 -23 17.001 -35s-3.33301 -37.333 -12 -76c-3.33301 -14 -5.66602 -35 -6.99902 -63c0 -16.667 1 -25.334 3 -26.001c1.33301 0 3.66602 2.66699 6.99902 8c12 18.667 22.667 37.667 32 57
c28.667 53.333 49.667 80 63 80zM260.003 522.004c0 11.333 4.66797 19.499 14.001 24.499s19.666 6.33301 30.999 4s19.666 -7.83301 24.999 -16.5c14 -17.333 16.333 -34.666 7 -51.999c-4 -6 -7.66699 -8.83301 -11 -8.5s-13.666 4.83301 -30.999 13.5
c-23.333 12 -35 23.667 -35 35z" />
    <glyph glyph-name="k" unicode="k" horiz-adv-x="506" 
d="M367 406c8 0 13.167 -7.49609 15.5 -22.4961s1.5 -33.333 -2.5 -55s-10.667 -41.167 -20 -58.5l-19 -34c28.667 -30.667 50 -67 64 -109c12 -36.667 22.333 -57 31 -61c6.66699 -3.33301 14.834 -10 24.501 -20s14.834 -17 15.501 -21
c0 -3.33301 -7 -8.66602 -21 -15.999c-22 -13.333 -41.833 -12 -59.5 4s-35.5 48.667 -53.5 98c-12.667 36 -23.667 56.667 -33 62s-23.333 -1 -42 -19c-20 -17.333 -33.333 -27.666 -40 -30.999c-15.333 -8 -27.333 -40.667 -36 -98
c-3.33301 -22.667 -6.33301 -37.334 -9 -44.001s-7 -10.334 -13 -11.001c-10 -1.33301 -20.833 3 -32.5 13s-17.834 20.667 -18.501 32c0 9.33301 -0.833008 15.666 -2.5 18.999s-4.33398 4.16602 -8.00098 2.49902s-7.16699 -3.83398 -10.5 -6.50098
s-7.16602 -5.5 -11.499 -8.5s-7.83301 -4.16699 -10.5 -3.5c-7.33301 0 -16.166 6 -26.499 18s-16.166 22.667 -17.499 32c-1.33301 7.33301 -1 11.833 1 13.5s7.33301 2.16699 16 1.5c9.33301 -0.666992 16.166 1.5 20.499 6.5s11.5 18.167 21.5 39.5l22 48l4 155
c2.66699 74.667 5 121 7 139s7.66699 37.333 17 58c14.667 30.667 24.667 50 30 58c6.66699 9.33301 15.5 14.166 26.5 14.499s20.5 -3.83398 28.5 -12.501c8.66699 -9.33301 15.667 -34.166 21 -74.499s6.66602 -78.833 3.99902 -115.5c0 -9.33301 -0.666992 -22 -2 -38
c-1.33301 -15.333 -1 -23.333 1 -24s6.33301 3.66602 13 12.999c31.333 38.667 57.666 61.334 78.999 68.001c7.33301 2 12 0.333008 14 -5c1.33301 -4.66699 5.33301 -7 12 -7z" />
    <glyph glyph-name="l" unicode="l" horiz-adv-x="294" 
d="M200 495c0 53.333 -2.66504 82.6689 -7.99805 88.002c-6 4.66699 -9.33301 4.66699 -10 0c-0.666992 -8.66699 -4.33398 -19.667 -11.001 -33c-4.66699 -12.667 -6.83398 -45.334 -6.50098 -98.001s6.5 -82.334 18.5 -89.001c11.333 0 17 44 17 132zM49.002 73.0029
c0 -6 2 -5.66602 6 1.00098c4 6 9 7.33301 15 4c2.66699 -2 4.5 -2.83301 5.5 -2.5s0.5 1.83301 -1.5 4.5c-1.33301 6.66699 6.33398 24 23.001 52s25.334 44 26.001 48c3.33301 10.667 4.66602 32.667 3.99902 66s-3.33398 60.666 -8.00098 81.999
c-18.667 88.667 -25 154.334 -19 197.001c9.33301 67.333 28 108.666 56 123.999c14.667 8 31.834 6 51.501 -6s31.5 -24.333 35.5 -37c4.66699 -14 8 -22 10 -24c8.66699 -8 12.167 -43.667 10.5 -107s-7.16699 -108.666 -16.5 -135.999
c-5.33301 -14.667 -10.833 -35 -16.5 -61s-11.5 -46 -17.5 -60c-5.33301 -10.667 -8 -19.5 -8 -26.5s2.66699 -20.167 8 -39.5c8 -28 11.5 -46.5 10.5 -55.5s-6.5 -15.833 -16.5 -20.5c-4 -4.66699 -9.16699 -6 -15.5 -4s-11.5 4.5 -15.5 7.5s-8.66699 7.16699 -14 12.5
s-9.33301 8.66602 -12 9.99902l-23 -34c-12.667 -20 -23.167 -32.167 -31.5 -36.5s-20.5 -4.16602 -36.5 0.500977c-24 8 -33 21 -27 39c3.33301 9.33301 7.66602 12.666 12.999 9.99902c2.66699 -1.33301 4 -4 4 -8z" />
    <glyph glyph-name="m" unicode="m" horiz-adv-x="800" 
d="M430 425c0.666992 -4.66699 3.49316 -11.3301 8.49316 -19.9971s7.5 -17.667 7.5 -27c1.33301 -15.333 6 -25 14 -29c3.33301 0 5.33301 3 6 9c1.33301 8.66699 6 18 14 28s13.333 17.333 16 22c8.66699 13.333 15.334 18.333 20.001 15c2 -1.33301 3.33301 -2 4 -2
s0.666992 1.33301 0 4c-3.33301 4.66699 4.66699 14.667 24 30c20 14.667 38.333 20.667 55 18c15.333 -2.66699 31.333 -12.167 48 -28.5s23.667 -29.5 21 -39.5c-2 -6.66699 -2 -10 0 -10c0.666992 0 1.33398 0.333008 2.00098 1c4.66699 2.66699 7 2.66699 7 0
c1.33301 -7.33301 5.83301 -27.666 13.5 -60.999s12.5 -56.666 14.5 -69.999c18 -120.667 36.667 -184.667 56 -192c4.66699 -1.33301 7.66699 -7.66602 9 -18.999c1.33301 -14 -4 -20.667 -16 -20c-10 0.666992 -22 7 -36 19c-14.667 12.667 -27.334 34 -38.001 64
s-22.334 77 -35.001 141c-16.667 85.333 -29 132.666 -37 141.999c-7.33301 8 -19 5 -35 -9c-2.66699 -2.66699 -6 -5.66699 -10 -9c-20.667 -18.667 -35.5 -37.167 -44.5 -55.5s-18.167 -49.5 -27.5 -93.5c-13.333 -57.333 -24.666 -89.333 -33.999 -96
c-9.33301 -8.66699 -16.166 -12.667 -20.499 -12s-10.5 6.33398 -18.5 17.001c-6 7.33301 -10.167 17.666 -12.5 30.999s-4.5 38.666 -6.5 75.999c-5.33301 95.333 -13.666 143 -24.999 143c-2.66699 0 -9.16699 -12.333 -19.5 -37s-15.5 -40.334 -15.5 -47.001
c0 -2.66699 -3.66699 -10.667 -11 -24c-6.66699 -13.333 -17.167 -48.5 -31.5 -105.5s-21.5 -92.5 -21.5 -106.5c0 -12.667 -3.33301 -24.834 -10 -36.501s-13.667 -17.5 -21 -17.5c-6 0 -14.333 6 -25 18c-8 9.33301 -12.333 17.333 -13 24s1 26.334 5 59.001
c4 27.333 7.83301 65.666 11.5 114.999s6.16699 81.333 7.5 96c2.66699 26.667 1.66699 40 -3 40c-5.33301 0 -14 -39.667 -26 -119c-8.66699 -60.667 -27.667 -114.334 -57 -161.001c-16 -25.333 -28.667 -42.5 -38 -51.5s-20.666 -14.833 -33.999 -17.5
c-13.333 -3.33301 -24 0.666992 -32 12c-7.33301 11.333 -10.5 19.833 -9.5 25.5s7.5 11.834 19.5 18.501c10.667 6.66699 26.167 28.5 46.5 65.5s30.5 62.167 30.5 75.5c0 8 5.66699 40.333 17 97c8.66699 41.333 19.667 79.833 33 115.5s25 57.167 35 64.5
c14 11.333 29.333 11.166 46 -0.500977s28.334 -30.834 35.001 -57.501l8 -35l15 28c8.66699 18.667 19.834 33 33.501 43s25.5 13 35.5 9c8.66699 -2.66699 18.334 -11 29.001 -25s16 -24.667 16 -32z" />
    <glyph glyph-name="n" unicode="n" horiz-adv-x="657" 
d="M454 449c0 7.33301 8.66602 0.331055 25.999 -21.002c8.66699 -10 15.334 -19.333 20.001 -28c14 -27.333 27 -84 39 -170c9.33301 -66.667 18.333 -111.167 27 -133.5s22.667 -35.5 42 -39.5c11.333 -2.66699 17.666 -8.66699 18.999 -18s-3 -17.666 -13 -24.999
s-19 -8.66602 -27 -3.99902c-3.33301 2.66699 -3.66602 6 -0.999023 10c1.33301 2 1.66602 3.33301 0.999023 4s-2 0.333984 -4 -0.999023c-8.66699 -5.33301 -19 -3 -31 7s-23 25.667 -33 47c-15.333 32 -29.666 86 -42.999 162c-14.667 82.667 -24.334 124 -29.001 124
c-3.33301 0 -10.333 -6.16699 -21 -18.5s-21 -26.5 -31 -42.5c-11.333 -18.667 -21.833 -45.334 -31.5 -80.001s-14.5 -63 -14.5 -85c0 -22.667 -2.33301 -34 -7 -34c-4 0 -5 -3.33301 -3 -10c2.66699 -7.33301 1 -15.666 -5 -24.999s-12.667 -14 -20 -14
c-14.667 0 -24.334 9.33301 -29.001 28s-7.66699 57.667 -9 117c-2 60.667 -4 97 -6 109s-9.33301 29 -22 51l-20 -24c-10.667 -12.667 -27 -40.334 -49 -83.001s-35 -71.667 -39 -87c-2 -9.33301 -5.16699 -16.166 -9.5 -20.499s-7.5 -11.5 -9.5 -21.5
c-20 -83.333 -37 -124.333 -51 -123c-18 -4.66699 -30.667 3 -38 23c-4 10.667 2 37.667 18 81c16 44 24 69 24 75c0 3.33301 1 5.16602 3 5.49902s4 -0.166992 6 -1.5s3.66699 -1.66602 5 -0.999023s1 3 -1 7c-2.66699 6.66699 3.16602 25.167 17.499 55.5
s26.166 49.166 35.499 56.499c8.66699 7.33301 10.667 11.666 6 12.999c-8 0 -3 13.333 15 40c10 13.333 16.333 19.666 19 18.999c2 -0.666992 3.33301 -0.333984 4 0.999023s0.333984 3.66602 -0.999023 6.99902c-2 4.66699 1.66699 11.167 11 19.5s14 14.166 14 17.499
c0 6.66699 5 8.33398 15 5.00098c9.33301 -4 16.333 -2.66699 21 4c6 10 20.667 -0.333008 44 -31c6.66699 -9.33301 13.334 -19.666 20.001 -30.999l13 -19c6 -11.333 10.333 -17.166 13 -17.499s7 6.16699 13 19.5c4.66699 14.667 20.334 35.334 47.001 62.001
s43.334 38.334 50.001 35.001c6.66699 -2 10 -0.666992 10 4z" />
    <glyph glyph-name="o" unicode="o" horiz-adv-x="640" 
d="M364 363c-10 0 -22.833 -5.33496 -38.5 -16.002s-22.5 -18.667 -20.5 -24c1.33301 -5.33301 0.333008 -8.66602 -3 -9.99902c-3.33301 -0.666992 -13.666 -19 -30.999 -55c-17.333 -34.667 -25.666 -62.667 -24.999 -84c1.33301 -30.667 8.66602 -53 21.999 -67
s30.666 -17.667 51.999 -11c17.333 5.33301 30.666 6.33301 39.999 3l10 -2c0 0.666992 -1.66699 2.33398 -5 5.00098c-3.33301 2 -5.33301 3.5 -6 4.5s-0.5 2 0.5 3s3.5 2.16699 7.5 3.5c8.66699 3.33301 19.834 20.833 33.501 52.5s22.167 59.5 25.5 83.5
c4 40.667 1.66699 69 -7 85s-27 25.667 -55 29zM541 322.998c0 -5.33301 2.16504 -8.33398 6.49805 -9.00098s8.16602 1.66602 11.499 6.99902c4 6.66699 11.333 8.83398 22 6.50098s18.334 -7.83301 23.001 -16.5c4 -7.33301 5.66699 -13.166 5 -17.499
s-3.66699 -10.166 -9 -17.499c-17.333 -23.333 -40.333 -29.666 -69 -18.999c-20.667 7.33301 -31 9 -31 5v-2c3.33301 -13.333 -5.66699 -45.333 -27 -96s-40.333 -83.667 -57 -99c-10.667 -10 -27 -19.167 -49 -27.5s-41.333 -12.5 -58 -12.5
c-29.333 0 -58.833 15.833 -88.5 47.5s-45.5 64.167 -47.5 97.5c-1.33301 15.333 -3.33301 24.333 -6 27c-2.66699 -0.666992 -16 -24.834 -40 -72.501s-37 -72.167 -39 -73.5c-6.66699 -8 -15 -10.667 -25 -8s-18.667 9.66699 -26 21
c-5.33301 8 -7.66602 14.5 -6.99902 19.5s5.33398 15.5 14.001 31.5l20 40.5l24 48.5c20 41.333 49.5 84 88.5 128s74.5 75 106.5 93c18 8.66699 37.333 15.334 58 20.001c28 5.33301 56.5 2.66602 85.5 -8.00098s49.5 -26.334 61.5 -47.001
c2.66699 -6 11.667 -16.833 27 -32.5s24 -27.167 26 -34.5z" />
    <glyph glyph-name="p" unicode="p" horiz-adv-x="529" 
d="M437 232c7.33301 27.333 9.66992 59.835 7.00293 97.502s-10.667 62.5 -24 74.5c-3.33301 0.666992 -8.5 -3.33301 -15.5 -12s-14.833 -20.834 -23.5 -36.501s-17 -32.834 -25 -51.501c-10.667 -24.667 -22.334 -61 -35.001 -109s-17.334 -73.333 -14.001 -76
c5.33301 -5.33301 16.666 -3.5 33.999 5.5s34.333 21.5 51 37.5c24.667 24.667 39.667 48 45 70zM227.004 166.002c-4 0 -10.999 -11.6641 -20.999 -34.9971c-23.333 -52.667 -55.333 -93 -96 -121c-35.333 -24.667 -59.333 -26.667 -72 -6
c-1.33301 1.33301 -2.33301 3 -3 5c-3.33301 8 -4.83301 13.5 -4.5 16.5s3.5 6.16699 9.5 9.5c22.667 13.333 42.834 31.333 60.501 54s36.167 54.334 55.5 95.001c22 44 40.5 87.667 55.5 131s22.5 73.666 22.5 90.999c0 12.667 4.66699 32.667 14 60s16.666 43 21.999 47
c11.333 6.66699 24.333 5 39 -5c10 -7.33301 16.333 -18 19 -32s1 -28.333 -5 -43c-20 -50 -26.667 -78.333 -20 -85c4 -4 9 2.66699 15 20c8 24 19.833 45.333 35.5 64s31.167 30 46.5 34c14.667 4 31 -0.833008 49 -14.5s32 -32.167 42 -55.5
c6 -14.667 8.83301 -47.167 8.5 -97.5s-3.83301 -81.5 -10.5 -93.5c-5.33301 -10 -10.666 -22.333 -15.999 -37c-6 -16.667 -20.5 -34.334 -43.5 -53.001s-48.5 -33.334 -76.5 -44.001c-34 -14 -51.333 -22 -52 -24c-2.66699 -6.66699 -5.83398 -40.667 -9.50098 -102
s-5.16699 -108.333 -4.5 -141c-41.333 -4.66699 -64 -3.33398 -68 3.99902c-4.66699 6.66699 -3.33398 58 3.99902 154c3.33301 45.333 5.5 90.333 6.5 135s0.166992 67.667 -2.5 69z" />
    <glyph glyph-name="q" unicode="q" horiz-adv-x="542" 
d="M423 44c-14.667 4.66699 -31 7.66797 -49 9.00098s-28.333 0 -31 -4c-5.33301 -9.33301 -7.33301 -42 -6 -98c0.666992 -18.667 7.66699 -36.667 21 -54c7.33301 -10 14.333 -16.667 21 -20s13.667 -2.33301 21 3s12.833 10 16.5 14s9.83398 12 18.501 24
c21.333 29.333 30.666 55.666 27.999 78.999s-16 39 -40 47zM290 391.001c-14 8 -31.9971 7.3291 -53.9971 -2.00391c-34.667 -15.333 -68.334 -57.333 -101.001 -126c-22 -46 -35.833 -78 -41.5 -96s-6.83398 -34.667 -3.50098 -50c3.33301 -12 6.5 -19.167 9.5 -21.5
s11.167 -3.16602 24.5 -2.49902c16 0.666992 36.667 8.33398 62 23.001s48.333 33 69 55c14.667 15.333 24.667 32.333 30 51s10 53.334 14 104.001c2 26.667 2.66699 43.334 2 50.001s-4.33398 11.667 -11.001 15zM366.003 255.997
c0 -1.33301 -6.33398 -22.335 -19.001 -63.002c-11.333 -37.333 -12 -55.666 -2 -54.999c13.333 6.66699 37 21 71 43s57 36 69 42c10 -18 13.333 -30.667 10 -38s-19 -25.666 -47 -54.999l-27 -26c1.33301 -1.33301 12 -11.333 32 -30s34.833 -34.334 44.5 -47.001
s14.167 -23.667 13.5 -33c6 -38.667 -11 -79.667 -51 -123c-12 -12.667 -21.5 -20.667 -28.5 -24s-16.833 -5 -29.5 -5c-43.333 0 -77 22.333 -101 67c-6.66699 12.667 -11 25.834 -13 39.501s-3 38.834 -3 75.501c0 56 -2.33301 84.333 -7 85
c-1.33301 0 -3.66602 -2.33301 -6.99902 -7c-4 -6.66699 -18.833 -17.667 -44.5 -33s-41.834 -23 -48.501 -23c-10 0 -19 -3 -27 -9c-18.667 -13.333 -41 -10.333 -67 9s-42.333 45 -49 77c-5.33301 26.667 -5.83301 50 -1.5 70s16.833 51.333 37.5 94
c32.667 71.333 69.334 120.666 110.001 147.999c16.667 11.333 37.167 18.5 61.5 21.5s43.833 0.833008 58.5 -6.5c8.66699 -4.66699 14.5 -6.83398 17.5 -6.50098s6.83301 3.83301 11.5 10.5c6.66699 10 14.5 15 23.5 15s15.5 -5 19.5 -15l1 -2
c3.33301 -5.33301 5.33301 -8 6 -8c0.666992 4 2.66699 2.66699 6 -4c0 -0.666992 0.333008 -1.66699 1 -3c4 -10.667 4.83301 -35.167 2.5 -73.5s-6.5 -63.166 -12.5 -74.499c-7.33301 -13.333 -11 -24.333 -11 -33z" />
    <glyph glyph-name="r" unicode="r" horiz-adv-x="434" 
d="M315 356c-0.666992 0 -10.499 -5 -29.499 -15s-31.5 -14.333 -37.5 -13c-10.667 0 -16.667 -2.66699 -18 -8c-15.333 -52.667 -35 -103.334 -59 -152.001c-22 -43.333 -34.667 -65 -38 -65c-4 0 -6 -4.33301 -6 -13c0 -11.333 -7.16699 -22.666 -21.5 -33.999
s-28.833 -17 -43.5 -17c-16 -3.33301 -26.167 2 -30.5 16s-1.5 25 8.5 33c10.667 8.66699 25.667 28.334 45 59.001s35.666 60.334 48.999 89.001c10 22 16.667 40.333 20 55s6 36.667 8 66c2.66699 46 5.33398 70.333 8.00098 73s10 1.66699 22 -3s21.667 -10.667 29 -18
c6 -5.33301 11 -7.83301 15 -7.5s13.667 3.83301 29 10.5c20.667 9.33301 32.667 14 36 14c3.33301 -1.33301 6.33301 0.666992 9 6c2 3.33301 9.33301 9 22 17c16 11.333 27.667 13.666 35 6.99902c1.33301 -2 2 -4.33301 2 -7c-0.666992 -2 -0.166992 -3.33301 1.5 -4
s3.83398 -0.666992 6.50098 0c12 -0.666992 19.833 -7.66699 23.5 -21s2.5 -29 -3.5 -47c-30 -87.333 -57.667 -194 -83 -320c-2.66699 -8.66699 0.666016 -19 9.99902 -31c8.66699 -10 13.167 -16.833 13.5 -20.5s-2.16699 -8.16699 -7.5 -13.5
c-6.66699 -6.66699 -16.667 -9.33398 -30 -8.00098s-24 6 -32 14c-6.66699 6.66699 -10.834 13.334 -12.501 20.001s-1.5 20.667 0.5 42c-1.33301 9.33301 13.667 81.666 45 216.999c12 52.667 16.667 79 14 79z" />
    <glyph glyph-name="s" unicode="s" horiz-adv-x="422" 
d="M198 63c-22 2.66699 -38.001 5.66699 -48.001 9h-1c-6 2.66699 -9 3.33398 -9 2.00098c0 -0.666992 2.33301 -3.33398 7 -8.00098c1.33301 -2 2.33301 -3.33301 3 -4c9.33301 -10.667 21.833 -18.5 37.5 -23.5s26.834 -4.83301 33.501 0.5c12 10 11.333 17 -2 21
c-5.33301 0.666992 -12.333 1.66699 -21 3zM247.999 235c-2 10 -5.33105 15.001 -9.99805 15.001s-9 -5.33301 -13 -16c-2 -4.66699 -12.667 -23.334 -32 -56.001c-8 -12 -13.833 -21.167 -17.5 -27.5s-5.83398 -11.833 -6.50098 -16.5s0.166016 -7.83398 2.49902 -9.50098
s6.5 -3.16699 12.5 -4.5c38.667 -10 63 -7.66699 73 7c4.66699 8 6.66699 17.333 6 28s-5.66699 37.334 -15 80.001zM62.001 96.001c-0.666992 3.33301 7.50098 15.501 24.501 36.501s25.5 32.833 25.5 35.5c0 5.33301 11 24.333 33 57
c34.667 54.667 55.334 90.5 62.001 107.5s8.66699 41.167 6 72.5c-3.33301 37.333 -2 60 4 68c6 7.33301 12.333 10.333 19 9s16 -7 28 -17c9.33301 -8 15 -15.833 17 -23.5s3.66699 -26.167 5 -55.5c-0.666992 -22.667 4 -59.834 14 -111.501s15.333 -84.167 16 -97.5
c0 -16 2.66699 -25.5 8 -28.5s12.333 1.16699 21 12.5c8 11.333 14.667 17.5 20 18.5s11.333 -2.83301 18 -11.5c7.33301 -10 9.66602 -18 6.99902 -24s-14.334 -17 -35.001 -33c-26 -21.333 -45 -42 -57 -62c-13.333 -22 -26 -36.5 -38 -43.5s-29 -9.16699 -51 -6.5
c-29.333 3.33301 -59 14.666 -89 33.999c-10.667 6.66699 -20.667 7 -30 1c-10.667 -6.66699 -21.667 -9.5 -33 -8.5s-19 5.5 -23 13.5c-8 14.667 -2.66699 28.334 16 41.001c8 6 12 11.333 12 16z" />
    <glyph glyph-name="t" unicode="t" horiz-adv-x="396" 
d="M288 46c-7.33301 0 -19.668 8.00977 -37.001 24.0098s-28.666 29.667 -33.999 41c-7.33301 13.333 -14 20 -20 20c-5.33301 0 -16 -15.333 -32 -46c-14.667 -27.333 -31.667 -52.333 -51 -75s-33.333 -34 -42 -34c-7.33301 0 -16.166 3.66699 -26.499 11
s-15.5 13.666 -15.5 18.999c0 4 4 4.66699 12 2c4.66699 -1.33301 7.33398 -1.33301 8.00098 0c-2 1.33301 -0.5 7 4.5 17s10.5 20 16.5 30s8.66699 15.333 8 16c0 3.33301 6.66699 14.666 20 33.999c12.667 18 25.5 39.833 38.5 65.5s19.5 41.834 19.5 48.501
s-3.33301 11 -10 13c-7.33301 3.33301 -14.5 10.666 -21.5 21.999s-9.16699 20.333 -6.5 27c3.33301 7.33301 14.333 11.666 33 12.999c14.667 1.33301 23.667 4.66602 27 9.99902c5.33301 7.33301 13 47.666 23 120.999c0.666992 3.33301 1 6 1 8
c8.66699 59.333 16.334 96.333 23.001 111c13.333 27.333 32.333 30.666 57 9.99902c7.33301 -6.66699 11.666 -14.5 12.999 -23.5s1.33301 -32.167 0 -69.5c-0.666992 -52 -5.33398 -86.333 -14.001 -103c-6.66699 -14 -8.33398 -21.333 -5.00098 -22
s13.333 1.66602 30 6.99902c15.333 4 27 4 35 0s11.333 -11.667 10 -23c-2.66699 -14.667 -25.334 -33.334 -68.001 -56.001c-20 -10.667 -32.167 -18.834 -36.5 -24.501s-6.5 -17.167 -6.5 -34.5c0.666992 -28 10.5 -54.333 29.5 -79s43.5 -42.334 73.5 -53.001
c8 -3.33301 13.833 -6.5 17.5 -9.5s5.16699 -6.83301 4.5 -11.5c-4 -23.333 -18.667 -29 -44 -17c-17.333 7.33301 -28.666 11 -33.999 11z" />
    <glyph glyph-name="u" unicode="u" horiz-adv-x="656" 
d="M318 117c18.667 0 47.6738 17.6621 87.0068 52.9951s59 61.333 59 78c0.666992 16.667 6.5 53.334 17.5 110.001s18.5 87 22.5 91c5.33301 4.66699 12.166 6.16699 20.499 4.5s14.5 -6.16699 18.5 -13.5c4 -6.66699 3.83301 -32.834 -0.5 -78.501
s-9.83301 -78.834 -16.5 -99.501c-4.66699 -15.333 -6.5 -35.666 -5.5 -60.999s4.5 -43.666 10.5 -54.999c6.66699 -12.667 14.167 -20.667 22.5 -24s22.166 -3.66602 41.499 -0.999023c14 2 22.667 2.33301 26 1s5 -5.66602 5 -12.999c0 -18 -8.66699 -31.667 -26 -41
c-18.667 -9.33301 -38.5 -9.16602 -59.5 0.500977s-37.833 26.834 -50.5 51.501c-10.667 20 -16.334 30.333 -17.001 31c-3.33301 -2 -20 -15.833 -50 -41.5s-50 -39.834 -60 -42.501c-16 -8 -26.667 -12.167 -32 -12.5s-16 2.5 -32 8.5
c-19.333 7.33301 -34.5 19.333 -45.5 36s-21.833 44.334 -32.5 83.001l-16 58c-40 -88.667 -79 -152 -117 -190c-16.667 -17.333 -28.5 -27.166 -35.5 -29.499s-13.167 1.5 -18.5 11.5c-5.33301 9.33301 -5.5 19.166 -0.5 29.499s18.167 28.166 39.5 53.499
c20 23.333 48.667 70.333 86 141s61.666 124 72.999 160c2 6.66699 4.33301 14 7 22l6.5 20c1.66699 5.33301 2.83398 8.66602 3.50098 9.99902c2 6 6.5 8.66699 13.5 8s13.833 -4.33398 20.5 -11.001c7.33301 -7.33301 10.666 -18.166 9.99902 -32.499
s-6.33398 -36.833 -17.001 -67.5c-8 -23.333 -12.833 -41.666 -14.5 -54.999s-1.83398 -33.333 -0.500977 -60c2.66699 -41.333 6 -64.666 10 -69.999c3.33301 -4.66699 5.66602 -11 6.99902 -19c2 -10 7.33301 -19.833 16 -29.5s16.667 -14.5 24 -14.5z" />
    <glyph glyph-name="v" unicode="v" horiz-adv-x="662" 
d="M300 25c-16.667 0 -32.6689 8.99707 -48.002 26.9971c-32 36.667 -52.5 64.334 -61.5 83.001s-20.167 56 -33.5 112c-5.33301 21.333 -9.66602 46 -12.999 74c-1.33301 18 -5.5 30.833 -12.5 38.5s-14.833 8.5 -23.5 2.5s-16.667 -17.667 -24 -35
c-9.33301 -22.667 -23.666 -25 -42.999 -7c-22 20.667 -14.667 48.667 22 84c17.333 16.667 30.5 26.5 39.5 29.5s19.167 1.83301 30.5 -3.5c20.667 -10.667 35.334 -23.5 44.001 -38.5s15 -37.833 19 -68.5c12.667 -97.333 35.334 -165.666 68.001 -204.999
c6 -6 12.333 -14.333 19 -25c11.333 -16 25.333 -12 42 12c8.66699 13.333 19.334 33.333 32.001 60c18.667 38.667 31.5 69.5 38.5 92.5s14.833 61.5 23.5 115.5c7.33301 40.667 13.666 64.334 18.999 71.001c10.667 9.33301 52.667 16 126 20
c3.33301 0.666992 5.66602 1.66699 6.99902 3s2 2.66602 2 3.99902s1 2.66602 3 3.99902s5.33301 2.33301 10 3c3.33301 0.666992 7 1.33398 11 2.00098s6.66699 1.16699 8 1.5s3.16602 0.166016 5.49902 -0.500977s4.5 -1.66699 6.5 -3s4.33301 -3.33301 7 -6
c8 -8 9.33301 -15.667 4 -23c-4.66699 -7.33301 -22 -18.666 -52 -33.999s-49.333 -22.666 -58 -21.999c-11.333 2 -22 -5.66699 -32 -23s-17.333 -43.333 -22 -78c-2.66699 -20.667 -9.5 -44.667 -20.5 -72s-23.667 -56 -38 -86s-23.5 -50.333 -27.5 -61
c-14 -32 -40 -48 -78 -48z" />
    <glyph glyph-name="w" unicode="w" horiz-adv-x="828" 
d="M775 507c1.33301 0 3.50195 -0.331055 6.50195 -0.998047s4.83301 -1 5.5 -1s2 -0.5 4 -1.5s3.16699 -1.83301 3.5 -2.5s1 -1.83398 2 -3.50098s1.5 -3.66699 1.5 -6v-8.5c0 -10 -5.5 -21.667 -16.5 -35s-20.5 -20.333 -28.5 -21
c-4.66699 -1.33301 -13.167 -4.83301 -25.5 -10.5s-24.333 -10.834 -36 -15.501s-21.834 -8 -30.501 -10c-18 -5.33301 -28 -11 -30 -17s-0.333008 -25.333 5 -58c4.66699 -28 4.66699 -52.5 0 -73.5s-16.667 -52.167 -36 -93.5c-32 -63.333 -58 -95 -78 -95
c-9.33301 0 -23.166 9.5 -41.499 28.5s-27.5 33.167 -27.5 42.5c0 6 -2.66699 10.333 -8 13s-7.66602 7 -6.99902 13c-0.666992 20.667 -6 24.334 -16 11.001c-6 -7.33301 -14.333 -21.333 -25 -42c-18.667 -35.333 -33.834 -59 -45.501 -71s-25.5 -18 -41.5 -18
c-22 0 -43.333 8.33301 -64 25c-7.33301 6 -18.166 26 -32.499 60s-21.5 57 -21.5 69c0 12.667 -2 22.334 -6 29.001c-2.66699 1.33301 -8.66699 27.166 -18 77.499s-14.333 76.5 -15 78.5c-4.66699 -2.66699 -16.334 -10.5 -35.001 -23.5s-35.834 -24.167 -51.501 -33.5
s-25.5 -13.666 -29.5 -12.999c-4.66699 0 -7 11.333 -7 34c0 16 1.5 26.333 4.5 31s12.5 11.334 28.5 20.001c21.333 11.333 36.666 22 45.999 32s16 23 20 39c3.33301 12.667 9.33301 22.167 18 28.5s16.667 7.16602 24 2.49902c6.66699 -4 13.167 -15.667 19.5 -35
s10.5 -40.333 12.5 -63c4 -40.667 12.167 -89.667 24.5 -147s23.166 -97 32.499 -119c7.33301 -17.333 17.833 -28 31.5 -32s25.5 0.333008 35.5 13s20.833 32 32.5 58s17.167 42.667 16.5 50s3 16 11 26c7.33301 8.66699 9 13 5 13s-6 21.333 -6 64
c0.666992 28.667 1.83398 47.167 3.50098 55.5s6.16699 14.833 13.5 19.5c11.333 7.33301 19.666 7.33301 24.999 0s9.66602 -24 12.999 -50c2.66699 -24 7.83398 -45.833 15.501 -65.5s13.5 -38.5 17.5 -56.5c16 -60.667 28.333 -92.334 37 -95.001c6 -2 14 6 24 24
c4 7.33301 9.33301 18 16 32c21.333 44 33.5 70.833 36.5 80.5s3.83301 23.167 2.5 40.5c-1.33301 18 -5.66602 40.333 -12.999 67s-13 41.667 -17 45c-4 2.66699 -6 10 -6 22s2 20.667 6 26c4.66699 5.33301 12 8.16602 22 8.49902s17.667 -2.16699 23 -7.5
s21.833 -4.5 49.5 2.5s53.5 16.5 77.5 28.5c22.667 12.667 37 17.667 43 15z" />
    <glyph glyph-name="x" unicode="x" horiz-adv-x="520" 
d="M336 240c0 -6 9.3252 -18.667 27.9922 -38s32 -30 40 -32c10 -3.33301 20.333 2.33398 31 17.001c10 14 21.167 21 33.5 21s19.5 -7 21.5 -21c1.33301 -11.333 -4.5 -26.833 -17.5 -46.5s-26.833 -33.167 -41.5 -40.5c-10 -5.33301 -17.667 -8.16602 -23 -8.49902
s-13.333 1.83398 -24 6.50098c-11.333 4.66699 -21.166 11.167 -29.499 19.5s-21.166 24.166 -38.499 47.499l-12 17c-39.333 -50.667 -66 -87 -80 -109c-4 -7.33301 -8.5 -13.666 -13.5 -18.999s-8.83301 -8 -11.5 -8c-5.33301 0 -11.666 4 -18.999 12
s-12.666 16.667 -15.999 26c-2 5.33301 0 15.5 6 30.5s12.333 25.167 19 30.5c0.666992 0.666992 6 9 16 25s16.333 24 19 24c2.66699 0.666992 6.16699 4.16699 10.5 10.5s9.16602 14.166 14.499 23.499s8.66602 14.666 9.99902 15.999c-28 40 -46.667 65.333 -56 76
c-5.33301 7.33301 -9.66602 14.5 -12.999 21.5s-7.16602 13.333 -11.499 19s-11.833 13.167 -22.5 22.5c-18.667 16.667 -32.5 24.667 -41.5 24s-18.5 -10.667 -28.5 -30c-6 -12 -10.5 -18.5 -13.5 -19.5s-9.16699 1.16699 -18.5 6.5c-10 5.33301 -17.333 14 -22 26
s-3.66699 20.667 3 26c4.66699 4 9.33398 10.333 14.001 19c4 11.333 13.333 20.166 28 26.499s31.334 9.16602 50.001 8.49902c21.333 -1.33301 39 -8.16602 53 -20.499s35.667 -40.5 65 -84.5c24 -36.667 38 -56 42 -58c3.33301 0 13.333 15.5 30 46.5
s27.334 54.833 32.001 71.5c6 20 11 30 15 30c4.66699 0 7 3.33301 7 10s5.33301 10.667 16 12c10.667 2 17.5 2 20.5 0s5.83301 -8.33301 8.5 -19c4.66699 -18.667 -13.666 -71.667 -54.999 -159c-16.667 -37.333 -25 -57 -25 -59z" />
    <glyph glyph-name="y" unicode="y" horiz-adv-x="523" 
d="M393 5c3.33301 6.66699 0.334961 9.66797 -8.99805 9.00098c-6 0 -14.333 -2 -25 -6c-18.667 -6.66699 -40.834 -18 -66.501 -34s-41.5 -28.667 -47.5 -38c-8 -12.667 -9.83301 -25.334 -5.5 -38.001s13.5 -22.667 27.5 -30c25.333 -12 46.666 -14.5 63.999 -7.5
s28.666 22.833 33.999 47.5c2 10 5.83301 19.167 11.5 27.5s8.83398 19.833 9.50098 34.5c2.66699 20 5 31.667 7 35zM305.002 82.001c6.66699 0 16.666 8.66699 29.999 26s25.666 38 36.999 62c16 34 25.333 66.667 28 98c3.33301 32.667 8.33301 61.5 15 86.5
s13.334 37.5 20.001 37.5c6 0 15.333 -5.66699 28 -17c9.33301 -7.33301 14.5 -14 15.5 -20s-0.5 -23 -4.5 -51c-4 -32.667 -8.33301 -62.334 -13 -89.001c-9.33301 -53.333 -5.66602 -81 11.001 -83c9.33301 -1.33301 16 -7 20 -17
c3.33301 -9.33301 -3.33398 -21.333 -20.001 -36c-12 -10 -19.333 -18 -22 -24s-4 -17 -4 -33c0.666992 -20 -2.5 -46.5 -9.5 -79.5s-14.5 -57.167 -22.5 -72.5c-5.33301 -10.667 -12.833 -18.334 -22.5 -23.001s-17.834 -5 -24.501 -1l-5 2l2 -4c4 -6 1 -9 -9 -9
c-12 0 -18.333 2.33301 -19 7c-3.33301 4.66699 -9 4.33398 -17 -0.999023c-3.33301 -6.66699 -14.333 -7.33398 -33 -2.00098s-29.667 7.33301 -33 6c-6 -1.33301 -18.667 6.33398 -38 23.001c-40 29.333 -42 61 -6 95c22.667 20.667 46 35.667 70 45
c17.333 6.66699 16.333 14.667 -3 24c-10.667 6 -22.5 24.167 -35.5 54.5s-20.833 57.833 -23.5 82.5c-1.33301 16.667 -6.33301 20.667 -15 12l-11 -17c-9.33301 -18.667 -29.833 -44.167 -61.5 -76.5s-52.167 -48.5 -61.5 -48.5c-25.333 0 -38 9.33301 -38 28
c0 12.667 3.33301 23.334 10 32.001s13.334 11.667 20.001 9c16 -6 42.167 19.833 78.5 77.5s58.5 108.834 66.5 153.501c4 23.333 8 38.666 12 45.999c2.66699 5.33301 8.66699 7.5 18 6.5s17 -4.83301 23 -11.5c10 -10 14 -21.333 12 -34
c-7.33301 -26.667 -11.166 -51.667 -11.499 -75s1.16699 -42 4.5 -56s8.33301 -32.5 15 -55.5s11.667 -42.5 15 -58.5c3.33301 -12.667 7.33301 -19 12 -19z" />
    <glyph glyph-name="z" unicode="z" horiz-adv-x="622" 
d="M30 264c0.666992 12 23.3271 33.3291 67.9941 63.9961s79.334 47 104.001 49c9.33301 0 21.166 -4.66699 35.499 -14s24.166 -19 29.499 -29c6.66699 -11.333 9.83398 -28.333 9.50098 -51s-3.5 -41.667 -9.5 -57c-2 -4 -3.66699 -8 -5 -12s-2.33301 -7.16699 -3 -9.5
s-0.666992 -3.5 0 -3.5c2 0 12.333 5 31 15c15.333 7.33301 33.166 11.833 53.499 13.5s38.166 -0.166016 53.499 -5.49902c11.333 -4.66699 23.5 -14.5 36.5 -29.5s19.5 -27.167 19.5 -36.5c0 -4.66699 0.5 -8 1.5 -10s3.16699 -2.66699 6.5 -2s7.5 2.33398 12.5 5.00098
l21.5 12c27.333 17.333 41.333 20.333 42 9c0 -5.33301 2.33301 -3.66602 7 5.00098l2 3c6 12 14.667 18 26 18c7.33301 0 12.333 -1.5 15 -4.5s4.33398 -9.16699 5.00098 -18.5c0.666992 -15.333 -2 -23 -8 -23c-11.333 0 -43.166 -21.167 -95.499 -63.5
s-78.5 -68.166 -78.5 -77.499c0 -3.33301 -28.167 -33.5 -84.5 -90.5s-86.166 -85.5 -89.499 -85.5c-2 0 -7.66699 -5.66699 -17 -17c-6.66699 -8 -13.667 -13 -21 -15s-23.666 -3 -48.999 -3c-26.667 0 -42.667 0.833008 -48 2.5s-8 6.16699 -8 13.5
c4.66699 21.333 25.834 46.833 63.501 76.5s65.834 48.167 84.501 55.5c10 0 32.667 18.167 68 54.5s57.333 63.833 66 82.5s13.167 36.667 13.5 54s-3.16699 27.333 -10.5 30c-18 7.33301 -45 -2 -81 -28c-17.333 -12.667 -43.166 -37.667 -77.499 -75
s-53.5 -61.333 -57.5 -72c-3.33301 -8 -11.666 -10.333 -24.999 -7c-15.333 3.33301 -25.5 8.5 -30.5 15.5s-6.16699 17.833 -3.5 32.5c4 17.333 8 26 12 26c3.33301 0 8 8.66699 14 26c8 21.333 15.667 38.333 23 51c40.667 70 61 119 61 147c0 19.333 -2.33301 29 -7 29
c-7.33301 0 -21 -5.83301 -41 -17.5s-38 -24.5 -54 -38.5c-20.667 -18.667 -37 -28 -49 -28c-8 0 -15.333 3.5 -22 10.5s-10 14.833 -10 23.5z" />
    <glyph glyph-name="uni0093" horiz-adv-x="326" 
d="M206 356c12.667 10 22.333 13.8311 29 11.498s9.33398 -10.166 8.00098 -23.499c-0.666992 -9.33301 0 -15.5 2 -18.5s6.66699 -5.5 14 -7.5c12.667 -2.66699 22.667 -12 30 -28s8.66602 -30.667 3.99902 -44s-13 -24.166 -25 -32.499s-23.333 -11.166 -34 -8.49902
c-25.333 6.66699 -41.5 29.167 -48.5 67.5s-0.166992 66.166 20.5 83.499zM81.999 207.998c-12.667 0 -24.499 8.33203 -35.499 24.999s-16.5 34 -16.5 52c0 14 2.83301 26.833 8.5 38.5s16.834 29.167 33.501 52.5c10 12.667 17.833 19.834 23.5 21.501
s12.167 -1.83301 19.5 -10.5c6 -7.33301 8.33301 -18.333 7 -33s-5.33301 -24 -12 -28s-4.66699 -10.667 6 -20c17.333 -14.667 21.666 -34.667 12.999 -60s-24.334 -38 -47.001 -38z" />
    <glyph glyph-name="uni0094" horiz-adv-x="420" 
d="M343 208c-9.33301 0 -16.166 5.66602 -20.499 16.999s-4.83301 26 -1.5 44c2.66699 18.667 2.33398 28 -0.999023 28c-2 0 -5.66699 -1.33301 -11 -4c-13.333 -7.33301 -33 -7.66602 -59 -0.999023s-39 15.667 -39 27c-0.666992 4 -3.33398 7.16699 -8.00098 9.5
s-7.33398 6.83301 -8.00098 13.5c-2 9.33301 -1 14 3 14s4.66699 2.33301 2 7c4.66699 18 24.167 29.5 58.5 34.5s61.5 0.833008 81.5 -12.5c42.667 -33.333 58.667 -72 48 -116c-6 -40.667 -21 -61 -45 -61zM62 408.999c12.667 6.66699 25.335 9.99805 38.002 9.99805
s21.667 -3.66699 27 -11c6.66699 -7.33301 10.667 -32.166 12 -74.499s-1 -70.166 -7 -83.499c-8 -18.667 -21.833 -29.167 -41.5 -31.5s-33.167 4.83398 -40.5 21.501c-3.33301 7.33301 -4.33301 12.5 -3 15.5s6 6.5 14 10.5c13.333 6.66699 20.166 16.167 20.499 28.5
s-6.16699 20.166 -19.5 23.499c-10.667 2.66699 -19 7.66699 -25 15s-8 15.333 -6 24c3.33301 24.667 13.666 42 30.999 52z" />
    <glyph glyph-name=".null" horiz-adv-x="0" 
 />
    <glyph glyph-name="nonmarkingreturn" horiz-adv-x="333" 
 />
    </font>
</defs>
</svg>
