<?xml version="1.0" standalone="no"?>
<!DOCTYPE svg PUBLIC "-//W3C//DTD SVG 1.1//EN" "http://www.w3.org/Graphics/SVG/1.1/DTD/svg11.dtd" >
<svg>
<metadata>
Created by FontForge 20090914 at Sat Feb 27 01:01:46 2016
 By www-data
Copyright (c) 2016, root
</metadata>
<defs>
<font id="Marlon" horiz-adv-x="181" >
  <font-face 
    font-family="Marlon"
    font-weight="400"
    font-stretch="normal"
    units-per-em="1000"
    panose-1="2 0 5 3 0 0 0 0 0 0"
    ascent="800"
    descent="-200"
    x-height="365"
    cap-height="643"
    bbox="28.9627 -199.175 937.798 748"
    underline-thickness="50"
    underline-position="-100"
    unicode-range="U+0020-U+0094"
  />
<missing-glyph horiz-adv-x="364" 
d="M33 0v666h265v-666h-265zM66 33h199v600h-199v-600z" />
    <glyph glyph-name=".notdef" horiz-adv-x="364" 
d="M33 0v666h265v-666h-265zM66 33h199v600h-199v-600z" />
    <glyph glyph-name="space" unicode=" " horiz-adv-x="462" 
 />
    <glyph glyph-name="exclam" unicode="!" 
d="M150 119c-1.33301 -2 -2.16602 -5.16699 -2.49902 -9.5s-1 -7.5 -2 -9.5s-3.16699 -2.33301 -6.5 -1c-4 2 -7.66699 1 -11 -3c-3.33301 -5.33301 -10.5 -7.5 -21.5 -6.5s-19.5 4.83301 -25.5 11.5c-16.667 18.667 -18.667 32.667 -6 42c10 6 21.167 8.83301 33.5 8.5
s23.166 -3.83301 32.499 -10.5s12.333 -14 9 -22zM39 598c6.66699 8 16.833 11.666 30.5 10.999s24.5 -5.33398 32.5 -14.001c25.333 -26 27.666 -107.333 6.99902 -244c-10 -71.333 -15 -113.666 -15 -126.999c0.666992 -16 -3.66602 -26.5 -12.999 -31.5
s-20.333 -2.5 -33 7.5c-8.66699 6.66699 -14 13.334 -16 20.001s-2.66699 21.667 -2 45c0 31.333 1.66699 66.5 5 105.5s5.5 68.333 6.5 88s-0.166992 51.5 -3.5 95.5c-4.66699 14 -7 23.333 -7 28s2.66699 10 8 16z" />
    <glyph glyph-name="quotedbl" unicode="&#x22;" horiz-adv-x="248" 
d="M212 545c0 -29.333 1.33301 -49.335 4 -60.002c3.33301 -12.667 1.66602 -18.334 -5.00098 -17.001c-11.333 1.33301 -24.666 14 -39.999 38l-8 14c-5.33301 10 -8.5 25.5 -9.5 46.5s0.5 34.833 4.5 41.5s9.83301 9.33398 17.5 8.00098s15.167 -5.66602 22.5 -12.999
c9.33301 -9.33301 14 -28.666 14 -57.999zM41 618.998c6.66699 7.33301 11.999 11.002 15.999 11.002s9.66699 -4 17 -12c6 -4 9 -14.5 9 -31.5s-1.33301 -36.333 -4 -58s-4 -35.167 -4 -40.5c-1.33301 -17.333 -3.83301 -27.333 -7.5 -30s-10.5 0.666016 -20.5 9.99902
c-8 7.33301 -13 15.166 -15 23.499s-2.66699 26.5 -2 54.5c0.666992 40.667 4.33398 65 11.001 73z" />
    <glyph glyph-name="dollar" unicode="$" horiz-adv-x="412" 
d="M308 244c-1.33301 4.66699 -7.82812 9.83203 -19.4951 15.499s-22.334 9.5 -32.001 11.5s-15.834 1.66699 -18.501 -1c-0.666992 -1.33301 -3.33398 -13.833 -8.00098 -37.5s-9.33398 -45.834 -14.001 -66.501s-8.33398 -31.667 -11.001 -33
c-6 -7.33301 -7 -10.666 -3 -9.99902c8 0.666992 22 10.334 42 29.001c19.333 18 35.5 36.167 48.5 54.5s18.167 30.833 15.5 37.5zM93.0049 398.998c-1.33301 -8 6.33203 -16.166 22.999 -24.499s31.334 -11.5 44.001 -9.5c1.33301 0 2.5 8.5 3.5 25.5s1.33301 34 1 51
s-1.83301 25.5 -4.5 25.5c-4 1.33301 -16.167 -8.33398 -36.5 -29.001s-30.5 -33.667 -30.5 -39zM269.003 602.999c33.333 0 57.3389 -10.3369 72.0059 -31.0039c9.33301 -13.333 8.5 -26.333 -2.5 -39s-23.833 -15.334 -38.5 -8.00098c-14.667 8 -24.334 8 -29.001 0
s-8.33398 -31.667 -11.001 -71c-2 -41.333 -5 -72.666 -9 -93.999c-2 -10.667 -1.33301 -17.5 2 -20.5s14.333 -7.5 33 -13.5c23.333 -7.33301 45.333 -19.666 66 -36.999s30.667 -36.333 30 -57c0 -18 -5 -35 -15 -51c-12 -18.667 -44.667 -55 -98 -109
s-91.333 -88.667 -114 -104c-35.333 -22 -53.666 -25 -54.999 -9c0 6.66699 -2.33301 10 -7 10c-1.33301 -2.66699 -5 1 -11 11c-12.667 19.333 -15.334 29.666 -8.00098 30.999c6 0 6 2 0 6s-7.5 13 -4.5 27s8.5 24.333 16.5 31c16.667 8.66699 35.667 69 57 181
c6 29.333 4.66699 44 -4 44s-21.834 5 -39.501 15s-30.5 19.667 -38.5 29c-7.33301 8.66699 -14.333 20.834 -21 36.501s-10 28.834 -10 39.501s8.66699 26.834 26 48.501s36.666 40.5 57.999 56.5c27.333 21.333 41.666 34.666 42.999 39.999
c0 6.66699 -3.66699 18.667 -11 36c-9.33301 23.333 -9.66602 42.333 -0.999023 57c7.33301 10.667 20.5 12.334 39.5 5.00098s32.5 -19.333 40.5 -36c5.33301 -11.333 10.166 -18.166 14.499 -20.499s14.166 -3.5 29.499 -3.5z" />
    <glyph glyph-name="percent" unicode="%" horiz-adv-x="670" 
d="M505 279c-12.667 0 -29.9961 -23.667 -51.9961 -71c-14.667 -30 -24.334 -49.333 -29.001 -58s-4.33398 -17.5 0.999023 -26.5s13 -13.5 23 -13.5c20 -0.666992 40.333 4.5 61 15.5s37.167 24.333 49.5 40s17.166 33 14.499 52s-15.334 34.833 -38.001 47.5
c-15.333 9.33301 -25.333 14 -30 14zM443.004 334c6.66699 6 10.666 9.50098 11.999 10.501s3.83301 2.16699 7.5 3.5s6.16699 1.5 7.5 0.5s5.33301 -2.16699 12 -3.5s13.667 -2.33301 21 -3c36.667 -7.33301 67.167 -21.833 91.5 -43.5s39.166 -47.167 44.499 -76.5
c2.66699 -14 0.833984 -29.167 -5.49902 -45.5s-14.166 -26.166 -23.499 -29.499c-6.66699 -2.66699 -10 -6 -10 -10c0 -6 -8.16699 -15.5 -24.5 -28.5s-33.5 -23.5 -51.5 -31.5c-20.667 -8.66699 -42.5 -13.834 -65.5 -15.501s-41.167 1.16602 -54.5 8.49902
c-12 4.66699 -23.333 18 -34 40c-7.33301 14 -11.333 24.667 -12 32s0.666016 19 3.99902 35c4.66699 22 16.334 51 35.001 87s34 59.333 46 70zM243.003 499.001c2 16.667 -3.00195 30.501 -15.002 41.501s-26 17.833 -42 20.5c-8.66699 0 -15.667 -3.16699 -21 -9.5
s-14.666 -22.5 -27.999 -48.5s-24.666 -53 -33.999 -81s-12.333 -43.667 -9 -47s16.333 -0.333008 39 9s40 18.333 52 27c38 27.333 57.333 56.666 58 87.999zM30.001 389.002c0 24.667 11.166 66.335 33.499 125.002s40.166 93.667 53.499 105
c6 5.33301 13 8.66602 21 9.99902s21.667 1.66602 41 0.999023c26 -1.33301 45.833 -5.66602 59.5 -12.999s29.5 -22.333 47.5 -45c9.33301 -12 15.333 -21.833 18 -29.5s4 -19.167 4 -34.5c-0.666992 -27.333 -7.33398 -48.666 -20.001 -63.999
c-6 -6.66699 -11 -8.33398 -15 -5.00098c-2.66699 2 -3.33398 2 -2.00098 0c0 -1.33301 0.666992 -2.66602 2 -3.99902c3.33301 -6.66699 -8.16699 -22.334 -34.5 -47.001s-50.166 -42.334 -71.499 -53.001c-15.333 -7.33301 -32.666 -12 -51.999 -14
s-35.666 -0.666992 -48.999 4c-9.33301 3.33301 -17.666 11.5 -24.999 24.5s-11 26.167 -11 39.5zM192 73.0029c-0.666992 4.66699 -0.49707 7.33008 0.50293 7.99707s3.5 -1.66602 7.5 -6.99902c3.33301 -4.66699 4.66602 -5 3.99902 -1c0 2 -0.333008 5 -1 9
c-2.66699 12.667 3.66602 37.334 18.999 74.001s23 55.334 23 56.001c6.66699 24.667 38.167 95.334 94.5 212.001s84.5 187.334 84.5 212.001c0 17.333 9 26.166 27 26.499s33.333 -5.16699 46 -16.5c16.667 -14.667 15.667 -46 -3 -94
c-8.66699 -22 -35.334 -78 -80.001 -168s-69.667 -138.333 -75 -145c-6 -8 -18.333 -30.333 -37 -67c-19.333 -38 -34.166 -64.833 -44.499 -80.5s-23.5 -31.5 -39.5 -47.5c-11.333 -10.667 -19.166 -17.167 -23.499 -19.5s-7.83301 -1.83301 -10.5 1.5
c-8.66699 12.667 -3.33398 22 15.999 28l10 5c-0.666992 0 -2.33398 0.333008 -5.00098 1c-8.66699 1.33301 -13 5.66602 -13 12.999z" />
    <glyph glyph-name="ampersand" unicode="&#x26;" horiz-adv-x="622" 
d="M41 127c0.666992 -7.33301 3 -9.33203 7 -5.99902c6 3.33301 8.33301 7.66602 7 12.999c-0.666992 2 -3 3.33301 -7 4c-4.66699 0 -7 -3.66699 -7 -11zM272 314.001c-3.33301 0 -14.666 -13.333 -33.999 -40c-20.667 -27.333 -46 -55.666 -76 -84.999
c-8 -8 -15.167 -15.5 -21.5 -22.5s-11 -12.667 -14 -17s-3.83301 -6.83301 -2.5 -7.5c6.66699 -4 51.167 2.66699 133.5 20s126.833 29.333 133.5 36c3.33301 1.33301 -2.83398 10.666 -18.501 27.999s-34 35.333 -55 54s-36.167 30 -45.5 34zM326 561.001
c-15.333 0 -33.001 -10.001 -53.001 -30.001c-12.667 -13.333 -20.5 -23.5 -23.5 -30.5s-4.5 -20.167 -4.5 -39.5c0 -24.667 3.5 -40.167 10.5 -46.5s18.833 -5.16602 35.5 3.50098c29.333 14.667 50.5 34.5 63.5 59.5s13.833 48.167 2.5 69.5
c-5.33301 9.33301 -15.666 14 -30.999 14zM412.999 441c-4 0 -6.00098 -2.33301 -6.00098 -7c0 -7.33301 -8.66699 -20 -26 -38s-33 -31.333 -47 -40l31 -26c26 -22.667 42 -35.334 48 -38.001s15.333 -1 28 5c14.667 7.33301 22 13 22 17s4.33301 6 13 6
c7.33301 -1.33301 23 5.66699 47 21c40 25.333 63 25.666 69 0.999023c2 -7.33301 -8.33301 -24.333 -31 -51s-37.334 -38.667 -44.001 -36c-5.33301 2 -8.33301 -2 -9 -12c-2 -23.333 3.33301 -48 16 -74c2 -3.33301 3.66699 -6.33301 5 -9
c6.66699 -10.667 12 -17.834 16 -21.501s8.83301 -7.16699 14.5 -10.5s11.834 -7.66602 18.501 -12.999c11.333 -11.333 15 -21.666 11 -30.999c-4.66699 -10.667 -10.667 -16 -18 -16c-12 0.666992 -28 6.5 -48 17.5s-37.333 23.5 -52 37.5l-30 28
c-61.333 -22.667 -101 -35 -119 -37c-10.667 0 -17.667 -1.66699 -21 -5s-21.833 -9.16602 -55.5 -17.499s-62.5 -13.833 -86.5 -16.5c-40.667 -5.33301 -72.334 -1.83301 -95.001 10.5s-34 32.5 -34 60.5c0 12.667 2.83301 23 8.5 31s20.834 23.333 45.501 46
c40.667 36.667 81 85.667 121 147l-14 16c-13.333 14 -21.5 38 -24.5 72s0.5 60.333 10.5 79c9.33301 16 19.666 29.833 30.999 41.5s19.333 16.167 24 13.5c2.66699 -1.33301 4.16699 -2 4.5 -2s-0.166992 1.33301 -1.5 4c-3.33301 4.66699 -1.16602 11.667 6.50098 21
s15.834 15.333 24.501 18c17.333 6.66699 46 4.66699 86 -6c58 -16.667 87.667 -49 89 -97c0.666992 -16.667 -2.5 -35.667 -9.5 -57s-13.167 -32 -18.5 -32z" />
    <glyph glyph-name="quotesingle" unicode="'" horiz-adv-x="149" 
d="M119 524c0 -30 -0.833008 -48.999 -2.5 -56.999s-5.83398 -15 -12.501 -21c-7.33301 -6 -12.666 -8.83301 -15.999 -8.5s-8.66602 4.16602 -15.999 11.499c-10.667 9.33301 -17.667 30.666 -21 63.999c-4.66699 30.667 -6 52 -4 64c1.33301 8 -0.333984 12 -5.00098 12
c-5.33301 0 -9 5.16699 -11 15.5s-1 19.166 3 26.499c4.66699 8.66699 13.667 13.334 27 14.001s23.666 -3.33301 30.999 -12c10.667 -12.667 17.834 -26.167 21.501 -40.5s5.5 -37.166 5.5 -68.499z" />
    <glyph glyph-name="parenleft" unicode="(" horiz-adv-x="319" 
d="M128 -9c0 4.66699 -2.33008 5.66699 -6.99707 3c-4.66699 -3.33301 -16.334 4.33398 -35.001 23.001s-32 35.667 -40 51s-13.167 45 -15.5 89s-0.5 79.667 5.5 107s18.833 71.5 38.5 132.5s33.167 99.167 40.5 114.5c20 40 32.667 71.333 38 94
c3.33301 13.333 9.66602 23.333 18.999 30s15.666 9.83398 18.999 9.50098s12 -4.83301 26 -13.5c26.667 -17.333 34.667 -35.333 24 -54c-16.667 -30 -39 -85.5 -67 -166.5s-45.667 -141.167 -53 -180.5c-8 -43.333 -8.66699 -83.833 -2 -121.5s19 -60.167 37 -67.5
c9.33301 -4 26.333 -5.83301 51 -5.5s46 2.83301 64 7.5c13.333 3.33301 19.333 1.66602 18 -5.00098c-2 -10.667 -15.667 -23.334 -41 -38.001c-3.33301 -2 -7 -4 -11 -6c-14 -6 -35.667 -9.5 -65 -10.5s-44 1.5 -44 7.5z" />
    <glyph glyph-name="parenright" unicode=")" horiz-adv-x="247" 
d="M191 61c-4.66699 -7.33301 -8.16602 -16 -10.499 -26s-6.5 -17.333 -12.5 -22c-3.33301 -0.666992 -8.83301 -6.83398 -16.5 -18.501s-14.167 -17.167 -19.5 -16.5c-2.66699 1.33301 -4.83398 1.16602 -6.50098 -0.500977s-2.16699 -4.16699 -1.5 -7.5
c0.666992 -6 -1.66602 -9.5 -6.99902 -10.5s-14.333 0.833008 -27 5.5l-9 2l7 -5c15.333 -10 13.666 -16.667 -5.00098 -20c-14 -2 -28 -1 -42 3c-8 2.66699 -11.5 8.66699 -10.5 18s5.83301 16.333 14.5 21c24 12.667 44.667 40.834 62 84.501s27 91.5 29 143.5
c1.33301 28.667 -0.166992 63.667 -4.5 105s-9.16602 69.333 -14.499 84c-6.66699 16.667 -10 30.667 -10 42c0 8.66699 -4.66699 21 -14 37s-21 31.333 -35 46c-22.667 23.333 -24.667 44.333 -6 63c10 10 21 13.333 33 10c12.667 -2.66699 22.667 -7.5 30 -14.5
s20 -23.167 38 -48.5c13.333 -19.333 26 -45.666 38 -78.999s19 -62.333 21 -87c5.33301 -68.667 6.16602 -131.667 2.49902 -189s-11.5 -97.333 -23.5 -120z" />
    <glyph glyph-name="asterisk" unicode="*" horiz-adv-x="481" 
d="M198 679c8 12 17.6709 16.6758 29.0039 14.0088s22.166 -9.33398 32.499 -20.001s14.5 -19.667 12.5 -27c-2.66699 -8 -4.83398 -17.333 -6.50098 -28s-2.66699 -19 -3 -25s0.166992 -9.66699 1.5 -11c3.33301 0 13.666 8 30.999 24c48 44 76.667 69.667 86 77
s19.666 10.666 30.999 9.99902c10 -1.33301 16.333 -3.83301 19 -7.5s4.33398 -10.5 5.00098 -20.5c0 -1.33301 0.666992 -2.16602 2 -2.49902s2.66602 -0.333008 3.99902 0s2.83301 0.666016 4.5 0.999023s2.83398 0.166016 3.50098 -0.500977s1 -2.33398 1 -5.00098
c0 -4 -5.5 -11.833 -16.5 -23.5s-20.833 -19.834 -29.5 -24.501c-4.66699 -3.33301 -27.667 -27 -69 -71c41.333 0 65 -1.66699 71 -5c7.33301 -4.66699 8.16602 -12.334 2.49902 -23.001s-15.5 -19.334 -29.5 -26.001c-18.667 -8.66699 -28 -16.334 -28 -23.001
s-5.66699 -14.334 -17 -23.001c-8 -6 -14.167 -8.83301 -18.5 -8.5s-12.833 3.83301 -25.5 10.5c-28 11.333 -46.667 15 -56 11s-19 -17.667 -29 -41c-7.33301 -16 -13 -25.5 -17 -28.5s-10.667 -3.5 -20 -1.5c-14 4 -29 0.666992 -45 -10
c-8.66699 -5.33301 -14.667 -8.5 -18 -9.5s-5.83301 -1 -7.5 0s-3.83398 3.83301 -6.50098 8.5c-5.33301 8.66699 -7.5 15.5 -6.5 20.5s6.5 13.167 16.5 24.5c16.667 18.667 20.334 29 11.001 31h-10c-20 1.33301 -36.167 7.16602 -48.5 17.499s-13.833 24.5 -4.5 42.5
c5.33301 12.667 3 25.667 -7 39c-10.667 14.667 -14.667 27.834 -12 39.501s11 19.167 25 22.5c9.33301 2 14.833 4.5 16.5 7.5s1.83398 10.833 0.500977 23.5c-2.66699 17.333 1.33301 29.666 12 36.999c7.33301 5.33301 13 8 17 8s11 -2.66699 21 -8
c14 -8 24.667 -20 32 -36c4 -9.33301 8.16699 -15.666 12.5 -18.999s8.16602 -3.33301 11.499 0s6 10 8 20c5.33301 22 9 35 11 39z" />
    <glyph glyph-name="plus" unicode="+" horiz-adv-x="411" 
d="M324 370c25.333 0 41.6729 -1.50781 49.0059 -4.50781s9.33301 -8.83301 6 -17.5c-2.66699 -7.33301 -14.334 -16.166 -35.001 -26.499s-33.667 -13.833 -39 -10.5c-4 2.66699 -6.33301 3.33398 -7 2.00098l2 -3c3.33301 -3.33301 -0.333984 -7.33301 -11.001 -12l-6 -2
c-16 -5.33301 -28.333 -17 -37 -35c-8.66699 -19.333 -21 -34.666 -37 -45.999c-10.667 -7.33301 -17.834 -11.166 -21.501 -11.499s-8.16699 2.16699 -13.5 7.5c-4.66699 4.66699 -7.33398 8.83398 -8.00098 12.501s0.666016 9.16699 3.99902 16.5
c3.33301 9.33301 4.66602 14.833 3.99902 16.5s-4.83398 2.5 -12.501 2.5s-13.167 1 -16.5 3c-3.33301 1.33301 -5.66602 2 -6.99902 2c-1.33301 0.666992 -0.666016 -0.333008 2.00098 -3c0.666992 -0.666992 1.66699 -1.33398 3 -2.00098
c4.66699 -3.33301 1.66699 -6.33301 -9 -9l-20 -4c-24.667 -4 -44.667 -2.66699 -60 4c-12.667 5.33301 -20.5 13 -23.5 23s0.166992 18.333 9.5 25c12.667 10 54.667 24.667 126 44c0.666992 0 2 0.333008 4 1c15.333 4 24.666 10 27.999 18
c4.66699 9.33301 9.66699 48 15 116c0.666992 6.66699 1 12 1 16c4 65.333 9 100 15 104c7.33301 4.66699 16 6.33398 26 5.00098s18.333 -5.66602 25 -12.999s10 -17.666 10 -30.999s-3.66699 -57.666 -11 -132.999l-6 -55h51z" />
    <glyph glyph-name="comma" unicode="," horiz-adv-x="173" 
d="M55 99c0.666992 18 6.33203 31.1719 16.999 39.5049s25.667 7.16602 45 -3.50098c13.333 -6.66699 21.333 -14.334 24 -23.001s2 -24 -2 -46c-6 -30.667 -14.5 -58.834 -25.5 -84.501s-21.833 -42.834 -32.5 -51.501c-12.667 -10.667 -21.167 -16.167 -25.5 -16.5
s-10.166 3.5 -17.499 11.5c-5.33301 6.66699 -8 14 -8 22s3.33301 28.333 10 61c10 47.333 15 77.666 15 90.999z" />
    <glyph glyph-name="hyphen" unicode="-" horiz-adv-x="418" 
d="M388 263c0 -6 -0.665039 -9.33203 -1.99805 -9.99902s-3.33301 -0.333984 -6 0.999023s-5.66699 0.333008 -9 -3c-0.666992 -2.66699 -44.834 -10.667 -132.501 -24s-132.167 -20.666 -133.5 -21.999c-4.66699 -3.33301 -15.334 -2.33301 -32.001 3
s-28.334 11.333 -35.001 18c-5.33301 4.66699 -8 8.16699 -8 10.5s2 4.83301 6 7.5c6.66699 4.66699 8 7 4 7c-2 0.666992 -2.66699 1.66699 -2 3s2 3.66602 4 6.99902c10 11.333 64 19.333 162 24c106.667 4.66699 165.334 3.66699 176.001 -3c5.33301 -2.66699 8 -9 8 -19
z" />
    <glyph glyph-name="period" unicode="." horiz-adv-x="142" 
d="M36 84c-6.66699 11.333 -6.66699 21.666 0 30.999s16 14.333 28 15s23 -2.66602 33 -9.99902c10 -6.66699 15 -15.5 15 -26.5s-5.33301 -18.833 -16 -23.5c-28.667 -14 -48.667 -9.33301 -60 14z" />
    <glyph glyph-name="slash" unicode="/" horiz-adv-x="362" 
d="M248 600c8 6.66699 19.166 9.16895 33.499 7.50195s26.5 -6.83398 36.5 -15.501c7.33301 -6.66699 11.666 -12.834 12.999 -18.501s1 -17.167 -1 -34.5c-5.33301 -44 -25.166 -108 -59.499 -192s-68.5 -152.333 -102.5 -205c-16 -24.667 -33.333 -46.167 -52 -64.5
s-31.667 -26.833 -39 -25.5c-4 0.666992 -6.5 0.333984 -7.5 -0.999023s-1.16699 -3 -0.5 -5s0.666992 -4.33301 0 -7s-2.66699 -4.66699 -6 -6c-5.33301 -4.66699 -12 -6 -20 -4s-12.333 6.33301 -13 13c-1.33301 20.667 1.33398 35 8.00098 43
c4 5.33301 23.5 42.5 58.5 111.5s55.833 111.833 62.5 128.5c35.333 85.333 57.333 153.666 66 204.999c7.33301 40.667 15 64 23 70z" />
    <glyph glyph-name="zero" unicode="0" horiz-adv-x="486" 
d="M135 268c0 -2.66699 -0.5 -4.83398 -1.5 -6.50098s-2.16699 -2.16699 -3.5 -1.5c-2.66699 0 -4.16699 -7 -4.5 -21s0 -28.833 1 -44.5s1.16699 -24.5 0.5 -26.5c0.666992 -11.333 8.5 -21.5 23.5 -30.5s33.833 -14.833 56.5 -17.5c38.667 -4.66699 71 4.5 97 27.5
s41.333 55.833 46 98.5c2.66699 26 1.66699 54.5 -3 85.5s-12 56.833 -22 77.5c-12 24.667 -32 52.334 -60 83.001l-18 -17c-21.333 -19.333 -45.333 -53.833 -72 -103.5s-40 -84.167 -40 -103.5zM198 570c-0.666992 7.33301 6.67383 15.334 22.0068 24.001
s28.666 13.667 39.999 15c28.667 -8 59 -30.5 91 -67.5s58 -75.167 78 -114.5c9.33301 -22 16.666 -49.333 21.999 -82s6.66602 -59 3.99902 -79c-2.66699 -18 -7.83398 -40.667 -15.501 -68s-13.5 -43.666 -17.5 -48.999c-44.667 -62.667 -95.667 -95.667 -153 -99
c-30 -2 -66.167 3 -108.5 15s-71.166 25 -86.499 39c-14 12.667 -19.333 21 -16 25c1.33301 1.33301 4.33301 0.666016 9 -2.00098c2.66699 -1.33301 4.16699 -2 4.5 -2s-0.5 1 -2.5 3c-4.66699 4.66699 -9.33398 7 -14.001 7s-9.83398 10.833 -15.501 32.5
s-8.83398 41.5 -9.50098 59.5c-0.666992 10.667 5.16602 37.167 17.499 79.5s23.166 74.166 32.499 95.499c18.667 42 48.334 85.333 89.001 130c19.333 23.333 29 36 29 38z" />
    <glyph glyph-name="one" unicode="1" horiz-adv-x="359" 
d="M275 484c0 -4.66699 -3.00586 -9.99609 -9.00586 -15.9961c-6.66699 -7.33301 -15 -28.333 -25 -63s-16.333 -64.334 -19 -89.001c-3.33301 -30.667 -1 -57.667 7 -81s20 -38.666 36 -45.999c6.66699 -3.33301 11.834 -6.5 15.501 -9.5s5.16699 -5.5 4.5 -7.5
c-1.33301 -2.66699 0.166992 -4.83398 4.5 -6.50098s5.16602 -4.83398 2.49902 -9.50098c-2.66699 -7.33301 -10 -12.166 -22 -14.499s-21.333 -0.833008 -28 4.5c-10 8 -12 8 -6 0c2.66699 -4.66699 2.33398 -7 -0.999023 -7c-1.33301 0 -5 1 -11 3
c-7.33301 2.66699 -11.666 3.66699 -12.999 3c-4 -0.666992 -5 1.66602 -3 6.99902c2 4 2.33301 6 1 6c-0.666992 -0.666992 -1.66699 -1.33398 -3 -2.00098c-5.33301 -3.33301 -14.166 1.16699 -26.499 13.5s-17.166 21.833 -14.499 28.5c2 6.66699 0 10 -6 10
c-5.33301 0 -10 5.83301 -14 17.5s-4.33301 21.167 -1 28.5c2.66699 7.33301 2.33398 12 -0.999023 14c-3.33301 4.66699 -4.33301 23.667 -3 57c1.33301 32 0 48 -4 48c-2 0 -5 -1.33301 -9 -4c-4.66699 -2 -8.5 -5.83301 -11.5 -11.5s-9.5 -7.83398 -19.5 -6.50098
c-9.33301 2 -14 1.33301 -14 -2c0 -0.666992 -0.666992 -1.5 -2 -2.5s-3.33301 -1.5 -6 -1.5h-10c-14 0.666992 -23.667 7.33398 -29 20.001c-5.33301 13.333 -6 23.666 -2 30.999s15 14.666 33 21.999c13.333 6 24 11.667 32 17s17.333 12.833 28 22.5
s19.667 17.167 27 22.5c8 5.33301 15.833 13.5 23.5 24.5s15.5 24.5 23.5 40.5l15 30c3.33301 4 10.5 18.333 21.5 43s19.833 39 26.5 43c10.667 8 18.834 11.667 24.501 11s14.167 -6.66699 25.5 -18c12 -11.333 17.167 -23.666 15.5 -36.999s-11.167 -38.333 -28.5 -75
c-16.667 -36 -25 -55.333 -25 -58z" />
    <glyph glyph-name="two" unicode="2" horiz-adv-x="583" 
d="M377 511c-24.667 0 -65.5 -11.6699 -122.5 -35.0029s-91.5 -42.666 -103.5 -57.999c-8.66699 -10.667 -17.334 -18 -26.001 -22c-8 -2.66699 -17.833 -2.66699 -29.5 0s-17.5 6.33398 -17.5 11.001c0 5.33301 -4 11 -12 17
c-5.33301 4.66699 -8.16602 7.33398 -8.49902 8.00098s2.5 0 8.5 -2c4.66699 -2 7.83398 -2 9.50098 0s2.5 7 2.5 15c0 9.33301 -0.666992 14.333 -2 15l-5 -5c-4.66699 -4 -7 -4.33301 -7 -1c0 16.667 30.167 41.834 90.5 75.501s112.5 54.167 156.5 61.5
c20 2 43.333 3 70 3c80 1.33301 135 -28 165 -88c6.66699 -12.667 9 -30.167 7 -52.5s-7 -39.833 -15 -52.5c-10 -16 -30.167 -38 -60.5 -66s-47.833 -41 -52.5 -39c-4 0.666992 -6 0 -6 -2c2.66699 -4.66699 0 -8.33398 -8 -11.001c-5.33301 -2 -13.666 -6.5 -24.999 -13.5
l-36.5 -23.5l-37.5 -26c-12 -8.66699 -21.667 -16.167 -29 -22.5s-10.666 -9.83301 -9.99902 -10.5c2.66699 -2.66699 14 -6 34 -10c35.333 -5.33301 59.166 -9.5 71.499 -12.5s22.166 -7.83301 29.499 -14.5c17.333 -15.333 20 -36 8 -62
c-4.66699 -8.66699 -17.5 -13.167 -38.5 -13.5s-37.833 3.83398 -50.5 12.501c-12 7.33301 -43.167 12.166 -93.5 14.499s-86.5 0.5 -108.5 -5.5s-41.667 -6.83301 -59 -2.5s-28 12.833 -32 25.5l-1 1c-4 12.667 -2.66699 22.334 4 29.001
c10 11.333 62.333 43.666 157 96.999h1l1 1h1l1 1h1l1 1l1 1h1l1 1h1l1 1h1l1 1h1l1 1h1l1 1l1 1h1l1 1h1l1 1l1 1h1l1 1h1l1 1h1l1 1h1l1 1l1 1h1l1 1h1l1 1h1l1 1h1l1 1c74.667 42 128.167 76.5 160.5 103.5s51.166 53.167 56.499 78.5c4 19.333 -0.5 34.333 -13.5 45
s-33.167 16 -60.5 16z" />
    <glyph glyph-name="three" unicode="3" horiz-adv-x="509" 
d="M259 251c0 -6.66699 20.3291 -17.6631 60.9961 -32.9961c74.667 -28 115 -53.667 121 -77c2.66699 -8.66699 1.83398 -18.334 -2.49902 -29.001s-9.16602 -16 -14.499 -16c-4.66699 0 -7 -2.66699 -7 -8c0 -7.33301 -9.33301 -16.5 -28 -27.5s-41 -20.5 -67 -28.5
c-10.667 -3.33301 -32.667 -6.83301 -66 -10.5s-54.666 -4.83398 -63.999 -3.50098c-7.33301 1.33301 -28.666 1.33301 -63.999 0c-24.667 0 -43.667 2.33301 -57 7s-20 11.5 -20 20.5s6 19.833 18 32.5c8 8.66699 16.667 13.834 26 15.501s32.666 2.5 69.999 2.5
c52 1.33301 89.833 4.33301 113.5 9s44.834 14 63.501 28c-18.667 10.667 -41.334 19.667 -68.001 27c-56 14 -91.667 35.333 -107 64c-6 11.333 -9.16699 20 -9.5 26s1.5 15 5.5 27c5.33301 16 15.5 31 30.5 45s42.5 34 82.5 60c56.667 38 85 61.333 85 70
c-12.667 3.33301 -51.5 2.66602 -116.5 -2.00098s-105.5 -11 -121.5 -19c-6 -3.33301 -19.333 -3.33301 -40 0c-35.333 5.33301 -53 21.666 -53 48.999c0 10 7 17.833 21 23.5s41 11.5 81 17.5c32 6 84.5 8.66699 157.5 8s119.167 -6.66699 138.5 -18
c38.667 -22 54.834 -46 48.501 -72s-36.5 -57 -90.5 -93c-20 -12.667 -36.667 -23.834 -50 -33.501l-42 -29.5c-23.333 -16 -35 -26.667 -35 -32z" />
    <glyph glyph-name="four" unicode="4" horiz-adv-x="709" 
d="M293 356c-4 0 -17.5 -9.00098 -40.5 -27.001s-35.167 -29 -36.5 -33c-0.666992 -4 10 -5.33301 32 -4c15.333 0.666992 25.333 2.33398 30 5.00098s8 8 10 16c2 12 4.33301 22.333 7 31c2.66699 8 2 12 -2 12zM679 282.999c0 -11.333 -10 -21.668 -30 -31.001
c-20.667 -9.33301 -42.667 -16.333 -66 -21s-64.333 -10 -123 -16c-58 -6 -91 -11.667 -99 -17c-4.66699 -3.33301 -10 -13.333 -16 -30c-4.66699 -10.667 -8.16699 -26.5 -10.5 -47.5s-6.83301 -36.167 -13.5 -45.5c-8.66699 -10.667 -21.334 -14.334 -38.001 -11.001
c-38 7.33301 -50.667 37.333 -38 90c6 27.333 7.33301 42 4 44c-7.33301 2.66699 -28.666 3.33398 -63.999 2.00098c-74.667 -1.33301 -122 15 -142 49l-13 22c57.333 42 122 94 194 156s123.333 111.667 154 149c15.333 16 39.333 16.333 72 1
c17.333 -8.66699 26.166 -20.167 26.499 -34.5s-8.5 -40.166 -26.5 -77.499c-38.667 -85.333 -61.667 -141 -69 -167c14.667 0.666992 50.334 2.66699 107.001 6s94.667 5.66602 114 6.99902c51.333 4.66699 77 -4.66602 77 -27.999z" />
    <glyph glyph-name="five" unicode="5" horiz-adv-x="616" 
d="M315 377c168 0 257.999 -31.6738 269.999 -95.0068c2.66699 -12.667 -2.5 -29.667 -15.5 -51s-27.5 -36.666 -43.5 -45.999c-9.33301 -5.33301 -16.666 -11.166 -21.999 -17.499s-15 -12.5 -29 -18.5c-19.333 -8 -33 -15.333 -41 -22c-30 -23.333 -118 -61 -264 -113
c-32.667 -12.667 -55.334 -19.834 -68.001 -21.501s-26.667 0.833008 -42 7.5c-17.333 6.66699 -27 16.334 -29 29.001c-2.66699 11.333 0 17 8 17s8.33301 2.33301 1 7c-8.66699 6 1.66602 16.333 30.999 31c24 12 58 25.667 102 41c58 18.667 101.333 35 130 49
c28 13.333 45 20 51 20c4.66699 0.666992 8.5 3.66699 11.5 9s7.5 8.66602 13.5 9.99902c10 2.66699 27.5 13.334 52.5 32.001s37.5 30 37.5 34c0 4.66699 -16.833 8.33398 -50.5 11.001s-64.834 3 -93.501 1c-37.333 -4 -68 -9.66699 -92 -17
c-40 -11.333 -73.667 -14.666 -101 -9.99902s-42 16.334 -44 35.001c-1.33301 12.667 5.66699 34.667 21 66c14.667 28.667 24.334 59.834 29.001 93.501s3.33398 57.834 -3.99902 72.501c-3.33301 7.33301 -5.83301 15 -7.5 23s-2.16699 14.667 -1.5 20s2.66699 8 6 8
c2.66699 0.666992 5.33398 4.5 8.00098 11.5s7.66699 10.167 15 9.5c11.333 0 20 2 26 6c6 4.66699 56.333 7 151 7c68 0.666992 109.833 0.5 125.5 -0.5s27.5 -4.83301 35.5 -11.5c16.667 -11.333 23.667 -27.666 21 -48.999s-12 -33 -28 -35
c-6 2.66699 -38.333 4.66699 -97 6s-103.667 1.33301 -135 0c-6.66699 -84.667 -12.667 -134.334 -18 -149.001h80z" />
    <glyph glyph-name="six" unicode="6" horiz-adv-x="417" 
d="M220 169c22.667 20 30.002 30.332 22.002 30.999c-6.66699 0.666992 -20.334 -7.66602 -41.001 -24.999c-26.667 -20.667 -39.334 -32.667 -38.001 -36c3.33301 -3.33301 10.5 -2 21.5 4s22.833 14.667 35.5 26zM237.002 102.999
c-8.66699 0 -13.0029 -2.32617 -13.0029 -6.99316c0 -6.66699 -10.333 -13 -31 -19s-42 -9 -64 -9c-21.333 0 -35.166 1.16699 -41.499 3.5s-14.5 9.16602 -24.5 20.499c-25.333 28 -36.166 62.667 -32.499 104s22.5 97 56.5 167c24.667 50.667 59.5 102.667 104.5 156
s79.833 83.333 104.5 90c16.667 4.66699 29.5 6.83398 38.5 6.50098s18.833 -3.5 29.5 -9.5c20.667 -10.667 27.667 -27.834 21 -51.501s-22 -35.834 -46 -36.501c-10 0 -24.333 -8 -43 -24s-34.667 -34.333 -48 -55c-8.66699 -14 -21.667 -32 -39 -54
c-9.33301 -12.667 -19.666 -28.834 -30.999 -48.501s-20.166 -37.334 -26.499 -53.001s-8.16602 -23.834 -5.49902 -24.501c6 -1.33301 21.333 6.66699 46 24c34 23.333 66.167 33.666 96.5 30.999s51.166 -17.334 62.499 -44.001c4 -10 5.5 -18 4.5 -24
s-5.83301 -17 -14.5 -33c-11.333 -21.333 -29.333 -45 -54 -71s-41.334 -39 -50.001 -39z" />
    <glyph glyph-name="seven" unicode="7" horiz-adv-x="650" 
d="M620 470c0 -8 -2.16602 -14.1631 -6.49902 -18.4961s-13.833 -9.83301 -28.5 -16.5l-19.5 -7.5l-13.5 -5c-2.66699 -1 -5.16699 -2 -7.5 -3s-4.83301 -2.5 -7.5 -4.5s-5 -3.83301 -7 -5.5s-6.33301 -5 -13 -10s-12.667 -9.83301 -18 -14.5
c-30.667 -25.333 -47.667 -39 -51 -41c-11.333 -7.33301 -26.333 -25.333 -45 -54s-35.334 -60 -50.001 -94c-19.333 -42.667 -34.5 -68.834 -45.5 -78.501s-25.167 -8.83398 -42.5 2.49902c-12 7.33301 -18 14.666 -18 21.999c0 8 10.167 34 30.5 78s35.833 74 46.5 90
c4 6.66699 20.833 25.5 50.5 56.5s46.167 49.833 49.5 56.5c-28 3.33301 -70.167 6.66602 -126.5 9.99902s-104.833 8 -145.5 14s-76.334 16 -107.001 30c-10.667 5.33301 -15.667 16.666 -15 33.999c1.33301 16 4.33301 27 9 33c6 6.66699 14 9.33398 24 8.00098
s18.667 -5.66602 26 -12.999c6.66699 -7.33301 13.167 -10.833 19.5 -10.5s16.5 -0.833984 30.5 -3.50098c19.333 -4 101 -10.667 245 -20c50 -4 86.5 -5.83301 109.5 -5.5s44.5 3.83301 64.5 10.5c16.667 5.33301 30.834 3.5 42.501 -5.5s18.167 -20.5 19.5 -34.5z" />
    <glyph glyph-name="eight" unicode="8" horiz-adv-x="551" 
d="M287 166c-10 14 -16.666 20.998 -19.999 20.998c-4 0 -11.833 -4.5 -23.5 -13.5s-22.167 -18.167 -31.5 -27.5s-13.333 -14.666 -12 -15.999c3.33301 -3.33301 13.666 -5.66602 30.999 -6.99902c34 -2 55 0 63 6s5.66699 18.333 -7 37zM418.001 472.998
c7.33301 20.667 -0.999023 35.333 -24.999 44l-53 -6c-38.667 -3.33301 -78.834 -16 -120.501 -38s-71.834 -46.667 -90.501 -74c-8.66699 -12.667 -13.5 -21.5 -14.5 -26.5s0.5 -10.5 4.5 -16.5c8.66699 -10 51 -31.333 127 -64c32.667 26 71.334 60.333 116.001 103
c33.333 33.333 52 59.333 56 78zM176.002 236.997c7.33301 0 8.33496 3.33301 3.00195 10c-4 4.66699 -8.66699 8 -14 10c-122.667 46.667 -161.667 106.667 -117 180c15.333 27.333 50.166 58.333 104.499 93s101.166 55.334 140.499 62.001
c48.667 8 95.834 4.33301 141.501 -11s73.5 -38 83.5 -68c4.66699 -14.667 3.33398 -34.5 -3.99902 -59.5s-18 -45.5 -32 -61.5c-30.667 -36 -65.334 -72.333 -104.001 -109c-34 -32 -49 -51 -45 -57c36 -46.667 52.667 -81.334 50 -104.001
c-2.66699 -17.333 -8.16699 -30.833 -16.5 -40.5s-22.166 -18.167 -41.499 -25.5c-46 -18 -123.667 -10.333 -233 23c-10.667 2.66699 -18.334 11 -23.001 25s-2.33398 28 6.99902 42c8 11.333 25.667 29.333 53 54s43 37 47 37z" />
    <glyph glyph-name="nine" unicode="9" horiz-adv-x="372" 
d="M175 483c-2.66699 0 -4.16895 -0.667969 -4.50195 -2.00098s-0.166016 -3 0.500977 -5c1.33301 -4.66699 0.333008 -7 -3 -7c-5.33301 0 -12.5 -8.66699 -21.5 -26s-13.5 -31.666 -13.5 -42.999c0 -16.667 2 -28.167 6 -34.5s11 -9.5 21 -9.5s18.833 6.5 26.5 19.5
s21.5 44.5 41.5 94.5c10.667 28 14.334 42.667 11.001 44c-2.66699 2 -13.5 -2.83301 -32.5 -14.5s-29.5 -17.167 -31.5 -16.5zM125.998 277.999c0 4 -5.33008 8.00195 -15.9971 12.002c-10.667 2.66699 -25.834 15 -45.501 37s-30.5 38.667 -32.5 50
c-5.33301 25.333 -0.5 54.333 14.5 87s35.833 59.334 62.5 80.001c11.333 8.66699 31.666 20.834 60.999 36.501s52 26.167 68 31.5c28.667 10 54.167 4.66699 76.5 -16s30.833 -46.334 25.5 -77.001c-4.66699 -17.333 -12.167 -36.333 -22.5 -57s-20.166 -43 -29.499 -67
c-24 -55.333 -39.667 -87.333 -47 -96c-16.667 -18 -44 -61.667 -82 -131c-12.667 -22.667 -27 -38.334 -43 -47.001s-31.333 -9.33398 -46 -2.00098c-14.667 6.66699 -20.834 16.167 -18.501 28.5s14.166 34.5 35.499 66.5c26 39.333 39 60.666 39 63.999z" />
    <glyph glyph-name="colon" unicode=":" 
d="M98 50c-29.333 0 -48.498 7.33105 -57.498 21.998s-3.83301 29.334 15.5 44.001c26.667 21.333 52 20.333 76 -3c17.333 -17.333 22.666 -32.166 15.999 -44.499s-23.334 -18.5 -50.001 -18.5zM58.002 456.998c13.333 5.33301 27.833 4.16992 43.5 -3.49707
s26.167 -17.334 31.5 -29.001s4 -22.834 -4 -33.501c-8 -8 -19.167 -12.833 -33.5 -14.5s-26.833 0.166016 -37.5 5.49902c-18.667 9.33301 -28 22.333 -28 39s9.33301 28.667 28 36z" />
    <glyph glyph-name="semicolon" unicode=";" horiz-adv-x="203" 
d="M99 166c23.333 10 43.668 7.33398 61.001 -7.99902c8 -7.33301 12.333 -16 13 -26s-2 -28 -8 -54c0 -2.66699 -0.666992 -6.5 -2 -11.5s-2 -8.5 -2 -10.5c-0.666992 -9.33301 -9.5 -21.833 -26.5 -37.5s-32.5 -25.5 -46.5 -29.5
c-29.333 -7.33301 -47.833 -4.16602 -55.5 9.50098s-1.5 32.167 18.5 55.5c10 12 17 28.667 21 50c3.33301 23.333 6.66602 38.666 9.99902 45.999s9 12.666 17 15.999zM125.002 449.001c-0.666992 -3.33301 1.00293 -4.66699 5.00293 -4c1.33301 0 3.33301 0.333008 6 1
c6 1.33301 9 1.33301 9 0c0 -0.666992 -0.333008 -1.66699 -1 -3c-3.33301 -4.66699 -1.33301 -11.334 6 -20.001c12.667 -16.667 14.167 -30.834 4.5 -42.501s-27.834 -17.5 -54.501 -17.5c-16.667 0 -28 1.33301 -34 4s-13 9.33398 -21 20.001
c-12.667 16 -17.167 28.833 -13.5 38.5s15.834 17.834 36.501 24.501c22 6.66699 35.333 8 40 4c1.33301 -2 3.16602 -3 5.49902 -3s4.16602 0.5 5.49902 1.5s2.66602 1.33301 3.99902 1s2 -1.83301 2 -4.5z" />
    <glyph glyph-name="equal" unicode="=" horiz-adv-x="650" 
d="M243 322c97.333 5.33301 168.334 6.16992 213.001 2.50293s69.667 -12.5 75 -26.5c2.66699 -7.33301 -2 -15.5 -14 -24.5s-26 -14.833 -42 -17.5c-4.66699 -0.666992 -14.5 -2.5 -29.5 -5.5s-26.167 -5.16699 -33.5 -6.5
c-34.667 -6.66699 -77.334 -10.834 -128.001 -12.501s-82.334 0.166016 -95.001 5.49902c-17.333 7.33301 -29.166 14.166 -35.499 20.499s-8.5 14.5 -6.5 24.5c2.66699 14.667 10 24.5 22 29.5s36.667 8.5 74 10.5zM620.001 453.004c0 -15.333 -4.82812 -25 -14.4951 -29
s-36.5 -7 -80.5 -9c-37.333 -1.33301 -85 -5.66602 -143 -12.999s-102.333 -12 -133 -14c-28.667 -2 -60 -8 -94 -18c-27.333 -9.33301 -47.833 -14 -61.5 -14s-27.834 4.66699 -42.501 14c-30.667 18.667 -29.334 39 3.99902 61
c37.333 25.333 137.666 41.666 300.999 48.999c36.667 1.33301 63.5 2.83301 80.5 4.5s39.167 3.16699 66.5 4.5c39.333 0.666992 60.666 -2.33301 63.999 -9c2.66699 -7.33301 8 -11 16 -11c6 0.666992 8.83301 1.5 8.5 2.5s-3.5 3.83301 -9.5 8.5
c-9.33301 6.66699 -12.333 9.83398 -9 9.50098s11.666 -3.83301 24.999 -10.5c14.667 -6.66699 22 -15.334 22 -26.001z" />
    <glyph glyph-name="greater" unicode="&#x3e;" horiz-adv-x="573" 
d="M68 496c38.667 -6.66699 102.834 -21.3301 192.501 -43.9971s138.167 -35 145.5 -37c82 -20.667 123 -36.667 123 -48c0 -7.33301 2.33301 -11 7 -11c3.33301 0 5.5 -2 6.5 -6s0.333008 -8.83301 -2 -14.5s-5.5 -10.834 -9.5 -15.501
c-7.33301 -8.66699 -15.333 -13 -24 -13c-10 0 -25.167 -3 -45.5 -9s-30.5 -10.333 -30.5 -13c-3.33301 -3.33301 -14.5 -7.33301 -33.5 -12s-30.5 -9 -34.5 -13c-10.667 -6 -22.334 -10.667 -35.001 -14s-32.334 -11.333 -59.001 -24
c-48.667 -20.667 -81.834 -33.5 -99.501 -38.5s-30.167 -5.5 -37.5 -1.5c-10.667 5.33301 -18.5 11.833 -23.5 19.5s-5.5 13.834 -1.5 18.501c2.66699 3.33301 3.66699 7.16602 3 11.499s1.33301 8.16602 6 11.499c6.66699 4.66699 33.167 18.5 79.5 41.5
s77.833 37.5 94.5 43.5c8.66699 3.33301 16.334 6.83301 23.001 10.5s11.5 6.83398 14.5 9.50098s3.83301 4.66699 2.5 6l6 -1c-20.667 8 -81 24 -181 48c-30 6.66699 -51.667 11 -65 13c-7.33301 -0.666992 -20 3 -38 11c-10 5.33301 -16.167 10 -18.5 14
s-3.16602 11.333 -2.49902 22c0.666992 16.667 7 26.667 19 30c2 0.666992 4 1.16699 6 1.5s3.66699 0.666016 5 0.999023s2.5 0.666016 3.5 0.999023s1.83301 0.833008 2.5 1.5h1z" />
    <glyph glyph-name="question" unicode="?" horiz-adv-x="707" 
d="M262 15c-2.66699 8.66699 -3.83105 16.667 -3.49805 24s3.83301 14.333 10.5 21c9.33301 9.33301 19 13.833 29 13.5s22.667 -5.16602 38 -14.499c13.333 -8.66699 21.666 -18.667 24.999 -30s0.666016 -21.333 -8.00098 -30s-26 -10.834 -52 -6.50098
s-39 11.833 -39 22.5zM30.0029 571c0 2.66699 3.66699 12.167 11 28.5s11.666 24.5 12.999 24.5c38.667 8.66699 83.334 15.667 134.001 21c28.667 3.33301 83.167 4.5 163.5 3.5s127.5 -3.16699 141.5 -6.5c27.333 -6.66699 58.333 -17.667 93 -33
c18.667 -8.66699 32.667 -16.667 42 -24s18.666 -17.666 27.999 -30.999c10 -15.333 16.167 -26.833 18.5 -34.5s2.83301 -18.5 1.5 -32.5c-2.66699 -22.667 -8 -38.667 -16 -48c-14.667 -16 -42.667 -30 -84 -42s-86.666 -19.333 -135.999 -22
c-39.333 -2.66699 -60 -5 -62 -7c-3.33301 -9.33301 -10.333 -40.333 -21 -93s-17.667 -83.667 -21 -93c-2.66699 -10.667 -14.667 -15.667 -36 -15s-37.333 6.66699 -48 18c-6.66699 6 -9.33398 14.667 -8.00098 26s8.33301 39.666 21 84.999
c12.667 44.667 18.667 83 18 115c-1.33301 34 1.33398 54.667 8.00098 62c6.66699 8 20 11.5 40 10.5s35 -5.83301 45 -14.5c10 -9.33301 32 -13.666 66 -12.999c66 1.33301 109 12.666 129 33.999c14.667 16.667 8 33 -20 49c-29.333 16.667 -89.833 25.667 -181.5 27
s-174.167 -5.33398 -247.5 -20.001c-18 -3.33301 -30.5 -4.66602 -37.5 -3.99902s-16.5 4.66699 -28.5 12c-17.333 10 -26 15.667 -26 17z" />
    <glyph glyph-name="at" unicode="@" horiz-adv-x="914" 
d="M705 -198c-9.33301 1.33301 -9 2 1 2l47 -1c-0.666992 0 -2.66699 -0.333008 -6 -1c-12.667 -1.33301 -26.667 -1.33301 -42 0zM776 80c0.666992 -4 -8.50098 -16.666 -27.501 -37.999s-28.5 -33.666 -28.5 -36.999c0 -5.33301 -7.33301 -11.333 -22 -18
s-28.667 -10.667 -42 -12c-14 -0.666992 -24.167 -1.33398 -30.5 -2.00098s-14 0.166016 -23 2.49902s-15.167 4.16602 -18.5 5.49902s-9.5 6 -18.5 14s-16.167 15 -21.5 21l-29 33c-13.333 14.667 -22.666 23.5 -27.999 26.5s-13 3.5 -23 1.5
c-14.667 -2.66699 -29 -7.33398 -43 -14.001c-13.333 -6 -39.333 -9.33301 -78 -10s-63.667 2 -75 8c-12 6.66699 -20.667 11.334 -26 14.001c-14 6 -24 22.333 -30 49s-4 47.667 6 63c4 2.66699 6.66699 8.66699 8 18c6 25.333 19.5 54.666 40.5 87.999
s48.167 62.666 81.5 87.999s65.333 35.333 96 30c16.667 -0.666992 28.334 -8 35.001 -22c7.33301 -16 6.5 -27.5 -2.5 -34.5s-22.5 -13 -40.5 -18s-30 -10.833 -36 -17.5c-26.667 -26 -50.5 -62.667 -71.5 -110s-26.5 -76.666 -16.5 -87.999
c5.33301 -6.66699 16.666 -9.16699 33.999 -7.5s36.333 6.83398 57 15.501c20.667 8 32.5 14.833 35.5 20.5s1.83301 17.834 -3.5 36.501c-8 23.333 -12.667 67 -14 131c3.33301 0.666992 10.5 2.66699 21.5 6s19.833 5.83301 26.5 7.5s14.334 2.33398 23.001 2.00098
s15.667 -2.83301 21 -7.5c10.667 -4.66699 22.834 -16.834 36.501 -36.501s19.5 -33.167 17.5 -40.5c0.666992 -3.33301 2.16699 -8 4.5 -14s3.66602 -11 3.99902 -15s-0.833984 -12 -3.50098 -24c-4.66699 -16 -4.66699 -30.167 0 -42.5s16 -28.5 34 -48.5
c14 -15.333 25.5 -21.333 34.5 -18s21.167 17.666 36.5 42.999c14 24 27.333 43.333 40 58c13.333 14.667 25.333 34.167 36 58.5s16 44.5 16 60.5c0 38.667 -26 69.667 -78 93c-11.333 5.33301 -24.333 12.833 -39 22.5s-26.334 16.167 -35.001 19.5
c-6 0 -11.333 3.33301 -16 10c-6.66699 7.33301 -26.667 14.666 -60 21.999s-58.666 9.66602 -75.999 6.99902c-19.333 -2.66699 -55 -11.334 -107 -26.001s-79.333 -23.667 -82 -27c-2.66699 -4 -9.66699 -7.66699 -21 -11c-10.667 -2.66699 -31.667 -14.5 -63 -35.5
s-51.333 -36.167 -60 -45.5c-8 -9.33301 -15.333 -14 -22 -14s-10 -2.66699 -10 -8c0 -4 -4.33301 -12.333 -13 -25c-10.667 -13.333 -18.334 -33.666 -23.001 -60.999s-4.33398 -52.666 0.999023 -75.999c4.66699 -24 11 -45 19 -63c6.66699 -12.667 28.5 -38 65.5 -76
s58.5 -57 64.5 -57c8 -3.33301 25.5 -13.833 52.5 -31.5s45.5 -28.167 55.5 -31.5c8.66699 -4 16 -8 22 -12s8.33301 -6.66699 7 -8c-1.33301 -3.33301 1.66699 -8.66602 9 -15.999c4.66699 -4.66699 7.33398 -6.66699 8.00098 -6s0 3.66699 -2 9
c-2.66699 6.66699 -2.66699 10 0 10c62 -29.333 118 -52 168 -68h-203l-71 36c-58.667 30.667 -107.334 60 -146.001 88s-55.667 46 -51 54c1.33301 2 1.83301 3.33301 1.5 4s-1.16602 0 -2.49902 -2c-4.66699 -3.33301 -11 -1 -19 7c-6 5.33301 -9.66699 18.833 -11 40.5
s-2 78.5 -2 170.5v199c40.667 27.333 63.334 41.666 68.001 42.999c3.33301 0 8.66602 4.33301 15.999 13c15.333 16 53.5 35.333 114.5 58s115.833 37.667 164.5 45c77.333 12.667 146.333 9 207 -11c21.333 -8 39.166 -15.667 53.499 -23s30.333 -16.666 48 -27.999
s32.167 -20.333 43.5 -27c38 -20.667 65.833 -38.667 83.5 -54s31.167 -33 40.5 -53c12.667 -24.667 17.334 -48.667 14.001 -72c-3.33301 -20 -12.333 -46.167 -27 -78.5s-29.667 -58.166 -45 -77.499c-13.333 -16 -20 -27.333 -20 -34
c0.666992 -4.66699 -1.66602 -8 -6.99902 -10s-8 -5 -8 -9z" />
    <glyph glyph-name="A" unicode="A" horiz-adv-x="603" 
d="M334 330c0.666992 -3.33301 -2.83496 -8.66895 -10.502 -16.002s-11.5 -12.333 -11.5 -15c0 -4.66699 9.83301 -9.16699 29.5 -13.5s31.5 -4.5 35.5 -0.5c2 2.66699 3 6.83398 3 12.501s-0.666992 12.667 -2 21s-2.66602 15.833 -3.99902 22.5s-3 14.167 -5 22.5
s-3.33301 13.5 -4 15.5c-1.33301 -2.66699 -4.66602 -7.66699 -9.99902 -15s-10 -14.166 -14 -20.499s-6.33301 -10.833 -7 -13.5zM516.998 691.997c0 -1.33301 -6.00195 -25.3311 -18.002 -71.998c-24.667 -87.333 -30.667 -170.666 -18 -249.999
c6.66699 -42.667 12.167 -68.334 16.5 -77.001s13.166 -12.334 26.499 -11.001c13.333 2 24.833 0.666992 34.5 -4s14.5 -11.334 14.5 -20.001c0 -7.33301 -3.83301 -14.666 -11.5 -21.999s-16.167 -12 -25.5 -14c-7.33301 -2 -11.333 -5 -12 -9
c0 -5.33301 5.66699 -26 17 -62c12.667 -39.333 16.667 -59.666 12 -60.999c-5.33301 -1.33301 -8 -4.33301 -8 -9c0 -3.33301 2.66699 -4 8 -2c3.33301 -0.666992 5.33301 -1.66699 6 -3c0 -6 -4.16699 -11.333 -12.5 -16s-18.166 -7.33398 -29.499 -8.00098
c-16 -0.666992 -31 6.66602 -45 21.999s-26 37.333 -36 66c-10.667 32 -17 49 -19 51c-1.33301 1.33301 -27 3.33301 -77 6s-76 5 -78 7c-7.33301 3.33301 -23.666 -10.334 -48.999 -41.001s-46.666 -52 -63.999 -64c-16 -10.667 -33.5 -16.667 -52.5 -18
s-35.167 2.33398 -48.5 11.001l-18 12c80.667 76.667 126.667 126.667 138 150c6 14 21.167 35.333 45.5 64s38.833 46.334 43.5 53.001c50 73.333 75.667 110.666 77 111.999c8 8 21.667 40.667 41 98s29 94 29 110c2 17.333 20.667 24.5 56 21.5s54.333 -9.83301 57 -20.5
z" />
    <glyph glyph-name="B" unicode="B" horiz-adv-x="823" 
d="M736 710c5.33301 -4 9.66992 -6.16797 13.0029 -6.50098s8.66602 -4.16602 15.999 -11.499c9.33301 -10 16.666 -22 21.999 -36s7 -26.333 5 -37c-1.33301 -10 -11.5 -25.833 -30.5 -47.5s-33.5 -33.834 -43.5 -36.501c-10.667 -4 -17 -7 -19 -9
c-2 -3.33301 -15.5 -12.5 -40.5 -27.5s-38.833 -22.5 -41.5 -22.5c-6.66699 0 -23.834 -7.5 -51.501 -22.5s-40.834 -23.833 -39.501 -26.5s10.333 -7.66699 27 -15c17.333 -7.33301 37 -20.333 59 -39c14.667 -12 24 -27.833 28 -47.5s-1.66699 -37.167 -17 -52.5
c-20 -16 -81.5 -47.5 -184.5 -94.5s-184.5 -79.833 -244.5 -98.5c-43.333 -13.333 -81.5 -17.166 -114.5 -11.499s-49.5 18.834 -49.5 39.501c0 9.33301 3.16699 23.833 9.5 43.5s11.5 31.167 15.5 34.5c16.667 24.667 40.834 72.667 72.501 144s48.5 124.333 50.5 159
c2 25.333 6.83301 43.166 14.5 53.499s20.5 17.166 38.5 20.499c16.667 2.66699 33 -1 49 -11s25.667 -22.667 29 -38c2.66699 -17.333 -3.5 -46 -18.5 -86s-43.167 -102 -84.5 -186l-34 -68c13.333 0.666992 33.333 6.16699 60 16.5s42.667 16.166 48 17.499
c14 0 53.833 16 119.5 48s99.167 51.667 100.5 59c2 11.333 -6.83301 20 -26.5 26s-44.834 7.66699 -75.501 5c-65.333 -6 -102.333 4.33301 -111 31c-4.66699 14.667 2.16602 29 20.499 43s58.5 36.333 120.5 67c80 39.333 122 59 126 59
c8.66699 0 30.334 13.667 65.001 41s52 44.666 52 51.999c0 2.66699 -7.66699 7.33398 -23 14.001c-28 12 -89.5 13.667 -184.5 5s-168.833 -22.667 -221.5 -42c-40 -14.667 -66 -23 -78 -25s-25 -0.333008 -39 5c-19.333 7.33301 -30.666 14.833 -33.999 22.5
s0.666992 17.834 12 30.501c12.667 12.667 19 16.667 19 12c0 -3.33301 1.16699 -5.83301 3.5 -7.5s4.66602 -1.83398 6.99902 -0.500977s3.5 4 3.5 8c1.33301 4 5.83301 8.33301 13.5 13s16.5 9 26.5 13s16.333 7 19 9c7.33301 4.66699 26.333 10.334 57 17.001
s53.667 10.334 69 11.001c12.667 1.33301 19 3.33301 19 6c0 2 10 3.66699 30 5c33.333 1.33301 72.5 3.5 117.5 6.5s68.5 5.16699 70.5 6.5c6.66699 0 18.834 -1.16699 36.501 -3.5s32.5 -3.5 44.5 -3.5c42.667 -2.66699 75 -13 97 -31z" />
    <glyph glyph-name="C" unicode="C" horiz-adv-x="587" 
d="M374 576c18 9.33301 41.6729 12.834 71.0059 10.501s48.666 -9.16602 57.999 -20.499c8 -10.667 12 -22.334 12 -35.001s-4.33301 -22.667 -13 -30c-6 -5.33301 -25.667 -11.5 -59 -18.5s-53.333 -12.833 -60 -17.5c-21.333 -13.333 -48.333 -34 -81 -62
s-60 -53.667 -82 -77c-48.667 -51.333 -71.667 -91.333 -69 -120c0.666992 -8 2.66699 -14 6 -18s10.833 -7.33301 22.5 -10s26.5 -4.16699 44.5 -4.5s43.667 -0.5 77 -0.5c54.667 0 90.5 0.666992 107.5 2s41.5 5.33301 73.5 12c18 4 30.333 6 37 6s13.667 -2.66699 21 -8
c11.333 -8 16.666 -18.333 15.999 -31c-3.33301 -25.333 -37.666 -43 -102.999 -53c-28.667 -4.66699 -86.834 -5.83398 -174.501 -3.50098s-140.834 6.16602 -159.501 11.499c-48.667 16 -73.667 35.667 -75 59c0 12 -2.33301 17.333 -7 16
c-0.666992 0 -1.33398 -0.333008 -2.00098 -1c-3.33301 -2 -5 -0.333008 -5 5c0 4.66699 0.666992 13.667 2 27c2 10.667 4.5 20.834 7.5 30.501s5.66699 17.5 8 23.5s6.66602 13.667 12.999 23l13 19c2.33301 3.33301 8.16602 10.833 17.499 22.5l18 22.5
c27.333 35.333 68 75.5 122 120.5s101.667 78.167 143 99.5z" />
    <glyph glyph-name="D" unicode="D" horiz-adv-x="681" 
d="M465 504c-14 3.33301 -37.5 5.16699 -70.5 5.5s-55.5 -0.833984 -67.5 -3.50098c-7.33301 -1.33301 -14.666 -14.333 -21.999 -39c-21.333 -71.333 -53.666 -144.666 -96.999 -219.999c-12.667 -22 -18.334 -35.333 -17.001 -40c3.33301 -5.33301 44.5 11.167 123.5 49.5
s130.167 66.833 153.5 85.5c38 30.667 56.667 63.167 56 97.5s-20.334 55.833 -59.001 64.5zM494 244.001c-8 0 -12.0039 -1.99902 -12.0039 -5.99902s-68.667 -40 -206 -108c-26 -12.667 -56.5 -25 -91.5 -37s-58.167 -18 -69.5 -18c-16.667 0 -33.5 3.66699 -50.5 11
s-27.833 15.666 -32.5 24.999c-4 7.33301 -1.16699 25.833 8.5 55.5s20.834 53.167 33.501 70.5c6.66699 10 11.167 17.667 13.5 23s5.33301 13 9 23s9.5 22.333 17.5 37c14.667 31.333 28 63.333 40 96s17 50.667 15 54c-2.66699 2.66699 -16 1 -40 -5
c-25.333 -6.66699 -44.333 -9.66699 -57 -9s-22.667 5 -30 13c-6 6.66699 -9 11.334 -9 14.001s2.66699 7 8 13c7.33301 7.33301 11 13 11 17c0 2 7 7 21 15s28.167 15.333 42.5 22s21.5 9 21.5 7s4.16699 -1.66699 12.5 1s17.5 6.5 27.5 11.5s17.333 9.16699 22 12.5
c6 5.33301 16.5 8.66602 31.5 9.99902s46.5 2.33301 94.5 3c83.333 0.666992 145.5 -3.5 186.5 -12.5s73.833 -25.833 98.5 -50.5c13.333 -13.333 22.333 -26.333 27 -39s8.66699 -33 12 -61c2.66699 -22 2.83398 -37.833 0.500977 -47.5s-8 -19.167 -17 -28.5
s-15.5 -17.333 -19.5 -24c-9.33301 -12.667 -29.666 -30.5 -60.999 -53.5s-50.666 -34.5 -57.999 -34.5z" />
    <glyph glyph-name="E" unicode="E" horiz-adv-x="582" 
d="M489 639c0 -4 5.33398 -7.6709 16.001 -11.0039c6.66699 -1.33301 13.834 -7.16602 21.501 -17.499s11.5 -18.833 11.5 -25.5c-7.33301 -8 -23.333 -16 -48 -24s-55.5 -16.167 -92.5 -24.5s-59.833 -13.833 -68.5 -16.5c-27.333 -7.33301 -63 -8.66602 -107 -3.99902
c-0.666992 -4 -4.16699 -27.667 -10.5 -71s-10.166 -75.666 -11.499 -96.999c28 5.33301 45.667 10.333 53 15c4.66699 2.66699 23.167 3.66699 55.5 3s63.833 -2.66699 94.5 -6c17.333 -1.33301 30.833 -5.33301 40.5 -12s20.167 -16.667 31.5 -30
c-20.667 -16.667 -36 -25.334 -46 -26.001c-60.667 -4.66699 -109 -15.334 -145 -32.001c-18.667 -10 -51.334 -13 -98.001 -9c-0.666992 -11.333 -2.66699 -25.333 -6 -42c-4.66699 -22 -1.66699 -34.5 9 -37.5s51.334 -3.16699 122.001 -0.5h4
c66 1.33301 108 1.33301 126 0s36.667 -5.66602 56 -12.999c27.333 -10 41 -18.667 41 -26c0 -8 2.33301 -8.33301 7 -1c4.66699 6.66699 7 6.33398 7 -0.999023c0 -8 -4.83301 -16.833 -14.5 -26.5s-18.167 -14.5 -25.5 -14.5c-151.333 1.33301 -254.333 -5.66699 -309 -21
c-63.333 -18 -111 -20.667 -143 -8c-17.333 7.33301 -27.166 15.833 -29.499 25.5s1.16699 28.5 10.5 56.5c13.333 38.667 25.5 101.334 36.5 188.001s16.5 161.334 16.5 224.001c0 20.667 1.16699 33.5 3.5 38.5s9.5 10.167 21.5 15.5c11.333 5.33301 20.166 8 26.499 8
s18.166 -3 35.499 -9c18 -6 31.167 -8.83301 39.5 -8.5s26.166 4.16602 53.499 11.499c22 6.66699 51.667 12.5 89 17.5s58.666 7.83301 63.999 8.5c8.66699 2.66699 18 4.5 28 5.5s18.167 1.33301 24.5 1s9.5 -1.5 9.5 -3.5z" />
    <glyph glyph-name="F" unicode="F" horiz-adv-x="678" 
d="M642 511c-4 0 -6.00098 -2.99902 -6.00098 -8.99902c0 -8 -15.833 -18.333 -47.5 -31s-66.834 -22.667 -105.501 -30c-26.667 -6 -81.334 -12.667 -164.001 -20s-129.334 -11.666 -140.001 -12.999c-1.33301 -3.33301 4.5 -18.666 17.5 -45.999s18.5 -43 16.5 -47
c0 -10 2.5 -15.833 7.5 -17.5s14.5 -0.5 28.5 3.5c7.33301 2 19.833 4 37.5 6s34.334 3.33301 50.001 4l56 2.5c21.667 1 34.834 1.5 39.501 1.5c14 0.666992 23.167 0.166992 27.5 -1.5s8.5 -6.16699 12.5 -13.5c9.33301 -18.667 12 -32 8 -40s-14.667 -11.667 -32 -11
c-6 1.33301 -9 -0.333984 -9 -5.00098c0.666992 -2 -2.83301 -4 -10.5 -6s-18 -4.33301 -31 -7s-26.167 -5.16699 -39.5 -7.5l-40 -7c-13.333 -2.33301 -23.333 -4.5 -30 -6.5c-17.333 -5.33301 -32 -5.66602 -44 -0.999023c-11.333 4 -19.333 4.5 -24 1.5
s-7 -10.167 -7 -21.5c0 -14 -4.66699 -28 -14 -42c-6.66699 -10.667 -12.5 -17.167 -17.5 -19.5s-16.833 -3.5 -35.5 -3.5c-24.667 0 -40 4.16699 -46 12.5s-5.66699 24.833 1 49.5c6.66699 24 10 52.667 10 86c0 25.333 -1.83301 43.166 -5.5 53.499
s-15.5 32.166 -35.5 65.499c-24 39.333 -37.167 67.166 -39.5 83.499s4.83398 27.833 21.501 34.5c14.667 6 34.667 6.66699 60 2c32.667 -6 85.5 -6.5 158.5 -1.5s148.833 14.167 227.5 27.5c15.333 2.66699 32.5 8 51.5 16s28.5 14 28.5 18c0 3.33301 4.66699 7 14 11
c8.66699 3.33301 16 3.5 22 0.5s12.667 -9.83301 20 -20.5c4.66699 -6.66699 8.33398 -14 11.001 -22s3.66699 -14.833 3 -20.5s-2.66699 -8.5 -6 -8.5z" />
    <glyph glyph-name="G" unicode="G" horiz-adv-x="564" 
d="M347 217c0 2 -1.00098 3.33008 -3.00098 3.99707s-5.33301 0.833984 -10 0.500977s-10.667 -1.16602 -18 -2.49902s-17 -3.33301 -29 -6c-22 -4.66699 -49.333 -7 -82 -7c-23.333 -0.666992 -37.166 -1.83398 -41.499 -3.50098s-7.5 -7.5 -9.5 -17.5
c-3.33301 -14.667 -4.5 -25 -3.5 -31s4.83301 -12.333 11.5 -19c6.66699 -7.33301 20.667 -10.166 42 -8.49902s43.333 6.83398 66 15.501c13.333 5.33301 29.5 17.333 48.5 36s28.5 31.667 28.5 39zM332.999 597.997c14 7.33301 30.334 10.3379 49.001 9.00488
s32 -6.33301 40 -15c2.66699 -2.66699 7 -6 13 -10s10.5 -8.16699 13.5 -12.5s5.16699 -10.166 6.5 -17.499c2 -12.667 -1.66699 -22.834 -11 -30.501s-23.333 -12.167 -42 -13.5c-4.66699 0 -9.83398 -0.333008 -15.501 -1s-10.334 -1.16699 -14.001 -1.5
s-6.16699 -0.5 -7.5 -0.5c-5.33301 -0.666992 -23.333 -17.667 -54 -51s-52.667 -60.333 -66 -81c-14 -22 -32.333 -49.333 -55 -82c16.667 3.33301 34.834 6.66602 54.501 9.99902l56 9.5c17.667 3 39.167 7.16699 64.5 12.5c60 11.333 101.333 15.166 124 11.499
s37.334 -16.5 44.001 -38.5c2 -6.66699 0.5 -14.834 -4.5 -24.501s-16.833 -28.167 -35.5 -55.5c-6 -10 -16.333 -29 -31 -57c-7.33301 -17.333 -14.5 -30.333 -21.5 -39s-13 -14.167 -18 -16.5s-13.667 -5.5 -26 -9.5s-23.5 -8.33301 -33.5 -13
c-44 -21.333 -91.667 -34.5 -143 -39.5s-90 -1.16699 -116 11.5c-38.667 17.333 -62.334 45.666 -71.001 84.999s-1 82.666 23 129.999c84 169.333 176.333 279.333 277 330z" />
    <glyph glyph-name="H" unicode="H" horiz-adv-x="659" 
d="M370 356c34.667 0 54.6719 2.99902 60.0049 8.99902c4 4.66699 17 34.834 39 90.501s35.667 92.167 41 109.5c8 30 27 45 57 45c16.667 0 31.167 -5.33301 43.5 -16s18.5 -23 18.5 -37c0 -6.66699 -2.66699 -18.167 -8 -34.5s-12.833 -36.166 -22.5 -59.499l-26.5 -63
l-28.5 -65.5c-11 -25 -17.833 -40.833 -20.5 -47.5c-18.667 -48 -40.5 -84.833 -65.5 -110.5s-51.5 -38.5 -79.5 -38.5c-12.667 0 -23.834 4.5 -33.501 13.5s-11.834 16.833 -6.50098 23.5c7.33301 9.33301 17.833 26.833 31.5 52.5s19.5 39.5 17.5 41.5
c-16 0 -49 -5.33301 -99 -16s-83.333 -15.334 -100 -14.001c-6.66699 2.66699 -11.167 1.33398 -13.5 -3.99902s-4.83301 -18.333 -7.5 -39c-2.66699 -22 -13.667 -44 -33 -66c-14.667 -16.667 -24.834 -26.334 -30.501 -29.001s-17.167 -3.33398 -34.5 -2.00098
c-7.33301 1.33301 -15.666 2 -24.999 2c-7.33301 0 -11.5 1 -12.5 3s-1.5 9.33301 -1.5 22v8c0 20 7.33301 47.333 22 82c13.333 32 29.666 75.5 48.999 130.5s29.666 87.5 30.999 97.5c0.666992 4 5.16699 22.5 13.5 55.5s12.833 55.5 13.5 67.5
c0 26.667 10.5 43.667 31.5 51s43.833 3.33301 68.5 -12c16 -10 20.667 -37 14 -81s-23.334 -96.667 -50.001 -158c-6 -12.667 -8 -20.167 -6 -22.5s8.33301 -2.16602 19 0.500977c12.667 2 23.667 3.33301 33 4c31.333 4.66699 65 7 101 7z" />
    <glyph glyph-name="I" unicode="I" horiz-adv-x="721" 
d="M523 643c76.667 0 124.334 -2.16895 143.001 -6.50195s27 -14.833 25 -31.5c-1.33301 -12.667 -14.333 -22 -39 -28s-72 -11.333 -142 -16c-76 -4.66699 -116 -8.33398 -120 -11.001c-4 -8 -8.16699 -39.667 -12.5 -95s-7.5 -86.333 -9.5 -93
c-6.66699 -42.667 -12.667 -91.667 -18 -147c-2 -25.333 -2.5 -41.166 -1.5 -47.499s4.83301 -11.166 11.5 -14.499c9.33301 -4.66699 17.333 -6.33398 24 -5.00098c8.66699 2.66699 41 4.83398 97 6.50098s87.333 1.16699 94 -1.5c14 -5.33301 19.333 -16.166 16 -32.499
s-12.666 -24.5 -27.999 -24.5c-10.667 -1.33301 -27 -4.66602 -49 -9.99902s-41.333 -9 -58 -11c-29.333 -5.33301 -71 -13.5 -125 -24.5s-100.333 -19.833 -139 -26.5c-46 -9.33301 -80.333 -14 -103 -14s-38.334 5.33301 -47.001 16c-15.333 20 -15 38 1 54
c5.33301 5.33301 23.166 12.166 53.499 20.499s61.5 14.833 93.5 19.5c16 2 26.333 5 31 9s6 11.333 4 22c-1.33301 14.667 -0.5 41.667 2.5 81s7.66699 88 14 146s10.166 92.667 11.499 104c2 30.667 2 47.667 0 51c-3.33301 5.33301 -18.666 6.33301 -45.999 3
c-18 -2.66699 -27.333 -4 -28 -4c-47.333 -6.66699 -84 -6 -110 2s-39 22.333 -39 43c0 15.333 5 26 15 32s29.667 9.66699 59 11c12.667 0.666992 53 4.16699 121 10.5s108.667 9.83301 122 10.5c28 1.33301 86.667 2 176 2z" />
    <glyph glyph-name="J" unicode="J" horiz-adv-x="435" 
d="M403 501c-20 -184 -32.998 -314.668 -38.998 -392.001c0 -22.667 -5.5 -38.834 -16.5 -48.501s-29.5 -14.5 -55.5 -14.5c-19.333 0 -55.5 5.33301 -108.5 16s-89.833 19.667 -110.5 27c-20.667 8.66699 -34.167 20.834 -40.5 36.501s-2.83301 29.834 10.5 42.501
c12.667 12.667 27.167 20 43.5 22s32.166 -1.33301 47.499 -10c13.333 -7.33301 37.166 -14.833 71.499 -22.5s52.833 -9.5 55.5 -5.5c8.66699 15.333 18.334 95.333 29.001 240c2.66699 19.333 4 48.833 4 88.5s-1.33301 61.5 -4 65.5c-2.66699 5.33301 0 15 8 29
c6.66699 14 18.167 21.167 34.5 21.5s31.666 -4 45.999 -13s22.833 -18.5 25.5 -28.5c2 -8.66699 1.66699 -26.667 -1 -54z" />
    <glyph glyph-name="K" unicode="K" horiz-adv-x="516" 
d="M374 64c0.666992 2.66699 -7.33496 13.5029 -24.002 32.5029s-25 29.5 -25 31.5c0 4 -9.16699 16.5 -27.5 37.5s-31.833 34.5 -40.5 40.5c-7.33301 5.33301 -13 7.83301 -17 7.5s-10.333 -3.5 -19 -9.5c-14.667 -10.667 -44.667 -17.334 -90 -20.001
c-7.33301 -65.333 -13 -102.333 -17 -111c-3.33301 -3.33301 -14 -6.66602 -32 -9.99902c-23.333 -4 -37.666 4.66699 -42.999 26c0 2.66699 -2.33301 8 -7 16c-4 5.33301 -3.5 33.5 1.5 84.5s10.833 90.167 17.5 117.5c14.667 89.333 18.334 159.333 11.001 210
c-4 30.667 0 51.334 12 62.001s32.333 11.667 61 3c22 -6.66699 35.667 -21.167 41 -43.5s5 -64.833 -1 -127.5c-1.33301 -11.333 -2.33301 -23 -3 -35s-1 -21.333 -1 -28s0.333008 -10.334 1 -11.001c2.66699 -1.33301 8.33398 2 17.001 10l11 10.5l20 18.5
c8 7.33301 14.667 13.666 20 18.999c28.667 27.333 55.834 61.166 81.501 101.499s38.5 69.5 38.5 87.5c1.33301 18.667 9.16602 29.334 23.499 32.001s32.166 -2.33301 53.499 -15c12 -6 19.667 -11.333 23 -16s5 -11.667 5 -21c0 -10 -1 -17.667 -3 -23
s-4.83301 -11 -8.5 -17s-6.83398 -12.667 -9.50098 -20c-1.33301 -8 -11.833 -27.5 -31.5 -58.5s-30.167 -47.833 -31.5 -50.5c-1.33301 -3.33301 -27.333 -34.666 -78 -93.999c18 -6.66699 35.667 -18.834 53 -36.501s37.333 -42.667 60 -75s36.667 -51.833 42 -58.5
c4 -2.66699 10 -11.334 18 -26.001c9.33301 -14.667 11 -28.334 5 -41.001c-10.667 -24 -34 -33.667 -70 -29c-23.333 4 -35.666 13.667 -36.999 29z" />
    <glyph glyph-name="L" unicode="L" horiz-adv-x="555" 
d="M119 499c2.66699 8 5.1709 24.333 7.50391 49s7.16602 41.667 14.499 51c16 20.667 42.667 23.334 80 8.00098c9.33301 -4 16 -8.33301 20 -13s7 -12 9 -22c1.33301 -20 -1.5 -41.833 -8.5 -65.5s-11.5 -43.167 -13.5 -58.5c-2 -16.667 -10.833 -54.667 -26.5 -114
s-24.167 -95 -25.5 -107c2 -2 25 -0.666992 69 4c85.333 7.33301 166.333 -2 243 -28c14 -4.66699 24.333 -13.334 31 -26.001c4.66699 -8.66699 6.66699 -14.834 6 -18.501s-4.66699 -8.5 -12 -14.5s-18.833 -9.66699 -34.5 -11s-49.834 -1.66602 -102.501 -0.999023
c-60 0.666992 -102 0.166992 -126 -1.5s-56 -7.16699 -96 -16.5c-21.333 -4.66699 -38.5 -6.5 -51.5 -5.5s-29.167 6.16699 -48.5 15.5c-27.333 12.667 -32 37.667 -14 75c9.33301 20 22.166 59 38.499 117s26.5 102 30.5 132c3.33301 21.333 6.66602 38.333 9.99902 51z
" />
    <glyph glyph-name="M" unicode="M" horiz-adv-x="869" 
d="M321 676c-0.666992 4 2.00098 7.1709 8.00098 9.50391s13 4.16602 21 5.49902s12.667 2.33301 14 3c2 0 12.667 -3.66699 32 -11c40 -14.667 53 -40 39 -76c-12.667 -32 -24.5 -67.333 -35.5 -106s-17.833 -68.667 -20.5 -90c-7.33301 -69.333 -6 -109 4 -119
c8.66699 -8.66699 42.667 5.33301 102 42s103 71 131 103c20.667 23.333 42.5 53.5 65.5 90.5s34.5 60.167 34.5 69.5c0 8 8.33301 13.5 25 16.5s31.667 1.83301 45 -3.5c16 -6 33.667 -20.333 53 -43l-36.5 -70c-16.333 -31.333 -26.166 -50 -29.499 -56
c-26.667 -52 -45 -99.833 -55 -143.5s-10 -76.834 0 -99.501c2.66699 -7.33301 7.16699 -12.833 13.5 -16.5s10.166 -9.83398 11.499 -18.501c0.666992 -12 -4.66602 -20.333 -15.999 -25c-12 -4.66699 -26.333 -6 -43 -4s-30.334 6.33301 -41.001 13
c-11.333 7.33301 -22 21.833 -32 43.5s-15 41.5 -15 59.5c0 16 -1.66699 25 -5 27s-9.66602 -2 -18.999 -12c-8.66699 -10 -30.5 -22.833 -65.5 -38.5s-61.5 -24.834 -79.5 -27.501c-24.667 -3.33301 -49.334 -1.16602 -74.001 6.50098s-44 19.5 -58 35.5l-23 26
c-26 -24 -51.333 -48.667 -76 -74c-38 -40 -74.667 -58.667 -110 -56c-22.667 1.33301 -39.167 10.333 -49.5 27s-8.83301 31.667 4.5 45c9.33301 9.33301 16.333 14 21 14c9.33301 0 32.666 19.667 69.999 59s56 63.666 56 72.999c0 6 2 9.33301 6 10
c5.33301 2.66699 17 23.167 35 61.5s32.333 73.5 43 105.5c6 20 15 45 27 75s19.333 53 22 69z" />
    <glyph glyph-name="N" unicode="N" horiz-adv-x="878" 
d="M225 117c-4 0 -11.667 -6.99902 -23 -20.999l-36 -46.5c-12.667 -17 -22.334 -27.833 -29.001 -32.5c-8 -6.66699 -14.833 -10.334 -20.5 -11.001s-16.167 1 -31.5 5c-18.667 4.66699 -33.167 12.5 -43.5 23.5s-13.833 22.167 -10.5 33.5c2 9.33301 14 22.333 36 39
c30.667 24.667 77.5 83.667 140.5 177s94.5 149.666 94.5 168.999c0.666992 9.33301 5.5 22.333 14.5 39s13.833 29.667 14.5 39c1.33301 20.667 14.333 31.834 39 33.501s45.334 -5.16602 62.001 -20.499c11.333 -12 16.5 -25.167 15.5 -39.5
s-8.16699 -36.166 -21.5 -65.499c-30 -65.333 -49 -122.333 -57 -171c-1.33301 -12 -7 -35.333 -17 -70c-7.33301 -26 -12.833 -53.667 -16.5 -83s-4.66699 -54 -3 -74s5.83398 -30 12.501 -30c4.66699 0 23.834 17.333 57.501 52s59.167 63.334 76.5 86.001
c8.66699 9.33301 45.834 62.333 111.501 159s100.834 148 105.501 154c2.66699 2.66699 15.667 20.834 39 54.501s37 52.5 41 56.5c8.66699 9.33301 14.167 14.166 16.5 14.499s8.5 -2.16699 18.5 -7.5c17.333 -10 28.666 -21.167 33.999 -33.5
s3.66602 -22.833 -5.00098 -31.5c-6.66699 -6.66699 -12.334 -15.334 -17.001 -26.001c-7.33301 -16.667 -25 -45.334 -53 -86.001c-35.333 -56.667 -63.333 -103.334 -84 -140.001c-6.66699 -13.333 -14 -24.666 -22 -33.999s-13.667 -17 -17 -23
c-1.33301 -6 -18.333 -31 -51 -75s-49.667 -67 -51 -69c-9.33301 -14 -27.5 -33.667 -54.5 -59s-48.167 -42.333 -63.5 -51c-14.667 -8.66699 -26.167 -13.834 -34.5 -15.501s-21.833 -1.5 -40.5 0.5c-28 4 -50 12 -66 24c-20.667 16 -34.167 30.333 -40.5 43
s-10.5 33 -12.5 61c-2.66699 34.667 -5.33398 52 -8.00098 52z" />
    <glyph glyph-name="O" unicode="O" horiz-adv-x="577" 
d="M326 469c-44.667 -38.667 -76.499 -69.333 -95.499 -92s-38.833 -52 -59.5 -88c-11.333 -17.333 -20.833 -38.833 -28.5 -64.5s-9.16699 -40.834 -4.5 -45.501c5.33301 -5.33301 26.666 -3.5 63.999 5.5s70.666 20.167 99.999 33.5c73.333 35.333 118.333 72 135 110
s4 76.333 -38 115c-33.333 30.667 -57.666 39.334 -72.999 26.001zM317.001 571.001c21.333 0 35.5 -0.995117 42.5 -2.99512s14.167 -7.33301 21.5 -16c10.667 -11.333 25.667 -22.333 45 -33c19.333 -10 42 -28.333 68 -55s41.333 -47.667 46 -63
c19.333 -56 -0.333984 -111.667 -59.001 -167c-14.667 -14.667 -41.667 -32.834 -81 -54.501s-67 -34.167 -83 -37.5c-8.66699 -1.33301 -20.667 -6 -36 -14c-14.667 -7.33301 -68 -14 -160 -20l-39 29c-29.333 21.333 -46.333 43.666 -51 66.999s2.33301 55.666 21 96.999
c25.333 59.333 68.666 119.666 129.999 180.999l-15 14c-9.33301 8.66699 -13.333 18.667 -12 30s7.33301 17.666 18 18.999c6.66699 0.666992 11.334 3 14.001 7s6.33398 6.33301 11.001 7c61.333 8.66699 101 12.667 119 12z" />
    <glyph glyph-name="P" unicode="P" horiz-adv-x="482" 
d="M269 504c-19.333 6 -46.668 8.33203 -82.001 6.99902v-148c30.667 -2 62.834 -0.666992 96.501 4s52.5 11.334 56.5 20.001c4 5.33301 6 16.333 6 33c2 16 -6 32 -24 48s-35.667 28 -53 36zM451.998 390.999c0 -44.667 -19 -76.335 -57 -95.002
c-15.333 -7.33301 -47.5 -13.333 -96.5 -18s-79.833 -4 -92.5 2c-11.333 6 -19.666 3.16699 -24.999 -8.5s-9.5 -27.667 -12.5 -48s-6.16699 -33.5 -9.5 -39.5c-6.66699 -20 -12.334 -39.333 -17.001 -58c-4.66699 -16.667 -10.667 -26.667 -18 -30
s-21.333 -2.66602 -42 2.00098c-25.333 6 -41.5 17.167 -48.5 33.5s-3.83301 35.5 9.5 57.5c5.33301 5.33301 11.666 22.833 18.999 52.5s12.666 46.834 15.999 51.501c2.66699 0 3.83398 36.167 3.50098 108.5s-2.16602 118.5 -5.49902 138.5
c-2.66699 14.667 -3.5 24.5 -2.5 29.5s5.16699 10.167 12.5 15.5c10 6.66699 35.833 10.5 77.5 11.5s72.167 -1.83301 91.5 -8.5c62 -20.667 110.333 -48.167 145 -82.5s52 -72.5 52 -114.5z" />
    <glyph glyph-name="Q" unicode="Q" horiz-adv-x="656" 
d="M346 230c8.66699 0 20.668 -6.00293 36.001 -18.0029c15.333 -11.333 26.333 -16.666 33 -15.999s17.667 8 33 22c25.333 23.333 44.166 55.666 56.499 96.999s12.166 74 -0.500977 98c-4 7.33301 -8.16699 11.833 -12.5 13.5s-12.833 2.16699 -25.5 1.5
s-21.834 0 -27.501 2s-11.834 6.66699 -18.501 14c-17.333 19.333 -29.666 23 -36.999 11c-4 -5.33301 -17.333 -13.666 -40 -24.999c-24.667 -13.333 -51.667 -35 -81 -65c-65.333 -66 -105.666 -134 -120.999 -204c-3.33301 -13.333 -4.5 -22.666 -3.5 -27.999
s4.83301 -11.333 11.5 -18c10.667 -10.667 31.834 -14.5 63.501 -11.5s54.5 8.16699 68.5 15.5c6 3.33301 13.833 6.16602 23.5 8.49902s15.5 4.33301 17.5 6s1.66699 5.16699 -1 10.5s-10.334 13.666 -23.001 24.999c-22 22 -32 36.667 -30 44
c0.666992 4.66699 6 9.83398 16 15.501s19.333 9.33398 28 11.001s14.334 0.833984 17.001 -2.49902c1.33301 -4.66699 7 -7 17 -7zM542.001 496.997c24.667 -14.667 45.502 -36.1719 62.502 -64.5049s24.167 -58.5 21.5 -90.5c0 -19.333 -1.5 -34.666 -4.5 -45.999
s-9.5 -26.666 -19.5 -45.999c-14 -25.333 -30 -49.166 -48 -71.499s-30.667 -33.5 -38 -33.5c-11.333 0 -13.333 -4 -6 -12c4 -4.66699 10.667 -9 20 -13c15.333 -6 26.166 -13.167 32.499 -21.5s7.5 -16.166 3.5 -23.499s-12.667 -13 -26 -17
c-8 -2.66699 -18.5 -2.66699 -31.5 0s-28.5 7.16699 -46.5 13.5l-33 11.5c-12 -4 -33.5 -12.5 -64.5 -25.5s-58 -21.833 -81 -26.5s-50.5 -6 -82.5 -4c-42.667 3.33301 -80.334 16.833 -113.001 40.5s-51.667 51.834 -57 84.501c-3.33301 17.333 -1.33301 39.333 6 66
s17.333 49 30 67c11.333 17.333 17 28 17 32c0 6 13.333 25.667 40 59s49.334 59.333 68.001 78c21.333 20 48.333 41 81 63s60 37.333 82 46c17.333 8 40.666 11.333 69.999 10c19.333 -0.666992 32.5 -3 39.5 -7s19.167 -14.667 36.5 -32c23.333 -24.667 37 -37 41 -37z
" />
    <glyph glyph-name="R" unicode="R" horiz-adv-x="493" 
d="M187 561c0 -132 1 -202.667 3 -212c7.33301 0 28 5.5 62 16.5s54.667 18.833 62 23.5c12 7.33301 21.5 20.333 28.5 39s7.83301 33 2.5 43c-6.66699 11.333 -14 20.333 -22 27s-24 16.667 -48 30c-34.667 17.333 -64 28.333 -88 33zM451 128
c0 -12 -6.16699 -20.335 -18.5 -25.002s-27.5 -4.33398 -45.5 0.999023c-24.667 6.66699 -60.334 37.667 -107.001 93c-2.66699 3.33301 -5.83398 6.83301 -9.50098 10.5s-6 6.16699 -7 7.5s-2.66699 3 -5 5s-3.66602 3.16699 -3.99902 3.5s-1.5 1 -3.5 2
s-3.5 1.33301 -4.5 1s-2.83301 -0.166016 -5.5 0.500977s-5.33398 1.16699 -8.00098 1.5l-11.5 1.5c-5 0.666992 -10.167 1.66699 -15.5 3c-23.333 5.33301 -37.333 6 -42 2s-10 -22 -16 -54c-5.33301 -25.333 -11.333 -42 -18 -50s-18.667 -12.333 -36 -13
c-16.667 -0.666992 -31.667 5.66602 -45 18.999c-12 12.667 -18.333 22.834 -19 30.501s3.33301 26.167 12 55.5c17.333 56 29.666 117.167 36.999 183.5s7.33301 118.833 0 157.5c-6.66699 37.333 -10.167 59.666 -10.5 66.999s2.5 13.333 8.5 18
c8.66699 6.66699 27.5 8.33398 56.5 5.00098s59.5 -10.333 91.5 -21c46.667 -16 92.334 -40.5 137.001 -73.5s74.667 -64.167 90 -93.5c6.66699 -13.333 10.334 -23.333 11.001 -30s-1 -17 -5 -31c-6 -20.667 -9 -32.334 -9 -35.001
c-1.33301 -8 -11.666 -21.167 -30.999 -39.5s-35.333 -29.833 -48 -34.5c-20 -7.33301 -30 -13.666 -30 -18.999c0 -3.33301 2.66699 -6.66602 8 -9.99902c10.667 -6.66699 30.5 -29.667 59.5 -69s43.5 -62.666 43.5 -69.999z" />
    <glyph glyph-name="S" unicode="S" horiz-adv-x="481" 
d="M352 155c0 19.333 -12.6709 38.0029 -38.0039 56.0029s-56.333 30.667 -93 38c-76 16 -129.333 47 -160 93c-8 12 -12 31 -12 57c0 18 1.33301 30.833 4 38.5s9.33398 17.5 20.001 29.5c67.333 73.333 150.666 110 249.999 110c17.333 -2.66699 28 -4.66699 32 -6
c22.667 -4 41.167 -16 55.5 -36s17.5 -38 9.5 -54c-3.33301 -6.66699 -8.66602 -10.167 -15.999 -10.5s-26.666 2.83398 -57.999 9.50098c-22 4 -50 -1.83301 -84 -17.5s-61.833 -34.5 -83.5 -56.5s-27.5 -39.333 -17.5 -52c6 -7.33301 20 -13.333 42 -18
c52 -10.667 99.5 -28.667 142.5 -54s73.833 -52.666 92.5 -81.999c7.33301 -12.667 11.5 -29.334 12.5 -50.001s-1.83301 -39 -8.5 -55c-8.66699 -19.333 -23.167 -32.166 -43.5 -38.499s-62.5 -10.5 -126.5 -12.5c-72.667 -2.66699 -112 -5.33398 -118 -8.00098
c-4.66699 -3.33301 -10.667 -2 -18 4c-6.66699 6 -14 5 -22 -3c-6 -4.66699 -11 -6.66699 -15 -6s-13.667 4.66699 -29 12c-42 21.333 -51.667 43.333 -29 66c5.33301 5.33301 9.33301 8.66602 12 9.99902s4.83398 2.16602 6.50098 2.49902
s5.33398 0.666016 11.001 0.999023s12.5 1.16602 20.5 2.49902c36 8 61.333 12.5 76 13.5s48.667 1.16699 102 0.5h83v16z" />
    <glyph glyph-name="T" unicode="T" horiz-adv-x="831" 
d="M790 523c-0.666992 2.66699 -7.33301 3.33398 -20 2.00098c-5.33301 -2 -8 -4 -8 -6c0 -6.66699 7.66699 -6.33398 23 0.999023zM772.001 560c-0.666992 -2 0.00488281 -3.50098 2.00488 -4.50098s4.5 -1.66699 7.5 -2s5.33301 -1.33301 7 -3s1.16699 -4.16699 -1.5 -7.5
c-1.33301 -4 -1 -6.83301 1 -8.5s4.5 -2.5 7.5 -2.5s5 -1.16699 6 -3.5s-0.5 -5.83301 -4.5 -10.5c-5.33301 -10 -15 -14 -29 -12c-12.667 2 -19.667 1.33301 -21 -2c-1.33301 -2.66699 -23.666 -8 -66.999 -16s-72 -12 -86 -12
c-13.333 -1.33301 -29.333 -4.66602 -48 -9.99902s-38.667 -9 -60 -11c-38 -4.66699 -57.667 -7.66699 -59 -9c-2 -2 0.666992 -10.667 8 -26c4.66699 -8 7 -17.5 7 -28.5s-1.16699 -21 -3.5 -30s-5.33301 -19.5 -9 -31.5s-5.83398 -21.333 -6.50098 -28
c-6 -23.333 -10.667 -36.666 -14 -39.999c-2 -3.33301 -2.33301 -9.33301 -1 -18s0.666016 -15 -2.00098 -19c-2 -6.66699 -5.33301 -20.167 -10 -40.5s-9 -37.666 -13 -51.999s-7.33301 -21.833 -10 -22.5s-3.5 -2.16699 -2.5 -4.5s1.33301 -4.66602 1 -6.99902
s-2.5 -3.16602 -6.5 -2.49902c-7.33301 0 -11 -2.66699 -11 -8c-0.666992 -3.33301 -3.83398 -4.83301 -9.50098 -4.5s-12.334 2.33301 -20.001 6s-12.834 7.5 -15.501 11.5c-3.33301 5.33301 -5 34 -5 86s1.33301 87.333 4 106
c0.666992 3.33301 2.83398 16.666 6.50098 39.999s6.5 44.166 8.5 62.499s2.66699 32.833 2 43.5l-107 3c-56.667 0.666992 -93 3.16699 -109 7.5s-35 16.5 -57 36.5c-20.667 19.333 -27 36.833 -19 52.5s26 21.5 54 17.5c21.333 -4 34.333 -7.66699 39 -11
c4 -3.33301 44.833 -4.83301 122.5 -4.5s135.167 2.5 172.5 6.5c13.333 1.33301 56.666 6.5 129.999 15.5s118.666 14.167 135.999 15.5c18 1.33301 28 3 30 5c4.66699 3.33301 11.667 4.16602 21 2.49902s18 -5.33398 26 -11.001s10.667 -10.5 8 -14.5z" />
    <glyph glyph-name="U" unicode="U" horiz-adv-x="629" 
d="M471 619c0 -4 10.3301 -6.00488 30.9971 -6.00488c20 0 37.667 -6.33301 53 -19c6 -5.33301 10.667 -9.66602 14 -12.999s5.5 -5.83301 6.5 -7.5s2.83301 -5 5.5 -10l7 -13.5c11.333 -16 13.833 -44.667 7.5 -86s-19.833 -83.666 -40.5 -126.999
c-13.333 -28 -21.666 -48.667 -24.999 -62s-5.33301 -33.333 -6 -60c-1.33301 -41.333 0.333984 -75.333 5.00098 -102c4 -26.667 4.66699 -45.667 2 -57s-9.66699 -18.333 -21 -21c-10.667 -2.66699 -22.5 -0.166992 -35.5 7.5s-17.833 15.167 -14.5 22.5
c1.33301 2.66699 1.66602 4.83398 0.999023 6.50098s-2 2.16699 -4 1.5c-4 -0.666992 -10.667 9.33301 -20 30s-14 36.667 -14 48c-1.33301 10 -3.33301 15 -6 15s-16 -9 -40 -27c-46.667 -36 -74 -51.333 -82 -46c-4.66699 2 -6.33398 2 -5.00098 0
c0 -0.666992 0.333008 -1.66699 1 -3c1.33301 -2.66699 -0.166992 -6 -4.5 -10s-11.166 -8.66699 -20.499 -14c-19.333 -10 -44 -15.333 -74 -16s-54.333 3.66602 -73 12.999c-14 7.33301 -28.167 18.333 -42.5 33s-23.5 27.667 -27.5 39
c-12 30.667 -18.167 103.167 -18.5 217.5s5.16699 175.833 16.5 184.5c15.333 10.667 35.666 12.334 60.999 5.00098s40 -19 44 -35s1.33301 -69.667 -8 -161c-2.66699 -25.333 -3.66699 -59.833 -3 -103.5s2.66699 -72.5 6 -86.5
c4.66699 -20.667 11.334 -33.167 20.001 -37.5s22.667 -2.16602 42 6.50098c10.667 4 24.834 12.333 42.501 25s30.167 20.334 37.5 23.001c8.66699 4 48.334 37.333 119.001 100v128c0 75.333 1.83301 126.833 5.5 154.5s11.167 46.167 22.5 55.5
c14.667 12 25.667 16 33 12c1.33301 -0.666992 2 -2 2 -4z" />
    <glyph glyph-name="V" unicode="V" horiz-adv-x="703" 
d="M629 721c5.33301 1.33301 9.16504 -0.500977 11.498 -5.50098s5.83301 -7.5 10.5 -7.5c12 0 19.333 -10.333 22 -31c0.666992 -11.333 -20.333 -39 -63 -83l-47.5 -51.5l-30 -33c-6.33301 -7 -17.5 -20.333 -33.5 -40l-38 -46.5c-20.667 -24 -48.667 -62.167 -84 -114.5
l-91.5 -140c-25.667 -41 -37.5 -61.167 -35.5 -60.5c-11.333 -25.333 -29.5 -40.5 -54.5 -45.5s-47.167 2.16699 -66.5 21.5c-10.667 11.333 -17.667 22.666 -21 33.999s-7.66602 40.333 -12.999 87c-3.33301 40 -8.5 81.667 -15.5 125s-15.833 91.833 -26.5 145.5
s-17.667 90.834 -21 111.501c-3.33301 13.333 -0.666016 22.666 8.00098 27.999c18 9.33301 37.167 11.5 57.5 6.5s35.5 -15.833 45.5 -32.5c6 -11.333 10.833 -27 14.5 -47s7.5 -46.167 11.5 -78.5s6.33301 -51.5 7 -57.5c2 -12 5 -38 9 -78s7.33301 -66.333 10 -79
c1.33301 -3.33301 8.33301 3.33398 21 20.001c1.33301 2.66699 3 5.33398 5 8.00098c56.667 84.667 122.667 172 198 262c56 66 97 110.667 123 134c5.33301 4.66699 6.66602 5 3.99902 1s-3 -6.33301 -1 -7c2.66699 -0.666992 5.33398 1.66602 8.00098 6.99902
c2 2.66699 2 4.66699 0 6c-2 2 1 7.33301 9 16s17 16.334 27 23.001s16.333 8.66699 19 6c6 -4 13 -5.33301 21 -4z" />
    <glyph glyph-name="W" unicode="W" horiz-adv-x="968" 
d="M860 595c0 -4 2.66504 -5.99805 7.99805 -5.99805c6.66699 0 15.5 -6.83301 26.5 -20.5s20.5 -30.167 28.5 -49.5s12.667 -35.833 14 -49.5s1 -47.5 -1 -101.5c-2.66699 -77.333 -9 -130.333 -19 -159c-13.333 -40 -35.5 -74.333 -66.5 -103
s-67.5 -49.334 -109.5 -62.001c-25.333 -7.33301 -45.666 -10.833 -60.999 -10.5s-38 5.16602 -68 14.499c-55.333 16.667 -101 43 -137 79l-10 10.5c-4 4.33301 -6.66699 7.16602 -8 8.49902s-3.33301 2.83301 -6 4.5s-4.5 2.16699 -5.5 1.5s-2.83301 -1.66699 -5.5 -3
s-5 -3.5 -7 -6.5s-5 -7.16699 -9 -12.5c-18.667 -22 -41 -46.667 -67 -74c-24.667 -25.333 -40.667 -40.333 -48 -45s-20 -7.33398 -38 -8.00098c-20.667 -0.666992 -39.167 1.83301 -55.5 7.5s-24.5 12.167 -24.5 19.5c0 3.33301 -0.5 5.5 -1.5 6.5
s-2.16699 1.16699 -3.5 0.5c-8.66699 -5.33301 -23.834 5.83398 -45.501 33.501s-40.5 59.834 -56.5 96.501c-13.333 30 -22.5 61.667 -27.5 95s-13.167 114.666 -24.5 243.999c-2.66699 29.333 -2 49.166 2 59.499s12.667 16.833 26 19.5
c16 2.66699 33.667 -0.166016 53 -8.49902s31.666 -18.833 36.999 -31.5c6 -12.667 7 -59 3 -139c-4 -79.333 -3 -135 3 -167c4 -24.667 12.833 -52.834 26.5 -84.501s26.834 -53.834 39.501 -66.501c6.66699 -7.33301 12 -10.166 16 -8.49902s14.667 11.167 32 28.5
c22 20.667 43.833 45.834 65.5 75.501s37.167 55.5 46.5 77.5c10 26 18 68 24 126c4 38.667 7.66699 64.334 11 77.001s8.33301 22 15 28c9.33301 7.33301 17.5 11 24.5 11s20.167 -4 39.5 -12c21.333 -9.33301 35 -22.666 41 -39.999
c4.66699 -13.333 6.33398 -26.833 5.00098 -40.5s-6.66602 -36.5 -15.999 -68.5c-10 -35.333 -9.33301 -71 2 -107s30 -65.167 56 -87.5s54.667 -32.833 86 -31.5c17.333 0.666992 31.166 3.66699 41.499 9s26.5 18 48.5 38c59.333 52.667 85 156.667 77 312
c-2 36.667 -4 59 -6 67s-8.33301 16.333 -19 25c-11.333 9.33301 -18.166 18.5 -20.499 27.5s0.166992 14.833 7.5 17.5c8.66699 4 22 3 40 -3c14 -4.66699 21 -9.33398 21 -14.001z" />
    <glyph glyph-name="X" unicode="X" horiz-adv-x="777" 
d="M381 222c4.66699 -12 15.3359 -29.8379 32.0029 -53.5049s32.5 -45 47.5 -64s22.5 -28.833 22.5 -29.5c2 0 9 3.33301 21 10c8.66699 4.66699 15 6.66699 19 6s9.66699 -5.33398 17 -14.001c19.333 -20 22 -42.333 8 -67c-20 -35.333 -51.667 -42.666 -95 -21.999
c-18.667 9.33301 -42.834 29.333 -72.501 60s-53.5 61 -71.5 91c-8.66699 13.333 -15.667 20 -21 20c-4.66699 0 -28.334 -21.333 -71.001 -64c-30.667 -30.667 -50 -48.834 -58 -54.501s-18 -7.16699 -30 -4.5c-44.667 8.66699 -71 24.334 -79 47.001
c-3.33301 9.33301 -2.83301 17.5 1.5 24.5s18.833 22.5 43.5 46.5c42.667 41.333 71.667 67.666 87 78.999c4 4 8.83301 8.33301 14.5 13l12 10c2.33301 2 4.66602 4.66699 6.99902 8s3.33301 6.33301 3 9s-1.5 6.16699 -3.5 10.5s-5.33301 9.5 -10 15.5l-53 83
c-35.333 55.333 -63.333 93 -84 113l-38 42c2 3.33301 4.66699 8.83301 8 16.5s6.33301 13.334 9 17.001s7 6.83398 13 9.50098s13.667 3.33398 23 2.00098c21.333 0 38 -3.33301 50 -10c8 -4 23.167 -17.167 45.5 -39.5s33.5 -35.5 33.5 -39.5
c2 -3.33301 15.167 -23.166 39.5 -59.499s38.166 -58.166 41.499 -65.499c8.66699 -17.333 17 -26 25 -26c6 -0.666992 10.167 1.5 12.5 6.5s5.16602 7.5 8.49902 7.5c9.33301 5.33301 21.333 13.666 36 24.999s33.167 26.5 55.5 45.5l41.5 35.5c26 21.333 42 36 48 44
s11 12 15 12c6 4 23.833 19.667 53.5 47s48.5 43.333 56.5 48c20 16 32.333 26.333 37 31c10.667 10.667 17 12.334 19 5.00098c0.666992 -2 0.333984 -5 -0.999023 -9c-2 -6 -2.33301 -9 -1 -9c0.666992 0 1.33398 0.333008 2.00098 1
c3.33301 3.33301 8.66602 2.66602 15.999 -2.00098c6 -6.66699 9 -6.66699 9 0c-0.666992 4.66699 -3 7.33398 -7 8.00098c-3.33301 0 -5.5 2.16699 -6.5 6.5s-0.666992 9 1 14s4.16699 8.16699 7.5 9.5c5.33301 2 11 -3.33301 17 -16c9.33301 -20.667 12 -35.334 8 -44.001
c-1.33301 -3.33301 -3.33301 -4 -6 -2c-4.66699 2.66699 -7 1.66699 -7 -3c-0.666992 -4.66699 -9.66699 -18.167 -27 -40.5s-26.333 -36.166 -27 -41.499c-0.666992 -6 -7 -13.5 -19 -22.5s-18.333 -15.167 -19 -18.5c-1.33301 -7.33301 -20.333 -29.166 -57 -65.499
l-99 -94.5c-21.333 -22.667 -34.666 -34 -39.999 -34c-4 0 -15.667 -9.66699 -35 -29s-29 -31 -29 -35zM153.002 688.995c6.66699 7.33301 13.668 11.168 21.001 11.501s19 -2.83398 35 -9.50098c14.667 -5.33301 26 -16.666 34 -33.999
c6.66699 -18.667 8 -32.834 4 -42.501s-13.167 -13.5 -27.5 -11.5s-30.166 10.333 -47.499 25c-16.667 13.333 -26.334 24.333 -29.001 33s0.666016 18 9.99902 28z" />
    <glyph glyph-name="Y" unicode="Y" horiz-adv-x="573" 
d="M487 687c6.66699 0 17.665 -4.99707 32.998 -14.9971s23 -17 23 -21c0 -5.33301 -19.333 -27.333 -58 -66s-59.667 -57 -63 -55c-2 1.33301 -3 0.666016 -3 -2.00098c0 -1.33301 0.333008 -2.66602 1 -3.99902c2 -5.33301 -7.66699 -20 -29 -44
c-25.333 -27.333 -64.166 -87.5 -116.499 -180.5s-85.166 -159.833 -98.499 -200.5c-5.33301 -16.667 -11.833 -28.334 -19.5 -35.001s-18.5 -10 -32.5 -10c-12.667 0 -23.5 3.16699 -32.5 9.5s-13.5 14.166 -13.5 23.499c0 19.333 4.66699 35.666 14 48.999
c3.33301 4 5.66602 5 6.99902 3c2.66699 1.33301 4.33398 5 5.00098 11c0 10.667 9.66699 36.667 29 78c13.333 27.333 20.833 44.666 22.5 51.999s-0.5 14.666 -6.5 21.999c-15.333 20 -34 51.167 -56 93.5s-35.667 72.833 -41 91.5c-15.333 58 -22.333 89.667 -21 95
c0.666992 3.33301 4.66699 7.33301 12 12c9.33301 6 19.333 6.33301 30 1s23.5 -16.666 38.5 -33.999s25.167 -32 30.5 -44c4.66699 -13.333 9.33398 -20 14.001 -20s7 -2 7 -6c3.33301 -13.333 23.333 -44.333 60 -93c11.333 12 25.166 30.333 41.499 55
s28.5 41.667 36.5 51c11.333 12.667 17 20 17 22c0 4 12.167 19.333 36.5 46s47.833 50.334 70.5 71.001c21.333 20.667 36 29.334 44 26.001c4.66699 -2.66699 7.66699 -3.33398 9 -2.00098s1.5 3.5 0.5 6.5s-0.833008 6 0.5 9s4 4.5 8 4.5z" />
    <glyph glyph-name="Z" unicode="Z" horiz-adv-x="832" 
d="M296 185c0 -4 7.66602 -4.66406 22.999 -1.99707c52 7.33301 100.667 12.666 146 15.999c137.333 10 231.333 6 282 -12c14 -5.33301 23.333 -10.5 28 -15.5s7 -11.833 7 -20.5c0 -10 -7.5 -17 -22.5 -21s-45.5 -7.33301 -91.5 -10
c-80.667 -2.66699 -145.667 -7.83398 -195 -15.501s-119 -21.834 -209 -42.501c-144 -33.333 -221.667 -21 -233 37c-2 10 -1 18 3 24s15.667 16.333 35 31c13.333 10.667 28.5 21.334 45.5 32.001s29.5 19.334 37.5 26.001c0.666992 2 28.167 25.167 82.5 69.5
s81.833 66.833 82.5 67.5c27.333 24 62.5 51.5 105.5 82.5s78.833 53.5 107.5 67.5c20 10 11.667 17 -25 21c-38.667 3.33301 -110 3.33301 -214 0c-57.333 -2 -93.333 -2.33301 -108 -1s-31 5.66602 -49 12.999c-42 18 -63 38 -63 60c-2 11.333 2.66699 20.333 14 27
s24 8.66699 38 6c4.66699 -2.66699 50.334 -5.66699 137.001 -9c207.333 -8 338 -17 392 -27c50 -9.33301 83.667 -16.5 101 -21.5s29.166 -11 35.499 -18s10.5 -19.167 12.5 -36.5c2 -14.667 -0.166992 -24.5 -6.5 -29.5s-26.833 -12.167 -61.5 -21.5
c-40 -10.667 -75.5 -24 -106.5 -40s-71.167 -40 -120.5 -72c-44 -28.667 -73.167 -48.167 -87.5 -58.5s-27.666 -21.333 -39.999 -33s-27.5 -24.834 -45.5 -39.501c-24.667 -18.667 -37 -30 -37 -34z" />
    <glyph glyph-name="a" unicode="a" horiz-adv-x="608" 
d="M267 193c-4 22.667 -7.1709 35.6689 -9.50391 39.002s-7.5 2.66602 -15.5 -2.00098c-4.66699 -3.33301 -12 -4.33301 -22 -3c-11.333 3.33301 -28.333 -9.66699 -51 -39s-41.167 -60.333 -55.5 -93s-16.833 -52 -7.5 -58c5.33301 -2.66699 21.333 1.16602 48 11.499
s48.334 21.166 65.001 32.499c16.667 12.667 30.334 27.334 41.001 44.001c6.66699 10.667 10.334 19.667 11.001 27s-0.666016 21 -3.99902 41zM419.996 103.002c27.333 -17.333 51.9961 -29.0029 73.9961 -35.0029s50 -8.33301 84 -7c-0.666992 -30.667 -3 -46 -7 -46
c-3.33301 2 -11 -0.666992 -23 -8c-18.667 -12.667 -51.5 -12.667 -98.5 0s-83.833 31.334 -110.5 56.001c-11.333 10.667 -24.333 16.334 -39 17.001c-6 0 -7.66699 -2 -5 -6c2.66699 -4.66699 -4.66602 -14.334 -21.999 -29.001s-36.5 -27.667 -57.5 -39
s-34.167 -15.333 -39.5 -12l-5 2c0 -0.666992 0.666992 -1.66699 2 -3c3.33301 -3.33301 0 -7 -10 -11l-8 -3c-15.333 -4.66699 -25.666 -3.66699 -30.999 3s-9.66602 7 -12.999 1c-3.33301 -4 -3.66602 -5.66699 -0.999023 -5c0.666992 0 2.66699 0.666992 6 2
c4 2 5.66699 2.33301 5 1c0 -0.666992 -1 -2 -3 -4c-10 -10.667 -27.167 -8 -51.5 8s-36.5 32.667 -36.5 50c0.666992 48 27.167 107.667 79.5 179s95.833 107 130.5 107c15.333 0 23.666 -2.66699 24.999 -8c1.33301 -4 4.33301 -1 9 9
c0.666992 1.33301 1.33398 3 2.00098 5c4.66699 16 15.667 26.833 33 32.5s32 1.83398 44 -11.499c21.333 -23.333 28 -64.666 20 -123.999c-4 -32 -2.83301 -56.167 3.5 -72.5s20.833 -32.5 43.5 -48.5z" />
    <glyph glyph-name="b" unicode="b" horiz-adv-x="609" 
d="M484 237c0 6.66699 -7.99609 13.001 -23.9961 19.001c-11.333 4 -38.833 6.66699 -82.5 8s-67.5 0.333008 -71.5 -3c-2.66699 -2.66699 -20.334 -8.33398 -53.001 -17.001c-38 -10 -61.833 -19.833 -71.5 -29.5s-20.834 -34.167 -33.501 -73.5
c-16 -53.333 -25 -87 -27 -101c-2.66699 -14.667 -3.33398 -23.167 -2.00098 -25.5s5.66602 -2.16602 12.999 0.500977c22 6.66699 68.833 28.167 140.5 64.5s116.167 61.166 133.5 74.499c52 40 78 67.667 78 83zM163.004 554.001
c7.33301 0 16.9971 -7.00684 28.9971 -21.0068s19.667 -27.333 23 -40c3.33301 -12 4.33301 -34.333 3 -67s-4.33301 -58 -9 -76c-3.33301 -11.333 -4.5 -17.833 -3.5 -19.5s5.16699 -1.16699 12.5 1.5c58 18 114.667 25.333 170 22c42.667 -2 73.667 -5.66699 93 -11
s36.333 -14.666 51 -27.999c15.333 -14 26 -22 32 -24c8 -2.66699 12.833 -13 14.5 -31s-0.833008 -33.333 -7.5 -46c-15.333 -29.333 -47 -62.166 -95 -98.499s-105.333 -70.5 -172 -102.5l-111 -58c-32.667 -17.333 -54.167 -27.666 -64.5 -30.999s-24.166 -4 -41.499 -2
c-20.667 2.66699 -34.667 6.83398 -42 12.501s-12 15.834 -14 30.501c-2.66699 18 0.5 50 9.5 96s19.167 82.333 30.5 109c5.33301 13.333 9.33301 24.5 12 33.5s5.33398 20 8.00098 33s6.33398 27.167 11.001 42.5c15.333 58.667 23.833 103.334 25.5 134.001
s-2.83301 66.334 -13.5 107.001c26.667 22 43 33.333 49 34z" />
    <glyph glyph-name="c" unicode="c" horiz-adv-x="546" 
d="M358 314c-13.333 0 -34.332 -6.83203 -62.999 -20.499s-52.667 -28.5 -72 -44.5c-16.667 -13.333 -35.667 -34.833 -57 -64.5s-33.666 -51.5 -36.999 -65.5c-4 -16 -2.66699 -26 4 -30s24.667 -5.33301 54 -4c17.333 0 65 7 143 21c16.667 2.66699 38.834 8 66.501 16
s46.5 14.667 56.5 20c26 12 44.667 10.333 56 -5c7.33301 -10 8.33301 -22 3 -36c-2.66699 -8 -4.83398 -12.667 -6.50098 -14s-4.16699 -2.16602 -7.5 -2.49902s-7 -2.5 -11 -6.5c-9.33301 -10 -16 -13.333 -20 -10c-1.33301 2 -1 4.66699 1 8s2.33301 5 1 5
c-0.666992 0 -2 -0.666992 -4 -2c-4.66699 -3.33301 -6 -7 -4 -11c0.666992 -0.666992 -0.166016 -2 -2.49902 -4s-5.83301 -4.16699 -10.5 -6.5s-9.5 -4.5 -14.5 -6.5s-10.333 -3.66699 -16 -5s-10.167 -2.33301 -13.5 -3c-3.33301 0 -15.666 -3.33301 -36.999 -10
c-37.333 -8.66699 -66.5 -14.834 -87.5 -18.501s-48.333 -7 -82 -10s-62.334 -0.833008 -86.001 6.5s-42.834 19.666 -57.501 36.999c-12 12.667 -19.167 21.834 -21.5 27.501s-2.5 14.167 -0.5 25.5c3.33301 16.667 10.5 38.167 21.5 64.5s20.5 43.166 28.5 50.499
c14 16.667 23.667 28.667 29 36c11.333 15.333 33.166 37 65.499 65s60.5 49.667 84.5 65c47.333 29.333 86.666 31 117.999 5c18 -15.333 24.5 -31.333 19.5 -48s-18.5 -25 -40.5 -25z" />
    <glyph glyph-name="d" unicode="d" horiz-adv-x="506" 
d="M267 228c-2.66699 9.33301 -10.001 14.501 -22.001 15.501s-24 -2.5 -36 -10.5c-9.33301 -6.66699 -24.166 -24.5 -44.499 -53.5s-34.833 -52.833 -43.5 -71.5c-4 -8.66699 -6.5 -14.834 -7.5 -18.501s-1 -6.33398 0 -8.00098s3.5 -3.16699 7.5 -4.5
c7.33301 -3.33301 26 2.83398 56 18.501s53 31.167 69 46.5c23.333 22 30.333 50.667 21 86zM253.999 385.001c6.66699 0 11.1641 3 13.4971 9s5.5 22.667 9.5 50c5.33301 40.667 11.5 69.5 18.5 86.5s16.833 28.167 29.5 33.5c13.333 6 21.5 9 24.5 9
s11.167 -2.33301 24.5 -7c10.667 -4 18.167 -8.16699 22.5 -12.5s8.33301 -11.166 12 -20.499s8.16699 -17.666 13.5 -24.999c11.333 -16.667 17.333 -39 18 -67c0 -26 -5.16699 -65 -15.5 -117s-19.833 -87 -28.5 -105c-18 -36 -17.333 -76 2 -120
c9.33301 -20.667 12.666 -33.667 9.99902 -39c-1.33301 -2 -1.66602 -3.5 -0.999023 -4.5s2 -1.16699 4 -0.5c8 -0.666992 29.667 -18.667 65 -54c-22.667 -14 -43.667 -18.167 -63 -12.5s-43.666 23.167 -72.999 52.5l-41 43
c-20.667 -20.667 -48.167 -39.334 -82.5 -56.001s-63.166 -25 -86.499 -25c-50 -0.666992 -81.333 11.666 -94 36.999s-6.33398 63.333 18.999 114c24.667 50 59.334 101 104.001 153s76.334 78 95.001 78z" />
    <glyph glyph-name="e" unicode="e" horiz-adv-x="661" 
d="M107 80c0 10 -1.33398 17.0068 -4.00098 21.0068s-9.33398 8 -20.001 12c-13.333 5.33301 -25.5 15.666 -36.5 30.999s-16.5 29.666 -16.5 42.999s6.16699 26.166 18.5 38.499s27.833 21.166 46.5 26.499c15.333 4 25.5 5.5 30.5 4.5s11.5 -5.16699 19.5 -12.5
c12 -11.333 17.667 -18.333 17 -21c-0.666992 -4.66699 0 -6.66699 2 -6c3.33301 0 18 12.333 44 37c36 35.333 96.333 71.333 181 108c12 5.33301 29.667 6.66602 53 3.99902s42 -7.66699 56 -15c12.667 -6.66699 24 -17 34 -31
c6.66699 -8.66699 10.167 -15.334 10.5 -20.001s-1.83398 -12.334 -6.50098 -23.001c-5.33301 -14 -11.666 -24.5 -18.999 -31.5s-24.666 -19.5 -51.999 -37.5c-23.333 -16 -56.166 -33 -98.499 -51s-66.833 -25.333 -73.5 -22
c-3.33301 0.666992 -5.5 0.833984 -6.5 0.500977s-1.16699 -1.5 -0.5 -3.5c0.666992 -0.666992 -0.333008 -2 -3 -4s-6.83398 -4 -12.501 -6s-12.167 -3.66699 -19.5 -5c-15.333 -4 -25.833 -7.66699 -31.5 -11s-9.16699 -8.33301 -10.5 -15
c-3.33301 -12.667 -3.16602 -21.834 0.500977 -27.501s11.834 -9.5 24.501 -11.5c13.333 -2 40.5 0.333008 81.5 7s73.833 13.667 98.5 21c28 8.66699 59 21.334 93 38.001s54.667 29 62 37c22 24 39.333 27.333 52 10c7.33301 -11.333 10.666 -21 9.99902 -29
s-6 -19 -16 -33c-11.333 -16 -21.333 -27.333 -30 -34s-25.667 -16.334 -51 -29.001c-43.333 -21.333 -94.666 -39 -153.999 -53s-104.333 -19.333 -135 -16c-34.667 4 -66.334 17.333 -95.001 40s-43 45.667 -43 69z" />
    <glyph glyph-name="f" unicode="f" horiz-adv-x="532" 
d="M481 463c-0.666992 -3.33301 2.6709 -7.00293 10.0039 -11.0029s11 -7.66699 11 -11c0 -2.66699 -1.83301 -4.5 -5.5 -5.5l-11 -3c-3.66699 -1 -5.16699 -3.16699 -4.5 -6.5c0 -3.33301 1.66699 -4.83301 5 -4.5s6.66602 1 9.99902 2s5.33301 -0.166992 6 -3.5
c0.666992 -2.66699 -0.833008 -4.5 -4.5 -5.5s-6.16699 -1.66699 -7.5 -2s0.333984 -2.5 5.00098 -6.5c12 -7.33301 8.33301 -14.333 -11 -21c-5.33301 -2 -11.666 -3.66699 -18.999 -5c-11.333 -2 -19 -2 -23 0s-8.66699 8.33301 -14 19
c-16.667 32.667 -41.834 56.834 -75.501 72.501s-59.5 15.5 -77.5 -0.5c-8.66699 -7.33301 -13 -14.333 -13 -21c0 -6 -1.66699 -9 -5 -9c-5.33301 -1.33301 -12.833 -14.666 -22.5 -39.999s-14.834 -46.666 -15.501 -63.999
c9.33301 -1.33301 28.166 -3.16602 56.499 -5.49902s45.166 -3.83301 50.499 -4.5c10 -1.33301 20.667 -6.83301 32 -16.5s17 -18.167 17 -25.5c0 -8.66699 -3 -16.334 -9 -23.001s-12.667 -9.66699 -20 -9c-8 0.666992 -28.333 -2.16602 -61 -8.49902
s-52.667 -11.5 -60 -15.5c-8.66699 -4.66699 -11.334 -16.334 -8.00098 -35.001c4 -21.333 -0.166992 -44.333 -12.5 -69s-25.5 -36.667 -39.5 -36s-23.667 6 -29 16s-8.33301 28.667 -9 56v53l-27 4c-14 2 -29.167 9 -45.5 21s-24.5 21.667 -24.5 29s4.33301 16 13 26
c6 7.33301 12.833 12 20.5 14s22.834 3.66699 45.501 5c8 0.666992 13.333 10 16 28c13.333 77.333 32.666 134.666 57.999 171.999c12.667 18.667 22.5 31.334 29.5 38.001s16.167 11.667 27.5 15c23.333 6.66699 52 6.5 86 -0.5s62.667 -18.833 86 -35.5
c8.66699 -5.33301 13.667 -9.33301 15 -12s0 -6.66699 -4 -12s-6 -8.16602 -6 -8.49902s2.33301 1.16699 7 4.5c8 5.33301 19.333 1.66602 34 -11.001c15.333 -14 23 -23.333 23 -28z" />
    <glyph glyph-name="g" unicode="g" horiz-adv-x="483" 
d="M250 21c1.33301 12 -0.5 18.833 -5.5 20.5s-18.167 0.166992 -39.5 -4.5l-33 -7c38 -20 62.333 -30.667 73 -32c2 2 3.66699 9.66699 5 23zM292 253c4.66699 12 6.00098 18.833 4.00098 20.5s-9.66699 0.5 -23 -3.5c-11.333 -4 -26 -6 -44 -6
c-20.667 -0.666992 -44 -17.5 -70 -50.5s-38 -60.833 -36 -83.5c1.33301 -10.667 3.33301 -17.5 6 -20.5s9.66699 -4.83301 21 -5.5c17.333 -1.33301 40.666 3.33398 69.999 14.001c18.667 6.66699 31 12.167 37 16.5s9.66699 10.166 11 17.499c2 26 10 59.667 24 101z
M297.001 373c3.33301 -6 5.99902 -8.33789 7.99902 -7.00488s5.33301 -0.333984 10 -5.00098c8 -8 22 -10.333 42 -7c21.333 2.66699 32 1.33398 32 -3.99902s3.33301 -8 10 -8s17.334 -8 32.001 -24c36.667 -42.667 26 -98 -32 -166c-17.333 -20 -28.5 -34.833 -33.5 -44.5
s-6.83301 -19.167 -5.5 -28.5c1.33301 -3.33301 -0.666992 -8 -6 -14c-3.33301 -3.33301 -7.16602 -28.833 -11.499 -76.5s-5.83301 -77.834 -4.5 -90.501c1.33301 -7.33301 -2.33398 -14.666 -11.001 -21.999c-28 -25.333 -66.667 -16.333 -116 27
c-8 8.66699 -28.5 22.334 -61.5 41.001s-52.167 30.334 -57.5 35.001c-10 16 -8.33301 30 5 42c3.33301 4 5.5 8 6.5 12s0.333008 7.16699 -2 9.5s-5.83301 3.5 -10.5 3.5c-6.66699 0.666992 -16 6.83398 -28 18.501s-20.333 22.834 -25 33.501
c-4.66699 11.333 -7.33398 25.333 -8.00098 42s1.33301 26.334 6 29.001c3.33301 2 7 9.66699 11 23c2.66699 11.333 10.834 27.666 24.501 48.999s27.167 39.666 40.5 54.999c11.333 12.667 26 25.834 44 39.501s29.333 20.5 34 20.5c4 0 10.167 3.83301 18.5 11.5
s15.166 11.834 20.499 12.501c38.667 7.33301 61.334 5 68.001 -7z" />
    <glyph glyph-name="h" unicode="h" horiz-adv-x="401" 
d="M226 240c18 0 30.998 -1.33105 38.998 -3.99805s17.667 -8.66699 29 -18c19.333 -16 34 -37 44 -63s18.667 -43.333 26 -52c6 -7.33301 8.16699 -18.833 6.5 -34.5s-6.16699 -27.834 -13.5 -36.501c-10 -10.667 -20 -16.5 -30 -17.5s-23.333 2.5 -40 10.5
c-13.333 6.66699 -22 12.5 -26 17.5s-7 14.167 -9 27.5c-4.66699 24.667 -14.334 50 -29.001 76c-23.333 -22.667 -49.666 -51.667 -78.999 -87c-20 -25.333 -35.667 -40.5 -47 -45.5s-27.666 -3.5 -48.999 4.5c-12.667 4.66699 -18.667 13.167 -18 25.5
s7.66699 32.5 21 60.5c29.333 64.667 46.333 128.667 51 192c3.33301 40 -1 60 -13 60c-6 0 -12.667 10.333 -20 31c-10 25.333 -13.5 54.5 -10.5 87.5s11.167 57.167 24.5 72.5c12.667 14 29.667 17.167 51 9.5s38.333 -23.167 51 -46.5
c7.33301 -15.333 12.833 -38.5 16.5 -69.5s3.16699 -50.833 -1.5 -59.5c-4 -12 -7.16699 -36.333 -9.5 -73s-4.16602 -59.334 -5.49902 -68.001h41z" />
    <glyph glyph-name="i" unicode="i" horiz-adv-x="218" 
d="M118 280c2 3.33301 3.99805 9.66504 5.99805 18.998s6.33301 15 13 17c7.33301 1.33301 16.5 -2.66699 27.5 -12s16.167 -17.666 15.5 -24.999c-1.33301 -7.33301 0.333984 -15 5.00098 -23c8 -19.333 4.83301 -55.833 -9.5 -109.5s-30.166 -88.5 -47.499 -104.5
c-10 -9.33301 -19 -14.166 -27 -14.499s-19.333 2.83398 -34 9.50098c-5.33301 2 -9.5 4.66699 -12.5 8s-4.83301 7.33301 -5.5 12s-0.833984 9 -0.500977 13s1.5 9 3.5 15s3.66699 10.833 5 14.5s3.33301 8.33398 6 14.001s4.33398 9.5 5.00098 11.5
c6 7.33301 15.167 33.666 27.5 78.999s19.833 70.666 22.5 75.999zM180.998 389.999c0 -8.66699 -3.83203 -16.668 -11.499 -24.001s-16.834 -12 -27.501 -14c-14 -2.66699 -32.667 5 -56 23c-30.667 23.333 -48.5 41.166 -53.5 53.499s-0.5 26.5 13.5 42.5
c11.333 12.667 33 14.334 65 5.00098c13.333 -4 27.5 -15.167 42.5 -33.5s20.833 -32.166 17.5 -41.499c-2 -6 -1 -8 3 -6c4.66699 2 7 0.333008 7 -5z" />
    <glyph glyph-name="j" unicode="j" horiz-adv-x="401" 
d="M332 -123c0 -22.667 -1 -36.502 -3 -41.502s-8.66699 -10.167 -20 -15.5c-7.33301 -7.33301 -20.333 -9 -39 -5s-36 9.33301 -52 16l-56 23c-21.333 8.66699 -37.666 14.334 -48.999 17.001c-36.667 10.667 -55 19.334 -55 26.001s-2.66699 8 -8 4
c-4 -2.66699 -6 -1 -6 5c0 2 0.333008 5 1 9c2 9.33301 2 14 0 14c-1.33301 0 -3.33301 -1 -6 -3c-6.66699 -5.33301 -9.66699 -6 -9 -2c0.666992 3.33301 3.66699 9.66602 9 18.999c10 18.667 20.333 26 31 22c4 -1.33301 7.66699 0.833984 11 6.50098
s7.66602 5.83398 12.999 0.500977c6.66699 -5.33301 32 -14.166 76 -26.499s67.333 -17.166 70 -14.499c4.66699 6 5.66699 59.5 3 160.5s-7.33398 182.5 -14.001 244.5c-2 17.333 -2.33301 29.166 -1 35.499s5.33301 12.833 12 19.5c21.333 21.333 46 20.666 74 -2.00098
c8.66699 -6.66699 14.334 -13.334 17.001 -20.001s4.66699 -17 6 -31c2 -46.667 2.33301 -120.667 1 -222s-3.33301 -181 -6 -239zM280 551.998c7.33301 10.667 18.833 16.002 34.5 16.002s29.5 -5.66699 41.5 -17c10.667 -10.667 15.667 -21.834 15 -33.501
s-5.66699 -21.834 -15 -30.501c-6.66699 -7.33301 -17 -9.83301 -31 -7.5s-27 8.83301 -39 19.5c-18 15.333 -20 33 -6 53z" />
    <glyph glyph-name="k" unicode="k" horiz-adv-x="416" 
d="M360 373c0.666992 -3.33301 4.33301 0.333984 11 11.001c7.33301 10.667 10.333 16.667 9 18c-0.666992 1.33301 -2.66699 0.166016 -6 -3.50098s-6.5 -8.16699 -9.5 -13.5s-4.5 -9.33301 -4.5 -12zM278.999 399c4.66699 0 11.6748 7.66992 21.0078 23.0029
c15.333 25.333 30.333 38.666 45 39.999c7.33301 0 15 -4.83301 23 -14.5s13.333 -20.5 16 -32.5c3.33301 -3.33301 3.66602 -8.5 0.999023 -15.5s-5.33398 -13 -8.00098 -18s-7.33398 -11.333 -14.001 -19s-12.334 -13.667 -17.001 -18l-15.5 -14.5
c-5.66699 -5.33301 -8.83398 -8.33301 -9.50098 -9c-14.667 -10.667 -30.667 -24.834 -48 -42.501s-26 -28.5 -26 -32.5c0 -3.33301 5.66699 -19 17 -47c9.33301 -20.667 21 -37.167 35 -49.5s28 -18.5 42 -18.5c14.667 0 25 -2 31 -6s9 -11 9 -21
c0 -12.667 -2.33301 -21.834 -7 -27.501s-14.667 -11.167 -30 -16.5c-11.333 -4 -20.833 -5.83301 -28.5 -5.5s-19.834 3.5 -36.501 9.5c-18.667 6 -39.834 18.5 -63.501 37.5s-44.167 40.167 -61.5 63.5c-12 14.667 -20.333 19 -25 13l-1 -5
c0 -8.66699 -5.5 -22.5 -16.5 -41.5s-19.167 -29.167 -24.5 -30.5c-11.333 -2 -22.833 0 -34.5 6s-18.834 13.667 -21.501 23c-4.66699 19.333 4.33301 85 27 197c8.66699 44 11.667 71.667 9 83c-2 9.33301 0.166992 22.5 6.5 39.5s14.5 31.167 24.5 42.5
c8.66699 10 20.667 14 36 12s29.666 -10 42.999 -24l24 -25c-15.333 -78 -22.666 -119.333 -21.999 -124c0.666992 -2 9.16699 3 25.5 15l48.5 36.5c16 12.333 24.667 17.833 26 16.5z" />
    <glyph glyph-name="l" unicode="l" horiz-adv-x="247" 
d="M84 484c-2 14 2.83301 26.168 14.5 36.501s24.167 16.5 37.5 18.5c8 0 18.333 -3.5 31 -10.5s22 -14.833 28 -23.5c7.33301 -10 13.166 -29.167 17.499 -57.5s5.16602 -52.166 2.49902 -71.499c-2.66699 -22.667 -9.66699 -55.334 -21 -98.001s-19.333 -66.667 -24 -72
c-2.66699 -2 -6.16699 -11.167 -10.5 -27.5s-8.16602 -25.166 -11.499 -26.499c-2.66699 0 -7.33398 -16 -14.001 -48s-10.667 -59 -12 -81c-1.33301 -24 -3.66602 -37.667 -6.99902 -41c-5.33301 -5.33301 -13 -7.83301 -23 -7.5s-18.333 3.16602 -25 8.49902
c-8.66699 7.33301 -16.667 11 -24 11c-22 -4 -14.333 69 23 219l13 52l10 39c6 27.333 9.33301 57 10 89s-1.66602 51 -6.99902 57c-5.33301 5.33301 -8 16.666 -8 33.999z" />
    <glyph glyph-name="m" unicode="m" horiz-adv-x="804" 
d="M669 265c-4.66699 0 -8.33203 -5.33496 -10.999 -16.002c-5.33301 -16 -10.333 -28.667 -15 -38c-6 -13.333 -10.333 -30.333 -13 -51s-2.33398 -35.667 0.999023 -45c2 -6.66699 5.5 -10.5 10.5 -11.5s18.167 -0.5 39.5 1.5c30 2 46.333 0 49 -6
c5.33301 -14 -3 -29 -25 -45s-45 -23.667 -69 -23c-34.667 0.666992 -62.667 12.5 -84 35.5s-32.666 53.167 -33.999 90.5c-0.666992 18.667 -1.66699 29.5 -3 32.5s-6.33301 3.5 -15 1.5c-4.66699 -1.33301 -16.167 -5.33301 -34.5 -12l-46 -16.5
c-12.333 -4.33301 -25.833 -8.33301 -40.5 -12s-25.667 -5.5 -33 -5.5c-9.33301 0 -29.333 4 -60 12c-20.667 5.33301 -33.167 8 -37.5 8s-8.83301 -3.33301 -13.5 -10s-20.667 -25.167 -48 -55.5s-42.333 -47.166 -45 -50.499
c-14.667 -17.333 -30.834 -27.166 -48.501 -29.499s-33.834 2.83398 -48.501 15.501c-8.66699 7.33301 -13.5 12.833 -14.5 16.5s0.5 9.16699 4.5 16.5c8 14.667 25.667 35 53 61c63.333 62 96.333 117.667 99 167c4.66699 91.333 19.334 143 44.001 155
c10.667 3.33301 18 5 22 5s10.5 -1.83301 19.5 -5.5s14.833 -5.83398 17.5 -6.50098c26 -9.33301 30.333 -55 13 -137c-4.66699 -19.333 -3 -38 5 -56c7.33301 -14.667 16.833 -22.167 28.5 -22.5s36.834 5.83398 75.501 18.501c46 14.667 87.833 33.834 125.5 57.501
s63.834 46.5 78.501 68.5c12 17.333 22.5 30.5 31.5 39.5s21.833 19.5 38.5 31.5c13.333 9.33301 24.333 13.166 33 11.499s22 -9.83398 40 -24.501c13.333 -11.333 17.666 -23.333 12.999 -36s-20.334 -33 -47.001 -61c-30.667 -32 -47 -52 -49 -60c0 -6 -2.33301 -9 -7 -9
z" />
    <glyph glyph-name="n" unicode="n" horiz-adv-x="500" 
d="M217 318c16.667 6.66699 36.4951 10.001 59.4951 10.001s41.833 -3 56.5 -9c24.667 -10.667 49.334 -35.167 74.001 -73.5s43 -80.833 55 -127.5c8.66699 -32.667 10.834 -55.167 6.50098 -67.5s-16.166 -17.5 -35.499 -15.5c-22 2.66699 -38.333 10.167 -49 22.5
s-18 32.5 -22 60.5c-2.66699 19.333 -10.167 42 -22.5 68s-23.5 42 -33.5 48c-11.333 7.33301 -30.166 4.66602 -56.499 -8.00098s-52.833 -31.667 -79.5 -57c-20.667 -19.333 -33.167 -32.5 -37.5 -39.5s-5.16602 -15.5 -2.49902 -25.5
c3.33301 -13.333 -0.666992 -24 -12 -32c-20.667 -14.667 -42 -13.667 -64 3c-28 22 -32.167 53.333 -12.5 94s56.5 78.667 110.5 114c28 18 49.667 29.667 65 35z" />
    <glyph glyph-name="o" unicode="o" horiz-adv-x="557" 
d="M438 245c0 23.333 -15 41.3291 -45 53.9961c-35.333 15.333 -76 21 -122 17c-17.333 -1.33301 -29.333 -3.66602 -36 -6.99902s-15.667 -11.666 -27 -24.999c-17.333 -22 -30 -40 -38 -54c-8 -16 -15 -37.5 -21 -64.5s-7.66699 -44.167 -5 -51.5
c4 -12 29.667 -12.667 77 -2s96 28.334 146 53.001c14 7.33301 29.333 20.333 46 39s25 32.334 25 41.001zM384 88.9961l-26.502 -10.9971l-33.5 -13.5c-9.33301 -3.66699 -21.166 -8 -35.499 -13s-27.5 -9 -39.5 -12s-24.833 -5.66699 -38.5 -8s-27.167 -3.5 -40.5 -3.5
s-25.666 1.33301 -36.999 4c-44.667 9.33301 -75.667 31 -93 65c-10 20 -12.5 42.667 -7.5 68s19.833 62 44.5 110c18 35.333 33.167 61.166 45.5 77.499s30.5 33.166 54.5 50.499c40.667 30 80 33.333 118 10c18.667 -11.333 56 -21.666 112 -30.999
c20 -3.33301 42.5 -16.333 67.5 -39s40.833 -44.334 47.5 -65.001c12 -35.333 -2 -76.333 -42 -123c-9.33301 -10.667 -26 -24.334 -50 -41.001s-39.333 -25 -46 -25z" />
    <glyph glyph-name="p" unicode="p" horiz-adv-x="467" 
d="M284 321c-18 11.333 -28.834 15.167 -32.501 11.5s-7.16699 -21.5 -10.5 -53.5c-5.33301 -36 -7.16602 -63 -5.49902 -81s5 -29.5 10 -34.5s15.833 -8.83301 32.5 -11.5c21.333 -4 34.5 -2.5 39.5 4.5s7.5 27.167 7.5 60.5c-0.666992 32.667 -3.5 55.667 -8.5 69
s-15.833 25 -32.5 35zM362.999 370.001c4 0 13.167 -6.83203 27.5 -20.499s23.833 -24.834 28.5 -33.501c6.66699 -13.333 11.834 -38.166 15.501 -74.499s3.5 -62.5 -0.5 -78.5c-12 -48 -23.333 -77.333 -34 -88c-9.33301 -8.66699 -30.5 -13.167 -63.5 -13.5
s-61.833 3.83398 -86.5 12.501l-41 14c-46.667 -95.333 -73 -146.333 -79 -153c-6 -4.66699 -17.333 -8.33398 -34 -11.001c-5.33301 -4 -12 -4.5 -20 -1.5s-13.667 5.5 -17 7.5s-8.33301 5.83301 -15 11.5s-11.334 9.5 -14.001 11.5l43 84c24 46.667 40.667 80.667 50 102
c0 2 1.33301 31 4 87c4.66699 78.667 9.66699 128.667 15 150s17.333 36.666 36 45.999c10 4.66699 24.667 6.5 44 5.5s36 -4.16699 50 -9.5c42.667 -17.333 68 -30 76 -38c6.66699 -6.66699 11.667 -10 15 -10z" />
    <glyph glyph-name="q" unicode="q" horiz-adv-x="684" 
d="M274 246c4.66699 9.33301 4.33496 13.665 -0.998047 12.998c-10 -0.666992 -28.667 -15 -56 -43c-20.667 -20.667 -40.334 -46.667 -59.001 -78s-25.334 -48.666 -20.001 -51.999c4.66699 -3.33301 21.5 2.83398 50.5 18.501s47.167 28.167 54.5 37.5
c6.66699 6.66699 13 24.5 19 53.5s10 45.833 12 50.5zM406.001 247.999c0 -18 -1.5 -32.5029 -4.5 -43.5029s-10.5 -30.5 -22.5 -58.5c-6.66699 -16 -8.66699 -50 -6 -102c2 -48.667 4.33301 -75.334 7 -80.001c3.33301 -1.33301 26 6.33398 68 23.001
c31.333 12.667 63.833 21.834 97.5 27.501s56.834 5.83398 69.501 0.500977c4 -1.33301 6.5 -2.5 7.5 -3.5s1.16699 -2 0.5 -3s-2.66699 -2.5 -6 -4.5c-4 -3.33301 -5.66699 -5.16602 -5 -5.49902s4.33398 0.5 11.001 2.5c10.667 3.33301 16 2 16 -4c0 -4.66699 2 -6 6 -4
c4 2.66699 6.66699 0 8 -8c2.66699 -14 0.333984 -25.667 -6.99902 -35c-8 -9.33301 -19.833 -17.5 -35.5 -24.5s-27.834 -9.5 -36.501 -7.5c-8.66699 2.66699 -22.834 1 -42.501 -5s-34.5 -13 -44.5 -21c-2 -2 -14.833 -10 -38.5 -24s-38.167 -26.667 -43.5 -38
c-10.667 -18 -26.5 -27.667 -47.5 -29s-39.5 5 -55.5 19s-22.667 31.333 -20 52c0.666992 12.667 0.166992 25.334 -1.5 38.001s-4.33398 26.5 -8.00098 41.5s-6.16699 26.833 -7.5 35.5c-6.66699 34 -12 51 -16 51c-2 0 -4.33301 -1 -7 -3
c-16.667 -12.667 -41.834 -21.834 -75.501 -27.501s-59.5 -4.83398 -77.5 2.49902c-12 5.33301 -24.333 14.166 -37 26.499s-19.334 22.166 -20.001 29.499c0 2.66699 -0.333008 6.83398 -1 12.501s-1 9.83398 -1 12.501s0.5 6 1.5 10s2.5 8 4.5 12
c4.66699 9.33301 7.66699 18.333 9 27c2.66699 18.667 28.167 57 76.5 115s78.833 87 91.5 87c6 0 9.66699 2 11 6c0.666992 2.66699 9.66699 9.33398 27 20.001c20.667 12.667 39.834 16.834 57.501 12.501s36.834 -17.833 57.501 -40.5
c18.667 -19.333 30 -33.833 34 -43.5s6 -25.834 6 -48.501z" />
    <glyph glyph-name="r" unicode="r" horiz-adv-x="546" 
d="M80 427c10 0 22.834 -4.00098 38.501 -12.001s27.5 -17 35.5 -27c6 -6.66699 14.5 -10.667 25.5 -12s41.167 -1 90.5 1c133.333 4 208.666 4 225.999 0c12.667 -3.33301 19.334 -11 20.001 -23v-10c-0.666992 -8 -2.5 -13.5 -5.5 -16.5s-9.5 -5.5 -19.5 -7.5
c-2 -0.666992 -4.66699 -1.33398 -8 -2.00098l-9 -3h2c9.33301 -0.666992 10.333 -2.66699 3 -6c-5.33301 -2.66699 -13.666 -4.66699 -24.999 -6c-65.333 -9.33301 -156 -20 -272 -32c-0.666992 -13.333 -3.33398 -28.166 -8.00098 -44.499s-9.16699 -29.5 -13.5 -39.5
s-11.333 -24.833 -21 -44.5s-15.834 -31.834 -18.501 -36.501l-34 -4c-14.667 -1.33301 -24.667 -1.16602 -30 0.500977s-11 6.16699 -17 13.5c-6.66699 7.33301 -10 16.166 -10 26.499s3.33301 18.166 10 23.499c8 6.66699 14.833 20.334 20.5 41.001s8.5 42.667 8.5 66
c0.666992 24 -5.33301 45.667 -18 65c-10.667 16.667 -16.167 29.334 -16.5 38.001s4.16699 19.334 13.5 32.001s20 19 32 19z" />
    <glyph glyph-name="s" unicode="s" horiz-adv-x="467" 
d="M248 412c0 4.66699 11.0049 10.333 33.0049 17c35.333 11.333 68.666 14.166 99.999 8.49902s49.333 -17.5 54 -35.5c4 -17.333 1.66699 -30.166 -7 -38.499s-26.667 -14.833 -54 -19.5c-23.333 -4 -53 -13.333 -89 -28s-61.333 -27.667 -76 -39
c-8 -6 -9.33301 -10.333 -4 -13l22 -6c66 -17.333 123.667 -46.666 173 -87.999c14 -12 22.5 -20.833 25.5 -26.5s4.16699 -13.834 3.5 -24.501c-4.66699 -57.333 -82.667 -81.666 -234 -72.999c-55.333 2.66699 -91 2 -107 -2
c-24.667 -8.66699 -42.334 -3.66699 -53.001 15s-7 37.334 11 56.001c8.66699 10 18 15.833 28 17.5s40.333 3.16699 91 4.5c79.333 1.33301 119 3.33301 119 6c-0.666992 2 -6.66699 5.66699 -18 11c-16.667 8 -40 15.667 -70 23c-33.333 8 -56.333 15.5 -69 22.5
s-25.334 18.833 -38.001 35.5c-10.667 14 -16.834 23.667 -18.501 29s-0.833984 12.333 2.49902 21c6 13.333 13.333 24.666 22 33.999s23 21.666 43 36.999c22 16.667 43.667 30.5 65 41.5s34 14.833 38 11.5c4.66699 -2 7 -1 7 3z" />
    <glyph glyph-name="t" unicode="t" horiz-adv-x="454" 
d="M291 494c0.666992 -5.33301 -0.498047 -14.998 -3.49805 -28.998s-6.66699 -27.667 -11 -41l-13.5 -41.5c-4.66699 -14.333 -7.33398 -22.166 -8.00098 -23.499c0.666992 -0.666992 7.5 -0.833984 20.5 -0.500977s29.167 1.16602 48.5 2.49902c33.333 2 54 2.33301 62 1
s15.667 -5.66602 23 -12.999c17.333 -19.333 20.666 -37 9.99902 -53c-4.66699 -6.66699 -26.167 -17.667 -64.5 -33s-69.833 -25.666 -94.5 -30.999c-15.333 -3.33301 -26.166 -8.66602 -32.499 -15.999s-11.5 -20.333 -15.5 -39c-3.33301 -16 -6.5 -26.833 -9.5 -32.5
s-7.83301 -9.16699 -14.5 -10.5c-12.667 -3.33301 -25.334 -2.33301 -38.001 3s-19.334 12.666 -20.001 21.999c-1.33301 7.33301 -2.66602 11 -3.99902 11c-2 -0.666992 -3.66699 -2.33398 -5 -5.00098c-4 -7.33301 -6 -2.66602 -6 14.001
c0 9.33301 -1.5 16.166 -4.5 20.499s-9.16699 9.16602 -18.5 14.499c-14.667 8 -28.667 19 -42 33s-20 24.667 -20 32c-1.33301 16 7.66699 28.5 27 37.5s41.333 14.167 66 15.5c30 100.667 46 159.334 48 176.001c0 9.33301 6 20.666 18 33.999c23.333 22 49.333 22 78 0
c10 -8.66699 16.5 -15.834 19.5 -21.501s4.5 -14.5 4.5 -26.5z" />
    <glyph glyph-name="u" unicode="u" horiz-adv-x="486" 
d="M296 189c0 10.667 7.50195 43.166 22.502 97.499s24.833 84.5 29.5 90.5c5.33301 6.66699 12.666 11.667 21.999 15c36.667 14.667 62.667 -3.66602 78 -54.999c6.66699 -24 8.5 -46.167 5.5 -66.5s-12.167 -46.833 -27.5 -79.5c-14 -29.333 -23.333 -53.666 -28 -72.999
c-2 -10 -2.5 -16.5 -1.5 -19.5s4.83301 -5.5 11.5 -7.5c16.667 -4 22.667 -16.5 18 -37.5s-16.334 -35.167 -35.001 -42.5c-13.333 -5.33301 -27.833 -4.83301 -43.5 1.5s-28.5 16.833 -38.5 31.5l-10 15l-37 -17c-34 -16.667 -68.167 -24.667 -102.5 -24
s-61.166 10 -80.499 28c-36 33.333 -52 77 -48 131c2.66699 34.667 8.66699 70.167 18 106.5s18.333 59.5 27 69.5c14.667 17.333 33.5 22.166 56.5 14.499s36.5 -23.5 40.5 -47.5c2.66699 -13.333 2.5 -26 -0.5 -38s-10.5 -31.667 -22.5 -59
c-6.66699 -15.333 -10.5 -37.833 -11.5 -67.5s1.83301 -47.834 8.5 -54.501c7.33301 -7.33301 23.166 -6.16602 47.499 3.50098s47.333 23.167 69 40.5s32.5 32 32.5 44z" />
    <glyph glyph-name="v" unicode="v" horiz-adv-x="532" 
d="M326 207c0 -7.33301 -6.99707 -18.6689 -20.9971 -34.002c-18 -21.333 -35 -44 -51 -68s-30.833 -40.167 -44.5 -48.5s-29.167 -10.833 -46.5 -7.5c-13.333 2.66699 -27.166 8.83398 -41.499 18.501s-21.5 17.834 -21.5 24.501s-5.33301 20 -16 40
c-10.667 19.333 -22.334 53.166 -35.001 101.499s-19 83.5 -19 105.5c0 14 1 23 3 27s7 7.66699 15 11c10.667 4.66699 24.667 3.33398 42 -3.99902c12.667 -6 20.834 -13.667 24.501 -23s7.16699 -30.666 10.5 -63.999c1.33301 -15.333 3.66602 -32.333 6.99902 -51
s5.33301 -31 6 -37c5.33301 -35.333 12.666 -53 21.999 -53c6.66699 0 17 10 31 30c17.333 25.333 43.666 59 78.999 101s64.333 74.333 87 97c16 15.333 36.167 31.166 60.5 47.499s41.833 25.833 52.5 28.5c11.333 1.33301 19 0.333008 23 -3
c17.333 -13.333 8.66602 -37.333 -26.001 -72c-21.333 -20 -38.333 -39.333 -51 -58c-50.667 -68.667 -79 -103 -85 -103c-3.33301 2 -5 0 -5 -6z" />
    <glyph glyph-name="w" unicode="w" horiz-adv-x="683" 
d="M30 140c2 28.667 9.50586 77.0049 22.5059 145.005s20.833 111.667 23.5 131c13.333 2.66699 26.833 3.5 40.5 2.5s24.167 -5.83301 31.5 -14.5c7.33301 -6.66699 11.666 -13 12.999 -19s1 -15.667 -1 -29c0 -6 -6.66699 -30.667 -20 -74s-24.5 -83.833 -33.5 -121.5
s-9.16699 -56.834 -0.5 -57.501c3.33301 0 25.333 16.667 66 50c63.333 54 105.666 86.333 126.999 97s38.333 8.66699 51 -6c8 -9.33301 15.667 -27.666 23 -54.999c7.33301 -28.667 14.166 -45.667 20.499 -51s21.166 -7 44.499 -5c22 2 44.167 8.83301 66.5 20.5
s39.166 25.167 50.499 40.5c10 13.333 14.667 33.833 14 61.5s-6.66699 53.167 -18 76.5c-10 22 -15.833 37.333 -17.5 46s-0.5 18.667 3.5 30c8.66699 22.667 26 16 52 -20c2.66699 -3.33301 5.33398 -7 8.00098 -11c32.667 -49.333 51 -89.333 55 -120
s-5.16699 -61.834 -27.5 -93.501s-53.5 -56.834 -93.5 -75.501c-20.667 -10 -51.667 -15.333 -93 -16c-26.667 0 -44.834 1 -54.501 3s-21.167 7.33301 -34.5 16c-21.333 14 -35 28.667 -41 44c-4.66699 11.333 -8.33398 17.833 -11.001 19.5s-7 0.5 -13 -3.5
c-7.33301 -6 -33.666 -25.667 -78.999 -59c-44.667 -33.333 -75.334 -50.333 -92.001 -51c-18 -0.666992 -29 2.66602 -33 9.99902c-2 4 -4.16699 7.16699 -6.5 9.5s-3.83301 3.16602 -4.5 2.49902c-6 -2.66699 -10.5 -3.16699 -13.5 -1.5s-3.5 5.16699 -1.5 10.5
c2 6 1 8 -3 6c-4.66699 -2.66699 -9 1.66602 -13 12.999c-5.33301 14 -8 30.333 -8 49z" />
    <glyph glyph-name="x" unicode="x" horiz-adv-x="639" 
d="M85 400c0 -3.33301 6.33398 -7.99805 19.001 -13.998c8 -3.33301 22 -18.833 42 -46.5s37 -54.834 51 -81.501c4.66699 -8.66699 13 -20 25 -34c7.33301 -8 12.666 -12.333 15.999 -13s8.66602 1.66602 15.999 6.99902c12 8 21.667 12 29 12c8.66699 0 13 2 13 6
s6.33301 7.66699 19 11c14.667 3.33301 65.667 28 153 74c55.333 29.333 87.333 47.333 96 54c5.33301 5.33301 13 8.5 23 9.5s17 -0.5 21 -4.5c2.66699 -2.66699 0.166992 -11.5 -7.5 -26.5s-17.5 -30.167 -29.5 -45.5c-12.667 -16 -29.667 -30.667 -51 -44
c-22.667 -14 -34 -23.333 -34 -28c0 -2 -1.5 -3.5 -4.5 -4.5s-6.33301 -1.5 -10 -1.5s-7 -0.666992 -10 -2s-4.16699 -3 -3.5 -5c0 -3.33301 -14.833 -14.166 -44.5 -32.499s-55.167 -32.5 -76.5 -42.5c-16 -7.33301 -24.667 -14 -26 -20s4.33398 -13 17.001 -21
c17.333 -12 21.666 -23.667 12.999 -35c-9.33301 -12 -24 -14 -44 -6l-8 4c-21.333 12.667 -36 19.5 -44 20.5s-20.667 -2.16699 -38 -9.5c-24 -8.66699 -47.167 -12.5 -69.5 -11.5s-40.833 7 -55.5 18s-20 23.833 -16 38.5c2 7.33301 5.83301 13 11.5 17
s15.834 8 30.501 12c12.667 4 21.334 6.5 26.001 7.5s9.33398 3.5 14.001 7.5s7.16699 6.66699 7.5 8s-1.33398 5.66602 -5.00098 12.999s-7.5 13.5 -11.5 18.5l-22 27.5c-34.667 42.667 -53.334 66 -56.001 70c-36 45.333 -40 75 -12 89c22 10 34 11.333 36 4z" />
    <glyph glyph-name="y" unicode="y" horiz-adv-x="511" 
d="M481 382c0 -8.66699 -6.00098 -20.999 -18.001 -36.999s-20.333 -22.667 -25 -20c-4.66699 3.33301 -7 1.33301 -7 -6s-6.33301 -17.333 -19 -30l-71 -79l-63.5 -77l-53.5 -66c-40 -46 -60 -70.667 -60 -74c0 -4 -8.16699 -16.167 -24.5 -36.5s-26.833 -31.5 -31.5 -33.5
c-7.33301 -3.33301 -18.833 -1.83301 -34.5 4.5s-25.5 13.166 -29.5 20.499c-4.66699 8.66699 -6.83398 14.334 -6.50098 17.001s3.16602 6.66699 8.49902 12c4 4.66699 12.167 15.834 24.5 33.501l36 49.5c11.667 15.333 20.834 26 27.501 32l25 24l-32 33
c-18.667 18.667 -39.5 49.5 -62.5 92.5s-34.5 72.167 -34.5 87.5c0 12.667 4 26.167 12 40.5s15.667 22.5 23 24.5c22 4.66699 39.667 -11 53 -47c8.66699 -24.667 16.334 -38.667 23.001 -42c6 -3.33301 9 -8.33301 9 -15c0 -4.66699 4.16699 -13.834 12.5 -27.501
l27.5 -44.5l16 -23c2 -1.33301 4.16699 -2 6.5 -2s7.33301 3.16699 15 9.5s16.834 14.666 27.501 24.999l43 42.5l44 42.5c14 13 25.333 22.833 34 29.5s13.667 9.66699 15 9c2.66699 -1.33301 4 -1 4 1c0 0.666992 -0.666992 2 -2 4c-2 5.33301 5.33301 15.5 22 30.5
s31.667 23.5 45 25.5c4 0.666992 8.5 -2.5 13.5 -9.5s7.5 -13.833 7.5 -20.5z" />
    <glyph glyph-name="z" unicode="z" horiz-adv-x="732" 
d="M565 260c0 -8 -7.16699 -18.6611 -21.5 -31.9941s-25.833 -20 -34.5 -20c-5.33301 0 -18.833 -5.16699 -40.5 -15.5s-34.167 -17.5 -37.5 -21.5c-2 -4.66699 -5 -6.33398 -9 -5.00098c-15.333 -1.33301 -29.333 -4.16602 -42 -8.49902s-27.334 -10.5 -44.001 -18.5
s-31.667 -14.333 -45 -19l-53 -21c253.333 -4.66699 401.333 -9.33398 444 -14.001c10 -2.66699 16.333 -7.83398 19 -15.501s0.333984 -14.167 -6.99902 -19.5c-18.667 -13.333 -45.5 -21.833 -80.5 -25.5s-108.5 -6.16699 -220.5 -7.5
c-143.333 -1.33301 -226.666 0 -249.999 4c-16 2.66699 -34.167 9.66699 -54.5 21s-30.5 19.666 -30.5 24.999c0 3.33301 -1.33301 9 -4 17c-3.33301 8.66699 4.83398 20.667 24.501 36s45.5 29.666 77.5 42.999l75.5 34c41.667 18.667 74.834 32 99.501 40
c24.667 7.33301 37.667 13.333 39 18c-2 3.33301 -46.833 6.16602 -134.5 8.49902s-132.834 5.5 -135.501 9.5c-18 5.33301 -34.167 14 -48.5 26s-21.5 22.667 -21.5 32c0 13.333 3.66699 22.166 11 26.499s23.666 6.83301 48.999 7.5c55.333 2 86.666 -2.66699 93.999 -14
c2 -3.33301 22.333 -5.66602 61 -6.99902c100.667 -3.33301 153.334 -5 158.001 -5c66 -2 110 -7 132 -15s35.667 -24.333 41 -49c2.66699 -8.66699 3.66699 -13.334 3 -14.001s-2.33398 0.333008 -5.00098 3c-6 6.66699 -9 6.66699 -9 0v-4z" />
    <glyph glyph-name="uni0093" horiz-adv-x="395" 
d="M260 468c18 16.667 30.4971 26.8369 37.4971 30.5039s15.833 4.5 26.5 2.5c22.667 -3.33301 36.167 -13.833 40.5 -31.5s-3.16699 -32.834 -22.5 -45.501c-15.333 -10 -30.666 -26.333 -45.999 -49c-30 -42.667 -47 -64 -51 -64l-5 3
c-3.33301 5.33301 -6.66602 5.66602 -9.99902 0.999023c-10.667 -16 -22.334 -9.66699 -35.001 19c-6 13.333 -8.66699 22.666 -8 27.999s5.33398 16.666 14.001 33.999c14.667 26 34.334 50 59.001 72zM133.997 544.003c0 5.33301 5.33105 10.332 15.998 14.999
c15.333 7.33301 31.666 6.16602 48.999 -3.50098s27.833 -21.667 31.5 -36s-0.833008 -27.166 -13.5 -38.499c-12.667 -8 -27.167 -20.5 -43.5 -37.5s-27.166 -31.167 -32.499 -42.5c-0.666992 -0.666992 -2.66699 -3.66699 -6 -9l-7 -11
c-1.33301 -2 -4.33301 -5.83301 -9 -11.5s-8 -9.16699 -10 -10.5s-5.66699 -4 -11 -8s-9.33301 -5.33301 -12 -4s-7 2 -13 2c-14 4 -23.333 10.667 -28 20c-5.33301 10 -9.66602 13.333 -12.999 10c-1.33301 -1.33301 -2 -0.666016 -2 2.00098c-0.666992 4 0 10 2 18
c2.66699 16 12.334 36.333 29.001 61s33 43.334 49 56.001c16 13.333 24 22.666 24 27.999z" />
    <glyph glyph-name="uni0094" horiz-adv-x="362" 
d="M37 509c6 6 16.499 7.49902 31.499 4.49902s26.833 -8.83301 35.5 -17.5c21.333 -21.333 36 -65.666 44 -132.999c4.66699 -28.667 2.33398 -48.334 -6.99902 -59.001c-8 -10.667 -18 -15 -30 -13c-12.667 2.66699 -21.334 7.33398 -26.001 14.001s-9 21.334 -13 44.001
c-1.33301 6.66699 -5.16602 18.667 -11.499 36l-17.5 47.5c-5.33301 14.333 -9.33301 29.666 -12 45.999s-0.666992 26.5 6 30.5zM159.999 567.999c7.33301 0 20.3311 -3.00098 38.998 -9.00098s28 -10.333 28 -13c0 -4.66699 3 -7 9 -7c12 -1.33301 33 -19.666 63 -54.999
c13.333 -15.333 18.666 -28.333 15.999 -39c0 -1.33301 -0.333008 -3.33301 -1 -6h1c5.33301 10.667 10 10 14 -2c2 -6.66699 3 -15 3 -25c0 -16.667 -5.66699 -31.167 -17 -43.5s-24.666 -18.833 -39.999 -19.5c-25.333 0 -37 18 -35 54
c0.666992 13.333 -0.166016 23.333 -2.49902 30s-8.16602 15.334 -17.499 26.001c-14.667 16 -22 22.333 -22 19c0 -2 -4.33301 1.66699 -13 11c-5.33301 6.66699 -8 8.33398 -8 5.00098c0 -2.66699 -4.5 -0.333984 -13.5 6.99902s-15.833 15.166 -20.5 23.499
s-3.66699 17.5 3 27.5c8 10.667 12.667 16 14 16z" />
    <glyph glyph-name=".null" horiz-adv-x="0" 
 />
    <glyph glyph-name="nonmarkingreturn" horiz-adv-x="333" 
 />
    </font>
</defs>
</svg>
