<?xml version="1.0" standalone="no"?>
<!DOCTYPE svg PUBLIC "-//W3C//DTD SVG 1.1//EN" "http://www.w3.org/Graphics/SVG/1.1/DTD/svg11.dtd" >
<svg>
<metadata>
Created by FontForge 20090914 at Sat Feb 27 01:00:45 2016
 By www-data
Copyright (c) 2016, root
</metadata>
<defs>
<font id="Makynna" horiz-adv-x="536" >
  <font-face 
    font-family="Makynna"
    font-weight="400"
    font-stretch="normal"
    units-per-em="1000"
    panose-1="2 0 5 3 0 0 0 0 0 0"
    ascent="800"
    descent="-200"
    x-height="470.003"
    cap-height="628.499"
    bbox="28.4247 -199.33 772.108 727.656"
    underline-thickness="50"
    underline-position="-100"
    unicode-range="U+0020-U+0094"
  />
<missing-glyph horiz-adv-x="364" 
d="M33 0v666h265v-666h-265zM66 33h199v600h-199v-600z" />
    <glyph glyph-name=".notdef" horiz-adv-x="364" 
d="M33 0v666h265v-666h-265zM66 33h199v600h-199v-600z" />
    <glyph glyph-name="space" unicode=" " horiz-adv-x="320" 
 />
    <glyph glyph-name="exclam" unicode="!" horiz-adv-x="177" 
d="M81 186c11.333 5.33301 20.332 7.5 26.999 6.5s14.334 -6.16699 23.001 -15.5c16.667 -16.667 20.667 -33.5 12 -50.5s-25.334 -24.5 -50.001 -22.5c-23.333 2 -36.666 13.5 -39.999 34.5s6 36.833 28 47.5zM29.999 380c-2 52 2.66504 128.67 13.998 230.003
c0 8 3.5 19.167 10.5 33.5s13.167 22.5 18.5 24.5c12 5.33301 24.333 5.83301 37 1.5s22 -12.166 28 -23.499c6.66699 -12.667 6.33398 -45 -0.999023 -97c-7.33301 -50.667 -10.333 -104 -9 -160c0.666992 -54.667 -2.66602 -86.334 -9.99902 -95.001
c-6.66699 -6.66699 -17.167 -9.83398 -31.5 -9.50098s-27.166 4.16602 -38.499 11.499c-8 5.33301 -12.833 12.166 -14.5 20.499s-2.83398 29.5 -3.50098 63.5z" />
    <glyph glyph-name="quotedbl" unicode="&#x22;" horiz-adv-x="295" 
d="M265 561c0 -16.667 -3.33301 -36.667 -10 -60s-13 -36.666 -19 -39.999c-6.66699 -4.66699 -16.167 -6.5 -28.5 -5.5s-20.833 4.16699 -25.5 9.5c-6 7.33301 -8.33301 33 -7 77s5.33301 70.667 12 80c5.33301 7.33301 13.833 12.166 25.5 14.499s21.5 0.833008 29.5 -4.5
c6.66699 -4 12.167 -13 16.5 -27s6.5 -28.667 6.5 -44zM67 434c-9.33301 0 -18.0029 4.00293 -26.0029 12.0029c-5.33301 5.33301 -8.66602 14.333 -9.99902 27s-1.33301 41 0 85c1.33301 48 2.83301 77.167 4.5 87.5s6.83398 19.166 15.501 26.499
c11.333 10 20.833 14.833 28.5 14.5s16.834 -5.83301 27.501 -16.5c8.66699 -8.66699 13.667 -17.834 15 -27.501s1.33301 -37.834 0 -84.501c-0.666992 -54 -3.5 -87.333 -8.5 -100s-16.5 -17.334 -34.5 -14.001c-12.667 2.66699 -17.334 2.33398 -14.001 -0.999023l3 -2
c6.66699 -4.66699 6.33398 -7 -0.999023 -7z" />
    <glyph glyph-name="dollar" unicode="$" horiz-adv-x="440" 
d="M59 311c10.667 6.66699 12.334 10.001 5.00098 10.001c-10.667 -0.666992 -16.667 -3.33398 -18 -8.00098c-4.66699 -6.66699 -5.33398 -10 -2.00098 -10s8.33301 2.66699 15 8zM233 117.001c0 -24.667 -17.6699 -40.3291 -53.0029 -46.9961c-32 -5.33301 -51 10 -57 46
c-2.66699 15.333 -12 29.666 -28 42.999c-17.333 12.667 -33.166 33.5 -47.499 62.5s-20.166 52.167 -17.499 69.5c4.66699 34 12 51 22 51c5.33301 0 4.33301 2.33301 -3 7c-4.66699 3.33301 -6.66699 5.83301 -6 7.5s4 4.83398 10 9.50098c37.333 28 57 4.33301 59 -71
c1.33301 -10.667 3.66602 -16 6.99902 -16c6 8 13 63 21 165c-1.33301 2.66699 -6.33301 14.667 -15 36s-14.334 36.666 -17.001 45.999s-5.5 22.5 -8.5 39.5s-2.5 31.833 1.5 44.5s11.333 24 22 34c20.667 22 35 38.333 43 49c12.667 15.333 26.834 23.166 42.501 23.499
s30.167 -6.83398 43.5 -21.501c14 -14 33.333 -26.333 58 -37c20 -8 40.167 -20.333 60.5 -37s33.166 -31 38.499 -43c2.66699 -7.33301 1.33398 -17.833 -3.99902 -31.5s-10.666 -20.834 -15.999 -21.501c-14.667 -3.33301 -25.167 -4 -31.5 -2s-16.833 9.66699 -31.5 23
c-18.667 18.667 -27.667 28.667 -27 30c0 0.666992 -14 2.66699 -42 6l-10 -128c32.667 -48.667 53.334 -83.667 62.001 -105c16 -38.667 18.833 -78.5 8.5 -119.5s-30.5 -68.5 -60.5 -82.5c-16 -7.33301 -24 -17.333 -24 -30z" />
    <glyph glyph-name="percent" unicode="%" horiz-adv-x="693" 
d="M541 286c-4 0 -10.834 -14.332 -20.501 -42.999s-14.5 -49.334 -14.5 -62.001c0 -15.333 4.66699 -22.333 14 -21c12.667 1.33301 25 15 37 41c0.666992 1.33301 1.33398 3 2.00098 5c4.66699 11.333 6.66699 21 6 29s-4.66699 19.667 -12 35
c-5.33301 10.667 -9.33301 16 -12 16zM432.999 89.001c-2.66699 0 -6.5 3.16602 -11.5 9.49902s-9.5 13.833 -13.5 22.5c-11.333 21.333 -15.333 46 -12 74c2.66699 20 8.16699 44.5 16.5 73.5s15.5 47.5 21.5 55.5c2.66699 4 8 15.5 16 34.5s14.333 30.833 19 35.5
c6.66699 7.33301 17.167 11 31.5 11s27.5 -4 39.5 -12c14 -10 30.667 -21.333 50 -34c38 -25.333 61.333 -53.666 70 -84.999c4 -14 3.33301 -34 -2 -60s-13 -46.667 -23 -62c-14 -21.333 -25 -35.333 -33 -42s-22.667 -15 -44 -25
c-28.667 -12.667 -54.334 -17.667 -77.001 -15c-23.333 1.33301 -35.666 5 -36.999 11c-1.33301 5.33301 -5 8 -11 8zM198.999 554c-14.667 0 -24 -1.33398 -28 -4.00098s-9.66699 -11.334 -17 -26.001c-26 -68.667 -27.667 -111.667 -5 -129
c7.33301 -9.33301 13 -14.666 17 -15.999s10.667 -0.666016 20 2.00098c14 5.33301 27.667 18 41 38c12.667 18 20.167 37.5 22.5 58.5s-0.166992 38.833 -7.5 53.5c-5.33301 10 -10.333 16.333 -15 19s-14 4 -28 4zM167.999 672.999
c-0.666992 -1.33301 0 -2.6709 2 -4.00391s4.5 -2.5 7.5 -3.5s5.83301 -2.16699 8.5 -3.5s4.66699 -2.66602 6 -3.99902s1.66602 -2.66602 0.999023 -3.99902c-5.33301 -5.33301 -1.33301 -11.333 12 -18c7.33301 -3.33301 14.666 -5 21.999 -5
c14 -0.666992 30.5 -7.33398 49.5 -20.001s33.167 -27 42.5 -43c12.667 -22 19.667 -56.333 21 -103c46.667 93.333 72.334 147.666 77.001 162.999c4.66699 18 14.167 31.5 28.5 40.5s28.833 11 43.5 6s25 -15.833 31 -32.5c2.66699 -10 3 -19.5 1 -28.5
s-8 -25.833 -18 -50.5c-21.333 -51.333 -60.166 -126.666 -116.499 -225.999s-93.166 -169.333 -110.499 -210c-10.667 -24 -29.167 -36.5 -55.5 -37.5s-42.833 10.833 -49.5 35.5c-2 9.33301 4.5 30.833 19.5 64.5s32.833 66.834 53.5 99.501
c14.667 24.667 22 38.334 22 41.001c0 2 -5.5 0.166992 -16.5 -5.5s-22.333 -11.167 -34 -16.5s-17.5 -7 -17.5 -5c-2.66699 2.66699 -8.66699 1.33398 -18 -3.99902c-10.667 -5.33301 -25.667 -6.33301 -45 -3c-22 3.33301 -42.667 15.333 -62 36
c-26 25.333 -40.167 54.833 -42.5 88.5s6.16699 79.167 25.5 136.5c22.667 66 43 104.667 61 116c7.33301 4 17.666 6 30.999 6s20 -2 20 -6z" />
    <glyph glyph-name="ampersand" unicode="&#x26;" 
d="M147 215c0 -7.33301 6.33398 -16.165 19.001 -26.498s26.334 -17.5 41.001 -21.5c23.333 -6 55.666 -1.66699 96.999 13c16.667 6 25 12.333 25 19c-0.666992 9.33301 -18.334 32.666 -53.001 69.999c-16 16 -24.333 23.667 -25 23
c-14.667 -2.66699 -35.667 -14.334 -63 -35.001s-41 -34.667 -41 -42zM298.001 568.001c-6.66699 6.66699 -11.667 10.6689 -15 12.002s-6.83301 0.333008 -10.5 -3s-8.83398 -10.333 -15.501 -21c-11.333 -18.667 -15.333 -38.334 -12 -59.001
c6.66699 -42.667 13.667 -63.334 21 -62.001c2.66699 0 9.33398 7 20.001 21c11.333 14 18.333 33.667 21 59s-0.333008 43 -9 53zM388.001 420.003c-4.66699 -0.666992 -8.00098 -6.00488 -10.001 -16.0049s-4.33301 -15.667 -7 -17c-4 -2 -11.333 -9.33301 -22 -22
c-6.66699 -7.33301 -9 -13.333 -7 -18s11.333 -17.667 28 -39c21.333 -28.667 35 -43 41 -43c5.33301 0 13.333 8.33301 24 25c11.333 17.333 22 24.333 32 21c8.66699 -3.33301 16.334 -5 23.001 -5c4.66699 -0.666992 8.83398 -8.16699 12.501 -22.5
s4.5 -26.833 2.5 -37.5c-0.666992 -3.33301 -2 -6.16602 -4 -8.49902s-4 -3.16602 -6 -2.49902c-1.33301 0 -2.5 -1.5 -3.5 -4.5s-1.5 -7.16699 -1.5 -12.5v-20c0.666992 -17.333 0 -28.666 -2 -33.999s-7.66699 -11.333 -17 -18
c-9.33301 -7.33301 -24.5 -12.166 -45.5 -14.499s-36.5 -6.83301 -46.5 -13.5c-20 -12 -46.667 -22.167 -80 -30.5s-63 -12.5 -89 -12.5c-31.333 0 -61.333 7 -90 21s-51.334 32.667 -68.001 56c-44.667 64.667 -21.667 125.667 69 183
c30.667 18.667 47.334 30.334 50.001 35.001c3.33301 4 0 18.333 -10 43c-9.33301 24 -15.333 51 -18 81c-2 21.333 -2 36.833 0 46.5s7.66699 24.167 17 43.5c11.333 23.333 22.333 41 33 53s24.667 22.667 42 32c23.333 12.667 48.5 15.167 75.5 7.5
s50.167 -23.167 69.5 -46.5c18.667 -22.667 29.667 -38.167 33 -46.5s6 -25.5 8 -51.5c4 -10 1.16699 -31.167 -8.5 -63.5s-17.834 -48.5 -24.501 -48.5z" />
    <glyph glyph-name="quotesingle" unicode="'" horiz-adv-x="165" 
d="M46 661c8.66699 8.66699 19.665 12.499 32.998 11.499s25 -6.5 35 -16.5c9.33301 -8.66699 14.833 -20.667 16.5 -36s2.83398 -61 3.50098 -137v-66l-23 -16c-14.667 -10 -25.667 -15.167 -33 -15.5s-15.333 4.16699 -24 13.5c-6.66699 6.66699 -10.667 14.667 -12 24
s-1.66602 31 -0.999023 65c1.33301 46.667 -1 82.334 -7 107.001c-7.33301 28.667 -3.33301 50.667 12 66z" />
    <glyph glyph-name="parenleft" unicode="(" horiz-adv-x="278" 
d="M176 -89c0 -12 -11.001 -0.999023 -33.001 33.001c-26.667 42 -48.334 84 -65.001 126c-20.667 50.667 -33.667 116.667 -39 198c-5.33301 60 -8 90.667 -8 92c-4 35.333 2.5 85.666 19.5 150.999s34.5 107 52.5 125c10.667 10.667 23.5 15.167 38.5 13.5
s28.167 -8.83398 39.5 -21.501c8.66699 -10.667 13.667 -22 15 -34s-1.66699 -20 -9 -24c-8.66699 -4.66699 -17.667 -24 -27 -58s-15 -66.667 -17 -98c-2 -55.333 1.16699 -115.5 9.5 -180.5s20.833 -113.167 37.5 -144.5c2 -4 6.16699 -14.5 12.5 -31.5
s12.5 -28.833 18.5 -35.5c20.667 -27.333 29.334 -49.666 26.001 -66.999s-17.666 -28 -42.999 -32c-18.667 -4 -28 -8 -28 -12z" />
    <glyph glyph-name="parenright" unicode=")" horiz-adv-x="284" 
d="M84 640c9.33301 7.33301 16.6719 11.665 22.0049 12.998s12.666 0.666016 21.999 -2.00098c17.333 -5.33301 32 -17 44 -35s27.333 -53 46 -105c14.667 -41.333 25.167 -98.166 31.5 -170.499s6.16602 -131.5 -0.500977 -177.5c-4 -28 -14.667 -65 -32 -111
s-34.666 -83 -51.999 -111c-12.667 -20.667 -23 -35.5 -31 -44.5s-17.667 -16.167 -29 -21.5c-18 -7.33301 -31 -10.833 -39 -10.5s-16.333 4.83301 -25 13.5c-9.33301 8.66699 -13 20.334 -11 35.001s9.33301 28.667 22 42c30.667 32.667 57 89 79 169
c5.33301 19.333 9 52.833 11 100.5s2.16699 91 0.5 130s-4.83398 56.833 -9.50098 53.5c-0.666992 0 -1.33398 0.5 -2.00098 1.5s-1.5 2.83301 -2.5 5.5s-1.83301 5.66699 -2.5 9s-1.33398 7.33301 -2.00098 12c-2.66699 20.667 -9.33398 46.334 -20.001 77.001
s-19.667 51.667 -27 63c-18 24.667 -15.667 46 7 64z" />
    <glyph glyph-name="asterisk" unicode="*" horiz-adv-x="465" 
d="M332 673c11.333 0 21.999 -3.5 31.999 -10.5s15 -14.5 15 -22.5c0 -6 3 -9 9 -9c7.33301 0 17 -5.33301 29 -16s18 -19.334 18 -26.001c0 -10 -8.66699 -20.5 -26 -31.5s-35.666 -18.167 -54.999 -21.5c-40 -6.66699 -55 -16.334 -45 -29.001
c4.66699 -6 22.334 -20 53.001 -42c26.667 -20 44.5 -36.667 53.5 -50s10.833 -26.666 5.5 -39.999c-2.66699 -7.33301 -7.5 -14.5 -14.5 -21.5s-13.667 -11.5 -20 -13.5s-11.166 -1.33301 -14.499 2c-4 6 -7.33301 6.33301 -10 1c-3.33301 -5.33301 -10.5 -4.5 -21.5 2.5
s-17.833 15.167 -20.5 24.5c-3.33301 10 -7.33301 15 -12 15c-6.66699 -0.666992 -8 -11 -4 -31c6 -37.333 -8 -59 -42 -65c-11.333 -2 -22.833 1 -34.5 9s-17.834 17 -18.501 27c-2.66699 16 -4.66699 25.667 -6 29c-3.33301 -1.33301 -8.16602 -4.33301 -14.499 -9
s-12.666 -9 -18.999 -13s-13 -7.5 -20 -10.5s-14 -4 -21 -3s-13.167 4.83301 -18.5 11.5c-8 9.33301 -12 12.666 -12 9.99902c0 -1.33301 0.666992 -4 2 -8c1.33301 -5.33301 0.666016 -5.66602 -2.00098 -0.999023l-6 10c-8 16 -9.33301 27.667 -4 35
c26.667 38.667 40 64.334 40 77.001c0 4.66699 -3.66699 3.33398 -11 -3.99902c-6.66699 -6.66699 -17.667 -9.33398 -33 -8.00098s-26.666 5.66602 -33.999 12.999c-2.66699 2.66699 -5.33398 4.83398 -8.00098 6.50098s-4.66699 2.5 -6 2.5s-2.5 0.666992 -3.5 2
s-1.66699 3.33301 -2 6s-0.5 7.33398 -0.5 14.001c0 10 1.66699 17.167 5 21.5s11.666 9.83301 24.999 16.5l31 16l-18 11c-22.667 14.667 -23 34 -1 58c10.667 12 24 17 40 15c16.667 -2.66699 28.667 -6 36 -10c8 -3.33301 12 0 12 10c0 8 8 16.333 24 25
c22.667 10.667 44.334 7 65.001 -11c7.33301 -6.66699 12.666 -9.33398 15.999 -8.00098s10.666 8 21.999 20c15.333 16 30.333 24 45 24z" />
    <glyph glyph-name="plus" unicode="+" horiz-adv-x="558" 
d="M503 394c-6.66699 -6.66699 -6.00098 -9.66699 1.99902 -9c8.66699 0 13.334 2 14.001 6c3.33301 6.66699 2.33301 10 -3 10c-4.66699 0 -9 -2.33301 -13 -7zM332.999 494l0.000976562 -57.9932l89 3c55.333 2 83 1 83 -3c0 -0.666992 -0.666992 -2 -2 -4
c-3.33301 -4.66699 -5 -7.83398 -5 -9.50098s2.33301 -3.5 7 -5.5c5.33301 -2 7.66602 -1 6.99902 3s0.333008 6.33301 3 7c4.66699 0 8.33398 -4.83301 11.001 -14.5s2.33398 -18.167 -0.999023 -25.5c-4.66699 -12.667 -11.167 -21 -19.5 -25s-22.833 -6 -43.5 -6
c-18 0 -44.167 -2.16699 -78.5 -6.5s-52.833 -7.83301 -55.5 -10.5c-0.666992 -0.666992 -1.33398 -18.834 -2.00098 -54.501l-2 -106.5c-0.666992 -35.333 -2 -52.666 -4 -51.999c-4 -6.66699 -12.333 -11.834 -25 -15.501s-24.334 -4.5 -35.001 -2.5
c-17.333 3.33301 -28.333 12.166 -33 26.499s-7 46.5 -7 96.5v20c0 38 -2.33301 59.667 -7 65s-21.667 5 -51 -1c-2 -0.666992 -3.66699 -1.16699 -5 -1.5s-3 -0.666016 -5 -0.999023s-4 -0.833008 -6 -1.5c-42.667 -9.33301 -72.667 -11.833 -90 -7.5
s-26 16.166 -26 35.499c0 25.333 18.667 42.333 56 51c23.333 5.33301 38.333 9.33301 45 12c7.33301 3.33301 11 3.66602 11 0.999023c0 -0.666992 -0.333008 -1.33398 -1 -2.00098c-1.33301 -2.66699 1.66699 -3.33398 9 -2.00098l22 5c9.33301 3.33301 20 6.33301 32 9
c11.333 2 18 5.5 20 10.5s3 21.5 3 49.5v5.5v5.5c0 28 0.833008 46.5 2.5 55.5s5.83398 16.167 12.501 21.5c10 8 24.333 11.667 43 11c21.333 -2 34.666 -7.33301 39.999 -16s8 -29.334 8 -62.001z" />
    <glyph glyph-name="comma" unicode="," horiz-adv-x="220" 
d="M112 208c10 0 17.5 -1.66504 22.5 -4.99805s10.833 -11.333 17.5 -24c12.667 -22.667 22.667 -46.334 30 -71.001s9.66602 -43.667 6.99902 -57c-2.66699 -14 -13.334 -31 -32.001 -51c-9.33301 -10 -14 -12.333 -14 -7c-0.666992 2 -1.66699 2.66699 -3 2
s-3.66602 -2 -6.99902 -4c-7.33301 -6 -24 -10.333 -50 -13c-22 -2.66699 -36.333 -1.83398 -43 2.49902s-10 14.833 -10 31.5c0 11.333 3 19.666 9 24.999s16 9 30 11c8.66699 0.666992 14.5 2.5 17.5 5.5s4.83301 8.83301 5.5 17.5c1.33301 10.667 -1.66699 24.5 -9 41.5
s-13.666 25.5 -18.999 25.5c-4 0 -6.16699 3.33301 -6.5 10s1.16699 14.334 4.5 23.001s7.33301 15.667 12 21c10 10.667 22.667 16 38 16z" />
    <glyph glyph-name="hyphen" unicode="-" horiz-adv-x="418" 
d="M388 319c-0.666992 -2.66699 -4.00586 -2.66699 -10.0059 0c-2 0.666992 -2.66699 0.333984 -2 -0.999023s2.33398 -3.66602 5.00098 -6.99902c4.66699 -5.33301 6.66699 -9.5 6 -12.5s-4.66699 -7.5 -12 -13.5c-7.33301 -8.66699 -32.333 -13.667 -75 -15
s-68.334 -3.33301 -77.001 -6c-24.667 -5.33301 -58 -10.333 -100 -15c-30 -3.33301 -49.167 -4.83301 -57.5 -4.5s-15.833 3.5 -22.5 9.5c-17.333 15.333 -17.333 33.333 0 54c6.66699 8 15.334 13.667 26.001 17s34.334 6.66602 71.001 9.99902
c60.667 6.66699 94 11 100 13c14.667 4 33.334 5.5 56.001 4.5s35.334 -3.83301 38.001 -8.5c2 -4 4.66699 -6 8 -6s5.83301 1.16699 7.5 3.5s1.83398 5.16602 0.500977 8.49902c-2 4 0.666992 4.33301 8 1c6.66699 -2 13.334 -6.5 20.001 -13.5s10 -13.167 10 -18.5z" />
    <glyph glyph-name="period" unicode="." horiz-adv-x="173" 
d="M59 177c8 4.66699 26.332 5.99902 54.999 3.99902c6 -1.33301 12.333 -9.33301 19 -24c18.667 -32.667 12.334 -55.334 -18.999 -68.001c-13.333 -5.33301 -22 -8.16602 -26 -8.49902s-12.667 0.833984 -26 3.50098c-20.667 4 -31.167 18 -31.5 42s9.16699 41 28.5 51z
" />
    <glyph glyph-name="slash" unicode="/" horiz-adv-x="357" 
d="M299 563c0 -4.66699 -1.66699 -10.4971 -5 -17.4971s-7 -12.833 -11 -17.5s-7 -6 -9 -4c-1.33301 1.33301 -2.33301 1.66602 -3 0.999023s0.333008 -2.66699 3 -6c2.66699 -4 1.83398 -15.5 -2.49902 -34.5s-9.16602 -32.5 -14.499 -40.5c-6 -16 -28 -85.333 -66 -208
s-62.667 -192.334 -74 -209.001c-6.66699 -5.33301 -13.334 -7.33301 -20.001 -6c-6 2.66699 -9 1.66699 -9 -3c0 -3.33301 -2.66699 -5.5 -8 -6.5s-11.666 -0.666992 -18.999 1s-13.333 4.16699 -18 7.5c-18 12.667 -16.333 46 5 100c6 14 17.667 47.667 35 101
s29.666 87.333 36.999 102c5.33301 8.66699 8.66602 19.667 9.99902 33s3.33301 23.333 6 30c2 4.66699 16.5 49.167 43.5 133.5s42.5 130.166 46.5 137.499c5.33301 10.667 10.166 17 14.499 19s13.5 2.33301 27.5 1c26 -2 43.833 -12.333 53.5 -31
s6.83398 -37.667 -8.49902 -57c-9.33301 -11.333 -14 -20 -14 -26z" />
    <glyph glyph-name="zero" unicode="0" horiz-adv-x="461" 
d="M239 561c-15.333 9.33301 -26.833 13.501 -34.5 12.501s-15.167 -7.5 -22.5 -19.5c-25.333 -44 -40 -115.667 -44 -215c-2 -46.667 -2.33301 -76.334 -1 -89.001s6 -26.667 14 -42c6.66699 -13.333 12.167 -21.833 16.5 -25.5s10.5 -5.16699 18.5 -4.5
c23.333 1.33301 50.333 17.5 81 48.5s52.667 64.5 66 100.5c16.667 42 16.667 81 0 117c-9.33301 19.333 -24 41.5 -44 66.5s-36.667 41.833 -50 50.5zM121 99.001c-12 5.33301 -19.666 9.33398 -22.999 12.001s-6.66602 7 -9.99902 13s-8.66602 12.667 -15.999 20
c-14.667 17.333 -25.334 37 -32.001 59c-9.33301 32.667 -12.5 86.334 -9.5 161.001s10.833 128.334 23.5 161.001c6.66699 16 12.667 34.333 18 55c4.66699 18 13.667 31.5 27 40.5s29 11.833 47 8.5c11.333 -2 21.333 -0.833008 30 3.5s16.334 6.5 23.001 6.5
c14 2 30.167 1.33301 48.5 -2s33.666 -8 45.999 -14s17.5 -12 15.5 -18c-2 -3.33301 -2.33301 -5.33301 -1 -6s2.66602 -0.333984 3.99902 0.999023c7.33301 4.66699 24.5 -8.83301 51.5 -40.5s46.167 -61.167 57.5 -88.5c6.66699 -16 10 -39.167 10 -69.5
s-3.33301 -55.166 -10 -74.499c-16 -46.667 -39.333 -88.334 -70 -125.001s-65.334 -64.334 -104.001 -83.001c-30.667 -15.333 -55 -24.333 -73 -27s-35.667 -0.333984 -53 6.99902z" />
    <glyph glyph-name="one" unicode="1" horiz-adv-x="197" 
d="M35 618c8 14 22.333 22.501 43 25.501s37.334 -1.83301 50.001 -14.5c11.333 -9.33301 18.5 -20 21.5 -32s2.16699 -29.667 -2.5 -53c-5.33301 -28 -7.5 -76.833 -6.5 -146.5s4.5 -126.834 10.5 -171.501c10 -72 15.333 -118 16 -138s-2.33301 -33 -9 -39
c-10 -6.66699 -25.833 -9.66699 -47.5 -9s-35.834 4.66699 -42.501 12c-8.66699 10 -16.834 55 -24.501 135s-12.167 165.667 -13.5 257c-1.33301 107.333 0.333984 165.333 5.00098 174z" />
    <glyph glyph-name="two" unicode="2" horiz-adv-x="551" 
d="M366 244c0.666992 -2.66699 12.833 -2.66797 36.5 -0.000976562s41.834 6 54.501 10c9.33301 2.66699 21 0.5 35 -6.5s22.667 -15.167 26 -24.5c6 -18.667 1.83301 -32.667 -12.5 -42s-45.166 -17.666 -92.499 -24.999c-67.333 -10 -134.333 -26.667 -201 -50
c-87.333 -29.333 -144.333 -34 -171 -14c-13.333 10.667 -15 26.667 -5 48c4 8.66699 11.5 15.334 22.5 20.001s35.167 11.667 72.5 21c62 14 117.667 60 167 138c30.667 48 52.5 96.167 65.5 144.5s12.833 79.166 -0.5 92.499c-10.667 10 -38.667 5 -84 -15
c-16.667 -7.33301 -37.167 -19 -61.5 -35s-37.5 -26.333 -39.5 -31c-2 -3.33301 -12.833 -5 -32.5 -5s-31.834 1.66699 -36.501 5c-6.66699 4 -12.334 11.667 -17.001 23s-6 20.333 -4 27c2 6 18.833 20 50.5 42s59.5 39 83.5 51c22.667 10.667 55.667 20.667 99 30
c52.667 10.667 93 0.833984 121 -29.499s38.333 -75.5 31 -135.5c-4 -32.667 -16.5 -73.334 -37.5 -122.001s-40.833 -82.667 -59.5 -102c-6.66699 -6.66699 -10 -11.667 -10 -15z" />
    <glyph glyph-name="three" unicode="3" horiz-adv-x="472" 
d="M442 201c0 -30.667 -17.8398 -61.3301 -53.5068 -91.9971s-78.5 -52.667 -128.5 -66c-25.333 -6.66699 -55.666 -10 -90.999 -10s-62.333 3.33301 -81 10c-15.333 5.33301 -26.166 11.666 -32.499 18.999s-13.166 21 -20.499 41c-4 11.333 -5.66699 18.666 -5 21.999
s3.66699 7 9 11c17.333 12.667 42 10.667 74 -6c12.667 -6.66699 23.667 -10.5 33 -11.5s24.333 -0.5 45 1.5c60.667 6 103.334 24.333 128.001 55c24.667 32.667 24.334 52.667 -0.999023 60c-19.333 6 -70 6.66699 -152 2c-36 -2.66699 -54.333 11.666 -55 42.999
c0 8 3 14.833 9 20.5s19.667 14.834 41 27.501c26.667 15.333 52.834 35 78.501 59s45.167 46.667 58.5 68c10.667 16.667 18.667 38 24 64c4.66699 24.667 3.33398 40 -3.99902 46c-10.667 8 -32.167 5.5 -64.5 -7.5s-59.833 -30.167 -82.5 -51.5
c-34 -32.667 -60.333 -45.667 -79 -39c-10.667 4 -19.5 9.83301 -26.5 17.5s-10.5 15.5 -10.5 23.5c0 16 20.833 39 62.5 69s80.5 50.333 116.5 61c72.667 22 126.667 15.333 162 -20c10.667 -10.667 17 -19.834 19 -27.501s2.66699 -25.5 2 -53.5
c0 -34 -4.16699 -62.333 -12.5 -85s-24.833 -49.667 -49.5 -81l-31 -41l26 -9c34 -12.667 57.833 -28 71.5 -46s20.5 -42.667 20.5 -74z" />
    <glyph glyph-name="four" unicode="4" horiz-adv-x="483" 
d="M294 532c-3.33301 0 -10 -10.998 -20 -32.998c-6.66699 -15.333 -21 -43 -43 -83c-35.333 -62 -51 -95.333 -47 -100c2 -2 19.833 -0.833008 53.5 3.5s51.5 7.83301 53.5 10.5c0.666992 -2.66699 1.66699 14.166 3 50.499s2.33301 69.666 3 99.999
s-0.333008 47.5 -3 51.5zM453 297.002c1.33301 -10 0.170898 -17.8398 -3.49609 -23.5068s-9 -10.667 -16 -15s-11.5 -8.16602 -13.5 -11.499c-4 -4 -4.66699 -38.333 -2 -103c2 -47.333 2.5 -75.833 1.5 -85.5s-5.5 -16.834 -13.5 -21.501
c-6.66699 -3.33301 -16.167 -7 -28.5 -11s-25.5 -6 -39.5 -6s-22.333 4.33301 -25 13c-2.66699 2.66699 -5 9.16699 -7 19.5s-3.33301 22.833 -4 37.5s-1.16699 28.834 -1.5 42.501l-1 42c-0.333008 14.333 -0.5 23.166 -0.5 26.499
c-0.666992 11.333 -2.33398 18.333 -5.00098 21s-9.66699 3.66699 -21 3c-82 -3.33301 -139.333 -2.66602 -172 2.00098s-54 15.334 -64 32.001c-5.33301 10 -7.33301 18 -6 24c2.66699 9.33301 29 54.333 79 135c13.333 21.333 22.166 36 26.499 44
s8.66602 17.167 12.999 27.5s10.5 23.5 18.5 39.5c5.33301 10 10.833 22.333 16.5 37s11 26 16 34s12.833 15.667 23.5 23c20 12.667 40.667 13.334 62 2.00098c10.667 -6 21 -5.33301 31 2c11.333 7.33301 26.5 10.833 45.5 10.5s31.833 -4.16602 38.5 -11.499
c11.333 -13.333 18.166 -25.666 20.499 -36.999s2.16602 -30.333 -0.500977 -57c-3.33301 -24 -6.66602 -86.333 -9.99902 -187c2 -1.33301 7 -3.66602 15 -6.99902s13.333 -6.16602 16 -8.49902s5.5 -6.33301 8.5 -12s3.83301 -12.5 2.5 -20.5z" />
    <glyph glyph-name="five" unicode="5" horiz-adv-x="508" 
d="M164 356c2 0 19.666 9.66406 52.999 28.9971c38.667 22.667 79.834 38.5 123.501 47.5s76.834 8.16699 99.501 -2.5c16 -7.33301 26.833 -18.5 32.5 -33.5s7.16699 -37.167 4.5 -66.5c-4.66699 -57.333 -28.5 -119.166 -71.5 -185.499s-87.833 -109.833 -134.5 -130.5
c-32.667 -14.667 -57.667 -19.334 -75 -14.001c-6 2 -8.66699 5.33301 -8 10c0.666992 2 -0.166016 3.83301 -2.49902 5.5s-5.16602 2.5 -8.49902 2.5c-7.33301 0 -12.833 3.66699 -16.5 11s-6.83398 22.333 -9.50098 45c-2 16.667 -2.16699 26.834 -0.5 30.501
s8.16699 7.5 19.5 11.5c10 3.33301 17.167 4.83301 21.5 4.5s9.83301 -3.83301 16.5 -10.5c10 -9.33301 17.833 -13.5 23.5 -12.5s14.834 8.16699 27.501 21.5c71.333 84.667 109.666 162 114.999 232c-24.667 -4.66699 -46 -11.167 -64 -19.5s-40.333 -22.5 -67 -42.5
c-33.333 -25.333 -65 -40.833 -95 -46.5s-52.333 -0.166992 -67 16.5c-14.667 17.333 -28.334 57.5 -41.001 120.5s-14 97.5 -4 103.5c6.66699 4.66699 11 17 13 37c2 2 6.66699 4 14 6s12.333 5.33301 15 10c7.33301 8.66699 24.333 18.667 51 30s60.5 24 101.5 38
s66.167 23 75.5 27c32 12.667 54.5 19.167 67.5 19.5s25.5 -5.16699 37.5 -16.5c10.667 -11.333 16.667 -23.666 18 -36.999s-2.33398 -25 -11.001 -35c-5.33301 -6 -25.666 -14.667 -60.999 -26s-71 -20.666 -107 -27.999c-38.667 -8 -75.334 -27 -110.001 -57
c0.666992 -2.66699 2.66699 -13 6 -31s6.5 -32.833 9.5 -44.5s5.83301 -18.167 8.5 -19.5z" />
    <glyph glyph-name="six" unicode="6" horiz-adv-x="479" 
d="M264 201c7.33301 0 20.667 13.667 40 41s32.333 51.333 39 72c8.66699 30.667 11 61.667 7 93c-19.333 -18.667 -34 -35 -44 -49s-19 -34 -27 -60c-4 -12 -7.66699 -25.833 -11 -41.5s-5.33301 -28.5 -6 -38.5s0 -15.667 2 -17zM286.001 561
c-12.667 0 -22.1689 -1.66699 -28.502 -5s-15.166 -11.333 -26.499 -24c-26.667 -31.333 -48 -72.166 -64 -122.499s-22.333 -97.833 -19 -142.5c0.666992 -6 2 -9 4 -9c4.66699 -0.666992 7.66699 3.66602 9 12.999c0.666992 1.33301 1 3 1 5
c1.33301 12 10.333 38.333 27 79c17.333 40.667 38.666 74.167 63.999 100.5s50.666 41.5 75.999 45.5c18.667 2.66699 38.667 1.16699 60 -4.5s31.333 -12.167 30 -19.5c-1.33301 -5.33301 1 -8 7 -8s10.5 -3.66699 13.5 -11s5.83301 -23 8.5 -47
c2.66699 -22.667 -0.166016 -51.834 -8.49902 -87.501s-19.5 -65.834 -33.5 -90.501c-12 -20.667 -30.333 -44.834 -55 -72.501s-43.667 -45.5 -57 -53.5c-12.667 -7.33301 -32 -14.5 -58 -21.5s-48 -10.5 -66 -10.5c-13.333 0 -28.5 4.33301 -45.5 13
s-30.833 19.334 -41.5 32.001c-18 19.333 -30.667 41 -38 65s-12 56 -14 96c-2 42.667 0.5 78 7.5 106s22.833 68.333 47.5 121c14.667 30 35.334 60.333 62.001 91s49.667 50.334 69 59.001c13.333 6 32.333 7.83301 57 5.5s41.334 -7.16602 50.001 -14.499
c20 -18 25.667 -37.167 17 -57.5s-27 -30.5 -55 -30.5z" />
    <glyph glyph-name="seven" unicode="7" horiz-adv-x="484" 
d="M396 467c0 -8 -2.00293 -12.999 -6.00293 -14.999c-7.33301 -13.333 -22.166 -56.166 -44.499 -128.499s-34.833 -111.833 -37.5 -118.5c-11.333 -35.333 -17 -58 -17 -68c0 -12.667 -6 -23.667 -18 -33s-26.667 -15 -44 -17c-20.667 -2.66699 -35.5 -0.666992 -44.5 6
s-13.5 18.667 -13.5 36s17.833 81.166 53.5 191.499s61.834 181.5 78.501 213.5c13.333 26.667 17.333 41.667 12 45c-7.33301 4 -43.333 -4.33301 -108 -25c-62 -20 -107 -28.833 -135 -26.5s-42 15.833 -42 40.5c0 15.333 4.33301 26.666 13 33.999
s25.334 13.333 50.001 18c36.667 8 103.667 25.667 201 53c14 4.66699 37.667 7 71 7c50 0.666992 78.833 -11 86.5 -35s-3.83301 -66.333 -34.5 -127c-14 -29.333 -21 -46.333 -21 -51z" />
    <glyph glyph-name="eight" unicode="8" horiz-adv-x="511" 
d="M224 180c12 0 33.833 7.66895 65.5 23.002s53.834 29 66.501 41c13.333 13.333 21.166 23 23.499 29s3.16602 18.667 2.49902 38c-1.33301 27.333 -4.33301 41.666 -9 42.999c-8.66699 -2 -26.167 -10.833 -52.5 -26.5s-42.166 -24.834 -47.499 -27.501
c-19.333 -9.33301 -36 -28 -50 -56c-21.333 -42.667 -21 -64 1 -64zM227 490.002c-7.33301 0 -21.833 -15.3311 -43.5 -45.998s-32.5 -51.334 -32.5 -62.001c0 -5.33301 0.333008 -8.33301 1 -9c1.33301 -0.666992 3.66602 1.33301 6.99902 6l4 6
c18.667 27.333 41.334 52.666 68.001 75.999c18 15.333 16.667 25 -4 29zM352 518.004l-2.99902 4.49902c-0.666992 1 -1.33398 1.83301 -2.00098 2.5s-1.5 0.666992 -2.5 0s-2 -1.16699 -3 -1.5s-2.5 -1.16602 -4.5 -2.49902s-4 -2.33301 -6 -3l-9 -5
c0.666992 -0.666992 5.66699 -1 15 -1c10.667 0 15.667 2 15 6zM405.001 610.003c0 -11.333 6.66797 -23.667 20.001 -37c24 -24 30 -60.333 18 -109c-4.66699 -18 -6.83398 -30 -6.50098 -36s3.16602 -13.333 8.49902 -22c18.667 -27.333 30 -51.333 34 -72
s2.66699 -46 -4 -76c-5.33301 -25.333 -17.166 -46.666 -35.499 -63.999s-51.166 -38.666 -98.499 -63.999c-51.333 -27.333 -100.333 -41 -147 -41c-16 0 -36.5 6 -61.5 18s-40.167 23 -45.5 33s-7.66602 27.5 -6.99902 52.5s3.66699 45.167 9 60.5c4 12 5.16699 20 3.5 24
s-8.83398 11.667 -21.501 23c-20.667 18.667 -33.334 34.167 -38.001 46.5s-3.66699 29.833 3 52.5c8.66699 30.667 14.167 48.834 16.5 54.501s4.83301 8.5 7.5 8.5c4.66699 0 7 3 7 9c0 9.33301 21.167 34.166 63.5 74.499s81.5 73.166 117.5 98.499
c14 10 40.333 19.667 79 29c3.33301 0 13.333 -2.33301 30 -7c32 -8.66699 48 -27.334 48 -56.001z" />
    <glyph glyph-name="nine" unicode="9" horiz-adv-x="445" 
d="M290 517c0 4.66699 -4.66504 9.66602 -13.998 14.999c-8.66699 4 -15.167 6 -19.5 6s-10.833 -2.33301 -19.5 -7c-20 -12 -38.167 -30.833 -54.5 -56.5s-26.5 -52.5 -30.5 -80.5c-2.66699 -19.333 -1.33398 -29 3.99902 -29c7.33301 0.666992 20 10.334 38 29.001
c19.333 19.333 40.166 43.5 62.499 72.5s33.5 45.833 33.5 50.5zM230.002 635.999c50 8 87.333 0.666016 112 -22.001c29.333 -27.333 41.333 -52.333 36 -75c-3.33301 -14 -1 -26.333 7 -37c5.33301 -8.66699 9.16602 -19 11.499 -31s6.5 -43.333 12.5 -94
c6 -52 7.5 -114.333 4.5 -187s-9.5 -121.334 -19.5 -146.001c-7.33301 -18.667 -23.833 -31 -49.5 -37s-44.834 -2.33301 -57.501 11c-8 9.33301 -11 16.333 -9 21c2.66699 5.33301 2 8.33301 -2 9c-4.66699 1.33301 -3.66699 17.333 3 48
c7.33301 32.667 12.333 80.334 15 143.001s1.33398 95.667 -3.99902 99c-6 3.33301 -21 -6 -45 -28c-24 -21.333 -44.167 -35.5 -60.5 -42.5s-34.833 -9.16699 -55.5 -6.5c-44.667 5.33301 -74.5 26.333 -89.5 63s-12.5 81.667 7.5 135c18 48 43.333 87.833 76 119.5
s68.334 50.834 107.001 57.501z" />
    <glyph glyph-name="colon" unicode=":" horiz-adv-x="222" 
d="M192 114c0 -21.333 -5.5 -36.998 -16.5 -46.998s-28.833 -15.333 -53.5 -16c-23.333 -1.33301 -41 7.16699 -53 25.5s-11.667 36.166 1 53.499c10.667 14 21 23 31 27c18.667 10 36 12 52 6c7.33301 -3.33301 9.33301 -7.66602 6 -12.999c-2 -4 -0.666992 -4.66699 4 -2
c5.33301 3.33301 11.5 1.16602 18.5 -6.50098s10.5 -16.834 10.5 -27.501zM53 469.002c22.667 9.33301 45.667 9.66797 69 1.00098s34 -21.334 32 -38.001c-3.33301 -28 -17 -47.333 -41 -58c-10 -4 -17.833 -5.83301 -23.5 -5.5s-14.167 3.5 -25.5 9.5
c-19.333 10 -30.5 25.833 -33.5 47.5s4.5 36.167 22.5 43.5z" />
    <glyph glyph-name="semicolon" unicode=";" horiz-adv-x="252" 
d="M103 194c11.333 8.66699 18.834 13.165 22.501 13.498s12.167 -2.5 25.5 -8.5c20.667 -9.33301 33.667 -20.166 39 -32.499s9.66602 -43.166 12.999 -92.499c2 -29.333 -0.166992 -53.333 -6.5 -72s-18.833 -37.334 -37.5 -56.001
c-16.667 -16.667 -37.667 -25.5 -63 -26.5s-43.666 6.5 -54.999 22.5c-10 12.667 -13.333 25.167 -10 37.5s13 20.833 29 25.5c29.333 8 36.666 45.333 21.999 112c-5.33301 20.667 -6.83301 35.834 -4.5 45.501s10.833 20.167 25.5 31.5zM159.001 391.998
c-23.333 0 -39.334 3.16797 -48.001 9.50098s-13 18.166 -13 35.499c0 14.667 3.5 27 10.5 37s16.5 16 28.5 18c16 3.33301 28 4 36 2s18 -9 30 -21c16.667 -16.667 22.334 -28.334 17.001 -35.001s-6.33301 -11 -3 -13c2 -3.33301 -1 -9.66602 -9 -18.999
c-8.66699 -9.33301 -25 -14 -49 -14z" />
    <glyph glyph-name="equal" unicode="=" horiz-adv-x="545" 
d="M484 296c-10 0 -16.001 -1.66602 -18.001 -4.99902c-2.66699 -4.66699 -16.667 -7.66699 -42 -9c-108 -8.66699 -200 -17 -276 -25c-42.667 -4.66699 -71.5 -5.33398 -86.5 -2.00098s-24.5 12.333 -28.5 27c-2.66699 12.667 0.5 24.834 9.5 36.501s21.167 19.5 36.5 23.5
c34.667 4.66699 91 10 169 16s136 9.66699 174 11c26.667 0.666992 44.167 0.166992 52.5 -1.5s16.833 -6.16699 25.5 -13.5c9.33301 -8.66699 14.5 -14.834 15.5 -18.501s-1.16699 -10.167 -6.5 -19.5c-7.33301 -13.333 -15.666 -20 -24.999 -20zM483.999 476.001
c-6.66699 0 -8.66699 -3.66504 -6 -10.998c1.33301 -2.66699 1 -4.83398 -1 -6.50098s-6 -2.83398 -12 -3.50098s-14.5 -1 -25.5 -1h-41.5c-72 1.33301 -110 0.333008 -114 -3c-6.66699 -4 -35.834 -10.167 -87.501 -18.5s-86.834 -12.5 -105.501 -12.5
c-22.667 0 -38.334 2.83301 -47.001 8.5s-13.334 16.5 -14.001 32.5c0 11.333 6.16699 22.5 18.5 33.5s24.833 16.5 37.5 16.5c10.667 0.666992 44.834 6 102.501 16s91.834 15 102.501 15c42.667 4 84.5 2.66699 125.5 -4s65.167 -16.334 72.5 -29.001
c4.66699 -7.33301 6.33398 -14.666 5.00098 -21.999s-4.66602 -11 -9.99902 -11z" />
    <glyph glyph-name="greater" unicode="&#x3e;" horiz-adv-x="595" 
d="M191 138c-36.667 0 -55.001 12.3291 -55.001 36.9961c0 12.667 3.83301 22.834 11.5 30.501s27.5 21.5 59.5 41.5c16.667 10 32.834 20.5 48.501 31.5s30.5 20.167 44.5 27.5c12.667 6.66699 19 12.334 19 17.001c0 3.33301 3.33301 5 10 5c8 0 24 12 48 36
c13.333 13.333 18 20.333 14 21c-6 -0.666992 -21 2.83301 -45 10.5s-39.333 11.834 -46 12.501c-96.667 13.333 -157 21 -181 23c-29.333 2 -48.666 4.16699 -57.999 6.5s-16 6.83301 -20 13.5c-7.33301 10 -11 19.333 -11 28c0 6.66699 5 15.5 15 26.5
s19.667 18.167 29 21.5c14 5.33301 62.667 2.33301 146 -9c29.333 -3.33301 58 -7.5 86 -12.5s50.333 -9.66699 67 -14l69 -18.5c29.333 -8 52 -14 68 -18c21.333 -5.33301 35.666 -14.666 42.999 -27.999c9.33301 -15.333 13 -27.833 11 -37.5s-10.333 -19.167 -25 -28.5
l-67 -52.5c-34 -27 -67.333 -50.833 -100 -71.5l-115 -77c-19.333 -14.667 -41.333 -22 -66 -22z" />
    <glyph glyph-name="question" unicode="?" horiz-adv-x="390" 
d="M239 208c6.66699 0 13.832 -6.50098 21.499 -19.501s11.5 -24.5 11.5 -34.5c0 -29.333 -19.333 -44 -58 -44c-19.333 0 -34.833 3.83301 -46.5 11.5s-17.5 17.834 -17.5 30.501c0 16 6.83301 31 20.5 45s29.834 18.667 48.501 14c12 -2 18.667 -3 20 -3zM269.998 307.999
c-29.333 0 -47.498 6.99707 -54.498 20.9971s-3.83301 37.333 9.5 70c12.667 30.667 20 62.334 22 95.001c2 22.667 2.5 36.834 1.5 42.501s-4.83301 9.5 -11.5 11.5c-11.333 2.66699 -27.5 -4 -48.5 -20s-37.167 -34.667 -48.5 -56s-23.333 -34.833 -36 -40.5
s-28.334 -5.16699 -47.001 1.5c-27.333 11.333 -34 33 -20 65c15.333 34 38.333 64.167 69 90.5s63.667 44.166 99 53.499c54.667 14.667 96 10.334 124 -12.999c16.667 -13.333 26.667 -43.166 30 -89.499s-1.33398 -94.833 -14.001 -145.5
c-8.66699 -37.333 -17.5 -61 -26.5 -71s-25.167 -15 -48.5 -15z" />
    <glyph glyph-name="at" unicode="@" horiz-adv-x="802" 
d="M98 -89c3.33301 -8 10.335 -8.66699 21.002 -2c7.33301 4 7.66602 6.66699 0.999023 8h-8c-8.66699 -0.666992 -13.334 -2.66699 -14.001 -6zM108.002 -101c-5.33301 -0.666992 -14.1631 3.83008 -26.4961 13.4971s-20.166 14.5 -23.499 14.5
c-2.66699 -0.666992 -6.16699 2.5 -10.5 9.5s-8.16602 9.5 -11.499 7.5c-2.66699 8 -4.33398 41.167 -5.00098 99.5s-1 128.166 -1 209.499v143c90.667 89.333 204.667 164 342 224c18 7.33301 41.333 14.666 70 21.999c28 6.66699 61 9 99 7s67.333 -7.66699 88 -17
c94.667 -44 142.334 -134.333 143.001 -271c0.666992 -38 -2 -66.667 -8 -86s-23.333 -56 -52 -110c-6 -11.333 -13.5 -22.166 -22.5 -32.499s-17.333 -17.5 -25 -21.5s-12.834 -4 -15.501 0c-2.66699 3.33301 -4.33398 4.83301 -5.00098 4.5s-1 -2.83301 -1 -7.5
c0 -6.66699 -7.33301 -17.334 -22 -32.001s-25.667 -22 -33 -22c-6 0 -9 -2.33301 -9 -7c0 -5.33301 -14.167 -12.666 -42.5 -21.999s-52.166 -14.333 -71.499 -15c-22.667 -0.666992 -44.5 0.666016 -65.5 3.99902s-31.5 7.33301 -31.5 12c0 4 -3.66699 6 -11 6
c-6 0 -17.667 8.66699 -35 26c-12.667 13.333 -20.834 20.666 -24.501 21.999s-10.5 -1 -20.5 -7c-20.667 -12 -47.667 -13.333 -81 -4c-18.667 5.33301 -31.5 10.833 -38.5 16.5s-13.5 15.834 -19.5 30.501c-22.667 53.333 -9 130 41 230
c15.333 31.333 31.166 56 47.499 74s36.166 32.333 59.499 43c20.667 10 46.667 14.667 78 14c11.333 -0.666992 16.666 -2.66699 15.999 -6c-1.33301 -2 1 -3.66699 7 -5c4 -0.666992 9.33301 -1 16 -1c16.667 -0.666992 30.334 -5.16699 41.001 -13.5s16 -18.833 16 -31.5
c0 -36.667 -28 -52 -84 -46l-40 5c-30.667 -30.667 -53.5 -59.667 -68.5 -87s-23.167 -62.333 -24.5 -105l-3 -38c36 34.667 57.333 62 64 82c6 18 11 28 15 30c4.66699 3.33301 7 9 7 17c0 9.33301 9.66699 22.333 29 39c12.667 11.333 21.834 18.333 27.501 21
s13.167 3 22.5 1c46.667 -10 58.667 -36 36 -78c-27.333 -52 -35 -97 -23 -135c10.667 -34 44.334 -43 101.001 -27c20.667 6 37.167 13.167 49.5 21.5s29.5 23.5 51.5 45.5c32 33.333 51.667 81.666 59 144.999c4 39.333 2.33301 74.333 -5 105
c-6.66699 26 -16.834 50.333 -30.501 73s-28.5 39.667 -44.5 51c-14.667 10 -36.334 16.167 -65.001 18.5s-56 -0.166992 -82 -7.5c-19.333 -5.33301 -55.666 -21.166 -108.999 -47.499s-85 -43.833 -95 -52.5c-4.66699 -4.66699 -10.334 -8 -17.001 -10
s-12.334 -5.66699 -17.001 -11c-2.66699 -2.66699 -13 -11.334 -31 -26.001s-35 -29.167 -51 -43.5s-25 -23.833 -27 -28.5c-2 -3.33301 -8.33301 -12.333 -19 -27c-8.66699 -10 -17.167 -29.167 -25.5 -57.5s-12.5 -53.166 -12.5 -74.499
c1.33301 -65.333 23.333 -129.666 66 -192.999c12 -16.667 17.333 -31 16 -43c-1.33301 -6 -1.5 -9.16699 -0.5 -9.5s4.5 1.83398 10.5 6.50098c6.66699 5.33301 10 7.33301 10 6s-0.666992 -4 -2 -8s-1.83301 -6.66699 -1.5 -8s2.16602 -1.66602 5.49902 -0.999023
c6.66699 2.66699 13 1.66699 19 -3s7.66699 -10 5 -16c-2 -5.33301 -10.333 -9.66602 -25 -12.999s-23.667 -2.66602 -27 2.00098c-2.66699 4 -8 6 -16 6z" />
    <glyph glyph-name="A" unicode="A" horiz-adv-x="611" 
d="M386 346c1.33301 3.33301 -3.33203 24.168 -13.999 62.501s-17.334 57.166 -20.001 56.499c-4 4 -10.667 -2 -20 -18c-9.33301 -15.333 -20.333 -37.833 -33 -67.5s-18 -45.5 -16 -47.5c1.33301 -1.33301 18.333 0.166992 51 4.5s50 7.5 52 9.5zM557.002 325.002
c0 -15.333 -5 -24.333 -15 -27c-6.66699 -2 -10.5 -5 -11.5 -9s-0.5 -12.667 1.5 -26c-0.666992 -5.33301 4.16602 -23.5 14.499 -54.5s19.333 -61.167 27 -90.5s8.5 -46.333 2.5 -51c-6 -12.667 -13 -18.334 -21 -17.001s-12 0.333008 -12 -3
c0 -5.33301 -6 -8.66602 -18 -9.99902s-23.667 0.333984 -35 5.00098c-10 4 -16.667 8.66699 -20 14s-6 15 -8 29c-3.33301 21.333 -7.33301 33 -12 35c-4 2.66699 -6 9.33398 -6 20.001c-0.666992 7.33301 -6.16699 27.5 -16.5 60.5s-16.833 50.833 -19.5 53.5
c-5.33301 5.33301 -48 -2 -128 -22c-25.333 -6 -41.333 -12.333 -48 -19c-8 -8 -23.667 -38.333 -47 -91c-0.666992 -2 -1.33398 -3.66699 -2.00098 -5c-19.333 -42.667 -35.833 -70.334 -49.5 -83.001s-31.834 -16.334 -54.501 -11.001c-6 1.33301 -11.5 2.33301 -16.5 3
s-8.33301 0.833984 -10 0.500977s-3.66699 0.166992 -6 1.5s-4.16602 3.33301 -5.49902 6s-3.33301 7 -6 13c-11.333 22.667 -1.66602 62 29.001 118c4 6.66699 11.5 26.167 22.5 58.5s20.167 52.833 27.5 61.5c8.66699 10 13 17.667 13 23
c0.666992 3.33301 14.5 40.333 41.5 111s40.5 110 40.5 118c0.666992 18.667 8.16699 32.667 22.5 42s31.5 15 51.5 17c16.667 0 28.334 6.33301 35.001 19c10 14 23.167 24.167 39.5 30.5s34.833 5.83301 55.5 -1.5c12 -6 21 -14.5 27 -25.5s12 -32.5 18 -64.5
c4 -20 9.66699 -44.667 17 -74l15 -60c1.33301 -5.33301 3 -11.666 5 -18.999c4 -16.667 7 -26.334 9 -29.001s6.66699 -5 14 -7c2 -0.666992 3.66699 -1.16699 5 -1.5s3.5 -1 6.5 -2s5.83301 -2.16699 8.5 -3.5c7.33301 -2.66699 12.333 -6.33398 15 -11.001s4 -12 4 -22z
" />
    <glyph glyph-name="B" unicode="B" horiz-adv-x="518" 
d="M365 366c-4 2 -24.499 4.33203 -61.499 6.99902s-57.833 3 -62.5 1c-2.66699 -0.666992 -16 -3 -40 -7c-26 -3.33301 -41.333 -10 -46 -20s-6.33398 -38.667 -5.00098 -86c2.66699 -55.333 5 -84 7 -86c6.66699 -6.66699 30 4 70 32s74 57.333 102 88
c13.333 15.333 23.833 30.333 31.5 45s9.16699 23.334 4.5 26.001zM293.001 475.999c-4 0 -5.00293 -2.00586 -3.00293 -6.00586c2.66699 -4 20 -7.33301 52 -10c66.667 -6.66699 110.334 -20.667 131.001 -42c12 -13.333 16.833 -31.5 14.5 -54.5
s-11.166 -46.833 -26.499 -71.5c-11.333 -18 -31.833 -41.833 -61.5 -71.5s-56.5 -53.5 -80.5 -71.5c-39.333 -28.667 -81.666 -51 -126.999 -67c-18 -6 -34 -14.667 -48 -26c-11.333 -9.33301 -19.833 -14.666 -25.5 -15.999s-17.5 -1.66602 -35.5 -0.999023
s-29 4.33398 -33 11.001c-8.66699 12 -14 63 -16 153c0 20 -0.666992 74 -2 162l-2 236c2 2 6.16699 5.83301 12.5 11.5s10.833 9.33398 13.5 11.001s8.16699 3.83398 16.5 6.50098s15.833 2 22.5 -2c13.333 -2 23.666 -1.66699 30.999 1s19.333 9.33398 36 20.001
c34 24 70.667 30 110 18c38.667 -10.667 58.334 -40 59.001 -88c0.666992 -15.333 -4 -36.333 -14 -63s-18 -40 -24 -40z" />
    <glyph glyph-name="C" unicode="C" horiz-adv-x="500" 
d="M329 527c0 3.33301 -4.83398 5.16895 -14.501 5.50195s-20.667 -0.833984 -33 -3.50098s-22.166 -6.33398 -29.499 -11.001c-19.333 -11.333 -37.5 -27.166 -54.5 -47.499s-28.833 -40.5 -35.5 -60.5c-8 -23.333 -12 -61.333 -12 -114c0.666992 -34 2 -57.167 4 -69.5
s6.33301 -25.833 13 -40.5c20.667 -42 46 -70.667 76 -86c24 -12.667 46.5 -14.667 67.5 -6s42.833 29.334 65.5 62.001c24 34 37.333 51.667 40 53c4.66699 2 6.33398 5 5.00098 9c-2 7.33301 0.166992 12.666 6.5 15.999s16.5 4.33301 30.5 3
c5.33301 1.33301 9 -2.16699 11 -10.5s2.16699 -17.166 0.5 -26.499s-3.83398 -14.666 -6.50098 -15.999c-4 -3.33301 -5 -7 -3 -11c5.33301 -8.66699 -5.66699 -30.667 -33 -66s-47.333 -53 -60 -53c-6.66699 0 -10 -2.33301 -10 -7c0 -5.33301 -10.667 -11.5 -32 -18.5
s-40.666 -10.5 -57.999 -10.5c-45.333 0 -86.5 13.167 -123.5 39.5s-66.5 63.166 -88.5 110.499c-11.333 24 -18.166 42 -20.499 54s-3.83301 35.667 -4.5 71c0 67.333 5.66699 117.666 17 150.999s34.666 68.333 69.999 105c22 22 35.667 33 41 33c6 0 9 1.66699 9 5
s10.833 10 32.5 20s41.5 17.667 59.5 23c13.333 4 32.166 5.33301 56.499 4s44.5 -4.66602 60.5 -9.99902c18.667 -6.66699 30.167 -18.834 34.5 -36.501s1 -33.667 -10 -48s-26.5 -20.833 -46.5 -19.5c-16.667 1.33301 -25 3.66602 -25 6.99902z" />
    <glyph glyph-name="D" unicode="D" horiz-adv-x="547" 
d="M155 226c0 -8.66699 2.66504 -20.166 7.99805 -34.499s10.333 -23.166 15 -26.499c6 -2.66699 13 -1 21 5c6 4 10.5 6 13.5 6s7.16699 -2.33301 12.5 -7c10 -9.33301 22.167 -10.166 36.5 -2.49902s33.833 24.834 58.5 51.501c44 47.333 73 93.666 87 138.999
s10.667 81.666 -10 108.999c-10.667 14 -30.5 28.167 -59.5 42.5s-54.833 23.166 -77.5 26.499c-14.667 2 -34.167 0.666992 -58.5 -4s-39.166 -9.66699 -44.499 -15c-2 -0.666992 -3.16699 -24.667 -3.5 -72s-0.166016 -95.333 0.500977 -144s1 -73.334 1 -74.001z
M385.998 144.001c0 -6.66699 -20.167 -20.166 -60.5 -40.499s-63.833 -29.166 -70.5 -26.499c-6 2 -9 1 -9 -3c-1.33301 -2.66699 -5.16602 -4 -11.499 -4s-14 1.16699 -23 3.5s-15.5 5.16602 -19.5 8.49902c-6.66699 4 -13.334 2.66699 -20.001 -4
c-4.66699 -4.66699 -11.167 -8.33398 -19.5 -11.001s-16 -3.83398 -23 -3.50098s-10.5 2.5 -10.5 6.5c0 6 -2 6 -6 0s-13.333 -2.66699 -28 10c-16 13.333 -27.5 36.5 -34.5 69.5s-12.5 89.167 -16.5 168.5c-4.66699 90.667 -4.33398 158 0.999023 202
c5.33301 41.333 11.833 67 19.5 77s26.5 15.667 56.5 17c29.333 1.33301 47 4 53 8c6.66699 4.66699 35 5 85 1c32 -2 55.167 -4.83301 69.5 -8.5s32.833 -11.167 55.5 -22.5c84.667 -41.333 131.667 -93 141 -155c2.66699 -17.333 1.66699 -41.166 -3 -71.499
s-10.667 -53.166 -18 -68.499c-8.66699 -17.333 -22.667 -40 -42 -68s-34.666 -47.667 -45.999 -59c-13.333 -14.667 -20 -23.334 -20 -26.001z" />
    <glyph glyph-name="E" unicode="E" horiz-adv-x="553" 
d="M502 611c0 -10 -1.66406 -18.1621 -4.99707 -24.4951s-8.5 -11.166 -15.5 -14.499s-13.833 -5.83301 -20.5 -7.5s-15.5 -3.33398 -26.5 -5.00098s-19.833 -3.5 -26.5 -5.5c-16.667 -3.33301 -30.834 -5 -42.501 -5s-27.834 -2.33301 -48.501 -7
c-11.333 -2 -28.333 -4.5 -51 -7.5s-42.167 -6.16699 -58.5 -9.5s-31.833 -8 -46.5 -14c-7.33301 -9.33301 -10.666 -23.333 -9.99902 -42c0.666992 -22.667 10.334 -29.667 29.001 -21c12.667 2.66699 38 7.16699 76 13.5s71.333 12.166 100 17.499
s44.667 9.66602 48 12.999c2.66699 4.66699 14 6.66699 34 6s33 -3.33398 39 -8.00098c7.33301 -6 11 -12.667 11 -20c0 -8 2.33301 -8.33301 7 -1c3.33301 4.66699 5.33301 6.83398 6 6.50098s1 -3.16602 1 -8.49902c-0.666992 -5.33301 -1.83398 -10 -3.50098 -14
s-3 -7.66699 -4 -11s-3 -6.33301 -6 -9s-5.16699 -5 -6.5 -7s-4.33301 -4 -9 -6s-7.83398 -3.5 -9.50098 -4.5s-5.66699 -2.16699 -12 -3.5s-10.5 -2.33301 -12.5 -3s-7.33301 -1.83398 -16 -3.50098s-14.334 -2.83398 -17.001 -3.50098
c-28.667 -5.33301 -73 -14.666 -133 -27.999s-100.667 -21.666 -122 -24.999l4 -200c14 -5.33301 66.333 -1 157 13c37.333 7.33301 56 14.333 56 21c0.666992 13.333 10.334 24.5 29.001 33.5s31.334 8.5 38.001 -1.5c3.33301 -5.33301 7.66602 -5.66602 12.999 -0.999023
c3.33301 2.66699 7.66602 4.5 12.999 5.5s10 1.16699 14 0.5s6 -2.33398 6 -5.00098c0 -3.33301 3.33301 -4 10 -2c6 2 12.833 -0.833008 20.5 -8.5s11.5 -15.5 11.5 -23.5c0 -11.333 -4.83301 -20.833 -14.5 -28.5s-31.167 -19.834 -64.5 -36.501
c-8 -3.33301 -18.333 -5.83301 -31 -7.5s-25 -4.83398 -37 -9.50098c-52.667 -16.667 -105.834 -29.167 -159.501 -37.5s-94.167 -9.83301 -121.5 -4.5c-26 4.66699 -46.333 17 -61 37l-4 466c22 24 38.333 36 49 36c10.667 1.33301 39.834 6.66602 87.501 15.999l129.5 25
c38.667 7.33301 56.667 9.66602 54 6.99902c5.33301 0 13.833 1.66699 25.5 5s23.167 5 34.5 5c28 2 50.333 -0.833008 67 -8.5s25 -19.167 25 -34.5z" />
    <glyph glyph-name="F" unicode="F" 
d="M465 631c0 -2.66699 -20.3252 -8.32812 -60.9922 -16.9951c-17.333 -2.66699 -40.333 -7.16699 -69 -13.5s-58.834 -13.5 -90.501 -21.5s-52.834 -13 -63.501 -15c-9.33301 -2 -14.833 -4.83301 -16.5 -8.5s-1.83398 -14.834 -0.500977 -33.501c1.33301 -26 4 -39 8 -39
c2.66699 0 24.334 7 65.001 21c86 32 129 42.333 129 31c0 -7.33301 2.33301 -9.33301 7 -6c3.33301 2 10.166 0.5 20.499 -4.5s15.5 -9.5 15.5 -13.5c0 -2.66699 -5.66699 -10.334 -17 -23.001c-8.66699 -9.33301 -44.334 -30.166 -107.001 -62.499
s-98.334 -48.5 -107.001 -48.5c-5.33301 0 -9.66602 -5.66699 -12.999 -17c-2.66699 -12.667 -0.833984 -52.834 5.49902 -120.501s12.166 -108.167 17.499 -121.5c6 -14.667 7.83301 -26.667 5.5 -36s-9.83301 -18.666 -22.5 -27.999
c-10.667 -8.66699 -26 -13.334 -46 -14.001s-33.333 2.66602 -40 9.99902c-6 7.33301 -7.33301 11 -4 11c4 0 3.66699 3 -1 9c-4 7.33301 -7.16699 16 -9.5 26s-4.66602 22.5 -6.99902 37.5s-4.5 27.167 -6.5 36.5c-2.66699 8 -5.16699 43.167 -7.5 105.5
s-4.33301 126.5 -6 192.5s-2.83398 102.667 -3.50098 110c-0.666992 4 -3.33398 17.333 -8.00098 40c-3.33301 17.333 1 32.333 13 45c8 8.66699 15 13.834 21 15.501s16.333 1.5 31 -0.5c22.667 -2.66699 34.667 -6.33398 36 -11.001c4 -10.667 39.667 -8.66699 107 6
c23.333 5.33301 50.5 9.33301 81.5 12s54.167 5.66699 69.5 9c24.667 5.33301 44.167 7 58.5 5s27.166 -8.66699 38.499 -20c12.667 -13.333 18 -21 16 -23c-0.666992 -1.33301 -3.66699 -3 -9 -5c-8.66699 -3.33301 -13.667 -6 -15 -8
c-0.666992 -0.666992 -0.333984 -1.33398 0.999023 -2.00098c2.66699 0 7.33398 1 14.001 3c8 2 11.667 1.33301 11 -2l-2 -3c-1.33301 -4.66699 -7.5 -6.83398 -18.5 -6.50098s-17.833 -0.166992 -20.5 -1.5z" />
    <glyph glyph-name="G" unicode="G" horiz-adv-x="604" 
d="M359 370c-5.33301 0 -22.5 -9.33203 -51.5 -27.999s-44.833 -30.667 -47.5 -36c-2.66699 -4 -16.834 -6 -42.501 -6s-38.5 2.33301 -38.5 7s-3.33301 7 -10 7c-16 0 -14 -21.667 6 -65c9.33301 -20.667 20.333 -37.334 33 -50.001s25 -19 37 -19c20.667 0 48 14 82 42
s55 52.667 63 74c5.33301 16 4.83301 31 -1.5 45s-16.166 23.667 -29.499 29zM338 617.001c-41.333 -16.667 -81.1729 -48.3301 -119.506 -94.9971s-59.166 -88.667 -62.499 -126c-2.66699 -18.667 -2 -28.334 2 -29.001c2.66699 0 7 2.66699 13 8c6 6 30 23.667 72 53
c66 47.333 129.5 80.333 190.5 99s102.167 17.667 123.5 -3c6.66699 -6.66699 11.167 -13.834 13.5 -21.501s3.5 -20.834 3.5 -39.501c-0.666992 -16 -4.66699 -57.167 -12 -123.5s-9.66602 -116.833 -6.99902 -151.5c2.66699 -40.667 2.5 -66.334 -0.5 -77.001
s-12.5 -20 -28.5 -28c-20.667 -10.667 -41 -9.66699 -61 3s-32 32 -36 58c-1.33301 8 -2.66602 14.167 -3.99902 18.5s-2.66602 7.5 -3.99902 9.5s-3.33301 2.33301 -6 1s-5.16699 -2.66602 -7.5 -3.99902s-6 -4.16602 -11 -8.49902s-9.5 -7.83301 -13.5 -10.5
c-38 -26.667 -64.667 -40 -80 -40c-12 0 -18 -2.33301 -18 -7c0 -3.33301 -6.66699 -5.5 -20 -6.5s-28.666 -0.833008 -45.999 0.5s-30.666 3.66602 -39.999 6.99902c-33.333 11.333 -60.5 29 -81.5 53s-38.5 57 -52.5 99c-9.33301 27.333 -14.333 58.5 -15 93.5
s3 66.167 11 93.5c14.667 48.667 44.667 98.5 90 149.5s94.666 90.167 147.999 117.5c21.333 10.667 40.333 16.5 57 17.5s36 -2.83301 58 -11.5c22 -8 36 -17.833 42 -29.5s8 -32.167 6 -61.5c-2 -25.333 -6.66699 -41.5 -14 -48.5s-21 -8.5 -41 -4.5
c-16.667 2.66699 -28.667 10.667 -36 24c-7.33301 14 -11.666 21 -12.999 21z" />
    <glyph glyph-name="H" unicode="H" horiz-adv-x="548" 
d="M376 413c-20 -3.33301 -57.8291 -13.0059 -113.496 -29.0059s-91.167 -28.667 -106.5 -38c0 -85.333 2.33301 -136.666 7 -153.999c5.33301 -26 1.66602 -45.167 -11.001 -57.5s-34.334 -17.833 -65.001 -16.5c-30 0.666992 -46 24.667 -48 72
c-9.33301 210.667 -11 341.334 -5 392.001s26.333 77.334 61 80.001c7.33301 1.33301 14.666 0.833008 21.999 -1.5s13 -4.83301 17 -7.5s9.66699 -7.16699 17 -13.5s12 -10.5 14 -12.5c-12 -102 -16.667 -158.333 -14 -169c2 -2.66699 54 7.66602 156 30.999l84 19l2 77
c1.33301 50 3.66602 81 6.99902 93s11.666 21 24.999 27s21.5 9 24.5 9s11.5 -2.66699 25.5 -8c14 -6 23.333 -11 28 -15s8.66699 -13.667 12 -29s4.33301 -36.166 3 -62.499s-3.66602 -65.833 -6.99902 -118.5c-0.666992 -5.33301 -1 -9.33301 -1 -12
c-2.66699 -53.333 -4.66699 -123.666 -6 -210.999c-1.33301 -71.333 -2.83301 -113.666 -4.5 -126.999s-6.16699 -23 -13.5 -29c-11.333 -8.66699 -25 -13.667 -41 -15c-28 -3.33301 -46.167 9.83398 -54.5 39.501s-10.833 89.167 -7.5 178.5c2 48 2.66699 78 2 90
s-3.66699 18 -9 18z" />
    <glyph glyph-name="I" unicode="I" horiz-adv-x="189" 
d="M38 330c0 121.333 -2.66602 213.332 -7.99902 275.999c10 8.66699 20.667 15.167 32 19.5s23.666 5.33301 36.999 3s25.333 -9.16602 36 -20.499l22 -21v-142c1.33301 -142 1.5 -226.167 0.5 -252.5s-4.83301 -42.5 -11.5 -48.5c-9.33301 -8 -25 -12.667 -47 -14
c-16 -1.33301 -26.167 -1 -30.5 1s-9.83301 9 -16.5 21c-6 10.667 -9.83301 26 -11.5 46s-2.5 64 -2.5 132z" />
    <glyph glyph-name="J" unicode="J" horiz-adv-x="537" 
d="M415 568c-27.333 0 -42.502 -2.66797 -45.502 -8.00098s-0.166992 -22.333 8.5 -51c5.33301 -15.333 10.166 -39.666 14.499 -72.999s8.83301 -58.333 13.5 -75c4.66699 -10.667 3.83398 -36.834 -2.49902 -78.501s-13.5 -70.5 -21.5 -86.5
c-9.33301 -17.333 -24 -34.833 -44 -52.5s-38.333 -28.834 -55 -33.501c-20 -5.33301 -43 -7.5 -69 -6.5s-48.333 4.83301 -67 11.5c-21.333 7.33301 -43.333 21 -66 41c-15.333 14 -24.333 23.833 -27 29.5s-2.66699 14.834 0 27.501c6.66699 34.667 20.334 52 41.001 52
c9.33301 0 16.833 -2.16699 22.5 -6.5s13.167 -13.166 22.5 -26.499c10 -14 24.5 -24.167 43.5 -30.5s36.167 -6.16602 51.5 0.500977c28 11.333 44.333 46.333 49 105s-3.66602 121.334 -24.999 188.001c-0.666992 2 -1.33398 4.66699 -2.00098 8
c-7.33301 21.333 -14.333 33.333 -21 36c-6.66699 3.33301 -29 1 -67 -7l-1 -1h-1h-1h-1h-1l-1 -1h-2c-36.667 -8 -63.667 -10.333 -81 -7c-23.333 4 -38.833 14.5 -46.5 31.5s-4.16699 32.167 10.5 45.5c8 7.33301 42.333 17.666 103 30.999s111.667 21.666 153 24.999
c8.66699 0.666992 32.667 3.16699 72 7.5s67 5.83301 83 4.5c11.333 -3.33301 22 -9.16602 32 -17.499s16 -16.833 18 -25.5c4.66699 -18.667 -0.666016 -32.834 -15.999 -42.501s-40 -14.5 -74 -14.5z" />
    <glyph glyph-name="K" unicode="K" horiz-adv-x="527" 
d="M324 594c0 3.33301 5.99902 11.668 17.999 25.001c12 12.667 28 19 48 19c21.333 -0.666992 37.5 -6.33398 48.5 -17.001s15.5 -25.334 13.5 -44.001c-0.666992 -7.33301 -24.334 -37.333 -71.001 -90c-25.333 -27.333 -42.666 -44.666 -51.999 -51.999
c-9.33301 -6.66699 -28.833 -26.167 -58.5 -58.5s-44.5 -50.166 -44.5 -53.499c0 -4 7.66699 -9.66699 23 -17c117.333 -59.333 192.333 -95 225 -107c8 -2.66699 14.333 -10.334 19 -23.001s5 -22.667 1 -30c-7.33301 -17.333 -23.166 -29.833 -47.499 -37.5
s-45.166 -4.16699 -62.499 10.5c-14.667 11.333 -53.667 32.666 -117 63.999s-99.666 47 -108.999 47c-2 0 -3 -10.667 -3 -32c0 -14 -1.16699 -23.5 -3.5 -28.5s-8.5 -10.833 -18.5 -17.5c-13.333 -8 -28.833 -12.333 -46.5 -13s-29.834 2.66602 -36.501 9.99902
c-6 7.33301 -9.83301 23.333 -11.5 48s-3.5 97.334 -5.5 218.001l-3 217c3.33301 2.66699 7.16602 6.16699 11.499 10.5s8 7.83301 11 10.5s7.16699 5.5 12.5 8.5s10.5 4.33301 15.5 4s11.833 -0.833008 20.5 -1.5c22.667 -1.33301 38.667 -6.66602 48 -15.999
c6.66699 -6 10.5 -12 11.5 -18s0.5 -18.333 -1.5 -37c-3.33301 -28.667 -6.66602 -86.667 -9.99902 -174c18.667 12 51.167 41.5 97.5 88.5s72.166 75.833 77.499 86.5z" />
    <glyph glyph-name="L" unicode="L" horiz-adv-x="512" 
d="M143 194c40 -2 91.8311 1.1748 155.498 9.50781s105.167 13.166 124.5 14.499c22 2.66699 36.5 1.66699 43.5 -3s11.833 -15.667 14.5 -33c2 -12 2 -20.167 0 -24.5s-7.33301 -9.5 -16 -15.5c-6.66699 -4.66699 -18 -8.83398 -34 -12.501s-36 -7.33398 -60 -11.001
s-37.333 -5.83398 -40 -6.50098c-9.33301 -2.66699 -55.5 -7.83398 -138.5 -15.501s-125.5 -8.5 -127.5 -2.5c-17.333 7.33301 -27.833 33.166 -31.5 77.499s-3.83398 143.166 -0.500977 296.499c2 69.333 3.83301 110.166 5.5 122.499s6.83398 21.5 15.501 27.5
c12.667 10 26.834 14.333 42.501 13s29.834 -8.33301 42.501 -21l21 -22c-2 -36.667 -4.83301 -100.5 -8.5 -191.5s-6.5 -158.5 -8.5 -202.5z" />
    <glyph glyph-name="M" unicode="M" horiz-adv-x="732" 
d="M335 385c4.66699 0 10.3389 6.33594 17.0059 19.0029c4.66699 8.66699 11.334 19.167 20.001 31.5s19.5 26.5 32.5 42.5l34 41l37 43l28.5 33c7.33301 10 14.166 16.667 20.499 20s16.166 5.66602 29.499 6.99902c14.667 2 25 2 31 0s14 -8 24 -18
c14 -14 21 -28.667 21 -44c2.66699 -22.667 9.5 -58 20.5 -106s18.5 -85.333 22.5 -112c2 -17.333 7.16699 -48.333 15.5 -93s12.5 -79 12.5 -103c-2.66699 -10 -12 -19.667 -28 -29s-31.333 -14 -46 -14c-18.667 0.666992 -31 5.5 -37 14.5s-10 29.167 -12 60.5
c-2.66699 33.333 -10.834 85.666 -24.501 156.999s-22.834 109.333 -27.501 114c-2.66699 2.66699 -9.5 -1.33301 -20.5 -12s-22.833 -24.834 -35.5 -42.501s-22.667 -33.834 -30 -48.501c-12 -22.667 -25 -41.667 -39 -57c-10 -10.667 -18.167 -17.334 -24.5 -20.001
s-17.166 -4 -32.499 -4c-20.667 0 -41 6.33301 -61 19s-48 37.334 -84 74.001l-48 48v-114c0.666992 -109.333 -0.333008 -168.666 -3 -177.999c-2 -6 -7.33301 -11.333 -16 -16c-1.33301 -0.666992 -2.33301 -1.33398 -3 -2.00098c-15.333 -9.33301 -32.833 -14 -52.5 -14
s-31.834 4.33301 -36.501 13s-7.83398 96.667 -9.50098 264s-0.166992 258.333 4.5 273c2.66699 8 11.667 15.667 27 23c16 7.33301 33.833 7.83301 53.5 1.5s33.167 -16.833 40.5 -31.5s22.5 -40.167 45.5 -76.5s40.833 -66.166 53.5 -89.499
c5.33301 -10 18.666 -24.833 39.999 -44.5s34.666 -29.5 39.999 -29.5z" />
    <glyph glyph-name="N" unicode="N" horiz-adv-x="574" 
d="M155 420c-4.66699 0 -6.32812 -30.001 -4.99512 -90.001c1.33301 -75.333 1.66602 -130.333 0.999023 -165c-0.666992 -36 -1.83398 -58 -3.50098 -66s-7.16699 -15 -16.5 -21c-12.667 -8.66699 -27.334 -13.834 -44.001 -15.501s-30.334 0.166016 -41.001 5.49902
c-9.33301 5.33301 -14.333 10.833 -15 16.5s0.333008 23.5 3 53.5c4 42.667 5.83301 109.834 5.5 201.501s-2.5 170.834 -6.5 237.501l28 17c20.667 11.333 42.167 15 64.5 11s38.5 -14.667 48.5 -32c6.66699 -11.333 38.167 -45.5 94.5 -102.5s86.833 -85.5 91.5 -85.5
c3.33301 0 8.16602 6.16699 14.499 18.5s9.83301 22.5 10.5 30.5c24 122 37.333 201.667 40 239h52c2 -0.666992 7 3 15 11c6.66699 6.66699 12.334 10.167 17.001 10.5s11.667 -2.16699 21 -7.5c7.33301 -6 11.5 -15 12.5 -27s0.333008 -24 -2 -36l-8.5 -42.5
c-3.33301 -16.333 -5 -29.166 -5 -38.499c-4.66699 -59.333 -20.334 -127.333 -47.001 -204c-22 -63.333 -33.333 -100.333 -34 -111c-2 -4 -11 -10.667 -27 -20c-18.667 -10.667 -37.834 -14.5 -57.501 -11.5s-33.5 12.167 -41.5 27.5c-26 47.333 -61.667 94.333 -107 141
c-35.333 36.667 -54.666 55 -57.999 55z" />
    <glyph glyph-name="O" unicode="O" horiz-adv-x="543" 
d="M291 153c0 4 2.99902 6.00098 8.99902 6.00098c16 0 37.333 21 64 63s41.334 78.333 44.001 109c3.33301 32.667 -2.66699 67.334 -18 104.001s-35.333 64.667 -60 84c-14 11.333 -34.667 17.333 -62 18s-45.333 -4 -54 -14c-4 -5.33301 -8.5 -16.5 -13.5 -33.5
s-10 -35.667 -15 -56l-9.5 -38.5c-5.33301 -22 -10.5 -58.833 -15.5 -110.5s-6.16699 -84.834 -3.5 -99.501c4 -26 21.333 -43 52 -51c10.667 -2.66699 27 -1.33398 49 3.99902s33 10.333 33 15zM29.999 199.001c-1.33301 68 20 183.668 64 347.001
c1.33301 3.33301 2.83301 7.83301 4.5 13.5s2.83398 9.5 3.50098 11.5l3 9c1.33301 4 2.66602 6.5 3.99902 7.5s3 2.83301 5 5.5s4.16699 4.16699 6.5 4.5s5.16602 1 8.49902 2s7.33301 1.5 12 1.5h14.5c5 0 11.167 -0.333008 18.5 -1c28 -2 55 -2.5 81 -1.5
s51.667 0.333008 77 -2s44 -7.16602 56 -14.499c30.667 -17.333 59.334 -47 86.001 -89s39.667 -86 39 -132c2 -86.667 -31 -164 -99 -232c-48 -48.667 -101.5 -78.834 -160.5 -90.501s-110.833 -2.83398 -155.5 26.499c-24.667 16 -42.167 34.333 -52.5 55
s-15.5 47 -15.5 79z" />
    <glyph glyph-name="P" unicode="P" horiz-adv-x="499" 
d="M219 539c-19.333 0 -32.0029 -0.833984 -38.0029 -2.50098s-10.667 -5.5 -14 -11.5c-4 -8 -6.33301 -32.333 -7 -73s1 -74 5 -100c2 -12.667 4.5 -21 7.5 -25s9.16699 -7 18.5 -9c37.333 -8.66699 72.833 0.166016 106.5 26.499s52.834 56.5 57.501 90.5
c-0.666992 6.66699 -0.5 11.834 0.5 15.501s0.166992 8.16699 -2.5 13.5s-4.16699 9.33301 -4.5 12s-2.66602 6.16699 -6.99902 10.5s-7.16602 7.33301 -8.49902 9s-4.5 4.33398 -9.5 8.00098s-8.5 6.16699 -10.5 7.5l-10 7l-10 7c-19.333 9.33301 -44 14 -74 14z
M135.997 613.999c24 6 45.835 8.82422 65.502 8.49121s46.167 -4.16602 79.5 -11.499c112.667 -25.333 174.667 -77.666 186 -156.999c6 -41.333 -5.66699 -79.666 -35 -114.999c-24 -29.333 -55.833 -53.166 -95.5 -71.499s-78.834 -27.166 -117.501 -26.499h-45l4 -21
c10 -55.333 12.333 -90.166 7 -104.499s-24 -24.166 -56 -29.499c-18.667 -3.33301 -33.667 -0.666016 -45 8.00098c-10 8 -17 29.833 -21 65.5s-10.333 128.167 -19 277.5c-2.66699 46.667 -6.33398 76.667 -11.001 90c-6.66699 18.667 -1.16699 35.334 16.5 50.001
s46.5 27 86.5 37z" />
    <glyph glyph-name="Q" unicode="Q" horiz-adv-x="591" 
d="M289 515c-2.66699 -5.33301 -8.66699 -9 -18 -11s-15.333 -4.66699 -18 -8c-5.33301 -5.33301 -12.666 -5.33301 -21.999 0c-6 3.33301 -10.833 4.33301 -14.5 3s-8.16699 -6 -13.5 -14c-8 -11.333 -17.333 -30.666 -28 -57.999
c-18.667 -50.667 -28.334 -100.667 -29.001 -150s7.5 -89.5 24.5 -120.5s39.833 -46.5 68.5 -46.5c14 0 32.5 5 55.5 15s40.833 21.333 53.5 34l15 15c-8 12.667 -24.667 42.834 -50 90.501s-43 79.167 -53 94.5c-10.667 16 -11.834 30 -3.50098 42s24.833 19.667 49.5 23
c26.667 4 45 2.33301 55 -5s24 -29.333 42 -66c22 -46 34.667 -69.667 38 -71c3.33301 -2 6 1.33301 8 10c6 25.333 5.66699 54 -1 86c-5.33301 25.333 -14.666 49.666 -27.999 72.999s-28.333 41.333 -45 54c-16 11.333 -33.5 18.166 -52.5 20.499
s-30.167 -1.16699 -33.5 -10.5zM464 32c-10 0 -19.8311 4.16992 -29.498 12.5029s-14.5 16.166 -14.5 23.499c0 11.333 -6 15 -18 11c-8 -2.66699 -19.667 -8.66699 -35 -18c-80.667 -47.333 -154.667 -55.5 -222 -24.5s-104.666 89.167 -111.999 174.5
c-4 52 0.333008 107.5 13 166.5s31.5 110.333 56.5 154s51.833 69.5 80.5 77.5c18 5.33301 37 7.66602 57 6.99902s34.667 -4 44 -10c10.667 -8 22.667 -10.667 36 -8c22.667 4.66699 50 1 82 -11s59 -28.333 81 -49c53.333 -48.667 79.333 -118 78 -208
c-0.666992 -28.667 -2.33398 -48.167 -5.00098 -58.5s-10.334 -26.833 -23.001 -49.5l-28 -49c31.333 -50 41.333 -84 30 -102c-2.66699 -6.66699 -12.834 -14.834 -30.501 -24.501s-31.167 -14.5 -40.5 -14.5z" />
    <glyph glyph-name="R" unicode="R" horiz-adv-x="655" 
d="M341 595c-10.667 5.33301 -31 7.66895 -61 7.00195s-52.333 -3.66699 -67 -9c-15.333 -4.66699 -29 -14.334 -41 -29.001c-8 -8.66699 -12.667 -16.834 -14 -24.501s-1 -23.834 1 -48.501c4.66699 -58.667 9.66699 -101 15 -127c2 -7.33301 4.83301 -11.666 8.5 -12.999
s14.167 -1 31.5 1c53.333 6.66699 91.333 21.334 114 44.001c27.333 27.333 44 64.666 50 111.999c5.33301 44.667 -7 73.667 -37 87zM381 307.003c-4.66699 0 -6.99805 -2.66699 -6.99805 -8c0 -6 24 -22 72 -48c107.333 -57.333 165.666 -97 174.999 -119
c4 -8.66699 5 -15.167 3 -19.5s-9 -11.5 -21 -21.5c-35.333 -30.667 -64.333 -35.334 -87 -14.001c-27.333 25.333 -81.166 58.333 -161.499 99s-131.833 61 -154.5 61c-6 0 -8.66699 -14 -8 -42c0.666992 -48.667 -12.666 -76 -39.999 -82
c-35.333 -10.667 -57.333 -11.667 -66 -3s-14.667 46.334 -18 113.001c-1.33301 42 -13.333 145.333 -36 310c-2 16 -1.5 27 1.5 33s14.5 18.333 34.5 37c45.333 42 95.666 67 150.999 75c61.333 8.66699 114.5 5.66699 159.5 -9s76.167 -39.667 93.5 -75
c13.333 -26.667 18.166 -62.5 14.499 -107.5s-13.834 -80.167 -30.501 -105.5c-9.33301 -14 -23 -29.833 -41 -47.5s-29.333 -26.5 -34 -26.5z" />
    <glyph glyph-name="S" unicode="S" horiz-adv-x="445" 
d="M37 145c-9.33301 0 -10.334 9.66602 -3.00098 28.999c3.33301 8.66699 7.66602 16.667 12.999 24c11.333 14.667 25.666 26.334 42.999 35.001c12.667 6 20.834 8.83301 24.501 8.5s8.83398 -4.5 15.501 -12.5c8.66699 -12 12 -24 10 -36
c-3.33301 -14 2.33398 -26.667 17.001 -38s34.667 -18.333 60 -21c48.667 -6 73 5 73 33c0 12.667 -15.333 34 -46 64c-75.333 71.333 -125.166 123 -149.499 155s-36.5 61.333 -36.5 88c0 28 10.833 54.333 32.5 79s49.5 42.334 83.5 53.001c20 6 43.5 8.5 70.5 7.5
s48.5 -5.16699 64.5 -12.5c32.667 -14 61 -34.667 85 -62c16.667 -18.667 23.334 -35.667 20.001 -51s-16 -27.666 -38 -36.999c-32 -12.667 -55.667 -6.33398 -71 18.999c-8.66699 14 -20.334 25.667 -35.001 35s-30 14.333 -46 15c-22 1.33301 -36 -4.66699 -42 -18
s-2.33301 -30.333 11 -51c4.66699 -7.33301 11 -19 19 -35c4 -8.66699 29.333 -34.334 76 -77.001c53.333 -48.667 87 -81.667 101 -99s20.667 -34 20 -50c-0.666992 -29.333 -11.667 -56.833 -33 -82.5s-49.333 -45.167 -84 -58.5
c-19.333 -7.33301 -44.833 -11.333 -76.5 -12s-55.167 2.33301 -70.5 9l-22 10.5c-10.667 5 -17.667 8.16699 -21 9.5c-14.667 6.66699 -29.334 18.167 -44.001 34.5s-20.667 27.833 -18 34.5c2 6.66699 1 10 -3 10z" />
    <glyph glyph-name="T" unicode="T" horiz-adv-x="606" 
d="M379 444c-1.33301 -62 3.33008 -150.005 13.9971 -264.005c0.666992 -14.667 -9.16602 -28.834 -29.499 -42.501s-41.5 -20.5 -63.5 -20.5c-10 0 -17.5 9 -22.5 27s-9.16699 49 -12.5 93c-2.66699 50 -6.66699 114.333 -12 193c-4 57.333 -8.33301 89 -13 95
c-3.33301 5.33301 -13.666 7 -30.999 5c-2 -0.666992 -3.66699 -1 -5 -1c-24 -3.33301 -42 -6.33301 -54 -9c-52.667 -9.33301 -86.667 -9 -102 1c-11.333 7.33301 -17.333 18 -18 32s4.66602 24.667 15.999 32c24.667 16 87.334 28.667 188.001 38
c43.333 4 104.666 5.16699 183.999 3.5s123.333 -5.16699 132 -10.5c10.667 -6.66699 18.167 -14.334 22.5 -23.001s4.5 -15.667 0.5 -21c-1.33301 -3.33301 -2.5 -7.16602 -3.5 -11.499s-2.5 -7.16602 -4.5 -8.49902s-7 -4 -15 -8
c-11.333 -5.33301 -38.166 -9.66602 -80.499 -12.999s-69.166 -3 -80.499 1c-2.66699 0.666992 -4.5 0.333984 -5.5 -0.999023s-1.83301 -5.66602 -2.5 -12.999s-1.16699 -16.166 -1.5 -26.499s-0.5 -26.166 -0.5 -47.499z" />
    <glyph glyph-name="U" unicode="U" horiz-adv-x="522" 
d="M421 99c0 -8 -13.3262 -21.8379 -39.9932 -41.5049s-50 -32.834 -70 -39.501c-30.667 -10 -55.667 -13 -75 -9s-40 16.333 -62 37l-17.5 17.5c-3.66699 3.66699 -7 7.66699 -10 12s-4.83301 7.5 -5.5 9.5s-2.5 6.33301 -5.5 13l-8.5 19c-24 45.333 -48 125 -72 239
s-31 181 -21 201c6.66699 12.667 18.167 21.334 34.5 26.001s33.166 4.33398 50.499 -0.999023c5.33301 -1.33301 9.66602 -2.66602 12.999 -3.99902s6.5 -2.5 9.5 -3.5s5.16699 -2.66699 6.5 -5s2.66602 -4.16602 3.99902 -5.49902s2.16602 -4.16602 2.49902 -8.49902
s0.666016 -7.66602 0.999023 -9.99902s0.666016 -7.16602 0.999023 -14.499s0.5 -13.333 0.5 -18c2.66699 -54.667 16.667 -132 42 -232s50.333 -155.667 75 -167c9.33301 -5.33301 15.666 -7.83301 18.999 -7.5s7.66602 3.16602 12.999 8.49902
c28.667 28.667 50 90.334 64 185.001c5.33301 37.333 8.16602 66.666 8.49902 87.999s-1.5 53.666 -5.5 96.999c-6 66 -12 108 -18 126c-4 11.333 -5.83301 19.333 -5.5 24s3.5 11.334 9.5 20.001c10 12.667 18 19 24 19c2.66699 0 2.33398 -2.33301 -0.999023 -7
c-2.66699 -3.33301 -1 -5.33301 5 -6c10.667 0 16 2 16 6c-0.666992 2.66699 1.33301 5.33398 6 8.00098c14.667 5.33301 30.334 2.66602 47.001 -8.00098s23 -22.334 19 -35.001c-3.33301 -8 -1.33301 -38 6 -90c12 -90 14.667 -173.333 8 -250
c-2 -21.333 -10.167 -53.666 -24.5 -96.999s-25.5 -69.666 -33.5 -78.999c-6.66699 -6.66699 -10 -12.334 -10 -17.001z" />
    <glyph glyph-name="V" unicode="V" horiz-adv-x="584" 
d="M261 75c-22 0 -40.1641 11.166 -54.4971 33.499s-34.5 70.833 -60.5 145.5c-11.333 30 -27.333 74.833 -48 134.5s-39 109.834 -55 150.501c-10 22 -14.167 39 -12.5 51s9.16699 22.667 22.5 32c10.667 7.33301 25.834 11.333 45.501 12s35.167 -2.33301 46.5 -9
c6.66699 -3.33301 13 -12 19 -26s9 -26.667 9 -38c0 -6.66699 13.833 -48.834 41.5 -126.501l76.5 -206.5c4.66699 -11.333 11 -10.666 19 2.00098c4 5.33301 9 14 15 26c17.333 34 36.666 92 57.999 174s36.333 156.333 45 223c5.33301 32.667 13.666 52.667 24.999 60
c19.333 12.667 32.666 11 39.999 -5c2.66699 -2 4.33398 -0.333008 5.00098 5c0 3.33301 0.333008 5.66602 1 6.99902s1.16699 2.5 1.5 3.5s1.66602 1.33301 3.99902 1s4.66602 -0.833008 6.99902 -1.5s6.16602 -1.66699 11.499 -3
c15.333 -4.66699 24.833 -12.167 28.5 -22.5s2.83398 -26.166 -2.49902 -47.499c-11.333 -44 -19 -76 -23 -96c-44 -198 -80.333 -318.667 -109 -362c-51.333 -78 -103.333 -117 -156 -117z" />
    <glyph glyph-name="W" unicode="W" horiz-adv-x="701" 
d="M346 406c-4.66699 0 -11.8291 -16.333 -21.4961 -49s-28.834 -105.667 -57.501 -219c-13.333 -50.667 -24.666 -82.167 -33.999 -94.5s-29 -20.166 -59 -23.499c-26.667 -2.66699 -44.334 5.16602 -53.001 23.499s-24.334 81.5 -47.001 189.5l-13 55.5
c-5.33301 22.333 -9 38.833 -11 49.5s-4.5 25.334 -7.5 44.001s-5.16699 38.5 -6.5 59.5s-2.33301 45.833 -3 74.5l-3 121c14 3.33301 30.333 3.5 49 0.5s33 -7.83301 43 -14.5c5.33301 -5.33301 8 -15.333 8 -30c0 -10 8 -58.167 24 -144.5s26 -135.833 30 -148.5
c1.33301 -3.33301 5 2.33398 11 17.001c4.66699 11.333 10 25.666 16 42.999c12 39.333 30.5 85.833 55.5 139.5s44.167 89.167 57.5 106.5c11.333 15.333 26.5 24.833 45.5 28.5s36.5 0.5 52.5 -9.5c10.667 -6.66699 17.5 -13.834 20.5 -21.501s6.5 -27.167 10.5 -58.5
c4.66699 -36 13.5 -75.5 26.5 -118.5s22.167 -64.167 27.5 -63.5c4.66699 0 7.66699 8.66699 9 26c2.66699 34 8 77.167 16 129.5s15.667 90.166 23 113.499c0.666992 4.66699 2.16699 8.66699 4.5 12s5.5 6.16602 9.5 8.49902s7.5 4.16602 10.5 5.49902
s7.5 2.83301 13.5 4.5s10 2.83398 12 3.50098c18.667 7.33301 37.334 2.33301 56.001 -15c6.66699 -6 10 -11.833 10 -17.5s-2.66699 -20.5 -8 -44.5c-14.667 -60.667 -25.834 -139.667 -33.501 -237s-7.83398 -161.666 -0.500977 -192.999
c3.33301 -13.333 4.66602 -23 3.99902 -29s-3.66699 -12.667 -9 -20c-6.66699 -9.33301 -21 -17.666 -43 -24.999s-37.667 -9 -47 -5c-13.333 5.33301 -38 37.333 -74 96s-63 111.667 -81 159s-29 71 -33 71z" />
    <glyph glyph-name="X" unicode="X" horiz-adv-x="547" 
d="M122 265c-0.666992 5.33301 4.99902 15.1621 16.999 29.4951s18 23.833 18 28.5c1.33301 7.33301 6.16602 14.5 14.499 21.5s13.833 13.833 16.5 20.5c8.66699 12 9.66699 23.667 3 35c-10 15.333 -33.167 47.333 -69.5 96s-59.833 78.334 -70.5 89.001
c-14 14 -21 26 -21 36c0 7.33301 4.5 16.166 13.5 26.499s18.5 17.166 28.5 20.499c18.667 6.66699 39 7 61 1c4.66699 -0.666992 13.167 -8.66699 25.5 -24s24.833 -32.166 37.5 -50.499s19.667 -28.166 21 -29.499c15.333 -17.333 32.666 -40.333 51.999 -69
c40 52.667 66.667 93.667 80 123c10 22 18.333 33 25 33c5.33301 0 7.33301 2 6 6c-1.33301 1.33301 0.333984 2.66602 5.00098 3.99902s10 2.33301 16 3c15.333 0.666992 31 -2.66602 47 -9.99902s27 -16.666 33 -27.999c4 -8 5 -15 3 -21s-10.333 -18 -25 -36
c-72.667 -94 -109.667 -152.333 -111 -175c0 -6 14.5 -32.333 43.5 -79s63.833 -99 104.5 -157c18 -25.333 24.333 -40.666 19 -45.999c-4.66699 -6 -11 -7.66699 -19 -5c-4.66699 1.33301 -7.16699 1.83301 -7.5 1.5s1.83398 -2.16602 6.50098 -5.49902
c6.66699 -4.66699 8.33398 -9 5.00098 -13c-3.33301 -3.33301 -16.333 -9.16602 -39 -17.499s-36.667 -12.5 -42 -12.5c-3.33301 0 -14.5 13.5 -33.5 40.5s-31.833 47.5 -38.5 61.5c-4 8.66699 -17.333 27.834 -40 57.501s-35 44.5 -37 44.5
c-4.66699 -4.66699 -11.5 -15.834 -20.5 -33.501l-28.5 -57l-18 -36.5c-10 -21.333 -26 -36 -48 -44s-43.667 -7 -65 3c-12 5.33301 -17.5 14 -16.5 26s8.83301 35.667 23.5 71c16.667 41.333 25 65 25 71z" />
    <glyph glyph-name="Y" unicode="Y" horiz-adv-x="599" 
d="M345 61c-13.333 0 -22.833 5.16797 -28.5 15.501s-8.83398 29.166 -9.50098 56.499c-2 66 -5 107.333 -9 124s-15.333 34.667 -34 54c-20 20 -42 45.333 -66 76c-56 74 -102 121.667 -138 143c-12.667 7.33301 -20.834 13.5 -24.501 18.5s-5.5 12.833 -5.5 23.5
c0 13.333 3.66699 22.833 11 28.5s22 10.167 44 13.5c18.667 3.33301 36 0 52 -10c52.667 -33.333 100 -78.666 142 -135.999c13.333 -18 23 -27 29 -27c4.66699 0 17 13.5 37 40.5s30 43.833 30 50.5c0 4.66699 2 7.66699 6 9c4 2 12.167 11.833 24.5 29.5
s22.166 34.167 29.499 49.5c10 19.333 20.667 31.666 32 36.999c22.667 11.333 46.334 11.5 71.001 0.5s34.334 -25.833 29.001 -44.5c-2.66699 -10 -17 -32.333 -43 -67c-50 -67.333 -83.333 -116 -100 -146c-8 -14.667 -12.333 -26.167 -13 -34.5s1 -27.5 5 -57.5
c4 -26.667 8.33301 -70 13 -130c2 -30.667 2.5 -50.5 1.5 -59.5s-4.5 -16.833 -10.5 -23.5c-8 -8.66699 -19.667 -16.5 -35 -23.5s-28.666 -10.5 -39.999 -10.5z" />
    <glyph glyph-name="Z" unicode="Z" horiz-adv-x="665" 
d="M358 324c0 -4.66699 -14.165 -27.1611 -42.498 -67.4941s-53.5 -73.833 -75.5 -100.5c-15.333 -18 -23 -29.333 -23 -34c5.33301 -4 25 -4.33301 59 -1s77.5 9.66602 130.5 18.999s96.5 18.666 130.5 27.999c30 8 57.667 10 83 6c4 -0.666992 7.83301 -8.5 11.5 -23.5
s4.5 -25.167 2.5 -30.5c-8.66699 -22.667 -70.334 -45.667 -185.001 -69c-171.333 -35.333 -295.666 -48 -372.999 -38c-18 2.66699 -28.667 13.5 -32 32.5s2 36.833 16 53.5c73.333 91.333 124.333 158.666 153 201.999c1.33301 2 3.83301 6.16699 7.5 12.5l14.5 24.5
l16 27c33.333 55.333 50 102.333 50 141c0 14 -0.833008 21.833 -2.5 23.5s-8.16699 1.5 -19.5 -0.5c-14 -2.66699 -35.333 -10.334 -64 -23.001s-52 -24.334 -70 -35.001c-22.667 -14.667 -46 -19.667 -70 -15s-38.667 17.334 -44 38.001
c-4.66699 15.333 5.83301 32.166 31.5 50.499s59.167 33.166 100.5 44.499c10 2.66699 21.667 7.16699 35 13.5s29.333 10.833 48 13.5c42 6.66699 78.833 5.66699 110.5 -3s51.167 -23 58.5 -43c9.33301 -24.667 9.16602 -61.5 -0.500977 -110.5
s-23.834 -86.167 -42.501 -111.5c-9.33301 -12.667 -14 -20.667 -14 -24z" />
    <glyph glyph-name="underscore" unicode="_" horiz-adv-x="609" 
d="M579 -32c0 -14.667 -14.998 -22.0029 -44.998 -22.0029c-10.667 0.666992 -54.334 -1.16602 -131.001 -5.49902s-132.334 -7.83301 -167.001 -10.5c-50 -4 -87.167 -6.5 -111.5 -7.5s-44.5 -0.833008 -60.5 0.5s-25.667 3.83301 -29 7.5s-5 9.5 -5 17.5
c0 25.333 34.333 38.333 103 39c20 0 40 1.5 60 4.5s34 2.5 42 -1.5c15.333 -4.66699 24.333 -5 27 -1c0 2 10.833 3.66699 32.5 5s43.5 2.5 65.5 3.5s33.333 1.83301 34 2.5s27 0.333984 79 -0.999023c41.333 -0.666992 69.333 -3.16699 84 -7.5s22 -12.166 22 -23.499z
" />
    <glyph glyph-name="grave" unicode="`" horiz-adv-x="250" 
d="M86 647c7.33301 0.666992 13.665 1.99805 18.998 3.99805c5.33301 0.666992 19 -9.16602 41 -29.499s38.333 -37.833 49 -52.5c15.333 -20.667 23.5 -36 24.5 -46s-4.83301 -21 -17.5 -33c-16 -16.667 -30.167 -22.667 -42.5 -18s-34.5 24 -66.5 58
c-38 42 -58.667 65.333 -62 70c-3.33301 5.33301 1.83398 13.833 15.501 25.5s26.834 18.834 39.501 21.501z" />
    <glyph glyph-name="a" unicode="a" horiz-adv-x="492" 
d="M320 274c-13.333 14 -35.999 12.667 -67.999 -4c-17.333 -8.66699 -31.833 -19.5 -43.5 -32.5s-23.167 -30.833 -34.5 -53.5c-8.66699 -17.333 -13.334 -31.166 -14.001 -41.499s2 -26.166 8 -47.499c2.66699 -8.66699 9.33398 -13.834 20.001 -15.501
s22.334 0.166016 35.001 5.49902c9.33301 4 24.5 15.5 45.5 34.5s40.5 39.167 58.5 60.5c7.33301 8.66699 10.166 24 8.49902 46s-6.83398 38 -15.501 48zM58.001 377c-0.666992 2.66699 -5.83398 6.33496 -15.501 11.002s-13.834 10 -12.501 16
c1.33301 14.667 19.333 32 54 52s77 36.667 127 50s93.667 17.666 131 12.999c7.33301 -2 17 -8.33301 29 -19s21.667 -17.334 29 -20.001c10 -4 16.667 -8.83301 20 -14.5s6 -16.834 8 -33.501c19.333 -106.667 30.666 -238.667 33.999 -396
c-22.667 -24 -44.667 -38.667 -66 -44c-19.333 -4.66699 -32.333 -2.83398 -39 5.49902s-10.334 26.5 -11.001 54.5c-1.33301 29.333 -3 44 -5 44c-2.66699 0 -11 -7 -25 -21c-21.333 -22.667 -48.166 -42.5 -80.499 -59.5s-59.833 -25.5 -82.5 -25.5
c-12.667 0 -27.834 4.83301 -45.501 14.5s-30.834 20.5 -39.501 32.5c-21.333 28.667 -24.666 67 -9.99902 115c14 46.667 43.833 90.834 89.5 132.501s92.5 67.5 140.5 77.5c12.667 2.66699 20.334 5.33398 23.001 8.00098s3.33398 8.66699 2.00098 18
c-1.33301 14 -4.33301 26.333 -9 37c-3.33301 8.66699 -7.5 13.667 -12.5 15s-18.5 1 -40.5 -1c-25.333 -2.66699 -57.166 -10 -95.499 -22s-60.166 -21.333 -65.499 -28c-8 -9.33301 -17 -14.333 -27 -15c-3.33301 0 -5 1 -5 3z" />
    <glyph glyph-name="b" unicode="b" horiz-adv-x="576" 
d="M328 377c-22.667 5.33301 -49.333 7.66504 -80 6.99805s-52.667 -4 -66 -10l-23 -10l4 -201c45.333 0.666992 93 10.334 143 29.001s87.667 40.334 113 65.001c14.667 14.667 24.5 29.167 29.5 43.5s4.16699 24.833 -2.5 31.5c-5.33301 5.33301 -21.333 13 -48 23
s-50 17.333 -70 22zM145.001 495.999l-0.00195312 -57.0039c32.667 8.66699 73.334 12.5 122.001 11.5s89.667 -5.83301 123 -14.5c29.333 -8.66699 44 -14.667 44 -18s3 -3.66602 9 -0.999023c8.66699 3.33301 25.667 -3.16699 51 -19.5s40.333 -30.166 45 -41.499
c11.333 -26 8.83301 -54.167 -7.5 -84.5s-43.833 -57.833 -82.5 -82.5c-26.667 -17.333 -40.667 -27.666 -42 -30.999c-0.666992 -4 -5 -6 -13 -6c-6 0 -20.333 -5 -43 -15c-18.667 -8.66699 -43.834 -17.5 -75.501 -26.5s-56.5 -14.5 -74.5 -16.5
c-17.333 -1.33301 -34 -8.66602 -50 -21.999c-16 -12 -32.167 -19.5 -48.5 -22.5s-27.833 -0.833008 -34.5 6.5c-6 6.66699 -9.33301 48.667 -10 126c-0.666992 66 -3.66699 133.5 -9 202.5s-10.333 108.167 -15 117.5c-7.33301 14.667 -5.16602 27.667 6.50098 39
s24.834 18 39.501 20c6 0 11.333 1.5 16 4.5s8.16699 4.5 10.5 4.5s8.5 -2 18.5 -6c10 -5.33301 15.833 -11 17.5 -17s2.5 -23 2.5 -51z" />
    <glyph glyph-name="c" unicode="c" horiz-adv-x="446" 
d="M319 399c-23.333 0 -38.333 4.66309 -45 13.9961c-10 11.333 -20.833 17.5 -32.5 18.5s-21.5 -3.16699 -29.5 -12.5c-23.333 -27.333 -41 -64.833 -53 -112.5s-14 -88.5 -6 -122.5c4.66699 -20.667 11 -40 19 -58c6.66699 -13.333 18.334 -25.166 35.001 -35.499
s31.667 -15.5 45 -15.5c9.33301 0 19 2.5 29 7.5s29 16.833 57 35.5c15.333 10.667 31 19.834 47 27.501s25 10.5 27 8.5c3.33301 -5.33301 4.16602 -13.166 2.49902 -23.499s-5.33398 -19.833 -11.001 -28.5s-10.834 -11.667 -15.501 -9c-3.33301 0.666992 -5 0 -5 -2
c2 -5.33301 -2.5 -15.5 -13.5 -30.5s-22.5 -26.167 -34.5 -33.5c-17.333 -10.667 -37.666 -20.667 -60.999 -30c-53.333 -20 -102 -19.167 -146 2.5s-73 58.834 -87 111.501c-15.333 56 -15 116.833 1 182.5s42.667 116.5 80 152.5c22.667 21.333 38 35.166 46 41.499
s19.333 13.5 34 21.5c21.333 10.667 43.5 15.834 66.5 15.501s43.167 -6.16602 60.5 -17.499c28 -19.333 44.833 -34.833 50.5 -46.5s2.5 -25.167 -9.5 -40.5c-7.33301 -8.66699 -14.166 -14.334 -20.499 -17.001s-16.5 -4 -30.5 -4z" />
    <glyph glyph-name="d" unicode="d" horiz-adv-x="494" 
d="M313 356c-4.66699 -0.666992 -10.834 0.999023 -18.501 4.99902s-15.834 9 -24.501 15l-12 9c-4 0 -16.167 -10.667 -36.5 -32s-34.166 -38 -41.499 -50c-12.667 -20.667 -21.834 -45.167 -27.501 -73.5s-5.16699 -48.166 1.5 -59.499
c10 -18.667 27.833 -30.5 53.5 -35.5s49.834 -1.16699 72.501 11.5c18 10 30.833 23 38.5 39s11.834 39 12.501 69c1.33301 48 1 77 -1 87s-7.66699 15 -17 15zM443 642.999c0 -76 4.33105 -121.663 12.998 -136.996c5.33301 -10.667 7.83301 -69.167 7.5 -175.5
s-3.16602 -172.5 -8.49902 -198.5c-10 -42 -34.667 -68 -74 -78c-14.667 -4 -26.834 -4 -36.501 0s-14.5 11 -14.5 21c0 8 -2 12 -6 12s-19 -6.33301 -45 -19c-41.333 -20.667 -81 -29.167 -119 -25.5s-70.667 19.167 -98 46.5
c-17.333 17.333 -27.666 37.666 -30.999 60.999c-7.33301 36 1 79.333 25 130s57.833 95.667 101.5 135s86.834 61 129.501 65c10.667 1.33301 19 3 25 5s10.833 4 14.5 6s6 6.16699 7 12.5s1.66699 11.666 2 15.999s0.166016 12.666 -0.500977 24.999s-1 22.833 -1 31.5
c0 34.667 1.5 57.334 4.5 68.001s10.833 19.667 23.5 27c14.667 9.33301 31.834 11.666 51.501 6.99902s29.5 -16.334 29.5 -35.001z" />
    <glyph glyph-name="e" unicode="e" horiz-adv-x="509" 
d="M296 370c-5.33301 19.333 -14.5 40.334 -27.5 63.001s-26.5 34.667 -40.5 36c-11.333 0 -22.666 -10.5 -33.999 -31.5s-20.666 -48.833 -27.999 -83.5c-2 -9.33301 -2.33301 -15 -1 -17s5.66602 -2 12.999 0c2.66699 1.33301 22.167 6.16602 58.5 14.499
s56.166 14.5 59.499 18.5zM437 406.001c28 0 42 -10.667 42 -32c0 -14.667 -5 -26 -15 -34s-27.667 -14.333 -53 -19c-91.333 -16 -155.666 -31.333 -192.999 -46c-19.333 -6.66699 -33.666 -10 -42.999 -10c-3.33301 -1.33301 -5 -5.16602 -5 -11.499
s1.66699 -14.333 5 -24s7.33301 -16.834 12 -21.501c7.33301 -8 20 -17 38 -27c14.667 -7.33301 31.5 -10.333 50.5 -9s35.833 7 50.5 17c7.33301 4.66699 12.833 7.16699 16.5 7.5s8.16699 -1.5 13.5 -5.5c6.66699 -4.66699 10 -8.66699 10 -12s-3 -11 -9 -23
c-6.66699 -16 -15.667 -26.667 -27 -32l-2 -1c-5.33301 -3.33301 -8 -5.33301 -8 -6c2.66699 0 0.333984 -2.66699 -6.99902 -8l-10 -6c-16 -8 -39 -12.667 -69 -14c-36 0 -65.5 7.16699 -88.5 21.5s-41.833 37.5 -56.5 69.5c-12.667 26.667 -19 44 -19 52
s-4.33301 12 -13 12s-15.834 3.5 -21.501 10.5s-7.16699 14.5 -4.5 22.5c3.33301 8.66699 11.666 19 24.999 31c12.667 11.333 20.667 30.333 24 57c8 44.667 28.667 86.167 62 124.5s71.333 59.5 114 63.5c8.66699 0.666992 20.5 -3.33301 35.5 -12
s27.167 -18.667 36.5 -30c11.333 -12.667 26.333 -39 45 -79c4.66699 -10 11.667 -16.833 21 -20.5s23.666 -5.5 42.999 -5.5z" />
    <glyph glyph-name="f" unicode="f" horiz-adv-x="413" 
d="M312 532c-6.66699 0 -26.9961 -6.99805 -60.9961 -20.998s-54.333 -23.667 -61 -29c-4.66699 -3.33301 -7 -13.666 -7 -30.999c-0.666992 -10.667 0 -17.334 2 -20.001s7 -4 15 -4c2 -1.33301 28.667 4 80 16c21.333 4.66699 32 6 32 4c0 -1.33301 -2 -3.33301 -6 -6
c-6.66699 -4.66699 -8 -7 -4 -7c8 0 15.667 3.66699 23 11c0 1.33301 -0.333008 2.33301 -1 3c-5.33301 0 -4.33301 2.33301 3 7c12.667 8.66699 25.167 9.66699 37.5 3s18.5 -17.667 18.5 -33c0 -8.66699 -6 -17 -18 -25s-41 -22.667 -87 -44
c-2 -0.666992 -18 -4.83398 -48 -12.501s-46 -13.167 -48 -16.5c-2.66699 -4 -4.66699 -38.667 -6 -104c-1.33301 -48.667 -2.83301 -78.167 -4.5 -88.5s-7.16699 -19.833 -16.5 -28.5s-20.5 -14.167 -33.5 -16.5s-23.833 -0.833008 -32.5 4.5
c-2.66699 0.666992 -5.33398 8 -8.00098 22s-5 28.833 -7 44.5s-3.33301 24.5 -4 26.5c-0.666992 2.66699 -2.83398 13.167 -6.50098 31.5s-7.5 35.166 -11.5 50.499s-8 24.333 -12 27c-8.66699 11.333 -11.667 25.666 -9 42.999s10.667 31.666 24 42.999
c9.33301 6.66699 15.666 17.5 18.999 32.5s6.66602 25.5 9.99902 31.5c7.33301 10 11.666 30 12.999 60c2 34.667 10.167 58 24.5 70s30.833 9.33301 49.5 -8c6.66699 -6.66699 11.834 -10.167 15.501 -10.5s9.83398 1.5 18.501 5.5c24 12 57.667 21.333 101 28
c17.333 2.66699 28.666 3.83398 33.999 3.50098s10 -3.16602 14 -8.49902c9.33301 -10 8.83301 -21.5 -1.5 -34.5s-23.833 -19.5 -40.5 -19.5z" />
    <glyph glyph-name="g" unicode="g" horiz-adv-x="461" 
d="M124 233c0 -46 22.001 -69.333 66.001 -70c13.333 -0.666992 23.166 0.166016 29.499 2.49902s12.833 7.16602 19.5 14.499c44 48 61.667 109 53 183c-3.33301 30.667 -10.333 50.334 -21 59.001c-7.33301 5.33301 -18 8.83301 -32 10.5s-25.667 0.5 -35 -3.5
c-7.33301 -3.33301 -19 -19.166 -35 -47.499s-27 -52.833 -33 -73.5c-8 -28 -12 -53 -12 -75zM326.001 138c-2 0 -14.668 -8.33301 -38.001 -25c-40.667 -28.667 -88 -40 -142 -34c-28 2.66699 -49.333 8.66699 -64 18s-27 24.333 -37 45c-8.66699 18 -13.5 36 -14.5 54
s1.16699 42.667 6.5 74c8 47.333 25 92.666 51 135.999s53.667 72.666 83 87.999c8 3.33301 14.667 7 20 11s10 7.16699 14 9.5s11 4.16602 21 5.49902c36 5.33301 69 -1 99 -19c24.667 -14.667 41.334 -28.667 50.001 -42s14.334 -34.333 17.001 -63
c5.33301 -39.333 12.333 -77.333 21 -114c31.333 -131.333 23.666 -244.666 -23.001 -339.999c-31.333 -63.333 -72.333 -99.666 -123 -108.999c-20.667 -4 -35.834 -1.83301 -45.501 6.5s-23.167 30.5 -40.5 66.5c-3.33301 7.33301 -3.16602 16 0.500977 26
s9.16699 16.333 16.5 19c6.66699 2.66699 19 -1 37 -11c18 -11.333 32 -13.5 42 -6.5s20 25.5 30 55.5c4.66699 14.667 9.16699 34.167 13.5 58.5s7 44.833 8 61.5s0.166992 26.334 -2.5 29.001z" />
    <glyph glyph-name="h" unicode="h" horiz-adv-x="469" 
d="M152 86c0 -30 -13.333 -46.332 -40 -48.999c-12.667 -1.33301 -21.334 -5.33301 -26.001 -12c-3.33301 -4 -5.5 -6.16699 -6.5 -6.5s-3.16699 1.83398 -6.5 6.50098c-11.333 18 -19.666 55.667 -24.999 113c-2.66699 28 -6.33398 91.167 -11.001 189.5s-7 155.5 -7 171.5
c-1.33301 19.333 10 36.166 34 50.499s43.333 12.833 58 -4.5c6.66699 -7.33301 10.667 -14.333 12 -21s1 -19.667 -1 -39c-2.66699 -22.667 -3.5 -35.834 -2.5 -39.501s5.83301 -4.16699 14.5 -1.5c45.333 19.333 79.666 31.333 102.999 36
c22 4.66699 37.667 6.83398 47 6.50098s22.333 -2.83301 39 -7.5c20 -6 36.5 -13 49.5 -21s19.833 -15.333 20.5 -22c0 -6 2.33301 -9.66699 7 -11c28 -38 34.667 -148 20 -330c-3.33301 -20.667 -6.66602 -34.667 -9.99902 -42s-11 -16 -23 -26
c-20.667 -18 -35 -24.667 -43 -20c-2.66699 1.33301 -3.33398 4.33301 -2.00098 9c0.666992 1.33301 0.333984 2.5 -0.999023 3.5s-3 1.5 -5 1.5s-4.66699 -0.333008 -8 -1c-6.66699 -2 -10.334 0 -11.001 6c-1.33301 6 -0.333008 36.667 3 92c6 98.667 6.66699 167 2 205
s-15.667 59.333 -33 64c-10.667 3.33301 -19.167 5.66602 -25.5 6.99902s-12.166 2 -17.499 2s-9 -0.166992 -11 -0.5s-6.16699 -1.5 -12.5 -3.5s-11.166 -3.66699 -14.499 -5c-9.33301 -1.33301 -25.333 -8.5 -48 -21.5s-35 -21.833 -37 -26.5
c-1.33301 -3.33301 -1.33301 -12 0 -26c2 -14 5.5 -51.667 10.5 -113s7.5 -99.333 7.5 -114z" />
    <glyph glyph-name="i" unicode="i" horiz-adv-x="223" 
d="M100 449c14.667 4.66699 27.499 0.163086 38.499 -13.5039s13.833 -28.167 8.5 -43.5c-10 -24.667 -10 -87 0 -187c6.66699 -67.333 6 -113.5 -2 -138.5s-26.333 -39.833 -55 -44.5c-20.667 -3.33301 -33.5 0.333984 -38.5 11.001s-7.83301 41.334 -8.5 92.001
c0 24.667 -0.166992 43.334 -0.5 56.001s-0.833008 21.167 -1.5 25.5s-2 12.333 -4 24s-3.66699 25.834 -5 42.501c-3.33301 35.333 0.333984 67 11.001 95c7.33301 20.667 16.333 38.5 27 53.5s20.667 24.167 30 27.5zM101.999 600.996c30 28 56.668 28.999 80.001 2.99902
c17.333 -19.333 9.66602 -44 -23.001 -74c-10 -6.66699 -23.667 -11.667 -41 -15s-30.333 -3.66602 -39 -0.999023c-11.333 3.33301 -14.333 15 -9 35s16 37.333 32 52z" />
    <glyph glyph-name="j" unicode="j" horiz-adv-x="333" 
d="M57 -45c-1.33301 0 -2.33301 -0.5 -3 -1.5s-0.666992 -2.33301 0 -4s2 -3.5 4 -5.5c8.66699 -10 13 -11.5 13 -4.5s-3 11.833 -9 14.5c-2 0.666992 -3.66699 1 -5 1zM276 370c0 -31.333 2.66699 -66.332 8 -104.999c5.33301 -37.333 7.66602 -82 6.99902 -134
s-4 -89 -10 -111c-4.66699 -18.667 -13.834 -39.834 -27.501 -63.501s-23.167 -35.834 -28.5 -36.501c-4 0 -11 -5 -21 -15c-19.333 -18.667 -47 -28.334 -83 -29.001c-35.333 -0.666992 -62 14 -80 44c-8 13.333 -10.333 20.333 -7 21c0.666992 0 2.66699 -0.666992 6 -2
c5.33301 -3.33301 8 -3.66602 8 -0.999023c0 1.33301 -1.33301 4.66602 -4 9.99902c-4 9.33301 -4.66699 14 -2 14s1.33398 2.66699 -3.99902 8c-6.66699 7.33301 -9.16699 14.833 -7.5 22.5s7.16699 12.834 16.5 15.501c19.333 4 38 -3 56 -21
c13.333 -13.333 27 -17.166 41 -11.499s25.667 19.834 35 42.501c6.66699 16 10 55.5 10 118.5s-3.33301 105.833 -10 128.5c-7.33301 25.333 -10.333 54.666 -9 87.999c0.666992 28 2 45.333 4 52s9 15.667 21 27c24.667 23.333 44.334 29.5 59.001 18.5
s22 -37.833 22 -80.5zM192 530.001c0 10.667 3.66699 23 11 37s14.666 23.333 21.999 28c9.33301 4.66699 20 7 32 7s21.667 -2.66699 29 -8c6.66699 -5.33301 12 -15.333 16 -30c2 -8.66699 1.66699 -16 -1 -22s-9 -14 -19 -24c-16 -16 -29 -24 -39 -24
c-13.333 0.666992 -25.166 4.66699 -35.499 12s-15.5 15.333 -15.5 24z" />
    <glyph glyph-name="k" unicode="k" horiz-adv-x="523" 
d="M76 35c7.33301 -7.33301 11.666 -8 12.999 -2c0 4 -2.66699 7.66699 -8 11c-7.33301 7.33301 -11.666 8 -12.999 2c0 -4 2.66699 -7.66699 8 -11zM212 322c0 -9.33301 44.668 -36.9961 134.001 -82.9961c60 -30 93.667 -45 101 -45c6 0 15.667 -6.66699 29 -20
c8.66699 -8.66699 13.834 -15.834 15.501 -21.501s1.5 -13.167 -0.5 -22.5c-2 -14 -7.33301 -26 -16 -36c-11.333 -12 -27.833 -15.333 -49.5 -10s-60.834 22.333 -117.501 51c-70 36 -111.667 58.333 -125 67c-26.667 19.333 -40.667 18.666 -42 -2.00098
c-4 -80 -8.66699 -126.667 -14 -140c-4 -11.333 -12.833 -21.333 -26.5 -30s-22.5 -10 -26.5 -4c-2.66699 5.33301 -6 5 -10 -1c-5.33301 -10 -14 -5.66699 -26 13c-8 13.333 -10.667 22 -8 26c0 6.66699 0.333008 10.167 1 10.5s3.66699 -2.83398 9 -9.50098
c6.66699 -10.667 10 -12.334 10 -5.00098c0 10 -2.33301 16.667 -7 20c-5.33301 5.33301 -4.33301 55.666 3 150.999c8 106.667 12 178.667 12 216c0 40 2.66699 68.333 8 85s16 29.334 32 38.001c28.667 15.333 49.334 13 62.001 -7c5.33301 -8 8 -16.5 8 -25.5
s-2 -27.5 -6 -55.5c-4.66699 -42 -5.66699 -64.333 -3 -67c1.33301 -2 7.66602 -0.833008 18.999 3.5s22.666 9 33.999 14s17 7.16699 17 6.5c1.33301 -0.666992 6.83301 4.5 16.5 15.5l29 33.5c9.66699 11.333 15.5 16.666 17.5 15.999
c3.33301 0.666992 9.33301 4.66699 18 12c10 10 25.5 11.167 46.5 3.5s31.833 -18.5 32.5 -32.5c0 -13.333 -20 -39.166 -60 -77.499s-73.333 -63.5 -100 -75.5c-11.333 -5.33301 -17 -9.33301 -17 -12z" />
    <glyph glyph-name="l" unicode="l" horiz-adv-x="192" 
d="M114 -17c-6.66699 0 -10.001 -2.33594 -10.001 -7.00293s-10.333 -7 -31 -7s-33.667 4.33301 -39 13c-5.33301 11.333 -5.66602 26 -0.999023 44c2.66699 8.66699 5.66699 10.334 9 5.00098c4 -3.33301 6 -3.66602 6 -0.999023c0 6.66699 -2.33301 11.334 -7 14.001
c-5.33301 5.33301 -6 50.666 -2 135.999c3.33301 80.667 3.66602 156 0.999023 226c-2 52.667 -0.833008 86.334 3.5 101.001s16.5 28 36.5 40c13.333 9.33301 23.333 13.666 30 12.999s16.334 -6.66699 29.001 -18l23 -19c-5.33301 -70 -9.33301 -152.667 -12 -248
c-2 -70 -3.66699 -122.333 -5 -157s-3.5 -63.167 -6.5 -85.5s-6.16699 -36.166 -9.5 -41.499s-8.33301 -8 -15 -8z" />
    <glyph glyph-name="m" unicode="m" horiz-adv-x="686" 
d="M339 430c0 -6.66699 2 -10 6 -10c2.66699 0.666992 5.83398 -3 9.50098 -11s7.33398 -15.333 11.001 -22s7.5 -8.33398 11.5 -5.00098c4.66699 2 8.5 5.5 11.5 10.5s8.16699 8.5 15.5 10.5c11.333 4 19 9 23 15c6.66699 8.66699 25.5 13.167 56.5 13.5
s56.167 -3.5 75.5 -11.5c24.667 -10.667 41.834 -28.334 51.501 -53.001s21.167 -78.667 34.5 -162c13.333 -91.333 13.666 -143.333 0.999023 -156c-4 -3.33301 -7.33301 -7.16602 -10 -11.499s-5.5 -7.5 -8.5 -9.5s-8.83301 -3.33301 -17.5 -4
c-14 -1.33301 -22.667 -4.33301 -26 -9c-6 -7.33301 -13.333 -3.66602 -22 11.001c-6.66699 10.667 -9.66699 21.334 -9 32.001c1.33301 17.333 0 26.666 -4 27.999c-4 2 -6 14.333 -6 37c0 20 -3.16699 51.167 -9.5 93.5s-12.833 74.166 -19.5 95.499
c-5.33301 18.667 -13.666 30 -24.999 34c-13.333 2.66699 -25 -0.166016 -35 -8.49902s-20.667 -24.833 -32 -49.5c-10.667 -22 -16.667 -38.167 -18 -48.5s-1 -31.5 1 -63.5c3.33301 -43.333 2.33301 -73.166 -3 -89.499s-18.333 -29.833 -39 -40.5
c-13.333 -8 -22.5 -12.167 -27.5 -12.5s-11.833 2.5 -20.5 8.5c-8.66699 5.33301 -13.834 11 -15.501 17s-2.5 20 -2.5 42c0 113.333 -7.66699 188 -23 224c-12.667 28.667 -24.667 47 -36 55c-12 10 -24 11.667 -36 5c-32 -17.333 -47 -60.333 -45 -129
c2 -79.333 2.5 -129.333 1.5 -150s-4.5 -35.667 -10.5 -45c-6.66699 -8.66699 -11.167 -12.667 -13.5 -12s-9.16602 -1.33301 -20.499 -6l-30.5 -9.5c-7.66699 -2.33301 -13.667 3 -18 16s-7.33301 29.833 -9 50.5s-3.16699 52 -4.5 94
c-1.33301 83.333 -5.33301 141.333 -12 174c-6.66699 33.333 -9.83398 55.166 -9.50098 65.499s5.16602 19.833 14.499 28.5c11.333 10 26.333 14.833 45 14.5s31.667 -5.5 39 -15.5c5.33301 -7.33301 9.5 -11.333 12.5 -12s10.833 2.33301 23.5 9
c22 10.667 47 18.667 75 24c1.33301 1.33301 11.666 -1 30.999 -7c18 -4.66699 33.833 -11.667 47.5 -21s20.5 -17.333 20.5 -24z" />
    <glyph glyph-name="n" unicode="n" horiz-adv-x="486" 
d="M344 99c0 16.667 -1.83008 34.501 -5.49707 53.501s-8.5 39.167 -14.5 60.5s-9.66699 35 -11 41c0 7.33301 -1.66699 11 -5 11c-4 0 -9 8 -15 24c-4 10.667 -15.5 26.834 -34.5 48.501s-31.167 32.5 -36.5 32.5c-4.66699 0 -12.834 -6.33301 -24.501 -19
s-16.5 -20.334 -14.5 -23.001c3.33301 -4.66699 1.33301 -22.667 -6 -54c-5.33301 -27.333 -11.333 -64.166 -18 -110.499s-9.66699 -74.166 -9 -83.499c0.666992 -5.33301 -1.33301 -9.16602 -6 -11.499s-7 -5.83301 -7 -10.5c0 -9.33301 -6.83301 -18 -20.5 -26
s-27.167 -12.167 -40.5 -12.5s-23 3.16699 -29 10.5c-2.66699 5.33301 -6.33398 57.5 -11.001 156.5s-6.66699 169.833 -6 212.5c0.666992 23.333 12.5 39 35.5 47s41.833 2.66699 56.5 -16l15 -19c28 22.667 50.667 35.667 68 39c21.333 2.66699 37.666 3.5 48.999 2.5
s23.666 -4.83301 36.999 -11.5c12.667 -6.66699 31.334 -22.334 56.001 -47.001s37 -40.334 37 -47.001c0 -4 4.66699 -12.333 14 -25c9.33301 -13.333 20.166 -43.833 32.499 -91.5s19.5 -86.834 21.5 -117.501l4 -50c-0.666992 -0.666992 -4 -3.33398 -10 -8.00098
s-9.83301 -7.5 -11.5 -8.5s-5.66699 -3.83301 -12 -8.5s-10.666 -7 -12.999 -7s-7 -1.33301 -14 -4s-11.5 -2.66699 -13.5 0c-7.33301 0.666992 -12.833 2 -16.5 4s-5.16699 4.33301 -4.5 7c0.666992 2 0.166992 3.83301 -1.5 5.5s-3.5 2.16699 -5.5 1.5
c-2 0 -3.5 0.833008 -4.5 2.5s-2 4.66699 -3 9s-1.66699 10 -2 17s-0.5 15.5 -0.5 25.5z" />
    <glyph glyph-name="o" unicode="o" horiz-adv-x="421" 
d="M294 259c0 22.667 -7.83398 51.001 -23.501 85.001s-32.5 59 -50.5 75c-20.667 18.667 -36.667 25.5 -48 20.5s-18.666 -22.167 -21.999 -51.5c-10.667 -90.667 -12.167 -155.834 -4.5 -195.501s26.5 -63.167 56.5 -70.5c23.333 -5.33301 44.5 6.16699 63.5 34.5
s28.5 62.5 28.5 102.5zM298.999 497.001c6 0 9 -2 9 -6c0 -4.66699 9 -17.667 27 -39c13.333 -16 23.166 -32.5 29.499 -49.5s13.5 -45.167 21.5 -84.5c10.667 -52 5 -105 -17 -159s-53.667 -92.333 -95 -115c-32.667 -18 -67.167 -26 -103.5 -24s-64.166 13 -83.499 33
c-28 29.333 -45.667 77.333 -53 144s-3.66602 145.667 11.001 237c3.33301 24 9.16602 42 17.499 54s22.166 22.667 41.499 32c4 2.66699 13.833 3 29.5 1s25.834 -2.66699 30.501 -2c24.667 2.66699 48.167 3 70.5 1s36.833 -5.66699 43.5 -11
c9.33301 -8 16.333 -12 21 -12z" />
    <glyph glyph-name="p" unicode="p" horiz-adv-x="509" 
d="M180 406c-8.66699 0 -14.499 -31.1709 -17.499 -93.5039s-0.833008 -103.166 6.5 -122.499s30.833 -22.666 70.5 -9.99902s75.5 35.334 107.5 68.001c37.333 38 48.166 68.833 32.499 92.5s-59.5 41.834 -131.5 54.501c-39.333 7.33301 -62 11 -68 11zM255.001 494.996
c13.333 -0.666992 22.6689 -2.83496 28.002 -6.50195s14 -6.16699 26 -7.5c20 -2.66699 45.667 -12.167 77 -28.5s54 -32.166 68 -47.499c11.333 -12.667 18.333 -22.667 21 -30s4 -20.333 4 -39c1.33301 -30 -7 -60.333 -25 -91s-41.167 -57.167 -69.5 -79.5
s-58 -41.5 -89 -57.5s-59.833 -27 -86.5 -33c-13.333 -2 -21.5 -4.33301 -24.5 -7s-4.16699 -8.66699 -3.5 -18c1.33301 -19.333 2.66602 -51.333 3.99902 -96c1.33301 -35.333 1.16602 -57.666 -0.500977 -66.999s-6.16699 -17.333 -13.5 -24
c-10.667 -10 -23.667 -16 -39 -18s-26.333 0.666992 -33 8c-4.66699 7.33301 -8.66699 26.5 -12 57.5s-6.33301 64.167 -9 99.5s-5 58 -7 68c-2.66699 7.33301 -5.33398 35.833 -8.00098 85.5s-6 97.167 -10 142.5s-8.66699 69 -14 71c-8 10 -10.667 21 -8 33
c6.66699 30 26.5 53.167 59.5 69.5s72.167 22.833 117.5 19.5c0.666992 0 7.33398 -0.5 20.001 -1.5s21.667 -1.83301 27 -2.5z" />
    <glyph glyph-name="q" unicode="q" horiz-adv-x="441" 
d="M285 373c-4 8 -8.33203 11.667 -12.999 11c-30 -2.66699 -62.333 -31.334 -97 -86.001s-49 -99.667 -43 -135c8 -47.333 37.333 -53.333 88 -18c19.333 12.667 32 27.334 38 44.001c5.33301 19.333 11.666 53.333 18.999 102s10 76 8 82zM30.001 154
c0 87.333 39.6641 173.004 118.997 257.004c29.333 31.333 64.666 53.333 105.999 66c24 7.33301 40.833 11 50.5 11s22.834 -3.66699 39.501 -11c20.667 -8.66699 35.834 -19.334 45.501 -32.001s16.167 -29.667 19.5 -51c3.33301 -24.667 0 -43.667 -10 -57
c-7.33301 -10 -15.333 -38.167 -24 -84.5s-15 -93.833 -19 -142.5c-6.66699 -82 -4 -157 8 -225c5.33301 -27.333 7.33301 -48.666 6 -63.999c-1.33301 -8 -4.66602 -13.167 -9.99902 -15.5s-18.666 -3.83301 -39.999 -4.5c-20 -0.666992 -33 -0.333984 -39 0.999023
s-10 4.66602 -12 9.99902c-10 36 -17.333 93 -22 171c-0.666992 8.66699 -1.33398 20 -2.00098 34c-2 24 -5 36.667 -9 38c-2.66699 0.666992 -8.66699 -0.333008 -18 -3c-12 -4 -22.333 -7 -31 -9c-24.667 -6.66699 -44.5 -9.83398 -59.5 -9.50098
s-29.833 4.16602 -44.5 11.499c-21.333 10.667 -35.666 23.5 -42.999 38.5s-11 38.5 -11 70.5z" />
    <glyph glyph-name="r" unicode="r" horiz-adv-x="397" 
d="M367 418c0 -12 -4.99805 -20.3281 -14.998 -24.9951s-29 -7.66699 -57 -9c-23.333 -1.33301 -39.166 -3.5 -47.499 -6.5s-19.5 -9.83301 -33.5 -20.5c-20.667 -16.667 -35 -36.167 -43 -58.5s-11.667 -53.5 -11 -93.5c0 -46.667 2 -80 6 -100
c2.66699 -17.333 3.16699 -29 1.5 -35s-7.5 -14 -17.5 -24c-11.333 -10.667 -24.5 -17.5 -39.5 -20.5s-27.5 -1.16699 -37.5 5.5c-12 8 -22 82.333 -30 223c-4 66.667 -8 113 -12 139c-2 11.333 -1.83301 19.833 0.5 25.5s8.16602 13.167 17.499 22.5s16.666 15 21.999 17
s13 2 23 0c9.33301 -2 15.833 -4.16699 19.5 -6.5s7 -6.33301 10 -12s6.5 -10.5 10.5 -14.5c6 -7.33301 10.167 -11.333 12.5 -12s6.83301 1.66602 13.5 6.99902c13.333 11.333 33 20.166 59 26.499s52.333 8.16602 79 5.49902
c27.333 -2.66699 45.666 -6.33398 54.999 -11.001s14 -12.334 14 -23.001z" />
    <glyph glyph-name="s" unicode="s" horiz-adv-x="439" 
d="M347 455c14 0 25.667 -5.16797 35 -15.501s13.333 -22.166 12 -35.499s-7.83301 -24.666 -19.5 -33.999s-25.834 -14 -42.501 -14c-22 2 -46.833 0.833008 -74.5 -3.5s-42.5 -10.166 -44.5 -17.499c0.666992 -2 24.667 -25 72 -69c82.667 -75.333 124 -128 124 -158
c0 -30.667 -14.333 -56.834 -43 -78.501s-63.334 -32.5 -104.001 -32.5c-58.667 0 -119.334 23.667 -182.001 71c-26 19.333 -42.333 36 -49 50c-2 4 -1.66699 6 1 6c1.33301 0 3 -0.333008 5 -1c6.66699 -3.33301 10.667 0 12 10c0.666992 8 0 11.333 -2 10
c-0.666992 -0.666992 -2 -2.33398 -4 -5.00098c-4.66699 -6.66699 -7 -8.33398 -7 -5.00098c0 2.66699 1.33301 8 4 16c3.33301 6.66699 13.833 14.667 31.5 24s31.5 14 41.5 14s15 -4 15 -12c0 -9.33301 4.83301 -18 14.5 -26s26.834 -17.667 51.501 -29
c16.667 -7.33301 33 -13.166 49 -17.499s29 -6.33301 39 -6s15 2.83301 15 7.5c0 6.66699 -19.5 28.334 -58.5 65.001s-84.833 76.667 -137.5 120c-27.333 23.333 -29.666 49.333 -6.99902 78c9.33301 11.333 33.5 26.5 72.5 45.5s69.167 29.833 90.5 32.5
c8.66699 0.666992 18.834 3.16699 30.501 7.5s21.167 6.16602 28.5 5.49902c6 -2 16.333 -3 31 -3z" />
    <glyph glyph-name="t" unicode="t" horiz-adv-x="345" 
d="M226 189c0 10.667 16.6719 12.665 50.0049 5.99805c1.33301 -2.66699 1.33301 -10.167 0 -22.5s-3.66602 -25.833 -6.99902 -40.5s-6 -22 -8 -22c-4.66699 0 -7 -3.33301 -7 -10c0 -8 -7 -18.333 -21 -31c-14 -13.333 -30.5 -21.666 -49.5 -24.999
s-32.167 -0.666016 -39.5 8.00098c-7.33301 10 -15.666 31.833 -24.999 65.5s-16 66.167 -20 97.5c-6 49.333 -10.5 78.166 -13.5 86.499s-10.167 12.5 -21.5 12.5c-9.33301 -0.666992 -16.833 1.33301 -22.5 6s-9 11 -10 19s-0.833008 16.167 0.5 24.5
s4.16602 16.333 8.49902 24s9.16602 13.167 14.499 16.5c10 6 15.333 12 16 18s-1 19 -5 39c-6 28 -8.33301 45.5 -7 52.5s9 17.167 23 30.5c13.333 12.667 23.666 20 30.999 22s17.666 0.333008 30.999 -5c8.66699 -2.66699 16.667 -10.5 24 -23.5s10.333 -24.167 9 -33.5
c-2.66699 -15.333 -2.83398 -30 -0.500977 -44s6.16602 -22 11.499 -24c8 -2.66699 28 -1 60 5c22 4 36.5 5.83301 43.5 5.5s12.833 -2.83301 17.5 -7.5c7.33301 -7.33301 8.66602 -17.666 3.99902 -30.999s-12.667 -21.333 -24 -24l-11 -5l1 -1
c6 -1.33301 1.33301 -6.33301 -14 -15c-28 -14 -51.333 -22.333 -70 -25l2 -49c2.66699 -67.333 9.66699 -103 21 -107c5.33301 -1.33301 8 1 8 7z" />
    <glyph glyph-name="u" unicode="u" horiz-adv-x="425" 
d="M337 466c0.666992 6 4.83398 8.83789 12.501 8.50488s16.167 -2.16602 25.5 -5.49902s14.333 -6 15 -8c7.33301 -6.66699 8.33301 -53.334 3 -140.001s-12.666 -146.334 -21.999 -179.001c-7.33301 -28 -20.666 -53.667 -39.999 -77s-41.666 -41.333 -66.999 -54
c-23.333 -10.667 -49.333 -15.334 -78 -14.001s-49.667 8.66602 -63 21.999c-35.333 35.333 -58.666 116 -69.999 242c-6 65.333 -12.333 113.666 -19 144.999c-4.66699 22.667 -5 39.667 -1 51s14 20.666 30 27.999c13.333 7.33301 26.666 9.66602 39.999 6.99902
c17.333 -2.66699 29.166 -12.667 35.499 -30s12.5 -57.333 18.5 -120c14 -130.667 27.333 -208 40 -232c5.33301 -9.33301 13.166 -14 23.499 -14s19.166 4.33301 26.499 13c21.333 25.333 39 119 53 281c2 23.333 4.16699 38.333 6.5 45s7.16602 11.334 14.499 14.001
c10.667 4 16 9.66699 16 17z" />
    <glyph glyph-name="v" unicode="v" horiz-adv-x="446" 
d="M366 451c9.33301 -2.66699 14.3311 -1.66309 14.998 3.00391c0 4.66699 -3.66699 8 -11 10c-4.66699 1.33301 -4 2.33301 2 3c2.66699 0.666992 6.33398 1 11.001 1c12.667 0.666992 20.5 -0.333008 23.5 -3s5.5 -9.66699 7.5 -21c2.66699 -18.667 2 -33.334 -2 -44.001
c-6.66699 -19.333 -16.667 -54 -30 -104s-27 -95.167 -41 -135.5s-29.333 -72.166 -46 -95.499c-10 -16 -23 -29 -39 -39s-30 -14.333 -42 -13c-10 1.33301 -18.667 7.83301 -26 19.5s-19 38.5 -35 80.5c-39.333 103.333 -77 190.666 -113 261.999
c-17.333 27.333 -14 52 10 74c14.667 13.333 24.334 20.333 29.001 21c7.33301 2.66699 18 2 32 -2s22.667 -8.66699 26 -14c4 -7.33301 8.5 -19.333 13.5 -36s10.167 -30.334 15.5 -41.001c2.66699 -6 14.5 -37.333 35.5 -94s33.833 -89 38.5 -97
c1.33301 -0.666992 3.16602 0.666016 5.49902 3.99902s4.66602 8.16602 6.99902 14.499l7.5 20.5c2.66699 7.33301 5.16699 15 7.5 23l6.5 22c2 6.66699 3.83301 12.5 5.5 17.5s2.83398 7.83301 3.50098 8.5c2.66699 5.33301 11.334 30 26.001 74
c10.667 34.667 20 57.667 28 69s17.667 15.333 29 12z" />
    <glyph glyph-name="w" unicode="w" horiz-adv-x="601" 
d="M302 434c10 0 21.168 -5 33.501 -15s18.5 -19 18.5 -27c-0.666992 -6.66699 7.83301 -33.167 25.5 -79.5s26.5 -70.166 26.5 -71.499c4 -14 8.33301 -14.667 13 -2c3.33301 10.667 5.33301 25 6 43c0.666992 24.667 4.5 51 11.5 79s15 50.667 24 68
s16.833 24.666 23.5 21.999c4 -2 7 -2.5 9 -1.5s2.66699 3.16699 2 6.5c-2.66699 16.667 1.33301 26.334 12 29.001c23.333 5.33301 40.666 3 51.999 -7c8 -7.33301 11.833 -13.833 11.5 -19.5s-5.83301 -19.5 -16.5 -41.5c-11.333 -24 -19.333 -61 -24 -111
c-10 -93.333 -22 -162.666 -36 -207.999c-4 -12.667 -12.833 -24 -26.5 -34s-29.834 -17 -48.501 -21c-10.667 -2 -17.834 -1.66699 -21.501 1s-10.167 11 -19.5 25c-18 24.667 -28.167 39 -30.5 43s-13.166 25.667 -32.499 65
c-10.667 21.333 -19.834 38.666 -27.501 51.999s-12.5 19.666 -14.5 18.999c-4.66699 -1.33301 -10 -12.333 -16 -33c-25.333 -96 -42.166 -153 -50.499 -171s-22.833 -30.333 -43.5 -37c-22 -6.66699 -36.667 -6 -44 2s-14.333 30.333 -21 67
c-25.333 134 -43.666 221 -54.999 261c-10 30 -14.333 52.5 -13 67.5s8.66602 29.167 21.999 42.5c12 12 22.333 18.833 31 20.5s20 -0.5 34 -6.5c12 -5.33301 19.333 -16.666 22 -33.999c14.667 -96.667 25.334 -147.334 32.001 -152.001c4 -2 16.667 19.333 38 64
c17.333 34.667 33 59.167 47 73.5s29.333 21.5 46 21.5z" />
    <glyph glyph-name="x" unicode="x" horiz-adv-x="466" 
d="M150 482c0 -17.333 20.002 -48.0029 60.002 -92.0029c6.66699 -8 10 -14.667 10 -20c0 -9.33301 4.33301 -10 13 -2c4.66699 4.66699 9.33398 11 14.001 19c9.33301 14 19 34.667 29 62c6.66699 19.333 17.167 36.833 31.5 52.5s26.166 23.5 35.499 23.5
c8.66699 0 19.834 -4.16699 33.501 -12.5s21.5 -15.833 23.5 -22.5s-8.33301 -32.834 -31 -78.501s-42.334 -81.167 -59.001 -106.5c-6.66699 -9.33301 -10 -16 -10 -20s3 -10.333 9 -19c9.33301 -14.667 28.833 -36.167 58.5 -64.5s47.167 -42.5 52.5 -42.5
s9.66602 -5.83301 12.999 -17.5s4 -24 2 -37s-6.66699 -20.5 -14 -22.5c-6.66699 0 -11 -3.33301 -13 -10c-2 -5.33301 -10.5 -9.66602 -25.5 -12.999s-26.167 -3.66602 -33.5 -0.999023c-5.33301 2 -8.66602 8.33301 -9.99902 19c-0.666992 5.33301 -1.66699 8 -3 8
c-1.33301 -3.33301 -11 3.33398 -29 20.001l-53 51c-17.333 17.333 -26.333 25.333 -27 24c-4 0 -13.167 -12.167 -27.5 -36.5s-23.833 -43.833 -28.5 -58.5c-4 -12.667 -12.667 -27.5 -26 -44.5s-23 -25.833 -29 -26.5c-6.66699 0 -17.334 -2 -32.001 -6
c-30.667 -6 -46.667 3.66699 -48 29c-0.666992 7.33301 15.5 40 48.5 98s57.167 96 72.5 114c5.33301 5.33301 7 10.5 5 15.5s-11.333 17.833 -28 38.5c-4 4.66699 -7 8.33398 -9 11.001c-22.667 28.667 -44.167 60.834 -64.5 96.501s-30.5 59.167 -30.5 70.5
c0 7.33301 5.83301 19.166 17.5 35.499s19.5 23.166 23.5 20.499c4.66699 -1.33301 11 -0.666016 19 2.00098c13.333 4.66699 26.666 0.666992 39.999 -12s20 -27.667 20 -45z" />
    <glyph glyph-name="y" unicode="y" horiz-adv-x="462" 
d="M299 266c0.666992 12 2.16406 25.1631 4.49707 39.4961s5.5 30.166 9.5 47.499s6.66699 31 8 41c3.33301 16.667 6 27.334 8 32.001s5 6.33398 9 5.00098c4.66699 -1.33301 7.33398 -1.33301 8.00098 0l-1 2c-2 2.66699 0.5 6.16699 7.5 10.5s15.167 7.83301 24.5 10.5
s16 3.33398 20 2.00098c7.33301 -2.66699 15.333 -8.33398 24 -17.001c6.66699 -5.33301 10.334 -10.5 11.001 -15.5s-1 -15.167 -5 -30.5c-5.33301 -20 -10.666 -59.333 -15.999 -118c-8 -97.333 -19.833 -174.333 -35.5 -231s-37.834 -104 -66.501 -142
c-12 -16 -36.667 -32.667 -74 -50c-24 -11.333 -34.667 -13.333 -32 -6c0 0.666992 0.333008 1.66699 1 3c1.33301 2 1 3 -1 3h-6c-7.33301 0 -11 1.33301 -11 4c0 2 -1.16699 3.5 -3.5 4.5s-4.83301 1.66699 -7.5 2s-5 0.666016 -7 0.999023s-2.5 1.33301 -1.5 3
s4.16699 4.16699 9.5 7.5c7.33301 5.33301 9.66602 8 6.99902 8c-2 0.666992 -7 0.666992 -15 0c-9.33301 -0.666992 -15.166 0.333008 -17.499 3s-4.16602 9 -5.49902 19c-1.33301 15.333 3.16699 26.333 13.5 33s25.5 8.66699 45.5 6l29 -4
c11.333 20.667 23.666 48.834 36.999 84.501s18 56.167 14 61.5c-2.66699 2.66699 -13 0.333984 -31 -6.99902c-42.667 -14.667 -76.667 -12.5 -102 6.5s-46.666 57.833 -63.999 116.5c-5.33301 13.333 -14.833 49.333 -28.5 108s-22.167 93.334 -25.5 104.001
c-7.33301 18 -0.666016 37 20.001 57c19.333 19.333 39.166 24.833 59.499 16.5s30.833 -25.833 31.5 -52.5c2.66699 -33.333 12.167 -79.166 28.5 -137.499s26.833 -90.166 31.5 -95.499c6 -12 14.833 -20 26.5 -24s21.167 -2.33301 28.5 5
c9.33301 9.33301 18.333 23.166 27 41.499s13 32.5 13 42.5z" />
    <glyph glyph-name="z" unicode="z" horiz-adv-x="498" 
d="M437 449c0 -11.333 -5.33301 -30.1709 -16 -56.5039s-23 -50.5 -37 -72.5c-13.333 -21.333 -25.833 -39.166 -37.5 -53.499s-35.167 -40.5 -70.5 -78.5l-36 -39c91.333 -8.66699 140.666 -12.334 147.999 -11.001c2.66699 2.66699 11 6.33398 25 11.001
c24.667 8.66699 41.667 5.5 51 -9.5s6 -33.167 -10 -54.5c-12.667 -16.667 -22.334 -22 -29.001 -16c-2.66699 2.66699 -4.66699 4.16699 -6 4.5s-2.16602 -0.166992 -2.49902 -1.5s-0.166016 -4 0.500977 -8c1.33301 -9.33301 -5 -15.666 -19 -18.999
c-24.667 -7.33301 -80.167 -9.66602 -166.5 -6.99902s-134.5 8.33398 -144.5 17.001c-6 4.66699 -9 13 -9 25c0 15.333 7 32.166 21 50.499s51 59.5 111 123.5c24 25.333 46.667 53.333 68 84s32 50.667 32 60c0 5.33301 -9 8 -27 8c-15.333 0 -48 -6 -98 -18
s-77.667 -20.333 -83 -25c-5.33301 -5.33301 -14.5 -7.33301 -27.5 -6s-23.833 5.33301 -32.5 12c-7.33301 6 -11.333 10.833 -12 14.5s1 11.834 5 24.501c6 18 15.667 31 29 39c24 11.333 64.5 22.5 121.5 33.5s108.5 15.5 154.5 13.5
c32 -0.666992 52 -1.83398 60 -3.50098s15.333 -6.16699 22 -13.5c10 -11.333 15 -20.666 15 -27.999z" />
    <glyph glyph-name="uni0093" horiz-adv-x="340" 
d="M271 469c18 0 29.6699 -5.99805 35.0029 -17.998c3.33301 -7.33301 4.66602 -13.333 3.99902 -18s-4.33398 -11 -11.001 -19c-24.667 -30.667 -41.667 -65.334 -51 -104.001c-9.33301 -39.333 -24.666 -59 -45.999 -59c-10.667 0 -19.334 4.16699 -26.001 12.5
s-10.334 19.166 -11.001 32.499s0.5 28 3.5 44s8.66699 32.667 17 50s18.5 33 30.5 47s21.167 22.833 27.5 26.5s15.5 5.5 27.5 5.5zM30.0029 351.002c0 56 15.002 93.3311 45.002 111.998c13.333 8 22.833 12.167 28.5 12.5s13.5 -3.16699 23.5 -10.5
c9.33301 -6.66699 14.166 -14 14.499 -22s-2.83398 -21.667 -9.50098 -41c-5.33301 -12.667 -8.66602 -31 -9.99902 -55c0 -15.333 -3.33301 -30.166 -10 -44.499s-14 -23.166 -22 -26.499c-20.667 -7.33301 -35.834 -5 -45.501 7s-14.5 34.667 -14.5 68z" />
    <glyph glyph-name="uni0094" horiz-adv-x="354" 
d="M75 267c-13.333 -4 -21.501 -2 -24.501 6s-7.16699 12.333 -12.5 13c-8 0 -8 4.33301 0 13c5.33301 5.33301 9 10.833 11 16.5s4.66699 10.5 8 14.5c1.33301 1.33301 6.33301 8.83301 15 22.5s17.334 26.167 26.001 37.5s15 15.666 19 12.999c5.33301 -2 9 0.5 11 7.5
s4.66699 10.5 8 10.5c7.33301 2.66699 15.833 2.5 25.5 -0.5s14.167 -6.5 13.5 -10.5c-0.666992 -2 -0.333984 -3.66699 0.999023 -5s3.33301 -1.66602 6 -0.999023c6 1.33301 9 -1.66699 9 -9c-1.33301 -11.333 -8.33301 -26 -21 -44
c-13.333 -19.333 -20.666 -31 -21.999 -35c-0.666992 -6.66699 -10 -16 -28 -28s-33 -19 -45 -21zM257.999 430c-1.33301 -5.33301 -0.333984 -8.66602 2.99902 -9.99902c4 -0.666992 6.33301 1.33301 7 6c0.666992 2 0.666992 4 0 6c-4 16 -1.33301 23.667 8 23
c8.66699 -1.33301 16 -8.33301 22 -21c2 -6 3.33301 -6.66699 4 -2c0.666992 1.33301 1 3 1 5c0.666992 9.33301 4.33398 9.66602 11.001 0.999023c8 -10.667 11 -23.334 9 -38.001s-10.333 -36 -25 -64c-28 -56.667 -60.333 -88 -97 -94c-10 -2 -16.5 -2.16699 -19.5 -0.5
s-5.5 7.5 -7.5 17.5c-3.33301 14 0.666992 28.667 12 44c16.667 22.667 30 52.334 40 89.001c6 22 11 35.333 15 40c7.33301 8.66699 13 11 17 7c1.33301 -2.66699 1.33301 -5.66699 0 -9z" />
    <glyph glyph-name=".null" horiz-adv-x="0" 
 />
    <glyph glyph-name="nonmarkingreturn" horiz-adv-x="333" 
 />
    </font>
</defs>
</svg>
