<?xml version="1.0" standalone="no"?>
<!DOCTYPE svg PUBLIC "-//W3C//DTD SVG 1.1//EN" "http://www.w3.org/Graphics/SVG/1.1/DTD/svg11.dtd" >
<svg>
<metadata>
Created by FontForge 20090914 at Sat Feb 27 01:00:12 2016
 By www-data
Copyright (c) 2016, root
</metadata>
<defs>
<font id="Couldn'tTellYa" horiz-adv-x="393" >
  <font-face 
    font-family="Couldn't Tell Ya"
    font-weight="400"
    font-stretch="normal"
    units-per-em="1000"
    panose-1="2 0 5 3 0 0 0 0 0 0"
    ascent="800"
    descent="-200"
    x-height="368.998"
    cap-height="531.001"
    bbox="28.6392 -199.402 639.537 714.234"
    underline-thickness="50"
    underline-position="-100"
    unicode-range="U+0020-U+0094"
  />
<missing-glyph horiz-adv-x="364" 
d="M33 0v666h265v-666h-265zM66 33h199v600h-199v-600z" />
    <glyph glyph-name=".notdef" horiz-adv-x="364" 
d="M33 0v666h265v-666h-265zM66 33h199v600h-199v-600z" />
    <glyph glyph-name="space" unicode=" " horiz-adv-x="299" 
 />
    <glyph glyph-name="exclam" unicode="!" horiz-adv-x="146" 
d="M69 25c-7.33301 0 -15.665 5.16699 -24.998 15.5s-14 19.5 -14 27.5c0 8.66699 4 17.5 12 26.5s17 14.833 27 17.5c3.33301 0.666992 6.66602 1.5 9.99902 2.5s5.5 1.33301 6.5 1s2.33301 -1 4 -2s4.5 -3.16699 8.5 -6.5c11.333 -11.333 13.166 -27.833 5.49902 -49.5
s-19.167 -32.5 -34.5 -32.5zM40.001 541c2 1.33301 5.49902 4.00098 10.499 8.00098s9 7 12 9s7.5 3.66699 13.5 5s10.667 0 14 -4c11.333 -4.66699 18 -10 20 -16c1.33301 -3.33301 2.83301 -60.333 4.5 -171s1.83398 -177.334 0.500977 -200.001
c-0.666992 -15.333 -11.167 -23.333 -31.5 -24s-32.166 6.33301 -35.499 21c-2.66699 20 -5.33398 144 -8.00098 372z" />
    <glyph glyph-name="quotedbl" unicode="&#x22;" horiz-adv-x="298" 
d="M211 614c10.667 10.667 20.9971 15.998 30.9971 15.998s17 -5 21 -15c2.66699 -12 3.83398 -18.833 3.50098 -20.5s-1.66602 -6.83398 -3.99902 -15.501s-4.16602 -18.667 -5.49902 -30c-4.66699 -28.667 -3.33398 -56.667 3.99902 -84
c6.66699 -27.333 7.33398 -44 2.00098 -50c-6.66699 -7.33301 -16 -9.66602 -28 -6.99902s-21.667 9 -29 19c-13.333 18.667 -19.5 50.834 -18.5 96.501s8.83301 75.834 23.5 90.501zM129.997 620.998c0.666992 -11.333 -1.5 -20.6689 -6.5 -28.002
s-7.5 -15.666 -7.5 -24.999c-0.666992 -10 -3.66699 -20 -9 -30s-8.33301 -21.667 -9 -35c-2 -14.667 -2.33301 -24.5 -1 -29.5s6 -10.167 14 -15.5c12 -7.33301 18 -15.666 18 -24.999s-6 -16 -18 -20c-30.667 -12 -53.667 -9.66699 -69 7
c-13.333 14.667 -16 50.5 -8 107.5s21.333 94.833 40 113.5c10 10.667 16 16.167 18 16.5s8.33301 -1.5 19 -5.5c8 -3.33301 13.167 -6.83301 15.5 -10.5s3.5 -10.5 3.5 -20.5z" />
    <glyph glyph-name="dollar" unicode="$" horiz-adv-x="436" 
d="M331 232c0 33.333 -21.666 57.002 -64.999 71.002c-2 0.666992 -4.33301 1.33398 -7 2.00098c-23.333 8 -37 9.66699 -41 5c-4.66699 -4.66699 -6 -29.334 -4 -74.001c0.666992 -4.66699 1 -8.33398 1 -11.001c4 -60 6.66699 -91.667 8 -95
c1.33301 -2.66699 11.166 -1 29.499 5s32.833 12.333 43.5 19c9.33301 6 17.5 16.667 24.5 32s10.5 30.666 10.5 45.999zM129.001 432.002c-4 25.333 -8.66699 37.002 -14 35.002c-2 -0.666992 -3.66699 -2.66699 -5 -6c-4 -10 -4.83301 -21.333 -2.5 -34
s6.83301 -19.334 13.5 -20.001c5.33301 -1.33301 8.5 -0.333008 9.5 3s0.5 10.666 -1.5 21.999zM310.001 420.004c-8 0 -17.334 5.82715 -28.001 17.4941s-14.334 20.167 -11.001 25.5c2 2.66699 2.83301 4.33398 2.5 5.00098s-1.5 0.333984 -3.5 -0.999023
c-4.66699 -2 -14.667 4.66699 -30 20c-18.667 19.333 -30.5 27 -35.5 23s-6.5 -21.667 -4.5 -53c1.33301 -10.667 2.16602 -21.167 2.49902 -31.5s0 -16.833 -1 -19.5s0.666992 -5.66699 5 -9s8.16602 -5.16602 11.499 -5.49902s12.333 -1.5 27 -3.5
c26.667 -3.33301 49.667 -9 69 -17c19.333 -9.33301 37.833 -23.166 55.5 -41.499s28.5 -35.5 32.5 -51.5s4.83301 -36.5 2.5 -61.5s-6.83301 -43.833 -13.5 -56.5c-10.667 -22 -27.667 -41.5 -51 -58.5s-49.666 -29.167 -78.999 -36.5c-17.333 -4.66699 -28.5 -9 -33.5 -13
s-9.83301 -12.667 -14.5 -26c-12 -36 -30.667 -48.333 -56 -37c-11.333 5.33301 -16.666 14.666 -15.999 27.999c2 22.667 1.33301 37.834 -2 45.501s-11.666 14.5 -24.999 20.5c-40 19.333 -62.333 43 -67 71c-2 11.333 -2.5 18.5 -1.5 21.5s4.83301 4.5 11.5 4.5
c9.33301 0 14 -1.66699 14 -5c0 -4 10.667 -11.167 32 -21.5s34 -14.166 38 -11.499c8.66699 5.33301 7.33398 55 -3.99902 149c-2 14 -4.33301 22.667 -7 26s-9.33398 6 -20.001 8c-18 2.66699 -35 12 -51 28s-25.333 32 -28 48c-2.66699 18 2.33301 43.333 15 76
s28.334 59.334 47.001 80.001c13.333 15.333 20.833 25.666 22.5 30.999s1.16699 16.666 -1.5 33.999c-4.66699 22.667 -6.33398 38 -5.00098 46c0.666992 9.33301 4.83398 17.333 12.501 24s14.834 9 21.501 7c6 -1.33301 9 -1 9 1
c0 0.666992 -0.333008 1.33398 -1 2.00098c-2.66699 4 -2 6 2 6s9.33301 -2 16 -6c6 -4 10 -21.667 12 -53c2 -21.333 4.16699 -34.666 6.5 -39.999s7.83301 -9 16.5 -11c31.333 -7.33301 65 -31.333 101 -72c21.333 -24 34 -42.833 38 -56.5s0.666992 -26.167 -10 -37.5
c-6.66699 -8 -14.334 -12 -23.001 -12z" />
    <glyph glyph-name="percent" unicode="%" horiz-adv-x="466" 
d="M267 373c0 -2.66699 4.33301 -0.333008 13 7c10.667 9.33301 21.667 14.333 33 15s20.333 -2.66602 27 -9.99902c14 -15.333 5 -35.333 -27 -60c-24.667 -20 -41 -53.333 -49 -100c-2 -12.667 -2.33301 -21.834 -1 -27.501s5.66602 -12.834 12.999 -21.501
c9.33301 -10 15.333 -15.333 18 -16s7.66699 2.33301 15 9c13.333 12.667 25 31.834 35 57.501s15 50.167 15 73.5c0 21.333 1 34.333 3 39s9 9.66699 21 15c16 8 27.667 8.66699 35 2c7.33301 -6 10 -12.333 8 -19c-2.66699 -6 -1.33398 -9 3.99902 -9
c4.66699 -2 6.66699 -10.333 6 -25s-3.66699 -33.334 -9 -56.001s-11.666 -41.334 -18.999 -56.001c-12.667 -26 -24.834 -45.833 -36.501 -59.5s-26.5 -25.5 -44.5 -35.5c-39.333 -21.333 -71 -19 -95 7c-27.333 30.667 -38.333 66.667 -33 108
c4.66699 20.667 4.66699 30.334 0 29.001s-9.66699 -9.33301 -15 -24c-0.666992 -3.33301 -1 -6 -1 -8c0 -7.33301 -2.33301 -13.333 -7 -18c-2.66699 -2.66699 -12.334 -18.667 -29.001 -48c-14.667 -28 -26.167 -46.167 -34.5 -54.5s-18.166 -12.5 -29.499 -12.5
c-13.333 0 -22 6.33301 -26 19c-3.33301 8 -3.16602 17.167 0.500977 27.5s12.834 29.833 27.501 58.5l44 83l49 93c31.333 60.667 60 111.167 86 151.5s44.667 62.833 56 67.5c10 4 15.833 6 17.5 6s6.5 -2 14.5 -6c7.33301 -4 11.833 -13 13.5 -27s-0.833008 -23 -7.5 -27
c-6 -3.33301 -22.667 -27.166 -50 -71.499s-41 -69.833 -41 -76.5zM132 504.001c-2 30 -7 43.332 -15 39.999c-4.66699 -1.33301 -9.66699 -8.33301 -15 -21c-12.667 -30.667 -12.667 -54.667 0 -72c5.33301 -6.66699 8.83301 -10 10.5 -10s5.16699 3.33301 10.5 10
c7.33301 8.66699 10.333 26.334 9 53.001zM116 625c14 8 24.8311 11.999 32.498 11.999s16.167 -4.33301 25.5 -13c17.333 -16 26.833 -46.333 28.5 -91s-4.83301 -81.667 -19.5 -111c-14.667 -28.667 -37 -46.667 -67 -54s-52 0 -66 22
c-5.33301 10 -10.666 17.667 -15.999 23c-4 2.66699 -5 22.167 -3 58.5s5.66699 58.833 11 67.5c9.33301 17.333 21.333 34.333 36 51s27.334 28.334 38.001 35.001z" />
    <glyph glyph-name="ampersand" unicode="&#x26;" horiz-adv-x="512" 
d="M198 272c-7.33301 0 -22.1689 -9.83398 -44.502 -29.501s-36.5 -35.167 -42.5 -46.5c-8 -17.333 -3.66699 -31.666 13 -42.999s39 -15 67 -11c14.667 2 32.834 6.33301 54.501 13s36.834 12.334 45.501 17.001c5.33301 0.666992 0.833008 10 -13.5 28
s-30.5 35.167 -48.5 51.5s-28.333 23.166 -31 20.499zM259.997 492.999c-4.66699 4 -14.832 7.99902 -30.499 11.999s-29.5 6.16699 -41.5 6.5s-19 -1.16699 -21 -4.5c-2 -13.333 -0.5 -27.333 4.5 -42s12.167 -27 21.5 -37c6 -5.33301 16.333 -18.666 31 -39.999l20 21
c13.333 13.333 21.666 28.5 24.999 45.5s0.333008 29.833 -9 38.5zM29.999 167.998c0 27.333 5.99121 51.5078 17.9912 72.5078s32 42.833 60 65.5c2.66699 2.66699 6.33398 6 11.001 10s7.83398 6.83301 9.50098 8.5l7 7c3 3 4.83301 5.16699 5.5 6.5
s1.66699 3.16602 3 5.49902s1.83301 4.5 1.5 6.5s-0.666016 4.33301 -0.999023 7s-1.33301 5.5 -3 8.5l-5.5 9.5c-2 3.33301 -4.66699 7.33301 -8 12c-28 41.333 -40.5 80.666 -37.5 117.999s20.5 60.666 52.5 69.999c28.667 8 53 12.333 73 13
c18.667 0.666992 38.834 -4.16602 60.501 -14.499s39.834 -23.833 54.501 -40.5c10 -11.333 15.833 -20.333 17.5 -27s1.83398 -20.334 0.500977 -41.001c-2 -22.667 -6.5 -41.334 -13.5 -56.001s-20.167 -32.334 -39.5 -53.001c-13.333 -15.333 -20.333 -25.833 -21 -31.5
s4.66602 -13.834 15.999 -24.501c12 -10.667 16 -18.667 12 -24c-1.33301 -2 -1.66602 -3.33301 -0.999023 -4s1.66699 0 3 2c3.33301 1.33301 8.83301 -0.833984 16.5 -6.50098s16.334 -13.5 26.001 -23.5s15.5 -15.667 17.5 -17c1.33301 2 5.33301 6 12 12
s11.834 11 15.501 15s6.83398 9 9.50098 15s3 11.333 1 16c-3.33301 12 1 21.333 13 28c22 11.333 40.667 6.66602 56 -14.001c8 -11.333 11.167 -21.666 9.5 -30.999s-8.83398 -20.666 -21.501 -33.999c-10 -12 -15.833 -19.333 -17.5 -22
s-4.83398 -10.334 -9.50098 -23.001c-4 -10 0 -23 12 -39c19.333 -22 22 -40.667 8 -56c-13.333 -14 -31.666 -16 -54.999 -6c-7.33301 3.33301 -14.333 7.66602 -21 12.999c-12.667 8 -21.167 12.5 -25.5 13.5s-11.166 -0.5 -20.499 -4.5
c-70.667 -31.333 -126.167 -47.5 -166.5 -48.5s-78.5 14.167 -114.5 45.5c-8.66699 8 -14.167 15.5 -16.5 22.5s-3.5 19.833 -3.5 38.5z" />
    <glyph glyph-name="quotesingle" unicode="'" horiz-adv-x="137" 
d="M39 592c6.66699 10 15.3301 15.6709 25.9971 17.0039s21 -1.66699 31 -9c6 -4 9.5 -11 10.5 -21s0.5 -35 -1.5 -75c-2.66699 -52.667 -7.66699 -85.334 -15 -98.001s-21.666 -13.334 -42.999 -2.00098c-6.66699 3.33301 -10.667 9.66602 -12 18.999
s-2.66602 32.666 -3.99902 69.999c-1.33301 55.333 1.33398 88.333 8.00098 99z" />
    <glyph glyph-name="parenleft" unicode="(" horiz-adv-x="321" 
d="M217 68c11.333 0 17.6689 -4 19.002 -12c0.666992 -6 1.16699 -9 1.5 -9s1.16602 2.66699 2.49902 8c2 8.66699 7.16699 13.834 15.5 15.501s15.833 -0.833008 22.5 -7.5c17.333 -15.333 16.666 -28.333 -2.00098 -39c-18 -10 -42.333 -15 -73 -15
c-32.667 -0.666992 -63.5 9.16602 -92.5 29.499s-51.167 47.5 -66.5 81.5c-12.667 28 -16.834 71.5 -12.501 130.5s15.833 117.167 34.5 174.5c4 12 8.5 24.667 13.5 38s10.167 25.666 15.5 36.999s10.5 21.5 15.5 30.5s9.33301 15.833 13 20.5s6.16699 6.33398 7.5 5.00098
c2 -1.33301 3.33301 -1.66602 4 -0.999023s0.333984 2 -0.999023 4c-2.66699 5.33301 -0.166992 14.333 7.5 27s16.167 21 25.5 25c24 9.33301 40.667 6 50 -10c4.66699 -8 1.33398 -22.333 -9.99902 -43c-30 -53.333 -53 -104 -69 -152
c-20.667 -62.667 -31.667 -119 -33 -169s7.33398 -88.333 26.001 -115c9.33301 -12.667 23.166 -24.834 41.499 -36.501s33.166 -17.5 44.499 -17.5z" />
    <glyph glyph-name="parenright" unicode=")" horiz-adv-x="234" 
d="M59 39c-4.66699 0 -8.33496 0.666992 -11.002 2s-3.66699 3 -3 5c3.33301 4.66699 2 7.66699 -4 9c-10.667 0.666992 0.666016 21.334 33.999 62.001c0.666992 -0.666992 0.666992 -1.83398 0 -3.50098s-1.16699 -3.33398 -1.5 -5.00098s0 -3.16699 1 -4.5
s2.83301 -1.66602 5.5 -0.999023c6.66699 0 9 4 7 12c-2 12 4.33301 35 19 69c15.333 38 23 81 23 129s-7.16699 94.833 -21.5 140.5s-31.833 75.167 -52.5 88.5c-12 8.66699 -19.667 16.334 -23 23.001c-3.33301 8 -3.16602 17.333 0.500977 28s8.83398 17 15.501 19
c12.667 3.33301 22.834 4.16602 30.501 2.49902s17.167 -7.16699 28.5 -16.5c16.667 -14 28.167 -25.833 34.5 -35.5s15.166 -29.167 26.499 -58.5c50 -126.667 49 -245 -3 -355c-11.333 -24.667 -28.666 -49.167 -51.999 -73.5s-41.333 -36.5 -54 -36.5z" />
    <glyph glyph-name="asterisk" unicode="*" horiz-adv-x="415" 
d="M121 407c-1.33301 14 5.66309 30.6729 20.9961 50.0059c-1.33301 2 -16.666 4.66699 -45.999 8s-47.333 5 -54 5c-17.333 2 -16.666 13.333 2.00098 34c10.667 10.667 22.334 15 35.001 13c12 -2 17.667 -1 17 3c-1.33301 2 0 3.33301 4 4l10 1c10 0 21.333 2.5 34 7.5
s19 9.5 19 13.5c0 5.33301 -3.33301 14 -10 26c-7.33301 13.333 -10.5 23.333 -9.5 30s6.5 15 16.5 25c12.667 13.333 25.167 19.166 37.5 17.499s20.833 -10.834 25.5 -27.501c3.33301 -11.333 12 -28 26 -50c14.667 22.667 31.334 35.667 50.001 39
c14.667 3.33301 26.334 -0.333984 35.001 -11.001c9.33301 -10.667 18.666 -18.334 27.999 -23.001s15.833 -9.5 19.5 -14.5s5 -10.5 4 -16.5s-4.5 -13 -10.5 -21c-10.667 -14.667 -25 -23.334 -43 -26.001c-18.667 -3.33301 -28.834 -7.33301 -30.501 -12
s3.83301 -12.667 16.5 -24c14 -14 21 -23.333 21 -28c0 -8.66699 -5.66699 -18.334 -17 -29.001s-21.666 -16 -30.999 -16c-12 0 -20.833 2 -26.5 6s-13.167 13 -22.5 27l-14 24l-35 -36c-38.667 -38.667 -58 -45 -58 -19c0 6.66699 -0.5 10.167 -1.5 10.5
s-2.83301 -1.5 -5.5 -5.5c-4 -6 -6.33301 -4.33301 -7 5v10z" />
    <glyph glyph-name="plus" unicode="+" horiz-adv-x="408" 
d="M291 340c7.33301 -2 17.5039 -3.33008 30.5039 -3.99707s23.167 -1.5 30.5 -2.5s13.666 -4.5 18.999 -10.5s7.66602 -15 6.99902 -27c0 -34 -25.667 -48.333 -77 -43l-40 4l-5 -53c-3.33301 -30 -7.16602 -51.333 -11.499 -64s-11.5 -22.334 -21.5 -29.001
c-8.66699 -5.33301 -18 -5.33301 -28 0c-10 6.66699 -15.833 15.667 -17.5 27s-0.833984 32.666 2.49902 63.999l5 54l-69 3c-46.667 1.33301 -73.334 6.66602 -80.001 15.999c-8.66699 9.33301 -8.33398 17.833 0.999023 25.5s19.666 12.5 30.999 14.5
c7.33301 0.666992 16 4.16699 26 10.5s19.667 9.5 29 9.5c17.333 0 41 3 71 9l3 53c2 24.667 4.16699 40.667 6.5 48s7.5 14.666 15.5 21.999c11.333 8.66699 18.5 13.334 21.5 14.001s9.16699 -1.33301 18.5 -6c6.66699 -2.66699 10.334 -7.66699 11.001 -15
s0 -25.333 -2 -54l-4 -62z" />
    <glyph glyph-name="comma" unicode="," horiz-adv-x="172" 
d="M75 131c6.66699 0 15.165 -5.16602 25.498 -15.499s19.166 -22.833 26.499 -37.5c14.667 -27.333 18.834 -60.833 12.501 -100.5s-19.166 -60.834 -38.499 -63.501c-11.333 -2 -19.5 2.33301 -24.5 13s-7.16699 28 -6.5 52c0.666992 20 0 33.833 -2 41.5
s-8 17.5 -18 29.5c-12.667 16.667 -19.167 29.667 -19.5 39s5.83398 18.333 18.501 27c14 10 22.667 15 26 15z" />
    <glyph glyph-name="hyphen" unicode="-" horiz-adv-x="297" 
d="M151 314c66.667 5.33301 103.666 2.33594 110.999 -8.99707c5.33301 -8 6.83301 -18.333 4.5 -31s-7.16602 -22.667 -14.499 -30c-6.66699 -6.66699 -15.667 -10.667 -27 -12s-38.666 -2 -81.999 -2c-52.667 -0.666992 -85.334 1.16602 -98.001 5.49902
s-17 15.166 -13 32.499c5.33301 23.333 45 38.666 119 45.999z" />
    <glyph glyph-name="period" unicode="." horiz-adv-x="147" 
d="M117 89c0 -30.667 -14.332 -46.668 -42.999 -48.001c-12.667 -0.666992 -23.5 4.5 -32.5 15.5s-13 23.333 -12 37s7.16699 23.5 18.5 29.5c19.333 9.33301 35.666 10.833 48.999 4.5s20 -19.166 20 -38.499z" />
    <glyph glyph-name="slash" unicode="/" horiz-adv-x="274" 
d="M69 223c4.66699 0 5.99609 2.00098 3.99609 6.00098c-2 4.66699 0.333008 15.667 7 33c18.667 46 39.334 123.333 62.001 232c11.333 54.667 22.333 87 33 97c9.33301 7.33301 19.5 11.166 30.5 11.499s20.167 -3.16699 27.5 -10.5s10.833 -15.166 10.5 -23.499
s-4.5 -24.833 -12.5 -49.5c-9.33301 -25.333 -17.666 -56 -24.999 -92c-6.66699 -29.333 -18 -69 -34 -119s-29.667 -87.667 -41 -113c-17.333 -39.333 -29.833 -65.333 -37.5 -78s-15.5 -19.334 -23.5 -20.001c-15.333 -2 -27.166 3.66699 -35.499 17s-7.5 25 2.5 35
c7.33301 6 10.333 11 9 15c-1.33301 5.33301 1.33398 16.5 8.00098 33.5s11.667 25.5 15 25.5z" />
    <glyph glyph-name="zero" unicode="0" horiz-adv-x="384" 
d="M247 448c-10.667 21.333 -20.667 32.668 -30 34.001c-13.333 2 -28.5 -9.5 -45.5 -34.5s-32.5 -57.667 -46.5 -98s-23.333 -80.5 -28 -120.5c-3.33301 -26 0 -48.667 10 -68c7.33301 -14.667 15.833 -24.834 25.5 -30.501s23.834 -9.16699 42.501 -10.5
c24 -0.666992 46.5 14.333 67.5 45s33.5 66.667 37.5 108c2 24 -0.333008 53.667 -7 89s-15.334 64 -26.001 86zM187 547.002c13.333 15.333 29.3291 22.1719 47.9961 20.5049s35.667 -11.834 51 -30.501c10.667 -12.667 22.5 -33.834 35.5 -63.501
s21.833 -56.167 26.5 -79.5c6.66699 -31.333 8.5 -67.5 5.5 -108.5s-9.5 -74.5 -19.5 -100.5c-22 -58 -58.667 -97 -110 -117c-53.333 -20 -99.166 -15.833 -137.499 12.5s-57.166 72.166 -56.499 131.499c0 20 2.83301 44.667 8.5 74s12.167 51.666 19.5 66.999l13 28
l9.5 21l6 14c1.66699 4 3.33398 7.5 5.00098 10.5s2.83398 5.16699 3.50098 6.5s2 3.5 4 6.5s3.5 5.16699 4.5 6.5s3.66699 4.66602 8 9.99902l10.5 13c18 25.333 39.667 51.333 65 78z" />
    <glyph glyph-name="one" unicode="1" horiz-adv-x="161" 
d="M32 113c1.33301 18 2.49902 55.1689 3.49902 111.502s3.5 95.166 7.5 116.499c4 17.333 6.66699 41.666 8 72.999c0.666992 28 6.66699 47.667 18 59c20.667 20.667 39 23 55 7c4.66699 -4.66699 7 -12.5 7 -23.5s-2.33301 -35.5 -7 -73.5
c-4 -24.667 -8.16699 -85.167 -12.5 -181.5s-7.5 -153.5 -9.5 -171.5c-3.33301 -8.66699 -10.833 -15.167 -22.5 -19.5s-21.5 -4.16602 -29.5 0.500977c-10 5.33301 -16.167 14.666 -18.5 27.999s-2.16602 38 0.500977 74z" />
    <glyph glyph-name="two" unicode="2" horiz-adv-x="433" 
d="M175 469c91.333 8.66699 140.669 8.33301 148.002 -1c10.667 -13.333 14.334 -33.666 11.001 -60.999s-12.333 -53 -27 -77c-17.333 -26.667 -69 -81.667 -155 -165c18.667 2.66699 52.5 6.16699 101.5 10.5s81.167 7.5 96.5 9.5
c24.667 2.66699 41.334 -3.83301 50.001 -19.5s4.33398 -31.167 -12.999 -46.5c-6.66699 -6 -16.5 -10.333 -29.5 -13s-36.833 -5 -71.5 -7c-37.333 -2 -65.5 -4.16699 -84.5 -6.5s-46.167 -4.5 -81.5 -6.5c-36.667 -2 -58.667 -2.5 -66 -1.5s-13 5.83301 -17 14.5
c-8.66699 16 -7.33398 32.167 3.99902 48.5s50.666 58.833 117.999 127.5c70.667 73.333 101.667 113.666 93 120.999c-3.33301 3.33301 -21.333 2 -54 -4s-50.334 -11 -53.001 -15c-2.66699 -5.33301 -10.834 -7.5 -24.501 -6.5s-22.834 4.16699 -27.501 9.5
c-5.33301 6 -7.33301 17 -6 33c2.66699 31.333 32 50 88 56z" />
    <glyph glyph-name="three" unicode="3" horiz-adv-x="451" 
d="M273 388c0 -2 6.99414 -3.00195 20.9941 -3.00195c12.667 0 29.334 -4.66699 50.001 -14s36.667 -19 48 -29c19.333 -19.333 29 -45 29 -77c0 -46.667 -21.167 -86.334 -63.5 -119.001s-96.5 -51 -162.5 -55c-29.333 -2 -49.166 -2.16699 -59.499 -0.5
s-27.166 8.16699 -50.499 19.5c-36.667 16.667 -55 30 -55 40c0 4 3 8.33301 9 13c8.66699 7.33301 25.667 9.33301 51 6c54 -6.66699 100 -7 138 -1c51.333 8.66699 87.333 28 108 58c17.333 26.667 14 48.334 -10 65.001c-6 4.66699 -13.667 8.66699 -23 12
c-33.333 11.333 -82 12.333 -146 3c-23.333 -2.66699 -39 -3.83398 -47 -3.50098s-14.667 3.16602 -20 8.49902c-7.33301 6.66699 -10.666 17.334 -9.99902 32.001s4.66699 24.334 12 29.001c90 52 136 82 138 90c2.66699 7.33301 -12.666 9 -45.999 5
c-25.333 -3.33301 -44.666 -8.33301 -57.999 -15c-23.333 -12 -40 -18.667 -50 -20s-18 2.33398 -24 11.001c-15.333 21.333 -15.333 39.833 0 55.5s48 30.834 98 45.501c21.333 6 49 8.33301 83 7c50 -3.33301 81 -18.333 93 -45s1.66699 -57 -31 -91
c-14.667 -16 -22 -25 -22 -27z" />
    <glyph glyph-name="four" unicode="4" horiz-adv-x="412" 
d="M203 363c-4 0 -8 -2.83301 -12 -8.5s-6 -11.167 -6 -16.5s4 -5.33301 12 0c4 3.33301 7 7 9 11c5.33301 9.33301 4.33301 14 -3 14zM382 332c0 -6 -6.00195 -16.332 -18.002 -30.999c-11.333 -14 -29 -22.667 -53 -26c-23.333 -4 -35 -9.66699 -35 -17
c0 -2 -3.33301 -30.333 -10 -85c-5.33301 -39.333 -11.833 -65.5 -19.5 -78.5s-20.167 -19.5 -37.5 -19.5c-6 0 -10.667 1.33301 -14 4s-5.83301 8 -7.5 16s-2.33398 18.667 -2.00098 32s1.16602 31.666 2.49902 54.999l5 78
c-22.667 -6.66699 -52.334 -11.167 -89.001 -13.5s-58 -0.833008 -64 4.5c-8.66699 7.33301 -12 17.5 -10 30.5s8.33301 24.167 19 33.5c58 50 99 98.333 123 145c6.66699 14.667 13.334 26 20.001 34s11.834 13.167 15.501 15.5s11.334 5.5 23.001 9.5
s21.167 7.66699 28.5 11c15.333 6.66699 27 9.5 35 8.5s15.333 -6.5 22 -16.5c5.33301 -8.66699 7.83301 -16 7.5 -22s-4.16602 -20 -11.499 -42c-11.333 -36 -19.333 -70.667 -24 -104l28 4c14.667 2 29.334 0 44.001 -6s22 -12.667 22 -20z" />
    <glyph glyph-name="five" unicode="5" horiz-adv-x="361" 
d="M331 514c0 -19.333 -6.83203 -34.3311 -20.499 -44.998s-37.834 -20 -72.501 -28c-62 -14.667 -95 -31.334 -99 -50.001c-3.33301 -13.333 -3 -20 1 -20c2 0 5 1.33301 9 4c6.66699 5.33301 22 11 46 17c23.333 5.33301 44 4 62 -4c22 -10.667 36.5 -22.5 43.5 -35.5
s9.5 -32.833 7.5 -59.5c-2 -28 -7.83301 -52.167 -17.5 -72.5s-26.5 -43.5 -50.5 -69.5c-22 -24 -47.167 -43 -75.5 -57s-52.166 -19.667 -71.499 -17c-15.333 2.66699 -25.666 7 -30.999 13c-4 6.66699 -6 6.33398 -6 -0.999023c0 -8 -3.66699 -7.66699 -11 1
c-6 7.33301 -10.333 15.666 -13 24.999c-3.33301 11.333 -2.83301 19.333 1.5 24s10.833 4.66699 19.5 0c12.667 -2 20.5 -2.66699 23.5 -2s9.16699 3.33398 18.5 8.00098s17.666 8 24.999 10c26.667 8 52 26.5 76 55.5s36 55.167 36 78.5
c0 11.333 -3.5 18.666 -10.5 21.999s-19.167 3.33301 -36.5 0c-12.667 -2 -25 -8 -37 -18s-31 -30.333 -57 -61c-8.66699 -10.667 -17.834 -16 -27.501 -16s-17.834 5.33301 -24.501 16c-5.33301 7.33301 -8.16602 15.166 -8.49902 23.499s2.16699 24.833 7.5 49.5
c17.333 86 28.333 135.667 33 149c3.33301 8.66699 9.16602 14.834 17.499 18.501s38.5 14.167 90.5 31.5c46 15.333 75.667 26.333 89 33c16.667 8.66699 31.334 10.667 44.001 6s19 -14.334 19 -29.001z" />
    <glyph glyph-name="six" unicode="6" horiz-adv-x="411" 
d="M268 229c0 -12 4.66602 -11 13.999 3c4.66699 6.66699 9.33398 15.334 14.001 26.001c10 24.667 14.333 43 13 55c-0.666992 8 -1.5 12.167 -2.5 12.5s-2.83301 -1.83398 -5.5 -6.50098c-0.666992 -2 -2.66699 -6 -6 -12c-18 -40.667 -27 -66.667 -27 -78zM327.999 427
c23.333 0 39.1699 -12.665 47.5029 -37.998s7.5 -59.333 -2.5 -102c-4.66699 -20 -14.167 -45 -28.5 -75s-25.833 -48.667 -34.5 -56c-23.333 -21.333 -17.333 -32 18 -32c19.333 0 29.833 -3.33301 31.5 -10s-5.5 -17.334 -21.5 -32.001c-9.33301 -8 -17 -13.167 -23 -15.5
s-14.667 -3.16602 -26 -2.49902c-10.667 0.666992 -21.667 3.16699 -33 7.5s-19.5 6.66602 -24.5 6.99902s-18.167 -2.16699 -39.5 -7.5c-38 -11.333 -71.5 -12.166 -100.5 -2.49902s-47.167 27.834 -54.5 54.501c-17.333 56 -4 174 40 354c4 16 10.167 30.333 18.5 43
s16.166 19.667 23.499 21c9.33301 1.33301 18.666 -1.33398 27.999 -8.00098c10 -6.66699 14.167 -17.834 12.5 -33.501s-11.167 -57.167 -28.5 -124.5c-32 -124 -39.333 -199.333 -22 -226c5.33301 -8 10.666 -13 15.999 -15s15 -2.66699 29 -2l33 3
c4.66699 47.333 10.167 85.166 16.5 113.499s17.833 58.833 34.5 91.5c27.333 58 57.333 87 90 87z" />
    <glyph glyph-name="seven" unicode="7" horiz-adv-x="360" 
d="M269 127c0 -14 -2.66406 -27.6641 -7.99707 -40.9971c-4 -8.66699 -12.667 -16.334 -26 -23.001s-24 -8.33398 -32 -5.00098c-25.333 10 -26 60.667 -2 152c26 114 38 199 36 255c-56.667 -1.33301 -99.334 -6 -128.001 -14
c-25.333 -6.66699 -42.5 -9.83398 -51.5 -9.50098s-15.833 4.5 -20.5 12.5c-8.66699 16 -9.33398 30.333 -2.00098 43s20.666 20.334 39.999 23.001c43.333 7.33301 84.333 13.666 123 18.999s66.667 9.33301 84 12c2.66699 2.66699 11 0.666992 25 -6
c11.333 -4.66699 18.333 -11.667 21 -21s2 -23.333 -2 -42c-3.33301 -18.667 -8 -53.5 -14 -104.5s-14.333 -97.833 -25 -140.5c-12 -57.333 -18 -94 -18 -110z" />
    <glyph glyph-name="eight" unicode="8" horiz-adv-x="304" 
d="M140 142c0.666992 6 -2.33398 9.33496 -9.00098 10.002c-6 -0.666992 -9 -3.33398 -9 -8.00098c2.66699 -8.66699 7 -12.334 13 -11.001c2.66699 2 4.33398 5 5.00098 9zM155.999 402.002c0 7.33301 -6.33203 6.33398 -18.999 -2.99902
c-4.66699 -2.66699 -9 -6.33398 -13 -11.001c-11.333 -11.333 -17 -25.333 -17 -42c0.666992 -14.667 3 -21.667 7 -21c3.33301 2 11.166 14.333 23.499 37s18.5 36 18.5 40zM233 399.003c-4 0 -16.6699 -21.498 -38.0029 -64.498s-32 -68.167 -32 -75.5
c0 -6.66699 6.66699 -18.334 20 -35.001c26.667 -34 37.834 -67.5 33.501 -100.5s-23.166 -57.5 -56.499 -73.5c-24.667 -11.333 -49.167 -8.16602 -73.5 9.50098s-36.166 41.167 -35.499 70.5c0.666992 28 9 62.333 25 103l-24 38
c-12.667 21.333 -19.834 37.666 -21.501 48.999s0.166016 29.666 5.49902 54.999c6.66699 28 22 52.5 46 73.5s51.333 33.833 82 38.5c14 2 28.333 6 43 12s27.334 10 38.001 12c5.33301 0.666992 11.833 -7.5 19.5 -24.5s10.834 -30.5 9.50098 -40.5
c-1.33301 -8.66699 -7 -18.667 -17 -30s-18 -17 -24 -17z" />
    <glyph glyph-name="nine" unicode="9" horiz-adv-x="400" 
d="M249 489c-18.667 22 -40.166 28.167 -64.499 18.5s-45.833 -33.167 -64.5 -70.5c-9.33301 -18 -13 -34.667 -11 -50s8.66699 -23.333 20 -24c40 -2 78.667 18 116 60c13.333 15.333 20.166 26.5 20.499 33.5s-5.16699 17.833 -16.5 32.5zM255.001 589
c5.33301 0.666992 19.667 -10.167 43 -32.5s38 -32.833 44 -31.5c15.333 0 24.333 -5.66699 27 -17s0.666992 -36 -6 -74c-7.33301 -43.333 -11 -146 -11 -308c-30.667 -18 -51.334 -20.333 -62.001 -7s-16.667 55 -18 125c-2 61.333 -5.66699 94 -11 98
c-3.33301 2.66699 -11.666 -1.66602 -24.999 -12.999c-20 -17.333 -48 -30.833 -84 -40.5s-55.667 -8.83398 -59 2.49902c-2 5.33301 -6 7 -12 5c-6.66699 -2.66699 -14.834 1.83301 -24.501 13.5s-17.167 25.5 -22.5 41.5c-8.66699 28.667 -3 66 17 112s45 78.667 75 98
c12.667 8 30.834 16.167 54.501 24.5s42.167 11.5 55.5 9.5c4 -4 10.333 -6 19 -6z" />
    <glyph glyph-name="colon" unicode=":" horiz-adv-x="181" 
d="M48 152c12.667 12.667 22.8301 19.334 30.4971 20.001s17.5 -4.66602 29.5 -15.999c11.333 -10.667 16.833 -19.334 16.5 -26.001s-6.16602 -17.334 -17.499 -32.001c-13.333 -18 -28.166 -25.5 -44.499 -22.5s-26.833 15.167 -31.5 36.5
c-3.33301 12.667 2.33398 26 17.001 40zM146.996 423c0 -8 -5.33203 -16.334 -15.999 -25.001s-21 -13 -31 -13c-14.667 0 -25.167 6.33301 -31.5 19s-6.83301 26.334 -1.5 41.001s15.333 24.667 30 30c12 4.66699 20 7 24 7c5.33301 0.666992 12.166 -4.33301 20.499 -15
s11.5 -18.667 9.5 -24c-2.66699 -8 -4 -14.667 -4 -20z" />
    <glyph glyph-name="semicolon" unicode=";" horiz-adv-x="241" 
d="M84 -66c-11.333 0 -23.1641 3.16602 -35.4971 9.49902s-18.5 12.833 -18.5 19.5c0 4 7.33301 10.667 22 20s23.667 13 27 11c1.33301 -0.666992 3.5 0.5 6.5 3.5s5.5 6.83301 7.5 11.5c5.33301 12 6.66602 44.333 3.99902 97c-2.66699 53.333 -2.33398 82 0.999023 86
c2.66699 4 11.167 9.83301 25.5 17.5s24.166 11.167 29.499 10.5c16 -4 28.167 -31.667 36.5 -83s7.83301 -92.666 -1.5 -123.999c-15.333 -52.667 -50 -79 -104 -79zM115.002 409.999c-1.33301 12.667 7.49805 25.001 26.498 37.001s35.5 12.667 49.5 2
c24.667 -16 27.334 -37.333 8.00098 -64c-13.333 -19.333 -30.666 -25.833 -51.999 -19.5s-32 21.166 -32 44.499z" />
    <glyph glyph-name="less" unicode="&#x3c;" horiz-adv-x="502" 
d="M308 328c-8 -3.33301 -30.5029 -14.498 -67.5029 -33.498s-61.5 -31.167 -73.5 -36.5l-41 -17c18 -8 59.333 -19.167 124 -33.5s104.667 -23.833 120 -28.5l26.5 -7c10.333 -2.66699 19 -5 26 -7s11.833 -3.33301 14.5 -4c18.667 -4 30.167 -11.833 34.5 -23.5
s0.833008 -25.167 -10.5 -40.5c-7.33301 -10 -20.333 -15 -39 -15s-28 1.66699 -28 5c0 2.66699 -12.167 7.5 -36.5 14.5s-41.5 10.5 -51.5 10.5c-4 -0.666992 -7 1.33301 -9 6s-5.33301 6 -10 4c-17.333 1.33301 -42.166 6.66602 -74.499 15.999s-55.166 15.333 -68.499 18
c-68 16.667 -102 37 -102 61c0 10.667 -2 19.334 -6 26.001c-8 14.667 -7 26.5 3 35.5s37 22.167 81 39.5c42 16.667 92.5 42.5 151.5 77.5s93.5 59.833 103.5 74.5c7.33301 8 16.333 14.333 27 19c12.667 5.33301 22.334 7.66602 29.001 6.99902
s13.667 -5.33398 21 -14.001c17.333 -20.667 10.333 -45.667 -21 -75c-10.667 -10 -32.667 -25.667 -66 -47s-52.333 -32 -57 -32z" />
    <glyph glyph-name="equal" unicode="=" horiz-adv-x="476" 
d="M57 316c24 2.66699 82.167 2.66504 174.5 -0.00195312s144.166 -6 155.499 -10c26 -8 34 -24.667 24 -50c-5.33301 -13.333 -16 -21.166 -32 -23.499s-48.667 -1.16602 -98 3.50098c-55.333 5.33301 -98.166 9.83301 -128.499 13.5s-55.333 8 -75 13
s-32.5 10.333 -38.5 16s-9 13.167 -9 22.5c0 8 9 13 27 15zM403 450.998c2 2.66699 4.16602 3.66992 6.49902 3.00293s8.5 -3.33398 18.5 -8.00098c10.667 -4.66699 16.5 -13.834 17.5 -27.501s-3.5 -24.834 -13.5 -33.501c-6 -5.33301 -19.333 -8.5 -40 -9.5
s-73.667 -1.16699 -159 -0.5c-78 0.666992 -128.667 1.66699 -152 3s-36.666 4.33301 -39.999 9c-5.33301 7.33301 -3 15.833 7 25.5s24.667 17.167 44 22.5c4 3.33301 30.167 6 78.5 8s97.833 3.66699 148.5 5s78.667 2.33301 84 3z" />
    <glyph glyph-name="greater" unicode="&#x3e;" horiz-adv-x="521" 
d="M129 532c12 -4 34.6699 -13.5029 68.0029 -28.5029l91.5 -40.5c27.667 -12 44.167 -18 49.5 -18c9.33301 -1.33301 33.666 -11.833 72.999 -31.5s61.333 -32.167 66 -37.5c6 -7.33301 10.333 -21.666 13 -42.999c3.33301 -23.333 -1.83398 -40.666 -15.501 -51.999
s-46.5 -25 -98.5 -41c-20.667 -6 -44.334 -14 -71.001 -24s-46.334 -16.333 -59.001 -19c-25.333 -5.33301 -46.666 -11.166 -63.999 -17.499s-41 -12.166 -71 -17.499c-28.667 -5.33301 -46.5 -8 -53.5 -8s-13.5 3 -19.5 9c-8.66699 9.33301 -9.66699 17.666 -3 24.999
s22.334 15.333 47.001 24c40 13.333 79.167 27.5 117.5 42.5s76.833 29.167 115.5 42.5c52.667 17.333 79 28.333 79 33c-8.66699 11.333 -55.5 33.333 -140.5 66s-132.5 53 -142.5 61c-24.667 20 -26 40.333 -4 61c9.33301 9.33301 16.666 14 21.999 14z" />
    <glyph glyph-name="question" unicode="?" 
d="M207 -3c-14.667 0 -24.6699 2.49902 -30.0029 7.49902s-10.666 15.167 -15.999 30.5c-5.33301 16.667 -1.5 29.834 11.5 39.501s27.5 13.5 43.5 11.5c14.667 -2 23.334 -4.5 26.001 -7.5s5.33398 -11.833 8.00098 -26.5c2.66699 -16 0 -29.167 -8 -39.5
s-19.667 -15.5 -35 -15.5zM229.997 595.999c12.667 4 28.1641 4.83398 46.4971 2.50098s32.833 -6.83301 43.5 -13.5c11.333 -6.66699 22 -21.334 32 -44.001c6.66699 -14 10.334 -25.5 11.001 -34.5s-0.666016 -22.167 -3.99902 -39.5
c-5.33301 -30.667 -15.166 -57.834 -29.499 -81.501s-37.166 -51.834 -68.499 -84.501c-38.667 -40 -55.334 -63 -50.001 -69c4 -5.33301 2.83301 -14 -3.5 -26s-13.166 -18.333 -20.499 -19c-6 -1.33301 -16 -2.66602 -30 -3.99902c-16 -2 -27.833 1.83301 -35.5 11.5
s-10.167 23.834 -7.5 42.501c2 12.667 6.83301 24.334 14.5 35.001s24.834 29 51.501 55c66 65.333 99 120.333 99 165c0 11.333 -1.66699 19.666 -5 24.999s-8.83301 8 -16.5 8s-14.167 -0.666992 -19.5 -2s-13.333 -4 -24 -8c-16 -5.33301 -35.333 -19.5 -58 -42.5
s-37.334 -42.5 -44.001 -58.5c-7.33301 -18.667 -20.666 -29.334 -39.999 -32.001s-32 4.33301 -38 21c-4.66699 12.667 -4.33398 24.334 0.999023 35.001s22.666 32 51.999 64c16 18 38.333 36.333 67 55s54 31.667 76 39z" />
    <glyph glyph-name="at" unicode="@" horiz-adv-x="670" 
d="M319 321c-7.33301 0 -16.333 -5.99805 -27 -17.998s-20.334 -26.667 -29.001 -44s-16.667 -35.166 -24 -53.499s-11.333 -34 -12 -47s2 -21.167 8 -24.5c6.66699 -2.66699 20.167 1.16602 40.5 11.499s36.833 21.833 49.5 34.5c8.66699 7.33301 14.167 15 16.5 23
s3.83301 21.667 4.5 41c0.666992 10.667 0.833984 20.5 0.500977 29.5s-1.33301 16.667 -3 23s-4.5 11.666 -8.5 15.999s-9.33301 7.16602 -16 8.49902zM381 85.002c0 4 -3.33496 10.665 -10.002 19.998c-4.66699 6 -8.83398 8.83301 -12.501 8.5
s-11.834 -4.16602 -24.501 -11.499l-21.5 -13.5l-17 -11c-3.66699 -2.33301 -9 -5.16602 -16 -8.49902s-15.833 -7 -26.5 -11c-30 -10 -52.333 -7.66699 -67 7c-6 6 -11.333 9.66699 -16 11c-6.66699 2 -13 14.333 -19 37s-8 42.667 -6 60c7.33301 53.333 35.333 112 84 176
c25.333 33.333 51.333 52.833 78 58.5s51.667 -2.83301 75 -25.5c28.667 -27.333 47.334 -53.166 56.001 -77.499s8.66699 -50.166 0 -77.499c-4.66699 -13.333 -5 -31.166 -1 -53.499s10.333 -36.833 19 -43.5c7.33301 -6 20.5 -2.66699 39.5 10s34.833 28.667 47.5 48
c26.667 42 30 92 10 150c-8 22.667 -8.66699 36.334 -2 41.001c3.33301 3.33301 5 5.16602 5 5.49902s-2.33301 -0.5 -7 -2.5c-8.66699 -2 -20 8.33301 -34 31c-31.333 51.333 -70.666 77 -117.999 77c-33.333 0 -63.333 -8.16699 -90 -24.5s-57.334 -45.833 -92.001 -88.5
c-52 -62 -85.167 -126.167 -99.5 -192.5s-6.83301 -118.5 22.5 -156.5c18 -23.333 50.667 -42.5 98 -57.5s102.666 -23.5 165.999 -25.5c42.667 -1.33301 69 -4 79 -8c11.333 -4.66699 16.666 -15.334 15.999 -32.001s-7 -30 -19 -40
c-6.66699 -5.33301 -36.167 -5.83301 -88.5 -1.5s-101.833 11.5 -148.5 21.5c-50.667 11.333 -89.5 26.166 -116.5 44.499s-50.833 46.833 -71.5 85.5c-7.33301 14 -13.333 34.667 -18 62s-6 50.333 -4 69c2.66699 26.667 10.834 58.667 24.501 96
s28.834 69.666 45.501 96.999c44.667 72.667 87.334 125.334 128.001 158.001s91.334 54.667 152.001 66c31.333 6 68 -1 110 -21c66 -33.333 113 -102.666 141 -207.999c4.66699 -18.667 7.16699 -33.5 7.5 -44.5s-1.5 -26.167 -5.5 -45.5
c-3.33301 -16.667 -7.66602 -32.834 -12.999 -48.501s-10.666 -27.834 -15.999 -36.501s-9.66602 -12 -12.999 -10c-4 2 -5 0 -3 -6c0.666992 -7.33301 -7.33301 -19.166 -24 -35.499s-37.834 -31 -63.501 -44s-47.834 -17.833 -66.501 -14.5c-14 2 -26.5 6.66699 -37.5 14
s-16.5 14.666 -16.5 21.999z" />
    <glyph glyph-name="A" unicode="A" horiz-adv-x="464" 
d="M245 344c0 -6 4.00098 -8 12.001 -6c2 0.666992 6.83301 2 14.5 4s13.167 3.33301 16.5 4c9.33301 2 14.666 4.83301 15.999 8.5s1.33301 12.834 0 27.501c-1.33301 19.333 -3 31.333 -5 36c-1.33301 1.33301 -6.5 -3.33398 -15.5 -14.001s-17.667 -22.5 -26 -35.5
s-12.5 -21.167 -12.5 -24.5zM402.001 370c12.667 0 21.8301 -4.99805 27.4971 -14.998s6.33398 -21.333 2.00098 -34s-12.833 -22.667 -25.5 -30l-23 -13c8 -112.667 12.667 -177 14 -193c3.33301 -32 0.333008 -53.333 -9 -64
c-19.333 -21.333 -37.666 -23.666 -54.999 -6.99902c-10 10 -16.833 26.167 -20.5 48.5s-5.83398 61.833 -6.50098 118.5l-2 87c-19.333 1.33301 -40.833 1 -64.5 -1s-37.167 -5.66699 -40.5 -11c-4 -3.33301 -20.833 -40.5 -50.5 -111.5s-45.167 -107.5 -46.5 -109.5
c-7.33301 -16 -20.333 -23.667 -39 -23s-29.667 9 -33 25c-2 9.33301 2.83301 30.666 14.5 63.999s26.834 69 45.501 107c6 10.667 11.5 26.667 16.5 48s9.83301 36 14.5 44c4.66699 5.33301 13.167 26 25.5 62s20.5 63.667 24.5 83c2 9.33301 6.16699 17.166 12.5 23.499
s17.5 12.833 33.5 19.5c3.33301 2 11 -0.666992 23 -8c9.33301 -5.33301 15.666 -6.83301 18.999 -4.5s9.33301 12.166 18 29.499c10 21.333 21 35 33 41c20 8 35.667 8.33301 47 1c4.66699 -2.66699 10.334 -23 17.001 -61s10.334 -68.667 11.001 -92
c0 -10 1 -16.5 3 -19.5s6.66699 -4.5 14 -4.5z" />
    <glyph glyph-name="B" unicode="B" horiz-adv-x="460" 
d="M192 335c-16 -0.666992 -28.1689 -2.83301 -36.502 -6.5s-13.833 -9.16699 -16.5 -16.5s-4 -14.666 -4 -21.999s-0.166992 -17.5 -0.5 -30.5s-1.83301 -25.167 -4.5 -36.5l-4 -45c61.333 4 96 9.33301 104 16c4.66699 4.66699 11 7 19 7c7.33301 0 22 10 44 30
s36.333 36.333 43 49c6 11.333 9.33301 22.166 10 32.499s-1.66602 16.833 -6.99902 19.5c-5.33301 3.33301 -25.166 5.33301 -59.499 6s-63.5 -0.333008 -87.5 -3zM275.998 504.001c0 3.33301 -2.66699 5.33301 -8 6s-12.166 0.166992 -20.499 -1.5
s-16.5 -4.16699 -24.5 -7.5c-20.667 -9.33301 -42 -28.333 -64 -57c-16 -20.667 -19 -31 -9 -31c13.333 0 37.666 12.833 72.999 38.5s53 43.167 53 52.5zM194.998 565.001c29.333 15.333 58.501 23.835 87.501 25.502s51.167 -3.83301 66.5 -16.5s21 -31.667 17 -57
s-16.667 -49.666 -38 -72.999c-10 -10 -14.333 -17 -13 -21s8.66602 -6.66699 21.999 -8c36 -4.66699 56.333 -15.334 61 -32.001c2 -9.33301 5.66699 -12.666 11 -9.99902c6.66699 4.66699 12.334 -1 17.001 -17c4 -12 5 -25 3 -39
c-3.33301 -33.333 -18.833 -67 -46.5 -101s-60.5 -61.333 -98.5 -82c-12 -6.66699 -28 -11.5 -48 -14.5s-36.333 -4.66699 -49 -5s-34.334 -0.5 -65.001 -0.5c-2 -14 -4 -24.333 -6 -31s-6.16699 -13.334 -12.5 -20.001s-15.166 -10.334 -26.499 -11.001
c-13.333 -2.66699 -24.666 1 -33.999 11c-6 6.66699 -9.66699 15 -11 25s-1 33.667 1 71c2 46.667 4.66699 86 8 118c2 24 0.666992 37.667 -4 41c-5.33301 3.33301 -7.5 10.5 -6.5 21.5s4.83301 21.167 11.5 30.5c7.33301 11.333 12 40 14 86
c1.33301 33.333 3.16602 54.166 5.49902 62.499s8.5 16.5 18.5 24.5c23.333 20 42.333 22.667 57 8c3.33301 -4 8.66602 -5.16699 15.999 -3.5s21.333 7.5 42 17.5z" />
    <glyph glyph-name="C" unicode="C" 
d="M201 532c37.333 11.333 71.999 -1.33496 103.999 -38.002c23.333 -25.333 25.666 -49 6.99902 -71c-7.33301 -9.33301 -15 -15.666 -23 -18.999s-13.667 -2.66602 -17 2.00098c-3.33301 4 -7 5 -11 3s-9 2 -15 12c-11.333 21.333 -24.5 28.833 -39.5 22.5
s-33.5 -27.5 -55.5 -63.5c-16 -26.667 -27.167 -50.834 -33.5 -72.501s-9.16602 -46.834 -8.49902 -75.501c0.666992 -22 2 -36.667 4 -44s6.66699 -14.333 14 -21c30 -26 83.667 -20 161 18c26 12.667 42.667 20 50 22s13.333 1 18 -3c4.66699 -4.66699 7 -8.16699 7 -10.5
s-2.33301 -5.83301 -7 -10.5c-2.66699 -2.66699 -9 -10 -19 -22c-8.66699 -11.333 -26 -24.666 -52 -39.999s-51 -26.666 -75 -33.999c-52.667 -16 -94.5 -13 -125.5 9s-48.833 61.333 -53.5 118c-4 46.667 4.5 96.667 25.5 150s48.5 95.333 82.5 126
c26.667 23.333 47.334 37.333 62.001 42z" />
    <glyph glyph-name="D" unicode="D" horiz-adv-x="450" 
d="M298 425c-11.333 7.33301 -28.8311 11.5 -52.498 12.5s-41.167 -1.5 -52.5 -7.5c-19.333 -10 -30.333 -17.667 -33 -23c-4.66699 -8 -7.66699 -37.667 -9 -89c-0.666992 -10.667 -1 -19.667 -1 -27l-4 -118l35 11c31.333 9.33301 55 18.333 71 27s31.667 21 47 37
c21.333 22 34.333 45.333 39 70c3.33301 17.333 4.66602 29.5 3.99902 36.5s-4.33398 16.833 -11.001 29.5c-11.333 21.333 -22.333 35 -33 41zM97.002 39c-27.333 0 -41 15.334 -41 46.001c0 19.333 -5 32.666 -15 39.999c-8.66699 6 -12.167 13.833 -10.5 23.5
s7.83398 16.167 18.501 19.5c6.66699 2 10.667 6.16699 12 12.5s2.33301 21.833 3 46.5c0.666992 31.333 -0.666016 96.666 -3.99902 195.999c-1.33301 36 -0.833008 59.5 1.5 70.5s8.16602 18.833 17.499 23.5c13.333 6.66699 26.833 9.33398 40.5 8.00098
s21.834 -6 24.501 -14c4 -10 10.667 -13.333 20 -10c11.333 4 36.666 6.66699 75.999 8c34.667 2 60.334 0 77.001 -6s35.667 -20 57 -42c26 -28 41 -60.167 45 -96.5s-3.66699 -73.5 -23 -111.5c-36.667 -72 -106.667 -118.333 -210 -139
c-18.667 -3.33301 -30.334 -6.5 -35.001 -9.5s-7.66699 -8.16699 -9 -15.5c-2 -11.333 -7.83301 -22.5 -17.5 -33.5s-18.834 -16.5 -27.501 -16.5z" />
    <glyph glyph-name="E" unicode="E" horiz-adv-x="532" 
d="M375 322c0 -13.333 -6.00098 -25.001 -18.001 -35.001s-28.667 -16.333 -50 -19c-35.333 -5.33301 -68.833 -19.666 -100.5 -42.999s-52.834 -49 -63.501 -77c-7.33301 -19.333 -3.33301 -32.166 12 -38.499s44.666 -7.5 87.999 -3.5
c44.667 3.33301 82.334 10.5 113.001 21.5s59.667 27.5 87 49.5c39.333 32 59 33 59 3c0 -33.333 -29 -64.333 -87 -93s-127.333 -46 -208 -52c-28 -2 -47.167 -2.33301 -57.5 -1s-22.5 5.33301 -36.5 12c-19.333 9.33301 -32.333 20 -39 32s-9 29 -7 51
c4 39.333 21.333 77 52 113c16 18.667 24 29.667 24 33c0 2 -13 6.66699 -39 14c-31.333 8.66699 -53.333 24.167 -66 46.5s-11 42.5 5 60.5c6 6.66699 14.5 13.167 25.5 19.5s24.667 12.666 41 18.999l44 16.5c13 4.66699 29.833 10.167 50.5 16.5
s35.334 11.166 44.001 14.499c40 13.333 64.833 20 74.5 20s19.834 -6.66699 30.501 -20c6 -8 5 -19.333 -3 -34c-6.66699 -12.667 -15.5 -21.667 -26.5 -27s-34.5 -12 -70.5 -20c-26 -5.33301 -68.667 -18.666 -128 -39.999c19.333 -9.33301 47.5 -14.833 84.5 -16.5
s70.167 0.5 99.5 6.5c44 8.66699 66 -1 66 -29z" />
    <glyph glyph-name="F" unicode="F" horiz-adv-x="426" 
d="M396 531c0 -17.333 -10.8369 -30.501 -32.5039 -39.501s-73.5 -21.833 -155.5 -38.5c-16 -3.33301 -25.667 -6.16602 -29 -8.49902s-5.83301 -10 -7.5 -23s-0.166992 -33.167 4.5 -60.5l4 -48c38.667 4 77.334 10.667 116.001 20c24 5.33301 39.167 7.83301 45.5 7.5
s13.833 -3.16602 22.5 -8.49902c12 -7.33301 18 -14.666 18 -21.999c0 -8.66699 -3.83301 -19.5 -11.5 -32.5s-14.834 -20.5 -21.501 -22.5c-67.333 -14.667 -124.333 -20.667 -171 -18c0 -12 -0.166992 -30.333 -0.5 -55s-0.5 -45.667 -0.5 -63
c0.666992 -33.333 -1.83301 -55 -7.5 -65s-18.167 -15 -37.5 -15c-16 0 -26.333 6.66699 -31 20s-7 43 -7 89v72c-2 0 -5.5 -0.333008 -10.5 -1s-9.66699 -1.33398 -14 -2.00098s-8.66602 -1 -12.999 -1s-7.66602 0.666992 -9.99902 2s-3.16602 3.66602 -2.49902 6.99902
c0 8 -2.33301 12 -7 12c-15.333 0 -7.66602 11.333 23.001 34l2 2c15.333 10.667 24.5 18.667 27.5 24s4.5 15.666 4.5 30.999c0.666992 10.667 -2.5 32.834 -9.5 66.501s-9.83301 55.5 -8.5 65.5c2 9.33301 12.5 20.333 31.5 33s31.833 17.667 38.5 15
c6.66699 -2 10.667 -1 12 3c0.666992 2 28 10.333 82 25s81.333 23 82 25c7.33301 6.66699 19.5 10 36.5 10s27.833 -4.33301 32.5 -13c3.33301 -4.66699 5 -13.667 5 -27z" />
    <glyph glyph-name="G" unicode="G" horiz-adv-x="496" 
d="M101 257c0 -34 8.49902 -55.499 25.499 -64.499s45.5 -7.16699 85.5 5.5c25.333 7.33301 55.166 20 89.499 38s53.5 30.667 57.5 38s3.33301 11.333 -2 12l-28 -3c-14.667 -0.666992 -35.167 -7 -61.5 -19s-41.833 -18.667 -46.5 -20c-6.66699 0 -13.667 5.33301 -21 16
s-11 21 -11 31c0 8.66699 4.83301 18.167 14.5 28.5s17.167 13.833 22.5 10.5c4 -2 5 -1 3 3c-1.33301 2.66699 0.333984 6 5.00098 10s11.334 7.66699 20.001 11s17 5.33301 25 6c25.333 3.33301 34.333 17 27 41c-12.667 40 -25 66.333 -37 79
c-10.667 11.333 -19.5 16.666 -26.5 15.999s-19.833 -7.66699 -38.5 -21c-28 -20 -52.167 -51.5 -72.5 -94.5s-30.5 -84.167 -30.5 -123.5zM413.999 70.001c0 -17.333 -8.33594 -28.335 -25.0029 -33.002s-29 0.666016 -37 15.999
c-7.33301 13.333 -4.33301 50.666 9 111.999c1.33301 6 1.16602 10.167 -0.500977 12.5s-4.66699 2.83301 -9 1.5s-9.16602 -4.33301 -14.499 -9c-9.33301 -8 -39.166 -20.167 -89.499 -36.5s-84.166 -24.833 -101.499 -25.5c-22.667 -0.666992 -42.834 4 -60.501 14
s-31.167 23.667 -40.5 41c-9.33301 18.667 -14.333 48.334 -15 89.001s3.33301 75.334 12 104.001c13.333 42.667 35.833 84.334 67.5 125.001s62.834 68.667 93.501 84c41.333 20 76.666 19.333 105.999 -2c14.667 -10.667 29.667 -29.667 45 -57s25 -52.666 29 -75.999
c4.66699 -26.667 8.33398 -42.167 11.001 -46.5s10.334 -5.5 23.001 -3.5c15.333 3.33301 27.5 1.5 36.5 -5.5s13.167 -17.833 12.5 -32.5c-0.666992 -56 -13 -125 -37 -207c-10 -34 -15 -55.667 -15 -65z" />
    <glyph glyph-name="H" unicode="H" horiz-adv-x="458" 
d="M403 520c0 -48 3.33105 -73.3311 9.99805 -75.998c8.66699 -2.66699 13.834 -11.167 15.501 -25.5s-1.16602 -26.5 -8.49902 -36.5c-7.33301 -12.667 -10.333 -46.667 -9 -102c2 -78 2.5 -123 1.5 -135s-6.16699 -21.667 -15.5 -29c-10 -8 -20.5 -12.333 -31.5 -13
s-19.5 2.66602 -25.5 9.99902c-6.66699 8.66699 -12.334 71 -17.001 187c-0.666992 18.667 -2 30 -4 34s-8 6.33301 -18 7c-6 1.33301 -30.667 -1.33398 -74 -8.00098s-68.333 -9 -75 -7c-4.66699 2 -9 -0.333008 -13 -7s-6.83301 -15.834 -8.5 -27.501
s-1.83398 -24.167 -0.500977 -37.5c2 -22 0.666992 -47.333 -4 -76c-3.33301 -17.333 -6.66602 -29.166 -9.99902 -35.499s-9.33301 -11.5 -18 -15.5c-10 -6.66699 -18.667 -8.33398 -26 -5.00098s-10.666 9 -9.99902 17c0.666992 2 0.666992 3.5 0 4.5
s-2.33398 1.16699 -5.00098 0.5c-4 -0.666992 -6.5 4.5 -7.5 15.5s-0.833008 33.5 0.5 67.5c0.666992 36.667 0.5 61 -0.5 73s-3.83301 20.333 -8.5 25c-6.66699 6.66699 -10.167 15.667 -10.5 27s2.83398 19.666 9.50098 24.999c5.33301 5.33301 7.66602 13.333 6.99902 24
s-4.66699 37.667 -12 81c-3.33301 22 -4.5 35.833 -3.5 41.5s5.83301 12.834 14.5 21.501s20.334 14.334 35.001 17.001s24.667 1.33398 30 -3.99902c3.33301 -10 6.5 -35.833 9.5 -77.5s5.83301 -66.834 8.5 -75.501c37.333 3.33301 100.333 15.333 189 36v55
c0 32.667 1.5 55.667 4.5 69s9.5 24 19.5 32c8.66699 7.33301 18.167 11.333 28.5 12s18.5 -2 24.5 -8c5.33301 -5.33301 8 -32.333 8 -81z" />
    <glyph glyph-name="I" unicode="I" horiz-adv-x="159" 
d="M54 514c0 6.66699 5.33398 12.334 16.001 17.001c19.333 11.333 34.666 10.833 45.999 -1.5s15.666 -29.166 12.999 -50.499c-7.33301 -54 -12.666 -132.333 -15.999 -235c-1.33301 -62 -6 -97.667 -14 -107c-8 -8.66699 -17.167 -12.834 -27.5 -12.501
s-19.833 5.16602 -28.5 14.499c-6 6.66699 -9.83301 15.667 -11.5 27s-2.16699 35.666 -1.5 72.999c0.666992 59.333 3 117.833 7 175.5s7.66699 87.167 11 88.5c4 0.666992 6 4.33398 6 11.001z" />
    <glyph glyph-name="J" unicode="J" horiz-adv-x="262" 
d="M145 554c12.667 7.33301 21.1689 11.001 25.502 11.001s11.5 -3.66699 21.5 -11c7.33301 -6 12.666 -14.833 15.999 -26.5s7.66602 -37.834 12.999 -78.501c8.66699 -47.333 12.334 -101.166 11.001 -161.499s-10 -105.833 -26 -136.5
c-17.333 -36.667 -35.833 -62.5 -55.5 -77.5s-41.834 -20.5 -66.501 -16.5c-26 4 -43.333 15.333 -52 34c-7.33301 15.333 -2.66602 25.333 14.001 30c2.66699 1.33301 6 2 10 2c23.333 2 38.666 4.83301 45.999 8.5s14 12.167 20 25.5c28 62.667 32 151.334 12 266.001
c-9.33301 55.333 -15 84.666 -17 87.999c-2.66699 4.66699 -1 11.667 5 21s13.667 16.666 23 21.999z" />
    <glyph glyph-name="K" unicode="K" horiz-adv-x="425" 
d="M134 455c6.66699 0 24.3311 11.6689 52.998 35.002c9.33301 8 19 20.333 29 37c21.333 32 44.333 43.333 69 34c7.33301 -3.33301 12.333 -7 15 -11s4 -11.333 4 -22c0 -35.333 -33.333 -76.666 -100 -123.999c-19.333 -14 -21 -22 -5 -24
c6.66699 -0.666992 22.334 -1 47.001 -1c16 0.666992 28.333 1 37 1h22c48 -0.666992 74.667 -3 80 -7c6.66699 -6.66699 9.83398 -14.667 9.50098 -24s-4.16602 -16 -11.499 -20c-26 -14 -84.667 -22.333 -176 -25c-37.333 -1.33301 -59.5 -2.66602 -66.5 -3.99902
s-10.833 -6.33301 -11.5 -15c-6.66699 -54.667 -13.834 -90.667 -21.501 -108s-20.834 -27 -39.501 -29c-12.667 -0.666992 -22.667 4.66602 -30 15.999c-4.66699 7.33301 -7.16699 14 -7.5 20s1.16699 15.667 4.5 29c6 19.333 8.33301 80.666 7 183.999
c-0.666992 79.333 0.5 129.166 3.5 149.499s11.167 34.166 24.5 41.499c16 9.33301 28.5 7.5 37.5 -5.5s15.167 -37.833 18.5 -74.5c2.66699 -35.333 5.33398 -53 8.00098 -53z" />
    <glyph glyph-name="L" unicode="L" horiz-adv-x="369" 
d="M84 75c-22.667 0 -36.334 8.16992 -41.001 24.5029s-6.66699 62.166 -6 137.499c1.33301 85.333 0 142.666 -4 171.999c-2.66699 18.667 -3.5 31.5 -2.5 38.5s4.83301 14.5 11.5 22.5c10 13.333 20.333 20.666 31 21.999c11.333 2 22 -0.833008 32 -8.5
s16 -17.834 18 -30.501c3.33301 -20.667 4.33301 -71.667 3 -153c-1.33301 -80 0 -122.333 4 -127c1.33301 -1.33301 4 -2 8 -2c12 0.666992 38.833 11.834 80.5 33.501s71.5 39.5 89.5 53.5c17.333 14 27.666 14.333 30.999 1c3.33301 -15.333 -5 -34.333 -25 -57
c-29.333 -32.667 -67.666 -62 -114.999 -88s-85.666 -39 -114.999 -39z" />
    <glyph glyph-name="M" unicode="M" horiz-adv-x="559" 
d="M134 255c0 -22.667 -3.3291 -53.3301 -9.99609 -91.9971c-4.66699 -34 -11.167 -57.167 -19.5 -69.5s-20.833 -18.5 -37.5 -18.5c-28.667 0 -40.667 18.333 -36 55c19.333 140 24.333 248.667 15 326c-2.66699 18.667 -3.33398 31 -2.00098 37s6.33301 12.667 15 20
c12.667 12 27 16.333 43 13c13.333 -2.66699 26.666 -9 39.999 -19s20 -19 20 -27c0 -11.333 6.66699 -33.833 20 -67.5s23.666 -54.167 30.999 -61.5c10 -10.667 24.667 -15.834 44 -15.501s40.666 6.16602 63.999 17.499c34.667 17.333 63.334 40.666 86.001 69.999
s36 59.666 40 90.999c3.33301 26 10 42.667 20 50c24 16.667 42 15 54 -5c14 -21.333 13 -77 -3 -167c-8 -41.333 -15 -120.666 -21 -237.999c-2 -38 -6.16699 -63.667 -12.5 -77s-18.166 -20.666 -35.499 -21.999c-11.333 -1.33301 -18.833 -1 -22.5 1s-6.5 7 -8.5 15
c-2 9.33301 -2.33301 56.666 -1 141.999c3.33301 85.333 1.66602 128 -5.00098 128c-2 -1.33301 -4 -4.33301 -6 -9c-2.66699 -8.66699 -16.5 -20.167 -41.5 -34.5s-49.833 -25.166 -74.5 -32.499c-52.667 -15.333 -95.334 -11 -128.001 13
c-12 8.66699 -19.667 11.667 -23 9s-5 -13.334 -5 -32.001z" />
    <glyph glyph-name="N" unicode="N" horiz-adv-x="446" 
d="M255 361c0 -4 9.16504 -18.166 27.498 -42.499s29.166 -36.5 32.499 -36.5c4 1.33301 5.5 5.66602 4.5 12.999s-5.16699 30 -12.5 68c-5.33301 24.667 -7.66602 48.167 -6.99902 70.5s4.33398 35.5 11.001 39.5s15 -1.16699 25 -15.5s19 -33.833 27 -58.5
c25.333 -78.667 41 -142.334 47 -191.001c4.66699 -42.667 6.66699 -70 6 -82s-5.66699 -23.333 -15 -34c-7.33301 -8 -13.5 -13 -18.5 -15s-13.167 -2 -24.5 0c-17.333 4 -26 8 -26 12s-10.333 20.667 -31 50s-34.334 46.666 -41.001 51.999
c-8 9.33301 -24.5 34.166 -49.5 74.499s-40.5 63.5 -46.5 69.5c-2 2 -6.66699 9.66699 -14 23c-4.66699 8.66699 -9 14.334 -13 17.001s-6.5 1.83398 -7.5 -2.49902s-0.833008 -11.5 0.5 -21.5c8.66699 -56.667 11.334 -115.334 8.00098 -176.001s-11.666 -98 -24.999 -112
c-8.66699 -9.33301 -19.667 -13 -33 -11c-14.667 2 -24 8.33301 -28 19s-4.33301 32 -1 64c4 39.333 5 81.5 3 126.5s-6.33301 83.167 -13 114.5c-9.33301 43.333 -12.333 73 -9 89s15.333 29.667 36 41c16 8.66699 28.833 11.834 38.5 9.50098s26.167 -12.833 49.5 -31.5
c12 -10 31.5 -31.667 58.5 -65s40.5 -52.666 40.5 -57.999z" />
    <glyph glyph-name="O" unicode="O" horiz-adv-x="482" 
d="M362 189c0 127.333 -32.6641 199.332 -97.9971 215.999c-20 -2.66699 -36.333 -10 -49 -22c-10.667 -10 -26 -13.333 -46 -10c-13.333 2 -22.5 2.33301 -27.5 1s-10.833 -5.33301 -17.5 -12c-14.667 -16 -24 -31.833 -28 -47.5s-6 -45.167 -6 -88.5
c-0.666992 -43.333 0.166016 -72.166 2.49902 -86.499s10.166 -35.833 23.499 -64.5c6.66699 -14.667 20.667 -28 42 -40s43.666 -18 66.999 -18c91.333 0 137 57.333 137 172zM114.003 401.999c10.667 6 25.167 18.501 43.5 37.501s37 33.667 56 44
s40.5 14.166 64.5 11.499c38 -3.33301 71.833 -23.166 101.5 -59.499s50.667 -82.166 63 -137.499s13.166 -111.333 2.49902 -168c-8.66699 -48.667 -27.5 -89.334 -56.5 -122.001s-65.833 -55.667 -110.5 -69c-18 -5.33301 -31.5 -7.83301 -40.5 -7.5
s-26.5 3.16602 -52.5 8.49902c-42.667 9.33301 -73.167 22.5 -91.5 39.5s-35.166 47.833 -50.499 92.5c-8.66699 24 -13 57.333 -13 100s3.66699 81.334 11 116.001c8 36 16.667 61.167 26 75.5s25 27.166 47 38.499z" />
    <glyph glyph-name="P" unicode="P" horiz-adv-x="441" 
d="M260 482c-20.667 -0.666992 -34.668 -1.16699 -42.001 -1.5s-15.833 -1.33301 -25.5 -3s-14.667 -3.16699 -15 -4.5s-1.83301 -4.33301 -4.5 -9s-3.33398 -9.33398 -2.00098 -14.001s1.83301 -12.167 1.5 -22.5s-1.16602 -20.5 -2.49902 -30.5
c-4 -28.667 -3 -44.167 3 -46.5s26.667 5.16699 62 22.5c49.333 23.333 79 48.333 89 75c4 10.667 2 19.334 -6 26.001c-7.33301 5.33301 -26.666 8 -57.999 8zM177.999 275c0 -138 -2.00098 -213.663 -6.00098 -226.996c-5.33301 -7.33301 -13.833 -12.833 -25.5 -16.5
s-21.167 -3.5 -28.5 0.5c-8.66699 4.66699 -14.5 14 -17.5 28s-6.5 50.667 -10.5 110c-3.33301 46.667 -6 76.5 -8 89.5s-6.33301 22.167 -13 27.5c-8.66699 7.33301 -13 16.166 -13 26.499s4.33301 18.166 13 23.499c9.33301 6 14 18.667 14 38c0 14 -1 22.667 -3 26
s-7.66699 5 -17 5c-12.667 0 -22 4.66699 -28 14c-4 6 -5.66699 11.667 -5 17s4.33398 14.666 11.001 27.999c26.667 55.333 90.334 89.333 191.001 102c58 8 102.333 2.33301 133 -17c22 -14 35.833 -28.5 41.5 -43.5s5.5 -36.5 -0.5 -64.5
c-10 -38.667 -37.833 -75.334 -83.5 -110.001s-93.834 -53.667 -144.501 -57z" />
    <glyph glyph-name="Q" unicode="Q" horiz-adv-x="573" 
d="M326 435c0 -6 -6.33398 -12.666 -19.001 -19.999c-8.66699 -5.33301 -14.667 -8 -18 -8s-10 2.66699 -20 8c-10 6 -17.167 8.83301 -21.5 8.5s-11.833 -4.5 -22.5 -12.5c-39.333 -30 -67.333 -58.667 -84 -86c-20.667 -32 -35 -67.833 -43 -107.5
s-7.33301 -68.167 2 -85.5c5.33301 -10.667 18.833 -20.5 40.5 -29.5s42.167 -13.5 61.5 -13.5s41.666 2.33301 66.999 7s41 9.33398 47 14.001c6 5.33301 2.83301 18.666 -9.5 39.999s-27.166 39 -44.499 53c-18.667 15.333 -28 30.333 -28 45c0 12.667 4.5 24.5 13.5 35.5
s18.5 16.5 28.5 16.5c29.333 0 68.333 -41.333 117 -124c2.66699 -4.66699 4.83398 -7.5 6.50098 -8.5s3.5 -0.666992 5.5 1s5.66699 5.5 11 11.5c25.333 30.667 39.5 73.167 42.5 127.5s-6.5 97.166 -28.5 128.499c-5.33301 7.33301 -10.833 12.333 -16.5 15
s-14.5 3.66699 -26.5 3c-17.333 0 -31.833 -1.83301 -43.5 -5.5s-17.5 -8.16699 -17.5 -13.5zM459.999 -14.999c-5.33301 -0.666992 -9.66699 -3.33301 -13 -8s-9 -6 -17 -4c-8.66699 3.33301 -18.834 9.66602 -30.501 18.999s-17.5 16.333 -17.5 21
s-3.33301 10.334 -10 17.001c-5.33301 4.66699 -11.5 6.83398 -18.5 6.50098s-22.5 -3.16602 -46.5 -8.49902c-53.333 -11.333 -104.666 -11.666 -153.999 -0.999023s-83.666 29.667 -102.999 57c-16.667 22.667 -22.834 56.5 -18.501 101.5s17.833 91.5 40.5 139.5
c12.667 25.333 39.167 58.333 79.5 99s71.5 65.667 93.5 75c32.667 13.333 58.334 20.666 77.001 21.999c3.33301 1.33301 7.16602 3.16602 11.499 5.49902s9 4.33301 14 6s11.833 3.5 20.5 5.5c16 3.33301 32 6 48 8c18.667 0.666992 38.167 -8.33301 58.5 -27
s36.833 -42.334 49.5 -71.001c10 -24 16.167 -56.833 18.5 -98.5s-0.5 -74.834 -8.5 -99.501c-24 -69.333 -55.667 -121.666 -95 -156.999l22 -40c22 -40 21.667 -62.667 -1 -68z" />
    <glyph glyph-name="R" unicode="R" horiz-adv-x="517" 
d="M265 446c-6 24 -31.9971 18.667 -77.9971 -16c-28.667 -22 -45.667 -55.333 -51 -100c-3.33301 -22 -2.83301 -33.167 1.5 -33.5s21.166 9.16699 50.499 28.5c27.333 18 48.166 38.333 62.499 61s19.166 42.667 14.499 60zM177.003 223
c5.33301 -4 23.8359 -5.00293 55.5029 -3.00293s69.834 6.5 114.501 13.5s76.667 13.833 96 20.5c16 6 27.333 7 34 3s10 -13.667 10 -29c0 -7.33301 -2.16699 -13 -6.5 -17s-14.5 -10.333 -30.5 -19c-20.667 -11.333 -90.667 -25.666 -210 -42.999
c-29.333 -3.33301 -58 -4.33301 -86 -3l4 -64c2 -28.667 2.66699 -47.167 2 -55.5s-4.33398 -15.833 -11.001 -22.5c-8 -8 -19 -12.5 -33 -13.5s-24 2.16699 -30 9.5c-3.33301 2.66699 -9.66602 28.834 -18.999 78.501s-16 75.5 -20 77.5
c-7.33301 6.66699 -11.833 16.667 -13.5 30s0.166016 24.333 5.49902 33c6.66699 10 8 31.333 4 64c-0.666992 6.66699 -4 46 -10 118c-2.66699 32.667 -3.33398 53 -2.00098 61s5.66602 16.333 12.999 25c10 11.333 23 17.333 39 18s25.667 -4.33301 29 -15
c2 -6 4.16699 -10 6.5 -12s5.83301 -2 10.5 0s11.334 6 20.001 12c14 10.667 33.333 21.667 58 33c24 11.333 47.333 16.5 70 15.5s39 -7.83301 49 -20.5c12.667 -18 19.5 -42.5 20.5 -73.5s-4.5 -57.5 -16.5 -79.5c-10.667 -20.667 -26.834 -41.667 -48.501 -63
s-43.834 -38.666 -66.501 -51.999c-25.333 -14.667 -38 -23.667 -38 -27z" />
    <glyph glyph-name="S" unicode="S" horiz-adv-x="469" 
d="M113 423c0 -6.66699 14.833 -19.8359 44.5 -39.5029s66.5 -40.167 110.5 -61.5c129.333 -65.333 185.333 -122 168 -170c-12.667 -34 -39.667 -55 -81 -63s-86.333 -0.666992 -135 22c-27.333 13.333 -43.5 22.666 -48.5 27.999s-7.5 18 -7.5 38
c1.33301 2.66699 16.333 1.33398 45 -3.99902c88 -13.333 132 -14 132 -2c0 4.66699 -5.33301 11.667 -16 21c-6.66699 4.66699 -14.334 10.334 -23.001 17.001s-14.5 11 -17.5 13l-13 9c-5.66699 4 -11.667 7.5 -18 10.5l-23 11l-37.5 17.5
c-65.333 30 -109.666 56.333 -132.999 79s-33 49 -29 79c2.66699 20.667 11.667 37.334 27 50.001c14.667 13.333 36.5 27 65.5 41s53.833 23 74.5 27c65.333 12.667 117 9 155 -11c30 -16 36 -36 18 -60c-2 -3.33301 -4.66699 -6.66602 -8 -9.99902
c-20.667 -22 -47.667 -22.667 -81 -2c-16 10 -35.667 13.333 -59 10c-20.667 -2.66699 -44.167 -10 -70.5 -22s-39.5 -21.333 -39.5 -28z" />
    <glyph glyph-name="T" unicode="T" horiz-adv-x="478" 
d="M30 418c-1.33301 12.667 -1.33203 23.4971 0.000976562 32.4971s1.83301 16 1.5 21s2.83398 9.33301 9.50098 13s14.667 6.5 24 8.5s24.666 4.33301 45.999 7c40 6.66699 101.667 10.334 185 11.001s128.666 -2 135.999 -8c10 -8 15.333 -18 16 -30s-4 -23.667 -14 -35
s-20.5 -17.666 -31.5 -18.999s-40.833 0.666992 -89.5 6c-15.333 2 -29.666 3.16699 -42.999 3.5s-20.666 -0.166992 -21.999 -1.5c-4 -3.33301 -11 -42 -21 -116s-15.333 -129.667 -16 -167c-0.666992 -40.667 -6.66699 -67.334 -18 -80.001
c-12.667 -15.333 -26.834 -20.166 -42.501 -14.499s-21.5 16.834 -17.5 33.501c2 2.66699 2.66699 4.16699 2 4.5s-2.66699 -0.166992 -6 -1.5c-2.66699 -1.33301 -4.33398 1.33398 -5.00098 8.00098c-2 12 -1.66699 46 1 102c2 63.333 3.83301 105.166 5.5 125.499
s6.5 55.833 14.5 106.5z" />
    <glyph glyph-name="U" unicode="U" horiz-adv-x="408" 
d="M281 474c0 2.66699 0.334961 5.16797 1.00195 7.50098s1.66699 4.5 3 6.5s2.83301 3.66699 4.5 5s3.33398 2.16602 5.00098 2.49902s3.5 0.5 5.5 0.5s3.66699 -0.5 5 -1.5s2.66602 -2.5 3.99902 -4.5c3.33301 -5.33301 7.33301 -7 12 -5
c4.66699 3.33301 13.667 -2.33398 27 -17.001c23.333 -25.333 33.333 -70.5 30 -135.5s-18.333 -117.5 -45 -157.5c-28.667 -42.667 -70.667 -73.334 -126 -92.001c-62.667 -19.333 -108.334 -0.666016 -137.001 56.001c-8.66699 16 -15.5 48 -20.5 96s-6.83301 97 -5.5 147
c0.666992 51.333 -2 81 -8 89c-12 14 -6.66699 33 16 57c11.333 12 23 18 35 18s21.667 -6 29 -18c5.33301 -7.33301 8.66602 -21 9.99902 -41s2.33301 -60.667 3 -122c1.33301 -97.333 3.66602 -153 6.99902 -167c11.333 -47.333 39.333 -60.666 84 -39.999
c30.667 14 53.334 34.5 68.001 61.5s23.334 64.5 26.001 112.5c1.33301 25.333 1.16602 43 -0.500977 53s-6.5 22.667 -14.5 38c-12 21.333 -18 38.333 -18 51z" />
    <glyph glyph-name="V" unicode="V" horiz-adv-x="429" 
d="M113 230c-28.667 72.667 -49.667 118.664 -63 137.997c-12.667 19.333 -19.334 33.833 -20.001 43.5s4.33301 20.5 15 32.5c20 22.667 39.333 28 58 16c5.33301 -4 18 -27.167 38 -69.5s37.667 -83.166 53 -122.499c26 -68 47 -108.667 63 -122c6.66699 -6 14 -3 22 9
c16.667 26 32 87.667 46 185c9.33301 68 18 111.667 26 131c4.66699 10.667 8.83398 17.667 12.501 21s9.16699 4.66602 16.5 3.99902c11.333 -1.33301 17.5 -8.16602 18.5 -20.499s-0.166992 -48.166 -3.5 -107.499c-0.666992 -4 -1 -7 -1 -9
c-4.66699 -80.667 -13 -141.167 -25 -181.5s-31.333 -73.166 -58 -98.499c-15.333 -15.333 -33.333 -23.833 -54 -25.5s-39 3.83301 -55 16.5c-24 18 -53.667 71.333 -89 160z" />
    <glyph glyph-name="W" unicode="W" horiz-adv-x="590" 
d="M318 356c-4.66699 0 -9.67285 -6.50098 -15.0059 -19.501s-15.666 -45.167 -30.999 -96.5c-20 -67.333 -35.333 -109.666 -46 -126.999c-16 -22.667 -34 -36.834 -54 -42.501s-36.667 -0.833984 -50 14.499c-10 11.333 -21 50.333 -33 117
c-20.667 124 -37 197.667 -49 221c-15.333 28.667 -14.666 51.334 2.00098 68.001c8.66699 8 19.5 11.5 32.5 10.5s22.5 -5.83301 28.5 -14.5c7.33301 -12.667 17 -41.167 29 -85.5s21.333 -86.5 28 -126.5c8.66699 -56 15.334 -84 20.001 -84c2 0 4.33301 5 7 15
c4.66699 18 16.667 52.333 36 103s32.333 81.667 39 93c31.333 50 59.333 71 84 63c14 -4 41 -53 81 -147c7.33301 -17.333 14.5 -32.666 21.5 -45.999s12.833 -23.166 17.5 -29.499s7.66699 -8.83301 9 -7.5c5.33301 5.33301 13 50.666 23 135.999
c0.666992 12 5.16699 25.167 13.5 39.5s12.833 23.833 13.5 28.5c-2.66699 8 -1.66699 12 3 12c6.66699 -2 13.334 -8.33301 20.001 -19c9.33301 -17.333 13.5 -54 12.5 -110s-6.5 -101 -16.5 -135c-9.33301 -30 -16.833 -49 -22.5 -57s-16.5 -13.333 -32.5 -16
c-10 -2 -17.667 -1.66699 -23 1s-13.666 10 -24.999 22c-33.333 36 -65 90 -95 162c-15.333 38 -24.666 57 -27.999 57z" />
    <glyph glyph-name="X" unicode="X" horiz-adv-x="412" 
d="M298 506c1.33301 -6 -9.00098 -33.502 -31.001 -82.502s-33 -75.5 -33 -79.5c-3.33301 -2.66699 2.83398 -16.5 18.501 -41.5s33.834 -52.5 54.501 -82.5s32.334 -47.333 35.001 -52c8.66699 -14.667 18 -23.334 28 -26.001c13.333 -4 15 -18 5 -42
c-2.66699 -7.33301 -6.16699 -12.166 -10.5 -14.499s-11.5 -3.5 -21.5 -3.5c-28 0 -67.667 37 -119 111c-22.667 32.667 -37 49.667 -43 51c-5.33301 -3.33301 -11.5 -10.5 -18.5 -21.5s-14.333 -23.5 -22 -37.5s-12.834 -23 -15.501 -27
c-14.667 -26.667 -26.334 -43.167 -35.001 -49.5s-22.334 -8.83301 -41.001 -7.5c-5.33301 0 -8.33301 1.16699 -9 3.5s-0.5 4.83301 0.5 7.5s-0.166992 5.33398 -3.5 8.00098c-5.33301 3.33301 -7.33301 9.5 -6 18.5s5.33301 15.5 12 19.5
c5.33301 4.66699 6.33301 7.33398 3 8.00098c-5.33301 0 0.333984 15 17.001 45l73 130c-35.333 66.667 -58.666 106.334 -69.999 119.001c-18.667 20 -28 38.833 -28 56.5s8.66699 30.834 26 39.501c10.667 6 19.667 9.66699 27 11c14 1.33301 36 -25.334 66 -80.001
l27 -50c14 29.333 21.333 50.666 22 63.999c0 8 6.16699 17.5 18.5 28.5s22.833 16.5 31.5 16.5c11.333 0 21.166 -4 29.499 -12s12.5 -17.333 12.5 -28z" />
    <glyph glyph-name="Y" unicode="Y" horiz-adv-x="429" 
d="M182 -10c0 4.66699 -3.66699 6.99805 -11 6.99805c-15.333 0 -13 38 7 114c6.66699 24 13.667 50.667 21 80c4 6 -2.66699 19.667 -20 41s-26 33.333 -26 36c0 6 -2.66699 12.333 -8 19c-15.333 15.333 -30 45.333 -44 90c-6.66699 20.667 -17.334 47.334 -32.001 80.001
s-24 50.667 -28 54c-3.33301 2.66699 -6.33301 10.334 -9 23.001c-2 7.33301 -2 13.333 0 18s7.66699 10.667 17 18c12 10 19.833 15.667 23.5 17s11.5 0.666016 23.5 -2.00098c17.333 -4.66699 41.333 -50.334 72 -137.001c11.333 -32 24 -63.5 38 -94.5
s22.667 -46.5 26 -46.5c2.66699 0 17 42.333 43 127l14.5 43c8.33301 24.667 14.5 46.334 18.5 65.001c3.33301 16.667 7 28.5 11 35.5s10.667 13.167 20 18.5c10 6 17 9.16699 21 9.5s11 -2.16699 21 -7.5s15.833 -10 17.5 -14s1.5 -13.667 -0.5 -29
c-2 -16 -6.16699 -34.667 -12.5 -56s-14 -45.166 -23 -71.499s-15.167 -45.5 -18.5 -57.5c-2.66699 -10 -16.667 -54.667 -42 -134s-39.666 -126 -42.999 -140c-12.667 -48 -25 -81.333 -37 -100c-1.33301 -2.66699 -2.33301 -3.66699 -3 -3
c0 1.33301 -3.33301 1.16602 -10 -0.500977l-18 -4.5c-5.33301 -1.33301 -8.33301 -0.666016 -9 2.00098z" />
    <glyph glyph-name="Z" unicode="Z" horiz-adv-x="489" 
d="M459 350c0 -12.667 -4.83203 -24.1631 -14.499 -34.4961s-20.834 -15.833 -33.501 -16.5c-5.33301 -0.666992 -31.333 -1.66699 -78 -3c-28.667 -0.666992 -46.667 -2 -54 -4s-16 -8.66699 -26 -20c-8.66699 -10 -14.834 -18.833 -18.501 -26.5
s-10.5 -16.834 -20.5 -27.501c-24 -27.333 -38.5 -44.333 -43.5 -51s-6.5 -11 -4.5 -13c2.66699 -2.66699 22.834 0.833008 60.501 10.5s71.834 20.167 102.501 31.5c12.667 5.33301 20.667 8 24 8s6.33301 -2.66699 9 -8c8 -20 4.66699 -36.667 -10 -50
s-45.334 -27.333 -92.001 -42c-45.333 -14 -88 -23.833 -128 -29.5s-67.667 -5.5 -83 0.5c-16.667 7.33301 -22.167 18.666 -16.5 33.999s26.834 46 63.501 92c44.667 55.333 67 85.666 67 90.999s-14.333 8 -43 8c-27.333 0 -44.666 2 -51.999 6s-8.66602 12 -3.99902 24
c7.33301 18 37 30.333 89 37c38.667 4.66699 62.5 8.66699 71.5 12s17.833 11.666 26.5 24.999c20.667 30.667 24.334 47 11.001 49c-2.66699 0 -6 -0.333008 -10 -1c-52.667 -10 -86.334 -17.333 -101.001 -22c-15.333 -4.66699 -25.5 -6.83398 -30.5 -6.50098
s-11.167 4.16602 -18.5 11.499c-13.333 12.667 -18.333 26.834 -15 42.501s14.333 27.834 33 36.501c8 4 14.5 6.5 19.5 7.5s9.16699 1.5 12.5 1.5s10.166 0.333008 20.499 1s22.5 2.33398 36.5 5.00098c36.667 5.33301 73.667 8.66602 111 9.99902
c20.667 0.666992 34.167 0 40.5 -2s12.166 -6.66699 17.499 -14c4.66699 -8 6.66699 -15.167 6 -21.5s-5.33398 -20.833 -14.001 -43.5c-12 -32.667 -20 -51 -24 -55c-11.333 -11.333 -6 -17 16 -17l27 2c28 2.66699 46.667 1.5 56 -3.5s14 -16.5 14 -34.5z" />
    <glyph glyph-name="underscore" unicode="_" horiz-adv-x="418" 
d="M30 -49c0 6.66699 4.99902 11.333 14.999 14s18 1.66699 24 -3c6 -5.33301 10 -5.33301 12 0c0.666992 4 14.334 8.66699 41.001 14c24 4.66699 70 6.33398 138 5.00098c46 -0.666992 75 -1.83398 87 -3.50098s21.667 -6.16699 29 -13.5
c4.66699 -4 7.83398 -8.33301 9.50098 -13s2.16699 -8.16699 1.5 -10.5s-2.33398 -6.5 -5.00098 -12.5s-4.33398 -10 -5.00098 -12c-10.667 0.666992 -47 1.33398 -109 2.00098s-114.167 2 -156.5 4s-64.166 5.33301 -65.499 10c-10.667 7.33301 -16 13.666 -16 18.999z" />
    <glyph glyph-name="grave" unicode="`" horiz-adv-x="164" 
d="M40 613c13.333 13.333 27.668 11.6699 43.001 -4.99707c20.667 -24 35.667 -62 45 -114c4 -20.667 5.83301 -34.334 5.5 -41.001s-3.16602 -12.667 -8.49902 -18s-9.33301 -7.83301 -12 -7.5s-7.33398 4.16602 -14.001 11.499c-7.33301 8.66699 -16.5 29 -27.5 61
s-19.833 52.333 -26.5 61c-9.33301 14.667 -14.333 25.167 -15 31.5s2.66602 13.166 9.99902 20.499z" />
    <glyph glyph-name="a" unicode="a" horiz-adv-x="414" 
d="M222 365c-14.667 18 -32.999 14.667 -54.999 -10c-26.667 -31.333 -47 -77.333 -61 -138s-13.333 -100 2 -118c10 -12 25.5 -14.167 46.5 -6.5s39.833 22.167 56.5 43.5c18.667 24.667 33.667 53.667 45 87s13.666 56.333 6.99902 69c-17.333 36.667 -31 61 -41 73z
M267.001 430c18.667 22 36.667 13.3369 54 -25.9961c2 -6 5.66699 -32 11 -78s9.33301 -85.333 12 -118c0.666992 -14.667 2.66699 -28.334 6 -41.001s5.66602 -29.667 6.99902 -51c1.33301 -16 7 -34.333 17 -55c18.667 -38 12 -57 -20 -57
c-10 0 -19.167 4.16699 -27.5 12.5s-9.83301 15.166 -4.5 20.499c3.33301 3.33301 1.33301 7.33301 -6 12c-3.33301 0 -7.16602 8.16699 -11.499 24.5s-8.33301 33.166 -12 50.499s-6.5 26.666 -8.5 27.999c-4 0 -11 -9.66699 -21 -29c-10 -18 -24.5 -36.5 -43.5 -55.5
s-31.167 -27.5 -36.5 -25.5c-6 1.33301 -11.667 -1 -17 -7c-13.333 -13.333 -33.833 -13.833 -61.5 -1.5s-47.834 30.833 -60.501 55.5c-16 31.333 -18.833 74.833 -8.5 130.5s30.833 107.5 61.5 155.5c24.667 39.333 61 63.333 109 72c2 0 10.667 -4.66699 26 -14
c10.667 -6.66699 17.834 -10.167 21.501 -10.5s8.16699 2.16699 13.5 7.5z" />
    <glyph glyph-name="b" unicode="b" horiz-adv-x="468" 
d="M142 240c-0.666992 -3.33301 -5.33691 -11.499 -14.0039 -24.499s-12.667 -24.167 -12 -33.5c-0.666992 -12 -0.166992 -18.833 1.5 -20.5s8.16699 -1.5 19.5 0.5c98 15.333 161.333 31 190 47c20.667 10.667 34.834 26.5 42.501 47.5s5.83398 38.833 -5.49902 53.5
c-9.33301 12 -31.666 17.333 -66.999 16s-65.666 -8.66602 -90.999 -21.999c-13.333 -6.66699 -27.333 -17.334 -42 -32.001s-22 -25.334 -22 -32.001zM41.9971 546.001c8.66699 4.66699 14.498 6.83398 17.498 6.50098s8.5 -3.16602 16.5 -8.49902c6 -4 10 -13.333 12 -28
s4.33301 -49.334 7 -104.001c4.66699 -82 7.66699 -123.667 9 -125c0.666992 -0.666992 4.16699 1.16602 10.5 5.49902s13.5 10.166 21.5 17.499c15.333 15.333 40.333 31.333 75 48c22 9.33301 38.667 15 50 17s31 2.33301 59 1
c33.333 -1.33301 55.333 -4.66602 66 -9.99902s22.667 -19 36 -41c12.667 -19.333 18 -40.833 16 -64.5s-10.667 -45.167 -26 -64.5c-17.333 -21.333 -39.166 -37.5 -65.499 -48.5s-65.833 -20.167 -118.5 -27.5c-67.333 -9.33301 -104 -16.333 -110 -21
c-2.66699 -2 -5 -6.66699 -7 -14c-3.33301 -11.333 -11 -18.666 -23 -21.999c-14 -4 -25.167 0 -33.5 12s-11.166 28.333 -8.49902 49c0.666992 26 -1.83301 80 -7.5 162s-8.5 136.333 -8.5 163c-0.666992 38.667 -0.166992 63.667 1.5 75s5.16699 18.666 10.5 21.999z" />
    <glyph glyph-name="c" unicode="c" horiz-adv-x="323" 
d="M167 342c-7.33301 0 -16.167 -5.49707 -26.5 -16.4971s-18.166 -23.167 -23.499 -36.5c-6.66699 -16.667 -10.667 -39 -12 -67s0.333984 -51.333 5.00098 -70c5.33301 -22.667 14.166 -36.334 26.499 -41.001s35.5 -3.66699 69.5 3c36 8 56.333 12.667 61 14
c8.66699 2.66699 12.667 2 12 -2c-1.33301 -6 -8.66602 -12.333 -21.999 -19c-11.333 -6 -17 -9.66699 -17 -11c5.33301 0 1 -6.33301 -13 -19c-21.333 -18 -38.333 -25 -51 -21c-6 2 -9 0.333008 -9 -5c0 -4.66699 -2.33301 -3.66699 -7 3c-2.66699 4 -4.5 6 -5.5 6
s-1.5 -2 -1.5 -6c0 -6.66699 -10 -8.33398 -30 -5.00098c-16.667 3.33301 -33.5 11.833 -50.5 25.5s-25.5 25.834 -25.5 36.501c0 8.66699 -2 14 -6 16c-5.33301 3.33301 -8.83301 18 -10.5 44s-0.833984 51.333 2.49902 76c10.667 80 41 132.333 91 157
c22.667 11.333 50 9.83301 82 -4.5s55.667 -35.833 71 -64.5c8.66699 -16.667 13.667 -36.334 15 -59.001s-1.66699 -39 -9 -49c-4.66699 -6.66699 -8.5 -9.83398 -11.5 -9.50098s-9.5 4.16602 -19.5 11.499c-10.667 7.33301 -17.834 14.5 -21.501 21.5
s-7.5 20.5 -11.5 40.5c-2.66699 12.667 -9.5 24.334 -20.5 35.001s-21.5 16 -31.5 16z" />
    <glyph glyph-name="d" unicode="d" horiz-adv-x="379" 
d="M255 279c0 18.667 -2.83203 32.999 -8.49902 42.999s-15.834 18 -30.501 24c-22 9.33301 -40 11.333 -54 6s-26.667 -18.666 -38 -39.999c-7.33301 -14.667 -12.5 -43.167 -15.5 -85.5s-1.5 -69.166 4.5 -80.499l9 -16l27 16c70.667 43.333 106 87.666 106 132.999z
M113.001 60.999c-10.667 0 -22.335 3.83105 -35.002 11.498s-21 15.834 -25 24.501c-19.333 38.667 -26.5 87.834 -21.5 147.501s20.167 103.834 45.5 132.501c14 17.333 29 30.333 45 39c12.667 6.66699 30 10.167 52 10.5s40.667 -2.83398 56 -9.50098
c4 -2 8 -3.66699 12 -5s7.16699 -2.5 9.5 -3.5s3.5 -1.16699 3.5 -0.5v7c0 4.66699 0.166992 11.334 0.5 20.001s0.666016 18.334 0.999023 29.001s0.666016 23.167 0.999023 37.5s0.5 28.5 0.5 42.5c1.33301 57.333 2.83301 95.166 4.5 113.499s5.16699 31.166 10.5 38.499
c6.66699 10 11.5 15.833 14.5 17.5s7.83301 0.5 14.5 -3.5c8.66699 -5.33301 14.834 -18.666 18.501 -39.999s6.83398 -59.333 9.50098 -114c4 -74.667 7.33301 -113 10 -115c4.66699 -3.33301 7.5 -12.5 8.5 -27.5s0.166992 -31.167 -2.5 -48.5
c-2.66699 -8 -7.16699 -60.5 -13.5 -157.5s-11.166 -149.833 -14.499 -158.5c-10.667 -19.333 -24.667 -26 -42 -20c-8.66699 2.66699 -14.667 8.66699 -18 18s-5.66602 25.666 -6.99902 48.999c-1.33301 28 -2 42.333 -2 43c-1.33301 3.33301 -10.333 -3 -27 -19
c-15.333 -13.333 -34.833 -26.5 -58.5 -39.5s-40.5 -19.5 -50.5 -19.5z" />
    <glyph glyph-name="e" unicode="e" horiz-adv-x="420" 
d="M186 279c26.667 0 42.3311 3.66797 46.998 11.001c0.666992 1.33301 0.666992 2.66602 0 3.99902c-2 3.33301 -8.66699 5 -20 5s-22.666 -1.33301 -33.999 -4c-8.66699 -2 -13 -5 -13 -9c0.666992 -4.66699 7.33398 -7 20.001 -7zM314.997 231.001
c0 -3.33301 -8.67188 -5.6709 -26.0049 -7.00391c-20 -1.33301 -49 -5.16602 -87 -11.499s-58.333 -10.833 -61 -13.5s-1 -19.667 5 -51c5.33301 -27.333 14.833 -49.833 28.5 -67.5s28.834 -26.5 45.501 -26.5c12 0 33.5 8.33301 64.5 25s50.833 30.667 59.5 42
c10 11.333 16.667 16 20 14c2.66699 -1.33301 4 0 4 4v4c0 8.66699 3.66699 13.667 11 15c7.33301 4 11 0.333008 11 -11c0.666992 -15.333 -1.66602 -24.666 -6.99902 -27.999h-2c-2 0.666992 -3.5 -0.333008 -4.5 -3s-1.16699 -6 -0.5 -10
c1.33301 -13.333 -14.167 -34.833 -46.5 -64.5s-57.833 -46.167 -76.5 -49.5c-50.667 -7.33301 -91 2.66699 -121 30s-51.333 74 -64 140c-5.33301 27.333 -12.333 42 -21 44c-15.333 4 -20.666 16 -15.999 36s15 30 31 30c8 0 14.333 5.33301 19 16
c5.33301 13.333 15 27.5 29 42.5s28 25.833 42 32.5c14.667 7.33301 32.334 10.5 53.001 9.5s39.334 -5.83301 56.001 -14.5c16.667 -10.667 35.167 -26.5 55.5 -47.5s28.5 -38.5 24.5 -52.5c-0.666992 -9.33301 -2 -15.666 -4 -18.999s-5.33301 -4.66602 -10 -3.99902
c-8 1.33301 -12 0 -12 -4z" />
    <glyph glyph-name="f" unicode="f" horiz-adv-x="391" 
d="M298 554c0 8.66699 8.33301 9.99805 25 3.99805c8.66699 -4 16 -8.33301 22 -13c10.667 -9.33301 16 -21.333 16 -36c0 -10 -1 -15.833 -3 -17.5s-8 -1.5 -18 0.5c-22 4.66699 -45.167 -6.83301 -69.5 -34.5s-39.166 -58.5 -44.499 -92.5l53 -3
c30 -1.33301 50.333 -5.66602 61 -12.999s14 -19 10 -35c-2.66699 -12.667 -8 -20.5 -16 -23.5s-26.667 -4.5 -56 -4.5h-52c6 -82 9.66699 -144.333 11 -187v-16c0 -7.33301 -0.166992 -12.666 -0.5 -15.999s-0.833008 -8 -1.5 -14s-1.83398 -10.333 -3.50098 -13
s-3.66699 -5.5 -6 -8.5s-5.66602 -5 -9.99902 -6s-9.5 -1.16699 -15.5 -0.5c-16.667 0 -28 4.66699 -34 14c-5.33301 1.33301 -10.166 29.5 -14.499 84.5s-6.83301 105.5 -7.5 151.5h-46c-45.333 0 -68 9.33301 -68 28c-2 4.66699 11.5 12.5 40.5 23.5
s54.167 18.5 75.5 22.5l-2 70c-0.666992 33.333 -0.333984 54.333 0.999023 63s5.66602 16 12.999 22c6.66699 8 19.834 11.667 39.501 11s33.834 2.33301 42.501 9c12.667 8 24.667 11.333 36 10h13l-9 5c-6.66699 3.33301 -9.83398 5.33301 -9.50098 6s4.16602 1 11.499 1
c10.667 1.33301 16 4 16 8z" />
    <glyph glyph-name="g" unicode="g" horiz-adv-x="378" 
d="M180 -115c-8 0 -8.66699 -3.66699 -2 -11c6 -7.33301 11 -11 15 -11s4.66699 3.66699 2 11c-3.33301 7.33301 -8.33301 11 -15 11zM246 343c-4.66699 8 -14.334 14.667 -29.001 20c-8.66699 3.33301 -15.5 4 -20.5 2s-12.5 -8.33301 -22.5 -19
c-17.333 -18.667 -34.666 -48.667 -51.999 -90s-23 -66.666 -17 -75.999c2.66699 -5.33301 14 -4 34 4s35 17 45 27c14 15.333 29.333 39 46 71c16 31.333 21.333 51.666 16 60.999zM300 420c24 0 38.1641 -9.49805 42.4971 -28.498s6.16602 -80.5 5.49902 -184.5
c-0.666992 -112 -3.66699 -188.833 -9 -230.5s-15.666 -71.5 -30.999 -89.5c-10 -11.333 -18.167 -18.5 -24.5 -21.5s-17.5 -4.5 -33.5 -4.5c-21.333 -1.33301 -32 -3.66602 -32 -6.99902c2 -3.33301 1 -4.66602 -3 -3.99902s-13 4 -27 10
c-13.333 5.33301 -24.166 11.666 -32.499 18.999s-12.5 13.666 -12.5 18.999c0 4 3.83301 6.5 11.5 7.5s23.834 1.16699 48.501 0.5c18.667 -0.666992 32.167 2.66602 40.5 9.99902s14.5 20.666 18.5 39.999c4 18 6.33301 62.167 7 132.5s-1 105.5 -5 105.5
c-3.33301 0 -12.666 -8.33301 -27.999 -25c-25.333 -28 -56.5 -46.167 -93.5 -54.5s-66.833 -3.83301 -89.5 13.5c-10.667 8 -17.167 15 -19.5 21s-3.5 18.333 -3.5 37c0.666992 50 18 103.5 52 160.5s67.667 88.5 101 94.5c26.667 4 52.667 -0.666992 78 -14
c9.33301 -4.66699 22.333 -7 39 -7z" />
    <glyph glyph-name="h" unicode="h" horiz-adv-x="394" 
d="M119 480c0 -34.667 2.99609 -68.668 8.99609 -102.001l27 34c24.667 30.667 46.834 49 66.501 55s40.5 0.666992 62.5 -16c19.333 -15.333 34.5 -42.666 45.5 -81.999s19.5 -96.333 25.5 -171c0 -6 1.5 -25.167 4.5 -57.5s3.83301 -56.166 2.5 -71.499
c-2.66699 -7.33301 -10.5 -13 -23.5 -17s-24.167 -4.33301 -33.5 -1c-14.667 6.66699 -22.667 41.667 -24 105l-3.5 53.5c-1.66699 25.667 -3.16699 45.167 -4.5 58.5s-3.16602 29.5 -5.49902 48.5s-5.83301 34.833 -10.5 47.5s-10 23 -16 31
c-4.66699 4.66699 -8.66699 6.33398 -12 5.00098s-8.66602 -6.33301 -15.999 -15c-43.333 -50 -71.666 -135 -84.999 -255c-2.66699 -22.667 -9.66699 -36.334 -21 -41.001c-24.667 -11.333 -40.667 -10.5 -48 2.5s-9.33301 44.833 -6 95.5
c2.66699 38 1.83398 89 -2.49902 153s-9.83301 111.333 -16.5 142c-5.33301 20.667 -4 36.667 4 48c13.333 20.667 30.166 24.667 50.499 12s30.5 -33.334 30.5 -62.001z" />
    <glyph glyph-name="i" unicode="i" horiz-adv-x="185" 
d="M53 401c6.66699 6.66699 17.332 10.665 31.999 11.998c14 0 23.833 -3.16699 29.5 -9.5s9.83398 -18.333 12.501 -36s5 -49.5 7 -95.5c2.66699 -78 7.33398 -122 14.001 -132c5.33301 -10.667 7.16602 -21 5.49902 -31s-6.5 -17.667 -14.5 -23s-16 -5.33301 -24 0
c-2.66699 2 -4.33398 2.66699 -5.00098 2s0 -2.66699 2 -6c2.66699 -4 2.33398 -6 -0.999023 -6l-10 2c-10.667 2.66699 -18.5 6.33398 -23.5 11.001s-9.66699 15.334 -14 32.001s-7.33301 37.167 -9 61.5s-3.83398 61.5 -6.50098 111.5
c-3.33301 64 -1.66602 99.667 5.00098 107zM108.998 536.998c0 -15.333 -2.50098 -26.001 -7.50098 -32.001s-14.833 -10 -29.5 -12c-11.333 -2 -18.833 -2 -22.5 0s-8.16699 8.33301 -13.5 19c-6 13.333 -7.66699 24 -5 32s10.334 16.667 23.001 26
c6.66699 4.66699 11 7 13 7s4.66699 -1.5 8 -4.5s6.33301 -4.83301 9 -5.5c7.33301 0.666992 13.333 -1.66602 18 -6.99902s7 -13 7 -23z" />
    <glyph glyph-name="j" unicode="j" horiz-adv-x="222" 
d="M115 385c6.66699 0 15.335 -3.49902 26.002 -10.499s16 -12.5 16 -16.5c0 -6 2 -9 6 -9c12 0 20.667 -51.167 26 -153.5s3 -171.166 -7 -206.499c-8 -28 -22.167 -50.833 -42.5 -68.5s-39.833 -23.834 -58.5 -18.501c-14 3.33301 -26 10.666 -36 21.999
s-13.667 21.333 -11 30c3.33301 9.33301 7.16602 14.166 11.499 14.499s12.166 -3.16699 23.499 -10.5s19.5 -9 24.5 -5s11.167 17 18.5 39c8 24 10.333 69 7 135c-4 98 -14 162.333 -30 193c-6.66699 13.333 -9.66699 22.833 -9 28.5s5.66699 12.834 15 21.501
c10 10 16.667 15 20 15zM115.001 470.001c0 -12 -1.50098 -19.834 -4.50098 -23.501s-10.5 -7.5 -22.5 -11.5c-17.333 -6 -26.666 -6.66699 -27.999 -2c-1.33301 5.33301 -5.33301 8 -12 8c-4.66699 0 -8.83398 3.16699 -12.501 9.5s-5.5 13.833 -5.5 22.5
c0 8 6 17.333 18 28c10 10 18.333 15.333 25 16s15.334 -2.66602 26.001 -9.99902c10.667 -8 16 -20.333 16 -37z" />
    <glyph glyph-name="k" unicode="k" horiz-adv-x="417" 
d="M296 201c-47.333 0 -108.332 -5.33594 -182.999 -16.0029v-14.5v-19v-21c0 -7 -0.166992 -13.667 -0.5 -20s-0.833008 -12 -1.5 -17s-1.66699 -9 -3 -12s-3 -4.5 -5 -4.5c-7.33301 -3.33301 -9.33301 -7.33301 -6 -12c2 -2.66699 2 -4 0 -4s-4.33301 0.666992 -7 2
c-6.66699 3.33301 -15.334 3.33301 -26.001 0c-7.33301 -2.66699 -7 -5.66699 1 -9c0.666992 0 1.66699 -0.333008 3 -1c6 -2.66699 9.16699 -4.33398 9.5 -5.00098s-2.16699 -1 -7.5 -1c-7.33301 -1.33301 -16.333 3.33398 -27 14.001c-6 6 -9.83301 13.5 -11.5 22.5
s-2.16699 26.833 -1.5 53.5c1.33301 41.333 1.33301 99.333 0 174c-0.666992 66.667 -0.166992 107.334 1.5 122.001s6.83398 26.667 15.501 36c16.667 18 35.667 19.333 57 4c6 -4.66699 9.66699 -10.667 11 -18s1.33301 -23.666 0 -48.999l-2 -58
c52.667 45.333 82 73 88 83c2.66699 6.66699 11 13 25 19s24.333 7.66699 31 5c7.33301 -2 15 -11 23 -27c4 -12 5.16699 -20 3.5 -24s-9.83398 -13.667 -24.501 -29c-6 -6.66699 -26.5 -25.667 -61.5 -57s-55.167 -50.666 -60.5 -57.999h15c8 0 20.833 0.5 38.5 1.5
s35.167 2.16699 52.5 3.5c54.667 4 91 5.33301 109 4s28.667 -6.33301 32 -15c6.66699 -16.667 2.16699 -29.667 -13.5 -39s-40.5 -14 -74.5 -14z" />
    <glyph glyph-name="l" unicode="l" horiz-adv-x="145" 
d="M36 52c0 -3.33301 1 -6.83301 3 -10.5s4.33301 -6.16699 7 -7.5s5 -1.33301 7 0l-6 12c-7.33301 12 -11 15 -11 9v-3zM47 487c6.66699 5.33301 15.835 7.50195 27.502 6.50195s20.834 -4.83301 27.501 -11.5c7.33301 -16.667 11.166 -44.834 11.499 -84.501
s-1 -86.334 -4 -140.001s-4.16699 -91.834 -3.5 -114.501c0 -37.333 -0.833008 -63.166 -2.5 -77.499s-4.83398 -24.5 -9.50098 -30.5s-13.334 -10.667 -26.001 -14c-15.333 -4 -25 -2.33301 -29 5c-7.33301 12.667 -10.333 72 -9 178c0 14 0.333008 31.333 1 52
c1.33301 103.333 2.83301 166.5 4.5 189.5s5.5 36.833 11.5 41.5z" />
    <glyph glyph-name="m" unicode="m" horiz-adv-x="573" 
d="M288 349c0 -9.33301 2.33691 -14.501 7.00391 -15.501s13 2.16699 25 9.5c24.667 15.333 43 25.166 55 29.499s28 7.5 48 9.5c27.333 2.66699 41 1.33398 41 -3.99902s2 -6.66602 6 -3.99902c6.66699 3.33301 15 -4.33398 25 -23.001s17.667 -40.667 23 -66
c9.33301 -43.333 16.5 -87.5 21.5 -132.5s5.83301 -72.167 2.5 -81.5c-4.66699 -12.667 -12.334 -21.167 -23.001 -25.5s-21.334 -3.83301 -32.001 1.5c-9.33301 5.33301 -15.333 13.166 -18 23.499s-5.33398 36.5 -8.00098 78.5c-2 31.333 -6 65.833 -12 103.5
s-11 59.834 -15 66.501c-4.66699 7.33301 -16.167 8.16602 -34.5 2.49902s-32.5 -14.167 -42.5 -25.5c-11.333 -12.667 -22.333 -34.667 -33 -66s-17.334 -60.666 -20.001 -87.999c-2 -28 -5.16699 -47 -9.5 -57s-12.833 -17 -25.5 -21c-10.667 -2.66699 -21 1 -31 11
c-7.33301 7.33301 -11.5 15.5 -12.5 24.5s-0.5 32.167 1.5 69.5c4.66699 96 0 146 -14 150c-5.33301 2 -16.333 -8.5 -33 -31.5s-26.667 -41.167 -30 -54.5c-2.66699 -14 -5.66699 -23.333 -9 -28c-4 -6.66699 -8.5 -23.667 -13.5 -51s-7.5 -49 -7.5 -65
c-1.33301 -42.667 -15.666 -64 -42.999 -64c-16 0 -26.333 5.66699 -31 17s-7.66699 36 -9 74c-1.33301 57.333 -3 103.333 -5 138c-2 43.333 -1.83301 71.166 0.5 83.499s9.16602 19.833 20.499 22.5c27.333 8.66699 49 -7.66602 65 -48.999c6 39.333 46 68.333 120 87
c4.66699 1.33301 14.167 -5.16699 28.5 -19.5s21.5 -24.166 21.5 -29.499z" />
    <glyph glyph-name="n" unicode="n" horiz-adv-x="537" 
d="M117 309c0 -20 2.33398 -30.001 7.00098 -30.001c4 1.33301 6.83301 5 8.5 11s4.5 10.667 8.5 14l32 41.5l21.5 26.5c5.66699 6.66699 10 11.334 13 14.001s5.16699 3.66699 6.5 3c2 -2 6.33301 1.33301 13 10c10 14.667 27 15.667 51 3
c20 -9.33301 30.667 -23.333 32 -42c8.66699 -15.333 19 -62.333 31 -141c4.66699 -25.333 11.834 -48.5 21.501 -69.5s19.167 -34.167 28.5 -39.5c7.33301 -4 21.833 -5.66699 43.5 -5s34.5 3 38.5 7s10 5.5 18 4.5s13 -3.83301 15 -8.5
c2 -5.33301 -1.33301 -13.5 -10 -24.5s-15.334 -15.167 -20.001 -12.5c-4 2 -5 0 -3 -6c2 -4.66699 -0.333008 -8.83398 -7 -12.501s-20.667 -8.83398 -42 -15.501c-17.333 -6 -38.833 -1.83301 -64.5 12.5s-45.834 33.833 -60.501 58.5
c-6.66699 10.667 -14.667 34.667 -24 72s-16 72.333 -20 105c-2.66699 22 -5.33398 33.667 -8.00098 35c-4 4 -11.667 -2.66699 -23 -20s-24.5 -42.666 -39.5 -75.999s-29.5 -69.666 -43.5 -108.999c-12.667 -36.667 -21.5 -58.667 -26.5 -66s-13.167 -12 -24.5 -14
c-14.667 -3.33301 -27 0 -37 10c-6 6 -9.66699 15.833 -11 29.5s-1.66602 45.5 -0.999023 95.5c-1.33301 96.667 -5 163 -11 199c18 4 33.833 6.16699 47.5 6.5s24 -5 31 -16s9.83301 -27.833 8.5 -50.5z" />
    <glyph glyph-name="o" unicode="o" horiz-adv-x="381" 
d="M260 296c-38 48.667 -82.332 58 -132.999 28c-17.333 -9.33301 -28.166 -18.833 -32.499 -28.5s-7.83301 -30.5 -10.5 -62.5c-2 -21.333 -0.833008 -42.833 3.5 -64.5s10.166 -36.834 17.499 -45.501c16.667 -18.667 47.667 -17 93 5c47.333 24 73 59.333 77 106
c1.33301 16.667 1.16602 28.334 -0.500977 35.001s-6.5 15.667 -14.5 27zM265.001 89c-2.66699 0 -10.335 -4.66699 -23.002 -14c-24 -16.667 -61.667 -27.667 -113 -33c-14.667 -1.33301 -25 -1 -31 1s-14.667 9 -26 21c-22.667 20.667 -36.167 49 -40.5 85
s-3.5 77 2.5 123c4 26.667 16.833 55.667 38.5 87s43.5 52.666 65.5 63.999c12.667 6.66699 28.667 9.33398 48 8.00098s32 -5.66602 38 -12.999c6.66699 -8 17.334 -16.333 32.001 -25c44.667 -26.667 73.834 -59.834 87.501 -99.501s10.5 -80.167 -9.5 -121.5
c-6.66699 -14 -18.5 -31.333 -35.5 -52s-28.167 -31 -33.5 -31z" />
    <glyph glyph-name="p" unicode="p" horiz-adv-x="362" 
d="M266 314c-8 12.667 -21.334 15.499 -40.001 8.49902s-37.334 -22.167 -56.001 -45.5c-15.333 -20 -23.833 -35.167 -25.5 -45.5s-0.166992 -36.166 4.5 -77.499c1.33301 -10.667 2.5 -18.5 3.5 -23.5s2.16699 -9 3.5 -12s2.83301 -4.16699 4.5 -3.5
s3.83398 1.33398 6.50098 2.00098c7.33301 4 17.5 12.667 30.5 26s22.167 25 27.5 35c40.667 69.333 54.334 114.666 41.001 135.999zM331.999 294.999c0 -38 -7.50293 -72.666 -22.5029 -103.999s-39.833 -63.666 -74.5 -96.999c-32 -32 -51.333 -48 -58 -48
c-14 0 -18.333 -15.667 -13 -47c2.66699 -15.333 1.83398 -40.833 -2.49902 -76.5s-9.16602 -56.167 -14.499 -61.5c-6 -6 -16.167 -8.66699 -30.5 -8s-24.166 4 -29.499 10c-12.667 14.667 -20.5 36.5 -23.5 65.5s0.166992 50.833 9.5 65.5
c5.33301 9.33301 7.33301 16.833 6 22.5s-5.66602 8.5 -12.999 8.5c-2 -1.33301 -6.33301 0.666992 -13 6s-12.5 11.166 -17.5 17.499s-6.16699 10.5 -3.5 12.5c5.33301 0 8 3.33301 8 10c0 7.33301 8.66699 11 26 11c11.333 0 18.166 0.833008 20.499 2.5
s2.5 5.83398 0.5 12.501c-6.66699 26.667 -11.5 71.667 -14.5 135s-2.16699 101 2.5 113c6 15.333 16.667 23.166 32 23.499s25 -7.5 29 -23.5c2.66699 -11.333 5 -17 7 -17c4.66699 2.66699 16 10.167 34 22.5s33 21.833 45 28.5s26.5 10.167 43.5 10.5
s31.5 -5.83398 43.5 -18.501c11.333 -10 18 -18.333 20 -25s3 -23.667 3 -51z" />
    <glyph glyph-name="q" unicode="q" horiz-adv-x="351" 
d="M100 156c0 -7.33301 1.33301 -12.167 4 -14.5s8.33398 -3.5 17.001 -3.5c31.333 0 63 30.667 95 92c10.667 20 17.167 34 19.5 42s1.83301 15 -1.5 21c-6.66699 12.667 -18 17.667 -34 15s-31.333 -12 -46 -28c-12.667 -14 -24.834 -34.5 -36.501 -61.5
s-17.5 -47.833 -17.5 -62.5zM230 123.999c-1.33301 0 -15.667 -9.33301 -43 -28c-46 -32 -87.333 -40.667 -124 -26c-15.333 6.66699 -25 16 -29 28s-4.66699 32.667 -2 62c2 23.333 10.5 52.166 25.5 86.499s30.5 61.166 46.5 80.499c10 13.333 27 27.5 51 42.5
s43.333 20.833 58 17.5c15.333 -2 34 -3 56 -3c29.333 -0.666992 45.833 -9 49.5 -25s1.16699 -72.333 -7.5 -169c-10 -111.333 -14 -196 -12 -254c2 -42.667 2.33301 -68.167 1 -76.5s-6.33301 -15.5 -15 -21.5c-8.66699 -5.33301 -14.667 -7.66602 -18 -6.99902
s-9.33301 5.33398 -18 14.001l-19 18v261z" />
    <glyph glyph-name="r" unicode="r" horiz-adv-x="272" 
d="M136 410c14.667 6.66699 33.665 9.00195 56.998 7.00195s38 -7.33301 44 -16c6 -7.33301 6.66699 -13.833 2 -19.5s-15.667 -11.167 -33 -16.5l-37 -13c-7.33301 -2.66699 -15.166 -7.83398 -23.499 -15.501s-13.666 -13.834 -15.999 -18.501s-5 -15.334 -8 -32.001
s-4.66699 -32 -5 -46s-0.833008 -37.333 -1.5 -70c-0.666992 -54.667 -2 -89 -4 -103s-6.33301 -23.667 -13 -29c-9.33301 -8 -17.5 -12 -24.5 -12s-14.833 4.33301 -23.5 13c-6.66699 6.66699 -10.667 17.834 -12 33.501s-2.33301 55.5 -3 119.5
c0 90.667 -1.33301 142 -4 154c-2.66699 10.667 1 23.667 11 39c8 10 14.333 16.167 19 18.5s13 2.5 25 0.5c19.333 -2 36 0 50 6z" />
    <glyph glyph-name="s" unicode="s" horiz-adv-x="326" 
d="M211 137c0 10.667 -28.332 31.9961 -84.999 63.9961c-22.667 12.667 -43.334 28.334 -62.001 47.001s-29.667 34.667 -33 48c-2.66699 12.667 -1.66699 25.334 3 38.001c4 9.33301 15.333 20.833 34 34.5s34.667 22.167 48 25.5c10 2.66699 29 3.33398 57 2.00098
c27.333 0 46.333 -5.33301 57 -16c6.66699 -6.66699 10.5 -12.167 11.5 -16.5s0.166992 -11.166 -2.5 -20.499c-4.66699 -12.667 -11.834 -20.834 -21.501 -24.501s-26.5 -3.83398 -50.5 -0.500977c-35.333 4 -53 0.333008 -53 -11c0 -2 0.666992 -4 2 -6
c6.66699 -10.667 36 -30.334 88 -59.001c43.333 -23.333 71.5 -48.666 84.5 -75.999s9.5 -53 -10.5 -77c-23.333 -28 -57.666 -37.667 -102.999 -29c-52.667 10.667 -89 34 -109 70c-8 13.333 -12.5 22.333 -13.5 27s0.833008 9.33398 5.5 14.001
c4.66699 5.33301 9.5 7.33301 14.5 6s14.167 -6.66602 27.5 -15.999c10 -7.33301 24.333 -14 43 -20s34.167 -9.33301 46.5 -10s19.5 1.33301 21.5 6z" />
    <glyph glyph-name="t" unicode="t" horiz-adv-x="325" 
d="M104 135c0 35.333 -0.831055 58.001 -2.49805 68.001s-5.5 17.333 -11.5 22c-10 7.33301 -17.333 9.66602 -22 6.99902c-5.33301 -2 -13 -0.5 -23 4.5s-15 9.83301 -15 14.5c0 6.66699 4.16699 12.834 12.5 18.501s18.833 9.83398 31.5 12.501
c17.333 3.33301 28.5 9.16602 33.5 17.499s8.16699 26.5 9.5 54.5c1.33301 10 2 20.5 2 31.5s0.166992 18.667 0.5 23s2.16602 9 5.49902 14s8.66602 9.83301 15.999 14.5c12.667 6 22.667 7.66699 30 5c12.667 -4.66699 20.334 -10.834 23.001 -18.501s3 -25.834 1 -54.501
l-4 -56l35 5c39.333 5.33301 62 -1 68 -19c4 -12 -0.333008 -23.167 -13 -33.5s-31 -17.833 -55 -22.5c-26.667 -4.66699 -40.667 -9 -42 -13c-4 -11.333 -6.33301 -35.833 -7 -73.5s0.666016 -60.167 3.99902 -67.5c3.33301 -5.33301 11.333 -5 24 1s23.667 14.333 33 25
c6.66699 8 11.5 12.333 14.5 13s7.16699 -1.66602 12.5 -6.99902c8.66699 -9.33301 11.667 -17.5 9 -24.5s-13 -19.5 -31 -37.5c-18.667 -17.333 -37.167 -30 -55.5 -38s-32.5 -9.33301 -42.5 -4c-18 10 -29.333 21.667 -34 35s-7 41 -7 83z" />
    <glyph glyph-name="u" unicode="u" horiz-adv-x="347" 
d="M216 32c-5.33301 0 -7.99902 -1.99902 -7.99902 -5.99902s-11.667 -9.83301 -35 -17.5s-40.666 -11.5 -51.999 -11.5c-12 0 -23.667 4.66699 -35 14s-22.333 27.666 -33 54.999s-15 49.666 -13 66.999c1.33301 17.333 0.666016 26 -2.00098 26
c-4.66699 0 -7.33398 42.667 -8.00098 128c-0.666992 24.667 1.33301 42.167 6 52.5s13.667 18.166 27 23.499c10 4 16.5 6 19.5 6s8.16699 -2.66699 15.5 -8c5.33301 -4 8.83301 -13 10.5 -27s2.83398 -46.667 3.50098 -98c0 -42.667 0.833008 -74.834 2.5 -96.501
s5.5 -38.167 11.5 -49.5s13.333 -16.5 22 -15.5s21.334 5.83301 38.001 14.5c17.333 8.66699 29.833 19.5 37.5 32.5s15.5 34.833 23.5 65.5c4 14.667 6 28.834 6 42.501s-1 24.667 -3 33s-4.83301 19 -8.5 32s-6.16699 23.5 -7.5 31.5c0 0.666992 0.666992 1.5 2 2.5
s3.66602 2 6.99902 3s6.66602 1.5 9.99902 1.5c9.33301 1.33301 16.166 0.333008 20.499 -3s9.83301 -11.333 16.5 -24c8 -15.333 15 -34.166 21 -56.499s8 -36.833 6 -43.5c-3.33301 -13.333 -5.66602 -24.666 -6.99902 -33.999c-4 -29.333 -16.833 -60 -38.5 -92
s-40.167 -48 -55.5 -48z" />
    <glyph glyph-name="v" unicode="v" horiz-adv-x="311" 
d="M206 18c-5.33301 0 -14.3359 6.49902 -27.0029 19.499s-19 22.167 -19 27.5c-3.33301 10 -12.5 31.667 -27.5 65s-24.833 58 -29.5 74c-4 14.667 -10.167 31.667 -18.5 51s-13.833 34 -16.5 44c0 4.66699 -2.5 12.334 -7.5 23.001l-18 37c-7 14 -11.167 22.667 -12.5 26
c19.333 25.333 34 38.666 44 39.999c9.33301 1.33301 18.833 -1.66699 28.5 -9s14.5 -15.333 14.5 -24c0 -12.667 20.667 -68.667 62 -168c10.667 -26.667 18.334 -39.667 23.001 -39c6.66699 0.666992 12.334 46 17.001 136c1.33301 29.333 4.33301 59.5 9 90.5
s7.33398 50.833 8.00098 59.5c0.666992 4 6.33398 5.33301 17.001 4c11.333 -1.33301 18.666 -12.5 21.999 -33.5s5.33301 -65.833 6 -134.5c0.666992 -76 -4 -138.333 -14 -187c-10 -45.333 -21.667 -73.666 -35 -84.999c-14 -11.333 -22.667 -17 -26 -17z" />
    <glyph glyph-name="w" unicode="w" horiz-adv-x="523" 
d="M258 244c-4 0 -8.33301 -13.334 -13 -40.001c-8.66699 -42.667 -22.5 -79 -41.5 -109s-36.5 -42.667 -52.5 -38c-10.667 4 -19 8.33301 -25 13c-6.66699 6.66699 -19.5 38.334 -38.5 95.001s-32.833 104 -41.5 142c-10 48.667 -15.167 78.5 -15.5 89.5
s3.83398 19.833 12.501 26.5c20.667 14.667 37.334 14 50.001 -2s23.334 -50 32.001 -102c5.33301 -29.333 12.166 -57.666 20.499 -84.999s14.5 -41.333 18.5 -42c1.33301 -0.666992 4.16602 5.33301 8.49902 18s9.5 29.667 15.5 51c9.33301 36 19.666 66.667 30.999 92
s20.666 39.666 27.999 42.999c10 4 20.5 2 31.5 -6s18.5 -18.667 22.5 -32c24.667 -77.333 54.334 -145 89.001 -203c21.333 -34 31.666 -41.333 30.999 -22c0 25.333 -5.33301 74 -16 146c-6.66699 43.333 -10 69.333 -10 78s2.66699 15.334 8 20.001
c14.667 11.333 29.334 -3 44.001 -43l15 -48c21.333 -74.667 31.666 -128.667 30.999 -162s-12.667 -58 -36 -74c-16 -11.333 -28.167 -16.833 -36.5 -16.5s-21.166 6.16602 -38.499 17.499c-34 22.667 -66 68.667 -96 138c-14.667 36.667 -24 55 -28 55z" />
    <glyph glyph-name="x" unicode="x" horiz-adv-x="404" 
d="M56 110c16 2 44.332 34.667 84.999 98l15 25c0 3.33301 -10 19 -30 47c-47.333 68 -67.666 110.667 -60.999 128c2 7.33301 7.5 15.333 16.5 24s17.167 14 24.5 16c5.33301 0 12.5 -4.16699 21.5 -12.5s16.167 -17.833 21.5 -28.5c35.333 -63.333 56 -96 62 -98
c6 -1.33301 15.333 6.33398 28 23.001c30 38.667 51.833 62.167 65.5 70.5s26.167 4.83301 37.5 -10.5c7.33301 -11.333 8.33301 -23.833 3 -37.5s-20 -34.5 -44 -62.5l-45 -51c23.333 -38 48 -83.333 74 -136c20.667 -43.333 33.334 -66.333 38.001 -69
c10.667 -6.66699 10 -18.334 -2 -35.001c-6.66699 -8 -17.667 -10.333 -33 -7c-11.333 2.66699 -22 10 -32 22s-24.667 35.667 -44 71c-28.667 52.667 -46.334 79 -53.001 79c-2 0 -15.667 -17 -41 -51c-28.667 -39.333 -52.667 -64.833 -72 -76.5s-36.333 -11.167 -51 1.5
c-10 8 -12.667 21.667 -8 41s12.667 29 24 29z" />
    <glyph glyph-name="y" unicode="y" horiz-adv-x="347" 
d="M160 152c10 0 20.3359 3.5 31.0029 10.5s17.667 15.167 21 24.5c4 9.33301 7.66699 39.5 11 90.5s6.66602 81.167 9.99902 90.5c6 21.333 15.5 35.166 28.5 41.499s27.167 3.16602 42.5 -9.50098c7.33301 -6 11.5 -11.5 12.5 -16.5s-0.5 -16.5 -4.5 -34.5
c-3.33301 -16.667 -6.33301 -85 -9 -205s-6 -188.667 -10 -206c-5.33301 -29.333 -14 -57.333 -26 -84s-22.333 -40 -31 -40c-6 0 -9 -2.33301 -9 -7c0 -5.33301 -23 -7.33301 -69 -6c-31.333 0.666992 -50.666 2 -57.999 4s-11 6.33301 -11 13
c0 5.33301 1.66699 8.83301 5 10.5s10 2.83398 20 3.50098c18 1.33301 34.667 5.33301 50 12c11.333 4.66699 19.5 10.167 24.5 16.5s10.833 18.166 17.5 35.499c9.33301 24.667 14 65.334 14 122.001c-1.33301 54.667 -2.33301 82.334 -3 83.001
c-2.66699 0.666992 -13.834 -2.5 -33.501 -9.5s-31.5 -10.167 -35.5 -9.5c-12.667 0 -25 4.5 -37 13.5s-20.667 20.167 -26 33.5c-26.667 63.333 -43.834 122.333 -51.501 177s-3.83398 91.667 11.499 111c8.66699 10 19.667 15.5 33 16.5s22.666 -3.16699 27.999 -12.5
c4.66699 -8 5.66699 -25 3 -51c-3.33301 -35.333 1.33398 -80.5 14.001 -135.5s25 -82.5 37 -82.5z" />
    <glyph glyph-name="z" unicode="z" horiz-adv-x="389" 
d="M136 152c0 -2.66699 7.5 -4.3291 22.5 -4.99609s34.333 0.166016 58 2.49902s47.167 5.5 70.5 9.5c22.667 4 37 5.83301 43 5.5s12.333 -3.83301 19 -10.5c24.667 -24 5.66699 -43.333 -57 -58c-29.333 -6.66699 -67 -12 -113 -16
c-78.667 -6.66699 -125.5 -4.16699 -140.5 7.5s-7.16699 39.5 23.5 83.5c21.333 29.333 32 45.333 32 48s-5.66699 4 -17 4c-16.667 0 -25 9.33301 -25 28c0 3.33301 7 7 21 11s23.667 5.33301 29 4c6.66699 -2 21.167 4 43.5 18s42.166 29 59.499 45s23.333 25.667 18 29
c-4 3.33301 -33.333 4.33301 -88 3c-36.667 -0.666992 -59.834 -0.333984 -69.501 0.999023s-17.167 5.33301 -22.5 12c-8 9.33301 -12 17.666 -12 24.999c1.33301 10 7.33301 20.5 18 31.5s22 15.5 34 13.5c6.66699 -1.33301 50.334 -3.33301 131.001 -6
c55.333 -1.33301 90 -2.83301 104 -4.5s23 -5.16699 27 -10.5c8.66699 -11.333 10.834 -23.5 6.50098 -36.5s-16.833 -30.833 -37.5 -53.5c-12 -12.667 -15.333 -21.667 -10 -27c13.333 -13.333 12.833 -27.833 -1.5 -43.5s-36.833 -25.834 -67.5 -30.501
c-21.333 -3.33301 -43 -16 -65 -38c-22.667 -22.667 -34 -36.667 -34 -42z" />
    <glyph glyph-name="uni0093" horiz-adv-x="313" 
d="M228 425c13.333 15.333 23.998 12.667 31.998 -8c2.66699 -8 4.66699 -18 6 -30c1.33301 -22 5 -48.333 11 -79c4 -20.667 5.83301 -33.667 5.5 -39s-3.83301 -10.333 -10.5 -15c-9.33301 -6.66699 -20.166 -9.66699 -32.499 -9s-23.166 5 -32.499 13
c-6.66699 6.66699 -10.667 13.167 -12 19.5s-1 20.5 1 42.5c4 48 14.667 83 32 105zM128.998 448.001c0 -12 -3.66602 -22.3311 -10.999 -30.998c-6.66699 -8.66699 -10.5 -20.5 -11.5 -35.5s1.83301 -30.167 8.5 -45.5c6.66699 -14 5 -27.667 -5 -41
s-21.333 -19.333 -34 -18c-30.667 2 -46 21.333 -46 58c0 44.667 15.333 81.667 46 111c9.33301 8.66699 18.166 14.667 26.499 18s14.833 3.66602 19.5 0.999023s7 -8.33398 7 -17.001z" />
    <glyph glyph-name="uni0094" horiz-adv-x="365" 
d="M279 470c0 -9.33301 5.99902 -16.334 17.999 -21.001c10 -4.66699 18.833 -14.667 26.5 -30s11.5 -30.666 11.5 -45.999c0 -7.33301 -1.33301 -15.333 -4 -24s-5.66699 -15.667 -9 -21s-6.33301 -7.33301 -9 -6c-4 1.33301 -9 -2 -15 -10
c-6.66699 -8.66699 -19 -12.334 -37 -11.001s-28 6.66602 -30 15.999c-1.33301 8.66699 1.33398 15.334 8.00098 20.001c24 13.333 25.333 31.333 4 54c-14 14 -21 24.667 -21 32c-0.666992 6.66699 -4.83398 13.167 -12.501 19.5s-12.5 12.5 -14.5 18.5
c-7.33301 10 -6.66602 20.833 2.00098 32.5s17.667 19.834 27 24.501c13.333 5.33301 25.833 2.83301 37.5 -7.5s17.5 -23.833 17.5 -40.5zM105.999 285.999c-10 0 -17.999 4.66895 -23.999 14.002s-7.66699 20 -5 32c1.33301 11.333 0.333008 17 -3 17
c-4.66699 0 -7 4.66699 -7 14c0 8 -6 18.667 -18 32c-12 12.667 -18.333 33 -19 61c-0.666992 17.333 0 29.166 2 35.499s6.66699 12.833 14 19.5c16 12.667 32 13.5 48 2.5s22.333 -26.833 19 -47.5c-2.66699 -14.667 2 -33.334 14 -56.001
c15.333 -29.333 20.666 -57.333 15.999 -84s-17 -40 -37 -40z" />
    <glyph glyph-name=".null" horiz-adv-x="0" 
 />
    <glyph glyph-name="nonmarkingreturn" horiz-adv-x="333" 
 />
    </font>
</defs>
</svg>
