<?xml version="1.0" standalone="no"?>
<!DOCTYPE svg PUBLIC "-//W3C//DTD SVG 1.1//EN" "http://www.w3.org/Graphics/SVG/1.1/DTD/svg11.dtd" >
<svg>
<metadata>
Created by FontForge 20090914 at Sat Feb 27 01:01:25 2016
 By www-data
Copyright (c) 2016, root
</metadata>
<defs>
<font id="Christina" horiz-adv-x="345" >
  <font-face 
    font-family="Christina"
    font-weight="400"
    font-stretch="normal"
    units-per-em="1000"
    panose-1="2 0 5 3 0 0 0 0 0 0"
    ascent="800"
    descent="-200"
    x-height="429.999"
    cap-height="614.001"
    bbox="28.8659 -127.894 719.999 680.001"
    underline-thickness="50"
    underline-position="-100"
    unicode-range="U+0020-U+0094"
  />
<missing-glyph horiz-adv-x="364" 
d="M33 0v666h265v-666h-265zM66 33h199v600h-199v-600z" />
    <glyph glyph-name=".notdef" horiz-adv-x="364" 
d="M33 0v666h265v-666h-265zM66 33h199v600h-199v-600z" />
    <glyph glyph-name="space" unicode=" " horiz-adv-x="224" 
 />
    <glyph glyph-name="exclam" unicode="!" horiz-adv-x="121" 
d="M35 78c-7.33301 7.33301 -8.00098 24.167 -2.00098 50.5s15.667 38.833 29 37.5c6 -0.666992 12.333 -4.33398 19 -11.001c8.66699 -11.333 11.834 -24 9.50098 -38s-9.33301 -25.667 -21 -35s-23.167 -10.666 -34.5 -3.99902zM59.999 582.001
c13.333 0 17.999 -72.667 13.999 -218c-1.33301 -89.333 -6.66602 -134.333 -15.999 -135c-1.33301 0 -3 1 -5 3c-2.66699 2.66699 -5 57.5 -7 164.5s-1.66699 164.833 1 173.5c2.66699 8 7 12 13 12z" />
    <glyph glyph-name="quotedbl" unicode="&#x22;" horiz-adv-x="294" 
d="M41 492c0 31.333 -2.33594 53.333 -7.00293 66c-5.33301 10 -3.66602 19.5 5.00098 28.5s19.167 14 31.5 15s22.833 -1.83301 31.5 -8.5c14 -6 16.667 -49.667 8 -131c-0.666992 -5.33301 -1.16699 -11.833 -1.5 -19.5s-0.666016 -12.834 -0.999023 -15.501
s-1.33301 -5.66699 -3 -9s-4 -4.66602 -7 -3.99902s-7 2 -12 4s-11.833 5.66699 -20.5 11c-11.333 7.33301 -18.166 14 -20.499 20s-3.5 20.333 -3.5 43zM202.997 622c16.667 5.33301 27.8311 8.00488 33.498 8.00488s11.834 -3.33301 18.501 -10s9.5 -25.834 8.5 -57.501
s-5.16699 -60.167 -12.5 -85.5c-5.33301 -18.667 -14.666 -32.834 -27.999 -42.501s-26.666 -11.834 -39.999 -6.50098c-8 2.66699 -12.5 7.66699 -13.5 15s-0.166992 29.666 2.5 66.999c0.666992 11.333 1.5 24.166 2.5 38.499s1.83301 25.833 2.5 34.5s1 14 1 16
c1.33301 9.33301 9.66602 17 24.999 23z" />
    <glyph glyph-name="dollar" unicode="$" horiz-adv-x="397" 
d="M213 225c0 -74.667 2.00098 -115.002 6.00098 -121.002c4 -6.66699 16.667 -8.5 38 -5.5s35.666 8.5 42.999 16.5c9.33301 10.667 18.5 26.334 27.5 47.001s14.167 37.334 15.5 50.001c1.33301 16 -4.66699 32.167 -18 48.5s-31.333 29.5 -54 39.5
c-20 9.33301 -35 18 -45 26c-6 5.33301 -9.66699 4 -11 -4c-1.33301 -8.66699 -2 -41 -2 -97zM182.001 372.998c1.33301 -0.666992 2.66797 16.999 4.00098 52.999s1.66602 71.333 0.999023 106s-2.66699 51 -6 49c-9.33301 9.33301 -33.333 -7 -72 -49
c-13.333 -14 -21.5 -24.667 -24.5 -32s-4.83301 -19.666 -5.5 -36.999c0 -16 1.16699 -27.333 3.5 -34s7.83301 -14.334 16.5 -23.001c9.33301 -9.33301 24.5 -18.166 45.5 -26.499s33.5 -10.5 37.5 -6.5zM185.003 630.997c-2 8 2.32812 12.6699 12.9951 14.0029
c8.66699 1.33301 13.334 -1 14.001 -7c0.666992 -2 0.333984 -4 -0.999023 -6c-1.33301 -5.33301 -0.333008 -9.33301 3 -12s11 -5 23 -7c48.667 -7.33301 80.667 -28.666 96 -63.999c14 -31.333 17.333 -46.333 10 -45c-5.33301 0.666992 -13.333 10 -24 28
c-15.333 24 -33 40.667 -53 50c-22.667 10 -36 13.667 -40 11c-6.66699 -4 -10.334 -30.667 -11.001 -80v-37c-0.666992 -56 -0.333984 -90 0.999023 -102s5.33301 -18 12 -18c8.66699 0 13 -2.33301 13 -7c0 -4 15 -13.333 45 -28
c26.667 -12.667 45.834 -26.167 57.501 -40.5s19.167 -32.833 22.5 -55.5c2.66699 -22 -4.66602 -49.667 -21.999 -83c-12.667 -25.333 -21.667 -40.5 -27 -45.5s-16.666 -9.5 -33.999 -13.5c-21.333 -5.33301 -37.666 -8 -48.999 -8c-5.33301 0 -9.16602 -2.5 -11.499 -7.5
s-4.5 -15.5 -6.5 -31.5c-4 -26 -8.66699 -39 -14 -39c-6 0 -10.5 7.16699 -13.5 21.5s-3.16699 28.166 -0.5 41.499c2 10 2 16.333 0 19s-9.33301 5.66699 -22 9l-23 5.5l-15.5 3.5c-3 0.666992 -7.66699 2.16699 -14 4.5l-25.5 9.5c-15.333 6.66699 -26 12.667 -32 18
s-11.333 13.666 -16 24.999c-10 26.667 -12 48 -6 64c5.33301 13.333 10 15.333 14 6l3 -21c0 -22.667 7.83301 -41.167 23.5 -55.5s41.167 -25.833 76.5 -34.5l32 -9v238c-24 4 -49.5 13.167 -76.5 27.5s-41.833 27.166 -44.5 38.499c-2.66699 10.667 -4 30 -4 58
c0 18 1.16699 31 3.5 39s7.83301 17 16.5 27c34.667 41.333 62.667 66.666 84 75.999c15.333 6 23 13.667 23 23z" />
    <glyph glyph-name="percent" unicode="%" horiz-adv-x="591" 
d="M389 189l-0.000976562 -59c28.667 -28.667 48.334 -44.667 59.001 -48c7.33301 0 18.666 6.83301 33.999 20.5s26.333 26.834 33 39.501c10 19.333 14.667 45 14 77c-0.666992 24 -2.16699 39.167 -4.5 45.5s-10.166 15.166 -23.499 26.499
c-26.667 23.333 -55 28.666 -85 15.999c-18 -7.33301 -27 -46.666 -27 -117.999zM362.999 251c6 30.667 15.4971 52.333 28.4971 65s32.5 21.334 58.5 26.001c0.666992 0.666992 16 -6.33301 46 -21c18 -9.33301 30.333 -17 37 -23s12.334 -14.667 17.001 -26
c14 -34 13.333 -73 -2 -117c-16.667 -47.333 -42 -78 -76 -92c-14 -6 -29.667 -5.66699 -47 1c-27.333 11.333 -46.666 34.666 -57.999 69.999s-12.666 74.333 -3.99902 117zM179.996 564.999c-12 13.333 -25.665 21.3301 -40.998 23.9971s-27.333 -1.33301 -36 -12
c-17.333 -21.333 -29 -38.666 -35 -51.999s-9.66699 -30.666 -11 -51.999c-2 -19.333 -2.16699 -32.166 -0.5 -38.499s6.5 -13.166 14.5 -20.499c7.33301 -6.66699 14.166 -10.667 20.499 -12s17.166 -1 32.499 1c26.667 3.33301 45.5 11.666 56.5 24.999
s17.167 35.333 18.5 66c1.33301 22 1 36.5 -1 43.5s-8 16.167 -18 27.5zM111.998 609.996c34.667 7.33301 62.4971 0.665039 83.4971 -20.002s31.167 -51.667 30.5 -93c-0.666992 -29.333 -5 -52 -13 -68s-23.333 -33.333 -46 -52
c-19.333 -15.333 -35.166 -24.166 -47.499 -26.499s-26.166 1.16699 -41.499 10.5c-19.333 11.333 -32.166 23.833 -38.499 37.5s-9.5 36.167 -9.5 67.5c0.666992 26 2 43.667 4 53s7.33301 20 16 32c17.333 24.667 29 39.834 35 45.501s15 10.167 27 13.5zM163.995 76.9951
c-9.33301 -20.667 -16.333 -27.666 -21 -20.999c-6 8 -3.33301 23.667 8 47c2 5.33301 4.66699 10.333 8 15c8.66699 13.333 29.667 51.666 63 114.999s56 103.333 68 120c14 18.667 31 47.334 51 86.001s33.667 64 41 76c7.33301 12.667 16 28.834 26 48.501
s18.333 34.834 25 45.501c6 11.333 11.667 14.333 17 9c4 -4 -1.66699 -22.333 -17 -55c-43.333 -86.667 -79 -153.334 -107 -200.001c-47.333 -70.667 -81.333 -129.334 -102 -176.001c-8.66699 -20.667 -19.5 -41.334 -32.5 -62.001s-22.167 -36.667 -27.5 -48z" />
    <glyph glyph-name="ampersand" unicode="&#x26;" horiz-adv-x="479" 
d="M304 228c-14.667 17.333 -32.499 37.333 -53.499 60s-36.833 40.334 -47.5 53.001c-6 8 -12.333 11.167 -19 9.5s-23 -10.167 -49 -25.5c-38.667 -22 -64.167 -54.833 -76.5 -98.5s-5.83301 -76.834 19.5 -99.501c15.333 -13.333 42.666 -22.5 81.999 -27.5
s72.333 -3.83301 99 3.5c14.667 4 31.5 12.333 50.5 25s30.833 23.667 35.5 33c2.66699 5.33301 1.5 12 -3.5 20s-17.5 23.667 -37.5 47zM186.001 610c-5.33301 0 -13.8311 -3.99805 -25.498 -11.998s-20.167 -15.333 -25.5 -22c-8 -10 -10.833 -26.667 -8.5 -50
s9.83301 -47 22.5 -71c16 -32 30 -49.667 42 -53s32.333 4.66699 61 24c29.333 20.667 48.666 38 57.999 52c6.66699 11.333 10.667 25.666 12 42.999s-0.333984 29.666 -5.00098 36.999c-0.666992 4 -21.167 13.667 -61.5 29s-63.5 23 -69.5 23zM263.003 406.002
c-4.66699 0 -13.498 -5.83789 -26.498 -17.5049s-19.5 -19.5 -19.5 -23.5c0 -4.66699 23.667 -33.167 71 -85.5s73.333 -78.5 78 -78.5c11.333 0 21.666 23.667 30.999 71c5.33301 24.667 10.333 36.667 15 36c3.33301 -0.666992 6 -9 8 -25
c2 -6.66699 0.5 -17.5 -4.5 -32.5s-11 -30.667 -18 -47s-10.833 -25.166 -11.5 -26.499c0 -1.33301 11.167 -13 33.5 -35s31.833 -35 28.5 -39c0 -6.66699 -16 3.33301 -48 30c-16.667 14.667 -25.334 21 -26.001 19c-3.33301 0 -12.333 -7.33301 -27 -22
c-34.667 -36.667 -82 -55 -142 -55c-48 0 -84 5.16699 -108 15.5s-43.333 28.833 -58 55.5c-6.66699 12 -9.5 31.167 -8.5 57.5s5.16699 43.833 12.5 52.5c8 8 12 14.333 12 19c0 6.66699 9.5 19.334 28.5 38.001s35.167 31.334 48.5 38.001c40 20.667 49.667 36.667 29 48
c-11.333 6 -23.833 25.167 -37.5 57.5s-20.167 58.5 -19.5 78.5c0 15.333 1.33301 26.5 4 33.5s9 15.5 19 25.5c8.66699 8.66699 16.167 15.334 22.5 20.001s13.833 8.83398 22.5 12.501s17.834 4.66699 27.501 3s20.5 -5.5 32.5 -11.5c13.333 -8 31.333 -15.667 54 -23
c20 -6 34 -14 42 -24s13 -26 15 -48l3 -39c-3.33301 -2.66699 -11.833 -11 -25.5 -25s-25.834 -25.833 -36.501 -35.5s-17.667 -15.5 -21 -17.5z" />
    <glyph glyph-name="quotesingle" unicode="'" horiz-adv-x="146" 
d="M107 471c-4.66699 -6 -30.334 -9.00098 -77.001 -9.00098l4 143c39.333 16 65 23.667 77 23c4.66699 -0.666992 6.33398 -25.667 5.00098 -75s-4.33301 -76.666 -9 -81.999z" />
    <glyph glyph-name="parenleft" unicode="(" horiz-adv-x="223" 
d="M158 619c5.33301 6.66699 11.666 10.5029 18.999 11.5029s12.333 -0.833008 15 -5.5c2.66699 -4 -3.66602 -18.333 -18.999 -43c-20 -34.667 -34.5 -65.834 -43.5 -93.501s-17.167 -67.834 -24.5 -120.501c-8.66699 -62 -12 -111.5 -10 -148.5s10 -70.5 24 -100.5
c8 -15.333 17.833 -44.333 29.5 -87s19.834 -69.334 24.501 -80.001c7.33301 -14.667 8.5 -23.5 3.5 -26.5s-14.167 1.16699 -27.5 12.5c-18.667 16 -39.334 50.333 -62.001 103s-40 107 -52 163c-10 50 -6 112.667 12 188s43.667 136 77 182c16 22.667 27.333 37.667 34 45
z" />
    <glyph glyph-name="parenright" unicode=")" horiz-adv-x="211" 
d="M47 585c0.666992 2 0.664062 5.32715 -0.00292969 9.99414s-1.66699 9.33398 -3 14.001s-2.33301 9.33398 -3 14.001s-0.5 8.33398 0.5 11.001s3.5 4 7.5 4c7.33301 0 11 -2 11 -6c0 -2 13.333 -19.167 40 -51.5s39.334 -50.5 38.001 -54.5
c0 -7.33301 4.33301 -22.666 13 -45.999c30.667 -79.333 38 -165.666 22 -258.999c-5.33301 -27.333 -17.333 -66 -36 -116s-36 -89.333 -52 -118s-24.667 -47.667 -26 -57s-6.66602 -14 -15.999 -14c-6 0 -9.66699 1.66699 -11 5s-1.66602 11 -0.999023 23
c0.666992 16.667 3.5 33.167 8.5 49.5s9.5 24.5 13.5 24.5c8 10 23.333 38.667 46 86s35 83.333 37 108c1.33301 16 3.33301 27 6 33c3.33301 5.33301 4.33301 29.833 3 73.5s-4 73.834 -8 90.501c-14 60 -36 105.667 -66 137c-16 16 -24 29 -24 39z" />
    <glyph glyph-name="asterisk" unicode="*" horiz-adv-x="270" 
d="M114 605c2.66699 13.333 7.33203 19.6689 13.999 19.002c10 -0.666992 16.333 -12 19 -34c2.66699 -19.333 6.33398 -31.333 11.001 -36s12.667 -4 24 2c29.333 15.333 48 18 56 8c5.33301 -6 -3.66699 -15.667 -27 -29c-19.333 -10.667 -30.333 -19.334 -33 -26.001
s-0.333984 -19.334 6.99902 -38.001c10.667 -24.667 13 -39 7 -43s-18.667 3.66699 -38 23c-13.333 14 -24 20.333 -32 19s-20 -10.666 -36 -27.999c-15.333 -18 -26 -24.333 -32 -19c-3.33301 4.66699 -0.666016 14.334 8.00098 29.001c10 17.333 14.333 30.166 13 38.499
s-8.66602 15.5 -21.999 21.5c-11.333 4.66699 -18.5 9.5 -21.5 14.5s-1.66699 9.16699 4 12.5s15.5 5.66602 29.5 6.99902c18.667 2 30.167 5.66699 34.5 11s9.16602 21.333 14.499 48z" />
    <glyph glyph-name="plus" unicode="+" horiz-adv-x="405" 
d="M30 343c0 6 3.66699 9.33691 11 10.0039s28.333 0 63 -2l74 -4c0 103.333 1.66699 158.666 5 165.999c10.667 10.667 18 3.66699 22 -21c2 -16 3.33301 -41.667 4 -77v-69c99.333 -2.66699 153.333 -6.33398 162 -11.001c8.66699 -8.66699 2 -15.334 -20 -20.001
c-14 -2.66699 -35.667 -4.66699 -65 -6c-52 -2.66699 -78.333 -4.33398 -79 -5.00098l-2 -56c-0.666992 -52 -8 -76.667 -22 -74l-4 2c-5.33301 3.33301 -6.66602 27.333 -3.99902 72c3.33301 44 1.66602 66.333 -5.00098 67c-55.333 2.66699 -92.5 6 -111.5 10
s-28.5 10 -28.5 18z" />
    <glyph glyph-name="comma" unicode="," horiz-adv-x="139" 
d="M93 50c0 -12.667 -2.66797 -22.8301 -8.00098 -30.4971s-14.666 -16.167 -27.999 -25.5l-10.5 -6c-2.33301 -1.33301 -4.33301 -2 -6 -2s-2.66699 0.666992 -3 2s-0.5 3.33301 -0.5 6c0.666992 5.33301 6.16699 14 16.5 26s14.833 23.333 13.5 34
c0.666992 11.333 0.166992 18 -1.5 20s-6.83398 2.66699 -15.501 2c-13.333 -2 -20 1.66699 -20 11c0 10.667 2.66699 23.667 8 39s10.333 24.666 15 27.999c6.66699 4 17.334 5.66699 32.001 5s22.334 -3.33398 23.001 -8.00098
c1.33301 -11.333 1.16602 -25.333 -0.500977 -42s-4.16699 -26.667 -7.5 -30c-4.66699 -4.66699 -7 -14.334 -7 -29.001z" />
    <glyph glyph-name="hyphen" unicode="-" horiz-adv-x="275" 
d="M72 250c-30.667 -3.33301 -44.6689 -0.333984 -42.002 8.99902c2.66699 6 11 12 25 18c14.667 5.33301 43.834 8.33301 87.501 9s71.834 -1.66602 84.501 -6.99902c25.333 -10 25 -17 -1 -21l-49 -4c-8.66699 0 -43.667 -1.33301 -105 -4z" />
    <glyph glyph-name="period" unicode="." horiz-adv-x="159" 
d="M36 114c0 11.333 1.49609 18.167 4.49609 20.5s12.5 4.16602 28.5 5.49902c6 0.666992 12.667 1.33398 20 2.00098s12.333 1.16699 15 1.5s6.33398 0.333008 11.001 0s7.33398 -1.5 8.00098 -3.5s2.16699 -4.83301 4.5 -8.5s2.83301 -8.83398 1.5 -15.501
s-1.66602 -14.667 -0.999023 -24l-3 -29l-42 -5c-12.667 -1.33301 -22.667 -2 -30 -2s-12.666 0.666992 -15.999 2s-5.33301 3.83301 -6 7.5s-0.5 7.33398 0.5 11.001s2 9.16699 3 16.5s1.5 14.333 1.5 21z" />
    <glyph glyph-name="slash" unicode="/" horiz-adv-x="276" 
d="M210 582c4 2 6.83105 7.33105 8.49805 15.998s3.16699 14.834 4.5 18.501s6.66602 3.16699 15.999 -1.5c11.333 -9.33301 8 -35.666 -10 -78.999c-8 -19.333 -23 -61.833 -45 -127.5s-38 -110.167 -48 -133.5c-24 -58 -42 -104.333 -54 -139
c-21.333 -63.333 -36.666 -95 -45.999 -95c-1.33301 0 -2.66602 0.333008 -3.99902 1c-4.66699 3.33301 -2.16699 22.666 7.5 57.999s23.834 76.333 42.501 123c38 97.333 72.667 197.333 104 300c10 34.667 18 54.334 24 59.001z" />
    <glyph glyph-name="zero" unicode="0" horiz-adv-x="370" 
d="M248 557c-47.333 31.333 -93.667 31.6641 -139 0.99707c-20.667 -14 -35.5 -61.333 -44.5 -142s-6.83301 -149.667 6.5 -207c6.66699 -30 20.334 -55.667 41.001 -77c17.333 -17.333 31.833 -28 43.5 -32s25.5 -2.66699 41.5 4
c16.667 6.66699 29.334 14.334 38.001 23.001s19.667 25.334 33 50.001c10.667 19.333 18.167 37 22.5 53s9.16602 46 14.499 90c8 62.667 9 109.334 3 140.001c-6.66699 29.333 -13.334 49.5 -20.001 60.5s-20 23.167 -40 36.5zM68.999 557.998
c9.33301 16.667 26.6689 30.001 52.002 40.001s53.666 13.333 84.999 10c28.667 -0.666992 51.667 -8 69 -22c13.333 -10 26.833 -26.667 40.5 -50s19.834 -40.333 18.501 -51s0 -25.667 4 -45c4 -20.667 2.33301 -62.667 -5 -126
c-5.33301 -45.333 -12.833 -81.833 -22.5 -109.5s-25.167 -58.834 -46.5 -93.501c-11.333 -18.667 -26.333 -31.167 -45 -37.5s-43.334 -7.5 -74.001 -3.5c-8 0.666992 -16.667 2 -26 4c-10 0.666992 -23 10.667 -39 30s-27.667 39 -35 59
c-14.667 40 -19.334 107 -14.001 201s18 158.667 38 194z" />
    <glyph glyph-name="one" unicode="1" horiz-adv-x="239" 
d="M201 603c5.33301 0 7.66406 -61.6699 6.99707 -185.003c-2 -161.333 -3.83301 -257.833 -5.5 -289.5s-6.16699 -52.5 -13.5 -62.5c-9.33301 -14 -16 -20.333 -20 -19s-4.66699 10 -2 26c2.66699 15.333 4.83398 56.833 6.50098 124.5s2.33398 132.167 2.00098 193.5
s-1.83301 92 -4.5 92c-4.66699 0 -14.667 -5.66699 -30 -17c-26 -19.333 -56.333 -33.333 -91 -42c-13.333 -3.33301 -20 -0.666016 -20 8.00098s11.333 17.334 34 26.001c26.667 10.667 50.834 25 72.501 43s34.167 33.667 37.5 47
c0.666992 2 1.83398 6.16699 3.50098 12.5s3 11 4 14s2.5 6.83301 4.5 11.5s4.16699 8.33398 6.5 11.001s5.16602 4.66699 8.49902 6z" />
    <glyph glyph-name="two" unicode="2" horiz-adv-x="430" 
d="M162 230c-14 0 -33 -11.835 -57 -35.502s-36 -42.167 -36 -55.5c0 -4 17.5 -10 52.5 -18s54.833 -10.667 59.5 -8c10.667 6.66699 49.834 6.66699 117.501 0s101.5 -13.667 101.5 -21s-4.5 -11.666 -13.5 -12.999s-33.833 -0.666016 -74.5 2.00098
c-55.333 4 -107.666 3.66699 -156.999 -1c-43.333 -4 -73 -4.16699 -89 -0.5s-27.333 13.167 -34 28.5c-8.66699 19.333 6.33301 52.5 45 99.5s83.667 86.833 135 119.5c30 19.333 50.333 37.5 61 54.5s17.334 41.5 20.001 73.5c1.33301 22.667 1.16602 37.667 -0.500977 45
s-6.83398 16.333 -15.501 27c-14 16.667 -26.833 27.5 -38.5 32.5s-29.834 7.83301 -54.501 8.5c-56.667 0 -95 -22.333 -115 -67c-10 -23.333 -17.667 -35.333 -23 -36c-4 0 -8 4.33301 -12 13c-5.33301 10 -5.83301 24.833 -1.5 44.5s11.833 33.5 22.5 41.5
c42 31.333 88 43 138 35c27.333 -2.66699 48 -7 62 -13s30 -17.333 48 -34c10.667 -10 17.667 -18.833 21 -26.5s6 -21.167 8 -40.5c2.66699 -24 1.16699 -44.833 -4.5 -62.5s-17.834 -38.834 -36.501 -63.501c-11.333 -15.333 -19.333 -29.333 -24 -42
c-4 -11.333 -20.167 -28.666 -48.5 -51.999s-47.166 -35 -56.499 -35z" />
    <glyph glyph-name="three" unicode="3" horiz-adv-x="366" 
d="M39 194c6.66699 0 16.0039 -10.3301 28.0039 -30.9971c17.333 -30 33.666 -43.333 48.999 -40c1.33301 0.666992 2.5 0.166992 3.5 -1.5s1.5 -3.83398 1.5 -6.50098c0 -8 10.333 -15.833 31 -23.5s40.667 -11.167 60 -10.5c22 1.33301 44 18.5 66 51.5s33 65.833 33 98.5
c0 19.333 -10.5 45.166 -31.5 77.499s-37.167 47.5 -48.5 45.5c-46 -9.33301 -73 -11 -81 -5c-10.667 6 -5.33398 12.333 15.999 19c6.66699 2.66699 15 4.66699 25 6c44 6.66699 74.667 29.667 92 69c6.66699 14.667 10.167 26.334 10.5 35.001s-1.16699 23 -4.5 43
c-2.66699 19.333 -5.66699 32 -9 38s-9 10.333 -17 13c-21.333 5.33301 -48.833 5 -82.5 -1s-60.5 -15.333 -80.5 -28c-6 -4 -11.667 -9.66699 -17 -17s-8.83301 -13.833 -10.5 -19.5s-1.16699 -9.5 1.5 -11.5c4.66699 -1.33301 3 -4 -5 -8c-10 -4 -15.5 -4 -16.5 0
s0 11.167 3 21.5s3.83301 17.833 2.5 22.5c-1.33301 10 0 15 4 15c4.66699 0 11.667 4.66699 21 14c5.33301 5.33301 18.833 12.333 40.5 21s33.5 13.667 35.5 15c23.333 10.667 51.5 12.834 84.5 6.50098s53.167 -17.833 60.5 -34.5
c7.33301 -14.667 11.166 -34.834 11.499 -60.501s-3.16699 -50.834 -10.5 -75.501l-15 -48l17 -26c26.667 -40.667 35.334 -90 26.001 -148c-16 -94 -56.667 -145.667 -122 -155c-28 -3.33301 -59.833 5.5 -95.5 26.5s-59.834 45.833 -72.501 74.5
c-10.667 23.333 -14.334 35.666 -11.001 36.999c0.666992 0.666992 3 1 7 1z" />
    <glyph glyph-name="four" unicode="4" horiz-adv-x="424" 
d="M267 539c-6.66699 -4.66699 -19.999 -19.499 -39.999 -44.499s-33.667 -40.5 -41 -46.5c-14.667 -14.667 -31.167 -38 -49.5 -70s-32.5 -54.667 -42.5 -68c-20.667 -29.333 -31 -49 -31 -59c0 -7.33301 4.16699 -11.666 12.5 -12.999s35.833 -1.33301 82.5 0
c63.333 1.33301 97.333 4.33301 102 9c5.33301 5.33301 10.166 40.166 14.499 104.499s4.83301 111.166 1.5 140.499c-2.66699 31.333 -5.66699 47 -9 47zM274.001 600.001c0 6.66699 3 9.33496 9 8.00195c9.33301 -2.66699 15.833 -19 19.5 -49
s5.83398 -81.667 6.50098 -155v-145c8 -1.33301 19.833 -3.66602 35.5 -6.99902s25.5 -5.33301 29.5 -6c30 -7.33301 29 -13 -3 -17c-30 -4 -56.333 -5 -79 -3c-4 -26 -7.33301 -68.667 -10 -128c-0.666992 -34.667 -4.33398 -52 -11.001 -52c-16.667 0 -20.667 32 -12 96
c6 41.333 7.83301 64.166 5.5 68.499s-13.5 5.16602 -33.5 2.49902c-2.66699 -0.666992 -5 -1 -7 -1c-16 -2.66699 -28.167 -4.33398 -36.5 -5.00098s-14.5 -0.666992 -18.5 0s-12 1.33398 -24 2.00098s-26 1.33398 -42 2.00098c-42 2.66699 -65 6 -69 10
c-12.667 12.667 4.66602 53.334 51.999 122.001c16 22 27.833 41.667 35.5 59s20.5 35.666 38.5 54.999c30.667 33.333 57.334 64.166 80.001 92.499s34 45.166 34 50.499z" />
    <glyph glyph-name="five" unicode="5" horiz-adv-x="443" 
d="M403 580c0 -6.66699 -3.33105 -10.499 -9.99805 -11.499s-27.334 -0.5 -62.001 1.5c-131.333 8 -200 9 -206 3c-2.66699 -7.33301 -5.33398 -33.666 -8.00098 -78.999s-5 -71.666 -7 -78.999c-2.66699 -17.333 -3 -26.666 -1 -27.999c4 -2 28.667 5 74 21
c61.333 21.333 110.333 23 147 5c16.667 -7.33301 31.667 -18.5 45 -33.5s21.666 -29.167 24.999 -42.5c2 -10 5.66699 -25.333 11 -46c4 -16 3 -34.833 -3 -56.5s-15.333 -39.834 -28 -54.501c-13.333 -16 -32.166 -32.833 -56.499 -50.5s-43.5 -28.834 -57.5 -33.501
c-38 -12.667 -83.333 -7 -136 17c-22.667 10 -39.167 19.5 -49.5 28.5s-21.5 22.5 -33.5 40.5c-20 32 -23 48 -9 48c6.66699 0 14 -4.33301 22 -13s12 -16.334 12 -23.001c0 -10 8.66699 -21.167 26 -33.5s38.333 -22.166 63 -29.499
c30.667 -9.33301 55.167 -13.833 73.5 -13.5s35.833 6.16602 52.5 17.499c17.333 11.333 36.333 28.166 57 50.499s32.667 38.833 36 49.5c2.66699 11.333 2.66699 29.166 0 53.499s-6.66699 42.166 -12 53.499c-5.33301 12.667 -16.5 24.334 -33.5 35.001
s-34.167 17 -51.5 19c-20 2.66699 -45.833 -0.5 -77.5 -9.5s-57.834 -20.833 -78.501 -35.5c-21.333 -15.333 -34.333 -23 -39 -23c-6 0 -10.667 6.16699 -14 18.5s-3.33301 22.833 0 31.5c5.33301 14 9.5 43.5 12.5 88.5s2.5 75.833 -1.5 92.5
c-4 20.667 -4.83301 32.334 -2.5 35.001s13.5 5.66699 33.5 9c40.667 7.33301 119.334 6 236.001 -4c22 -2 36 -4.16699 42 -6.5s9 -6.5 9 -12.5z" />
    <glyph glyph-name="six" unicode="6" horiz-adv-x="374" 
d="M58 270c0 -40.667 30.002 -85 90.002 -133c21.333 -17.333 35.666 -27.5 42.999 -30.5s18.333 -3.5 33 -1.5c20 1.33301 35 6.33301 45 15c17.333 15.333 31.666 57.333 42.999 126c4 23.333 5.83301 39.5 5.5 48.5s-3.16602 19.5 -8.49902 31.5
c-20.667 40.667 -49.667 61.667 -87 63c-21.333 1.33301 -37.333 0.5 -48 -2.5s-23 -10.833 -37 -23.5c-6.66699 -6.66699 -17.834 -14.5 -33.501 -23.5s-27.5 -18.5 -35.5 -28.5s-11.333 -23.667 -10 -41zM319.002 522c0 -17.333 3.33008 -27.0029 9.99707 -29.0029
c6.66699 -2.66699 10.334 -8.33398 11.001 -17.001c0.666992 -4.66699 -0.666016 -7 -3.99902 -7c-16 0 -29.667 17.333 -41 52c-9.33301 27.333 -16.333 43 -21 47c-8 5.33301 -30.333 10.333 -67 15c-32.667 5.33301 -55.667 6.16602 -69 2.49902
s-26.333 -14.167 -39 -31.5c-10 -13.333 -19.333 -39.166 -28 -77.499s-12.334 -69.833 -11.001 -94.5l2 -42l33 25c24.667 19.333 44.834 32.333 60.501 39s33.834 10.334 54.501 11.001c16 0.666992 28.333 -0.666016 37 -3.99902s22.334 -11 41.001 -23
c26 -18 42.5 -36.667 49.5 -56s7.83301 -47.666 2.5 -84.999c-5.33301 -34 -13 -66.667 -23 -98s-18.667 -50.333 -26 -57c-7.33301 -7.33301 -26 -12.333 -56 -15c-21.333 -2 -35.333 -2.16699 -42 -0.5s-18.334 8.16699 -35.001 19.5c-60.667 43.333 -99 85 -115 125
c-7.33301 17.333 -11.5 33 -12.5 47s-0.5 43 1.5 87c2.66699 70.667 8.33398 121.834 17.001 153.501s23.667 57.167 45 76.5c13.333 12 23.666 19.167 30.999 21.5s22 3.5 44 3.5c35.333 -0.666992 62 -3.66699 80 -9s33.667 -15 47 -29c15.333 -17.333 23 -34 23 -50z" />
    <glyph glyph-name="seven" unicode="7" horiz-adv-x="400" 
d="M290 504c4 0 11.165 10.6709 21.498 32.0039s14.166 33.666 11.499 36.999c-6 0 -22 -1.83301 -48 -5.5s-45.667 -4.83398 -59 -3.50098c-32 1.33301 -67.667 -1.33398 -107 -8.00098c-48.667 -7.33301 -74.667 -9.66602 -78 -6.99902
c-2 1.33301 -1.66699 6.66602 1 15.999c2.66699 13.333 7.66699 21.333 15 24s25.666 3.33398 54.999 2.00098c14 -2 43.833 -0.666992 89.5 4l114 12c30.333 3.33301 51.833 2.33301 64.5 -3c-2 -14.667 -10.333 -42 -25 -82s-23.667 -66 -27 -78
c-8 -30.667 -20.333 -64.334 -37 -101.001s-31 -63.667 -43 -81c-22.667 -32.667 -42 -74.334 -58 -125.001c-11.333 -39.333 -22.666 -57.333 -33.999 -54c-2 0.666992 -4 2 -6 4c-5.33301 3.33301 -3.66602 18.333 5.00098 45s14.667 41.667 18 45
c2.66699 4 7.83398 18.667 15.501 44s13.167 47 16.5 65c2.66699 16 23.667 66.333 63 151c9.33301 20.667 16.333 38 21 52c2.66699 10 6.33398 15 11.001 15z" />
    <glyph glyph-name="eight" unicode="8" horiz-adv-x="412" 
d="M305 341c-14.667 9.33301 -27.1699 13.833 -37.5029 13.5s-31.166 -6.5 -62.499 -18.5c-34.667 -13.333 -60.5 -25.833 -77.5 -37.5s-33.167 -27.834 -48.5 -48.501c-12.667 -18 -19.667 -29.5 -21 -34.5s0.333984 -13.833 5.00098 -26.5c5.33301 -16 22.333 -35 51 -57
c46 -35.333 89.333 -44.666 130 -27.999c7.33301 3.33301 15.333 6.5 24 9.5l20 7c4.66699 1.66699 9.66699 4.33398 15 8.00098s10.333 8.66699 15 15s9.33398 14.833 14.001 25.5c17.333 34.667 23.5 67.667 18.5 99s-20.167 55.666 -45.5 72.999zM328.997 497
c0 12.667 -8.49805 27.666 -25.498 44.999s-33.833 28.333 -50.5 33c-22 6 -39.667 8 -53 6s-35.333 -10.333 -66 -25c-32.667 -15.333 -49.5 -32.666 -50.5 -51.999s13.833 -39.333 44.5 -60c27.333 -18 42.666 -29.667 45.999 -35c2.66699 -5.33301 10.167 -7.5 22.5 -6.5
s20.166 -0.166992 23.499 -3.5c4 -6 15 -8.5 33 -7.5s30.333 4.5 37 10.5c8 8 16.5 23 25.5 45s13.5 38.667 13.5 50zM82.999 292.999c8 8.66699 24.332 27.3311 48.999 55.998c18.667 18.667 17.667 28 -3 28c-65.333 0 -89 51 -71 153c2.66699 17.333 7 28.333 13 33
s26.333 13.334 61 26.001c36.667 13.333 63.334 20 80.001 20c34 0.666992 64.333 -7.83301 91 -25.5s43.667 -40.5 51 -68.5c4.66699 -18.667 5.5 -34.834 2.5 -48.501s-11.167 -35.167 -24.5 -64.5c-5.33301 -12 -7.66602 -20 -6.99902 -24s5.66699 -11.667 15 -23
c12 -14.667 22.667 -31.667 32 -51c11.333 -25.333 12.666 -57.166 3.99902 -95.499s-24.667 -70.166 -48 -95.499c-8.66699 -10 -32.667 -20.5 -72 -31.5s-67 -14.833 -83 -11.5c-18.667 4 -40.667 14.333 -66 31s-43.333 32.667 -54 48c-18.667 27.333 -26 50.333 -22 69
s21.333 43.667 52 75z" />
    <glyph glyph-name="nine" unicode="9" horiz-adv-x="403" 
d="M78 477c-0.666992 -9.33301 -2.83301 -17.3359 -6.5 -24.0029s-5.83398 -12 -6.50098 -16s1 -15.333 5 -34c4.66699 -22 10 -36.333 16 -43s19.667 -13.667 41 -21c14.667 -5.33301 25.834 -7.66602 33.501 -6.99902s22.834 5.33398 45.501 14.001c32 12 55.333 24 70 36
c10.667 8.66699 16.667 16.167 18 22.5s0.666016 21.833 -2.00098 46.5c-6 60 -23 104.333 -51 133c-13.333 14 -28.5 19.333 -45.5 16s-38.5 -15.666 -64.5 -36.999c-35.333 -29.333 -53 -58 -53 -86zM317.001 220.997c0 2.66699 -2.33105 5.16895 -6.99805 7.50195
l-14.5 7c-5 2.33301 -7.16699 5.16602 -6.5 8.49902c0 5.33301 4.33301 6.33301 13 3c10 -2.66699 17.5 1.66602 22.5 12.999s8.83301 32.333 11.5 63l4 51l-31 -30c-18 -16.667 -34 -28 -48 -34s-37.333 -11.667 -70 -17c-33.333 -5.33301 -58 -4.33301 -74 3
s-35 26.666 -57 57.999c-9.33301 13.333 -15.5 32 -18.5 56s-1.5 43 4.5 57c4.66699 10 8 23.167 10 39.5s5.66699 29.5 11 39.5c5.33301 11.333 22.5 27.833 51.5 49.5s51.833 35.5 68.5 41.5c14 4.66699 23.667 7 29 7c5.33301 0.666992 17 -7.83301 35 -25.5
s32 -34.5 42 -50.5l20.5 -27.5c11.667 -15.667 19.5 -27.334 23.5 -35.001s9.66699 -19.5 17 -35.5s12.166 -32.833 14.499 -50.5s3.16602 -37.5 2.49902 -59.5c1.33301 -66 2 -101 2 -105c0 -34.667 -13.833 -65.167 -41.5 -91.5s-59.667 -44.5 -96 -54.5
s-73.5 -10.833 -111.5 -2.5s-66.667 27.166 -86 56.499c-10.667 16.667 -11.667 25.334 -3 26.001c5.33301 0.666992 13.333 -4 24 -14c6 -6 13 -11.167 21 -15.5s19.333 -8.66602 34 -12.999s22.667 -6.83301 24 -7.5c7.33301 -4.66699 24.833 -6.66699 52.5 -6
s47.167 3.33398 58.5 8.00098s25.5 17 42.5 37s25.5 34.333 25.5 43z" />
    <glyph glyph-name="colon" unicode=":" horiz-adv-x="174" 
d="M70 160c4 0.666992 9.33301 1.33301 16 2c23.333 2.66699 36.833 2.5 40.5 -0.5s5.16699 -14.833 4.5 -35.5c-0.666992 -6 -1 -10.667 -1 -14l-2 -55c-54 -5.33301 -83.333 -7.33301 -88 -6c-2 2 -4.5 18.833 -7.5 50.5s-3.5 48.5 -1.5 50.5s15 4.66699 39 8z
M115 471.999c14 4.66699 22.499 4.83203 25.499 0.499023s4.16699 -21.833 3.5 -52.5c-1.33301 -38 -3 -57 -5 -57c-3.33301 -0.666992 -31.666 -2.33398 -84.999 -5.00098c0.666992 15.333 -0.333008 46 -3 92c-0.666992 6.66699 0.833008 10.834 4.5 12.501
s12.167 2.83398 25.5 3.50098c20 1.33301 31.333 3.33301 34 6z" />
    <glyph glyph-name="semicolon" unicode=";" horiz-adv-x="179" 
d="M39 94c3.33301 28 4.6709 52.665 4.00391 73.998c47.333 -6 74.666 -11.667 81.999 -17c6.66699 -5.33301 9.66699 -17.666 9 -36.999s-5.33398 -41.666 -14.001 -66.999c-15.333 -48.667 -26 -75.667 -32 -81c-4.66699 -4 -16 -3 -34 3
c-1.33301 0.666992 -2.33301 1 -3 1c-9.33301 3.33301 -15.333 6.83301 -18 10.5s-2.83398 8.5 -0.500977 14.5s8.16602 15 17.499 27c18.667 28.667 19.667 44 3 46c-8.66699 0 -13.667 1.16699 -15 3.5s-1 9.83301 1 22.5zM149.005 429.998c0 -30.667 -3 -46.667 -9 -48
c-14.667 -4 -32.5 -7.5 -53.5 -10.5s-32.833 -3.5 -35.5 -1.5c-4 3.33301 -8.5 20 -13.5 50s-6.16699 46.333 -3.5 49c2.66699 4 9 6.66699 19 8c15.333 2.66699 42 2.66699 80 0c7.33301 -0.666992 11.833 -3.5 13.5 -8.5s2.5 -17.833 2.5 -38.5z" />
    <glyph glyph-name="equal" unicode="=" horiz-adv-x="466" 
d="M406 293c4 6.66699 11.666 9 22.999 7c4.66699 -2 7 -4.66699 7 -8c-1.33301 -4 -8.33301 -11.333 -21 -22c-8 -6 -19.667 -9.66699 -35 -11s-51.666 -2.33301 -108.999 -3c-140 0 -217 3.33301 -231 10c-16.667 8.66699 -11.667 14.667 15 18
c26 2.66699 81.333 3.66699 166 3c120 -1.33301 181.667 0.666992 185 6zM42.999 441c1.33301 2.66699 3.00098 4.66504 5.00098 5.99805s5 2.33301 9 3s7.16699 1 9.5 1h13h12.5c120.667 -12 207 -12.667 259 -2c36 7.33301 57.333 6 64 -4c3.33301 -4.66699 1 -10 -7 -16
c-11.333 -8.66699 -43.333 -16 -96 -22s-87.334 -6.33301 -104.001 -1c-1.33301 2.66699 -36 5.33398 -104 8.00098c-43.333 2.66699 -65 6.33398 -65 11.001c2.66699 8 4 13.333 4 16z" />
    <glyph glyph-name="greater" unicode="&#x3e;" horiz-adv-x="463" 
d="M72 515c10 -4.66699 23.8281 -7.99609 41.4951 -9.99609s31.167 -5.66699 40.5 -11c12 -6.66699 25.333 -13.334 40 -20.001l44 -21c34.667 -16 78.334 -28.333 131.001 -37c22 -4.66699 38 -8.66699 48 -12c8.66699 -3.33301 13.667 -6.5 15 -9.5s1 -9.5 -1 -19.5
c-2.66699 -10.667 -3.5 -21.167 -2.5 -31.5s0.5 -20.333 -1.5 -30s-6.33301 -16.834 -13 -21.501c-5.33301 -4 -9.16602 -9.33301 -11.499 -16s-4.5 -10 -6.5 -10s-11 0.666992 -27 2c-26 3.33301 -67.5 -4 -124.5 -22s-98.5 -37 -124.5 -57
c-7.33301 -6 -14.5 -10 -21.5 -12s-12.5 -2 -16.5 0s-6 6 -6 12c0 9.33301 20.167 24.166 60.5 44.499s82.5 36.833 126.5 49.5c23.333 6 52.333 16.667 87 32c9.33301 4 16.333 7.33301 21 10l12.5 7c3.66699 2 6 4.83301 7 8.5s1.83301 6.5 2.5 8.5
s0.833984 6.66699 0.500977 14s-0.5 13.333 -0.5 18c-95.333 13.333 -171.666 33.333 -228.999 60c-61.333 26.667 -94.666 40.667 -99.999 42c-4 0 -7 2.5 -9 7.5s-5.33301 7.16699 -10 6.5c-5.33301 0 -9.66602 3.16699 -12.999 9.5s-3.33301 11.166 0 14.499
c5.33301 5.33301 18.666 3.33301 39.999 -6z" />
    <glyph glyph-name="question" unicode="?" horiz-adv-x="373" 
d="M229 166c8.66699 0 13.998 -2.66699 15.998 -8c0.666992 -4.66699 1.66699 -23 3 -55c0.666992 -17.333 0 -27.5 -2 -30.5s-8 -4.5 -18 -4.5c-21.333 0 -53.666 -3.33301 -96.999 -10c8.66699 40 13.667 70.667 15 92c-0.666992 4 3.83301 6.5 13.5 7.5
s19.834 1.33301 30.501 1s16.667 0.5 18 2.5c2 3.33301 9 5 21 5zM160.998 235c0 13.333 14.335 38.332 43.002 74.999c29.333 38 52 72 68 102c11.333 21.333 18.166 36.666 20.499 45.999s2.5 23.333 0.5 42c-4 44 -20.667 73.333 -50 88c-8.66699 4 -18 4.83301 -28 2.5
s-32 -11.5 -66 -27.5c-49.333 -23.333 -80.333 -41.333 -93 -54c-16.667 -16.667 -25.334 -19 -26.001 -7c-0.666992 15.333 9.33301 35 30 59l5 6c57.333 58.667 115.333 76.334 174 53.001c26.667 -10.667 45 -19.167 55 -25.5s20.333 -17.166 31 -32.499
c10 -14.667 15.833 -25.667 17.5 -33s1.16699 -22 -1.5 -44c-2.66699 -28 -8.83398 -50.5 -18.501 -67.5s-33.5 -48.833 -71.5 -95.5c-36.667 -44 -57.667 -73 -63 -87c-2.66699 -8.66699 -6.16699 -14.5 -10.5 -17.5s-8.16602 -3 -11.499 0s-5 8.83301 -5 17.5z" />
    <glyph glyph-name="at" unicode="@" horiz-adv-x="750" 
d="M454 254c2 -3.33301 4.66699 2.33301 8 17c7.33301 31.333 10.333 51.333 9 60c-0.666992 4 -3.66699 -3.66699 -9 -23c-0.666992 -3.33301 -1.66699 -7.33301 -3 -12c-6 -26 -7.66699 -40 -5 -42zM403 407.999c-17.333 16.667 -34.499 26.165 -51.499 28.498
s-37.167 -2.16699 -60.5 -13.5c-16.667 -7.33301 -28 -14.666 -34 -21.999s-14.667 -22.666 -26 -45.999c-33.333 -69.333 -49.833 -129 -49.5 -179s17.166 -80 50.499 -90c17.333 -4.66699 40.5 -0.666992 69.5 12s56.167 30.667 81.5 54c18 18 29.333 30.667 34 38
s7 17 7 29c2 28.667 5.33301 52 10 70c6.66699 26.667 7.66699 49 3 67s-16 35.333 -34 52zM450.001 56.9971c-12.667 -3.33301 -21.333 -1.99707 -26 4.00293s-7.5 16.833 -8.5 32.5s-2.16699 25.5 -3.5 29.5c-2 6.66699 -4 10 -6 10
c-4 -0.666992 -13.667 -7.33398 -29 -20.001c-16.667 -13.333 -38.5 -25.333 -65.5 -36s-49.167 -16 -66.5 -16c-12.667 0 -25.834 4 -39.501 12s-24.834 18 -33.501 30c-8.66699 20.667 -13.5 46.834 -14.5 78.501s3.16699 60.5 12.5 86.5c36 89.333 60 141.333 72 156
c4 5.33301 19.833 13 47.5 23s47.167 15 58.5 15c18 0 40 -11 66 -33s42 -42.667 48 -62l1 -3c0.666992 1.33301 0.333984 6.66602 -0.999023 15.999c-2 18 0.666992 38.5 8 61.5s14.666 34.5 21.999 34.5c5.33301 0 8.33301 -3.16699 9 -9.5s0 -21.166 -2 -44.499
c-1.33301 -13.333 -4 -49 -8 -107c-1.33301 -20.667 -4 -37.334 -8 -50.001s-11 -28 -21 -46c-10.667 -19.333 -17.334 -34.333 -20.001 -45s-4 -26 -4 -46c0 -26 2 -40.5 6 -43.5s20.667 -1.16699 50 5.5c15.333 3.33301 27.5 8 36.5 14s21.167 17.667 36.5 35
c36 40 54 77 54 111c0 9.33301 5 36.333 15 81c10.667 47.333 14.167 83.833 10.5 109.5s-15.5 48.167 -35.5 67.5c-34.667 33.333 -59 53.833 -73 61.5s-35.333 12.834 -64 15.501c-31.333 2.66699 -71.166 2 -119.499 -2s-83.833 -9.33301 -106.5 -16
c-16 -5.33301 -36.167 -18 -60.5 -38s-38.166 -35.667 -41.499 -47c-3.33301 -8.66699 -11 -19.667 -23 -33c-18.667 -19.333 -35.334 -52.833 -50.001 -100.5s-22 -90.5 -22 -128.5c0 -34.667 7.5 -76.167 22.5 -124.5s30.167 -79.166 45.5 -92.499
c5.33301 -4.66699 16.5 -11.834 33.5 -21.501l61 -34l44.5 -24.5h85c38 0.666992 65 2.16699 81 4.5s38.333 8.5 67 18.5c38.667 13.333 77 29 115 47s63.333 32.667 76 44c5.33301 5.33301 11 9.16602 17 11.499s11 2.66602 15 0.999023s6 -4.83398 6 -9.50098
c0 -7.33301 -23 -24.5 -69 -51.5s-75.333 -40.5 -88 -40.5c-5.33301 -0.666992 -14 -4.5 -26 -11.5s-20.333 -10.833 -25 -11.5c-2 -0.666992 -6.66699 -2 -14 -4l-26.5 -7.5c-10.333 -3 -19.833 -5.5 -28.5 -7.5c-36.667 -10 -76.334 -13.333 -119.001 -10
c-30 2 -52 5.16699 -66 9.5s-39 15.5 -75 33.5c-52 26.667 -83 46.667 -93 60c-14.667 19.333 -27.5 48.666 -38.5 87.999s-17.5 79.666 -19.5 120.999c-2 34.667 -2.16699 58.834 -0.5 72.501s7.5 35.5 17.5 65.5c17.333 52 41.166 98.833 71.499 140.5
s61.5 71.167 93.5 88.5c13.333 6.66699 42 14.5 86 23.5s69.667 12.167 77 9.5c4.66699 -0.666992 12.834 0.333008 24.501 3s20.167 3.33398 25.5 2.00098c12.667 -1.33301 33.334 -4.33301 62.001 -9c25.333 -3.33301 45 -9 59 -17s37 -26.667 69 -56
c30.667 -28 47.834 -57.333 51.501 -88s-3.16602 -89 -20.499 -175c-9.33301 -46 -19.833 -80.5 -31.5 -103.5s-30.834 -46.5 -57.501 -70.5c-16.667 -16 -37.667 -26 -63 -30c-5.33301 -0.666992 -11.166 -1.5 -17.499 -2.5s-12.333 -2 -18 -3s-9.16699 -1.5 -10.5 -1.5z
" />
    <glyph glyph-name="A" unicode="A" horiz-adv-x="463" 
d="M219 354c-6 -8.66699 -12.666 -19.501 -19.999 -32.501s-16.333 -26.167 -27 -39.5c12 -4.66699 26.667 -7.16699 44 -7.5s40 0.5 68 2.5c32.667 2 52.667 3.83301 60 5.5s10 4.83398 8 9.50098c-4 9.33301 -14.5 48 -31.5 116s-30.833 110.333 -41.5 127
c-2 -27.333 -9.33301 -58.833 -22 -94.5s-25.334 -64.5 -38.001 -86.5zM264.001 579.999c0 8.66699 0.99707 14.6709 2.99707 18.0039s5 4.33301 9 3c5.33301 -1.33301 12.333 -14 21 -38s26.334 -83 53.001 -177c12.667 -44.667 22.834 -74.834 30.501 -90.501
s15.834 -23.5 24.501 -23.5c9.33301 0 15.333 -3 18 -9s0.333984 -11.667 -6.99902 -17c-6 -4.66699 -8.83301 -9.16699 -8.5 -13.5s4.16602 -16.5 11.499 -36.5c6 -16.667 10.167 -34.5 12.5 -53.5s2.83301 -35 1.5 -48s-4.66602 -19.5 -9.99902 -19.5
c-6.66699 0 -10.334 6.33301 -11.001 19c0 12.667 -0.666992 24.667 -2 36s-2.5 20.666 -3.5 27.999s-3.33301 16 -7 26l-7.5 20.5c-1.33301 3.66699 -4.66602 11.334 -9.99902 23.001s-9 19.5 -11 23.5c-130.667 0 -200.667 0.666992 -210 2
c-2 0.666992 -10.5 -11.166 -25.5 -35.499l-79.5 -133.5c-9.33301 -16.667 -17 -23.334 -23 -20.001c-2.66699 1.33301 -3.33398 5.66602 -2.00098 12.999c1.33301 9.33301 8.66602 24.666 21.999 45.999c12 18.667 23.333 38.167 34 58.5s18.667 37.166 24 50.499
s7 20.666 5 21.999c-3.33301 2.66699 -4.66602 5.83398 -3.99902 9.50098s3 7.16699 7 10.5s8 5 12 5c6.66699 0 21.167 16.833 43.5 50.5s38.833 63.834 49.5 90.501c9.33301 22.667 18.333 51.667 27 87s13 59.666 13 72.999z" />
    <glyph glyph-name="B" unicode="B" horiz-adv-x="482" 
d="M267 330c-8 -3.33301 -60.0029 -4.99805 -156.003 -4.99805c-2 -108.667 0.333008 -177 7 -205c2 -10 5.16699 -16.5 9.5 -19.5s13.5 -5.5 27.5 -7.5c30.667 -4.66699 53.834 -5.83398 69.501 -3.50098s32.834 10.166 51.501 23.499
c9.33301 6.66699 25.833 15.834 49.5 27.501s44.167 23.5 61.5 35.5s29 24.667 35 38l19 30l-14 25c-8.66699 17.333 -16.834 28.166 -24.501 32.499s-26.5 9.83301 -56.5 16.5c-8 2 -17 4 -27 6s-18.167 3.83301 -24.5 5.5s-10.166 2.5 -11.499 2.5
c-7.33301 2.66699 -12.666 2 -15.999 -2zM163.997 609.002c0 -4 -6.66797 -6.00098 -20.001 -6.00098s-25 -3.66699 -35 -11c-7.33301 -4.66699 -11.666 -10.167 -12.999 -16.5s-1.33301 -20.166 0 -41.499c4.66699 -53.333 9.33398 -113 14.001 -179l74 3
c83.333 4 142.666 22 177.999 54c16 14.667 27 22 33 22c4.66699 0 7.5 3.66699 8.5 11s0 15.833 -3 25.5s-7.5 17.834 -13.5 24.501c-4 4 -12.333 16.167 -25 36.5s-22 32.5 -28 36.5c-2.66699 0 -13 8.33301 -31 25c-10.667 10.667 -20 17.5 -28 20.5s-20 5.16699 -36 6.5
c-50 3.33301 -75 -0.333984 -75 -11.001zM29.9961 115.001c0 3.33301 2.1709 6.33203 6.50391 8.99902s8.5 4 12.5 4s6.66699 -1 8 -3c1.33301 -5.33301 6.66602 -8 15.999 -8s12.666 52.333 9.99902 157c-1.33301 99.333 -4.66602 170.333 -9.99902 213
c-3.33301 29.333 -3.5 55.333 -0.5 78s8.5 37.334 16.5 44.001c4 4 23 11 57 21c61.333 17.333 105.666 19.666 132.999 6.99902c37.333 -20 74.666 -56.667 111.999 -110c27.333 -41.333 37.666 -71.333 30.999 -90s-35.334 -39.667 -86.001 -63l-42 -20l34 -7.5l44.5 -9.5
c13 -2.66699 22.5 -4.66699 28.5 -6c10.667 -1.33301 22.334 -12 35.001 -32c12 -18.667 17 -40 15 -64c-2 -21.333 -8.33301 -38 -19 -50s-31.667 -26.333 -63 -43c-38 -21.333 -63.333 -37 -76 -47c-36.667 -27.333 -89.667 -34.333 -159 -21
c-25.333 5.33301 -49 12.333 -71 21s-33 15.334 -33 20.001z" />
    <glyph glyph-name="C" unicode="C" horiz-adv-x="493" 
d="M222 603c-16.667 0 -28.4951 -1.99805 -35.4951 -5.99805s-19.833 -15.333 -38.5 -34c-18.667 -19.333 -35.334 -41.666 -50.001 -66.999s-22 -44.333 -22 -57c0 -9.33301 -3.33301 -20 -10 -32c-24 -48 -18 -114.333 18 -199c16 -36.667 53 -58.667 111 -66
c26 -4 42.333 -8.66699 49 -14c7.33301 -6 30.166 -8.66699 68.499 -8s63.833 4.33398 76.5 11.001c14.667 6.66699 27 25.334 37 56.001c10 31.333 15 52 15 62c0.666992 10 4 15.333 10 16c6.66699 -2 10.667 -8.33301 12 -19c0 -14.667 -5 -37.334 -15 -68.001
s-18.333 -49 -25 -55c-16.667 -14.667 -46 -24 -88 -28s-73.667 -0.333008 -95 11c-10 4.66699 -18.833 7.66699 -26.5 9s-16.834 2.66602 -27.501 3.99902s-21.667 3.33301 -33 6c-24.667 5.33301 -44.834 15.666 -60.501 30.999s-29.834 38.666 -42.501 69.999
c-8.66699 20.667 -14.167 37.834 -16.5 51.501s-3.5 34.167 -3.5 61.5c0 18 0.666992 32.5 2 43.5s2.5 18.5 3.5 22.5s3.83301 11.167 8.5 21.5l11 24.5c11.333 36 29.5 70.667 54.5 104s49.167 55 72.5 65c15.333 7.33301 34 9.33301 56 6
c17.333 -2.66699 48.333 -14.667 93 -36s72 -37.333 82 -48s17.5 -23.334 22.5 -38.001s5.16699 -24.334 0.5 -29.001c-5.33301 -5.33301 -10 -2.33301 -14 9c-6.66699 16 -17.5 30.333 -32.5 43s-38.167 27 -69.5 43c-42 22 -74.667 33 -98 33z" />
    <glyph glyph-name="D" unicode="D" horiz-adv-x="446" 
d="M191 645c-48.667 14 -81.998 17.168 -99.998 9.50098s-30.333 -28.5 -37 -62.5c-2.66699 -19.333 -3.33398 -104.333 -2.00098 -255s3.66602 -227.667 6.99902 -231c2.66699 -2.66699 47.667 3.66602 135 18.999c23.333 4.66699 49 15.334 77 32.001s47.667 33 59 49
c22 32.667 37 59.5 45 80.5s13.667 48.833 17 83.5c7.33301 67.333 -3.66699 128.333 -33 183c-6 11.333 -22.167 26.166 -48.5 44.499s-44.833 28.5 -55.5 30.5c-10.667 1.33301 -32 7 -64 17zM249.002 652.001c11.333 0 31.8291 -9.83398 61.4961 -29.501
s49.834 -36.834 60.501 -51.501c10.667 -13.333 21.667 -38.666 33 -75.999c7.33301 -25.333 11.333 -44.333 12 -57s-0.666016 -34 -3.99902 -64c-24 -174 -116.333 -267.667 -277 -281c-48 -4 -74.333 -12.333 -79 -25
c-1.33301 -5.33301 -5.66602 -6.66602 -12.999 -3.99902s-11.333 16.334 -12 41.001c-0.666992 37.333 -1 127.833 -1 271.5s0.666992 216.5 2 218.5c0.666992 1.33301 2.66699 6.66602 6 15.999s6.33301 16.833 9 22.5s6.16699 12 10.5 19s8.5 11.5 12.5 13.5
c12 9.33301 29.333 14 52 14s46.334 -4.66699 71.001 -14c23.333 -9.33301 42 -14 56 -14z" />
    <glyph glyph-name="E" unicode="E" horiz-adv-x="533" 
d="M88 550c5.33301 -20.667 8 -79.667 8 -177c154.667 0 239 -2 253 -6c5.33301 -2.66699 8 -7 8 -13c1.33301 -4 -15.667 -6.16699 -51 -6.5s-79 0.166992 -131 1.5s-80.333 2 -85 2l-4 -41c-10 -103.333 -11.333 -164 -4 -182
c5.33301 -13.333 18.666 -17.666 39.999 -12.999l8 2c29.333 7.33301 72.833 11.5 130.5 12.5s107.834 -1.83301 150.501 -8.5c60.667 -9.33301 91.334 -16 92.001 -20c0 -1.33301 -2 -4 -6 -8c-6.66699 -6.66699 -31.334 -6.33398 -74.001 0.999023
c-55.333 8.66699 -116.666 11.5 -183.999 8.5s-123.333 -11.167 -168 -24.5c-4.66699 -0.666992 -8.5 -1 -11.5 -1s-5.16699 3.5 -6.5 10.5s-1.83301 16 -1.5 27s1.16602 27.167 2.49902 48.5c23.333 284 21 426 -7 426c-10.667 0 -16.167 2.16699 -16.5 6.5
s4.5 7.83301 14.5 10.5c11.333 2 19.333 6.33301 24 13c4 5.33301 7.66699 5 11 -1c4 -6 13 -6.33301 27 -1c29.333 11.333 74.5 19.5 135.5 24.5s109.167 4.83301 144.5 -0.5c10 -2 16.667 -4.16699 20 -6.5s4.66602 -5.5 3.99902 -9.5
c-1.33301 -5.33301 -7.16602 -8.5 -17.499 -9.5s-34.5 -0.833008 -72.5 0.5c-64 0.666992 -118 -3.66602 -162 -12.999c-48 -9.33301 -73.333 -15.333 -76 -18s-1 -14.334 5 -35.001z" />
    <glyph glyph-name="F" unicode="F" horiz-adv-x="466" 
d="M35 575c7.33301 5.33301 11.333 5.66895 12 1.00195c1.33301 -6 -1 -10 -7 -12c-2 -0.666992 -4.33301 -0.333984 -7 0.999023c-4 3.33301 -3.33301 6.66602 2 9.99902zM402 631.003c22.667 0 34 -3.33203 34 -9.99902c0 -7.33301 -10.333 -12.5 -31 -15.5
s-58.667 -5.16699 -114 -6.5c-12 0 -23.667 -0.166992 -35 -0.5s-20.833 -0.666016 -28.5 -0.999023s-16.5 -1.33301 -26.5 -3s-17.333 -2.83398 -22 -3.50098s-12 -2.33398 -22 -5.00098s-16.167 -4.16699 -18.5 -4.5s-9.33301 -2.16602 -21 -5.49902
s-18.167 -5.33301 -19.5 -6c-6 -2 -7.66699 -9 -5 -21c4 -14 6.66699 -43.667 8 -89c3.33301 -70.667 9 -107 17 -109c2.66699 -1.33301 7 1 13 7c5.33301 5.33301 38.666 9 99.999 11c38.667 1.33301 63.667 1.5 75 0.5s17 -3.83301 17 -8.5
c0 -7.33301 -6.83301 -12.333 -20.5 -15s-38.5 -4 -74.5 -4c-54.667 -0.666992 -94 -4 -118 -10v-115c-0.666992 -80 1 -120 5 -120c1.33301 0 3.33301 2.33301 6 7c1.33301 2.66699 2 1 2 -5c0 -4.66699 -0.333008 -11.334 -1 -20.001c-2 -19.333 -4.16699 -31 -6.5 -35
s-7.16602 -4.66699 -14.499 -2c-7.33301 4 -11 17.667 -11 41c-2.66699 217.333 -6.66699 368 -12 452c-0.666992 22 -5 33 -13 33c-8.66699 0 -11.334 2.66699 -8.00098 8c3.33301 6.66699 10 10.334 20 11.001c10.667 2.66699 23.667 6.66699 39 12
s27.333 9.16602 36 11.499s22.5 4.5 41.5 6.5s41.833 3 68.5 3c66.667 2.66699 100.667 5 102 7c2.66699 2.66699 15.334 4 38.001 4z" />
    <glyph glyph-name="G" unicode="G" horiz-adv-x="598" 
d="M449 539c15.333 -16 24.334 -36.9961 27.001 -62.9961c0.666992 -10 -0.666016 -14.667 -3.99902 -14c-4 1.33301 -9.66699 9 -17 23c-10.667 24 -32 49.667 -64 77s-56.667 41 -74 41c-8 0 -25.833 -2.33301 -53.5 -7s-46.834 -8.33398 -57.501 -11.001
c-9.33301 -3.33301 -35 -26.333 -77 -69s-65 -69.334 -69 -80.001c-5.33301 -14.667 -6 -43.167 -2 -85.5s11 -79.833 21 -112.5c7.33301 -24.667 14 -42.334 20 -53.001s15 -21 27 -31c24.667 -22 49.334 -37.167 74.001 -45.5s56 -13.166 94 -14.499
c30.667 -0.666992 51.667 0 63 2s27.333 8.33301 48 19c28 13.333 53.333 30 76 50c12 12 20 21.333 24 28s6 15 6 25c0 49.333 -53.667 76 -161 80c-50 1.33301 -75.667 3.33301 -77 6c-6.66699 6.66699 -1.33398 12 15.999 16c32 8.66699 69 9.66699 111 3
c29.333 -4.66699 63.666 -4.33398 102.999 0.999023c38.667 6 59 8 61 6c4 -4 4.83301 -8.83301 2.5 -14.5s-6.16602 -8.5 -11.499 -8.5c-2 0 -24 -5 -66 -15l18 -14c10.667 -8.66699 18 -23 22 -43s3 -37.667 -3 -53c-14 -34 -56.667 -65.667 -128 -95
c-28.667 -12 -48.834 -18.833 -60.501 -20.5s-31.5 -1.16699 -59.5 1.5c-38 3.33301 -64.667 7.66602 -80 12.999c-18.667 7.33301 -39.834 19.833 -63.501 37.5s-39.834 33.167 -48.501 46.5c-16 23.333 -29.167 61.333 -39.5 114s-15.833 104.667 -16.5 156l24 33
c14 20 36.5 45.167 67.5 75.5s52.833 48.833 65.5 55.5c4.66699 4 24.834 9.33301 60.501 16s54.834 10.667 57.501 12c6.66699 6.66699 28 -1 64 -23s62.667 -43.667 80 -65z" />
    <glyph glyph-name="H" unicode="H" horiz-adv-x="480" 
d="M34 610c8 0 13.9951 -8.83301 17.9951 -26.5s7 -49.167 9 -94.5l5 -95c1.33301 -1.33301 59 -2.66602 173 -3.99902c77.333 -2 125.333 -2.5 144 -1.5s29.667 4.5 33 10.5c4 6 6.66699 43 8 111c0.666992 66.667 4.33398 100 11.001 100c6 0 10.333 -5.33301 13 -16
c2.66699 -12 2.83398 -52.167 0.500977 -120.5s-5.16602 -105.166 -8.49902 -110.499c-4.66699 -10 -7.66699 -57.333 -9 -142c-1.33301 -56.667 -2.66602 -92.834 -3.99902 -108.501s-4 -23.5 -8 -23.5c-6.66699 0 -10 1.66699 -10 5c-4.66699 122.667 -2 209.667 8 261
c-60 5.33301 -176.667 9.33301 -350 12c0 -4.66699 0.5 -30.834 1.5 -78.501s2.33301 -86.5 4 -116.5s3.83398 -48 6.50098 -54c8.66699 -2.66699 10.5 -11.667 5.5 -27s-12.167 -23 -21.5 -23c-6 0 -9.66699 2 -11 6c-2 8.66699 -4 68 -6 178v2
c-3.33301 198 -8 309 -14 333c-4 15.333 -3.33301 23 2 23z" />
    <glyph glyph-name="I" unicode="I" horiz-adv-x="99" 
d="M69 300c0 -84.667 -1.00098 -140.499 -3.00098 -167.499s-6.33301 -40.5 -13 -40.5s-10.334 65.667 -11.001 197c-1.33301 125.333 -4 211 -8 257c-1.33301 10 -2.33301 20.167 -3 30.5s-1 18.333 -1 24s0.333008 9.16699 1 10.5c2 2.66699 4.83301 3.66699 8.5 3
s7.33398 -3.16699 11.001 -7.5s5.83398 -8.83301 6.50098 -13.5c8 -36.667 12 -134.334 12 -293.001z" />
    <glyph glyph-name="J" unicode="J" horiz-adv-x="376" 
d="M134 89c7.33301 0 10.999 0.333984 10.999 1.00098c0.666992 1.33301 -6 5.66602 -20 12.999c-25.333 12.667 -37.333 16.667 -36 12c0.666992 -2.66699 4.33398 -6.66699 11.001 -12c10.667 -9.33301 22 -14 34 -14zM325.999 584.001c0 -14 4 -35.335 12 -64.002
c8 -14 9.66699 -43 5 -87s-5.66699 -74 -3 -90c4.66699 -36 -1.66602 -78.667 -18.999 -128s-39 -87 -65 -113c-22 -22 -50.5 -35 -85.5 -39s-62.5 2.33301 -82.5 19c-7.33301 6.66699 -18.833 27.334 -34.5 62.001s-23.5 57.667 -23.5 69s5.66699 13 17 5
c8 -5.33301 14.667 -13.333 20 -24c6.66699 -14.667 17 -29 31 -43c13.333 -12.667 33 -24.5 59 -35.5s43.667 -14.833 53 -11.5c24.667 9.33301 49.667 41.666 75 96.999c10.667 22.667 16.667 40.167 18 52.5s0.666016 41.833 -2.00098 88.5
c-4.66699 114.667 -11 188.334 -19 221.001c-4 20.667 -4.5 32.834 -1.5 36.501s12.5 5.16699 28.5 4.5c11.333 -2 17 -8.66699 17 -20z" />
    <glyph glyph-name="K" unicode="K" horiz-adv-x="424" 
d="M105 372c-5.33301 8.66699 -16.666 4 -33.999 -14c-10 -10.667 -15.667 -18 -17 -22s0.666992 -7.66699 6 -11c4 -2.66699 13.167 3.5 27.5 18.5s20.166 24.5 17.499 28.5zM382 610c4.66699 0 8.16309 -1.16992 10.4961 -3.50293s2.83301 -5.33301 1.5 -9
s-4.33301 -7.16699 -9 -10.5c-8.66699 -7.33301 -29.167 -28 -61.5 -62s-54.166 -55.333 -65.499 -64c-32 -26 -57.833 -49.167 -77.5 -69.5s-27.834 -32.166 -24.501 -35.499c4.66699 -4.66699 23.667 -15 57 -31c29.333 -14 48.166 -27 56.499 -39s19.833 -42 34.5 -90
c12.667 -43.333 16.334 -67.666 11.001 -72.999c-6 -6 -9.66699 -7.66699 -11 -5c-2 2 -10.167 26.833 -24.5 74.5s-22.166 72.5 -23.499 74.5c-3.33301 6.66699 -23.166 19.5 -59.499 38.5l-56.5 29.5c-6 4 -11.5 5.5 -16.5 4.5s-12.833 -6.5 -23.5 -16.5
c-15.333 -14.667 -26.333 -22.667 -33 -24c-4.66699 -1.33301 -7.33398 -15.333 -8.00098 -42s1 -53.667 5 -81c2 -14 1.33301 -27.333 -2 -40s-8.33301 -19 -15 -19c-2.66699 0 -5.5 20.667 -8.5 62s-5.33301 90.5 -7 147.5s-2.16699 105.167 -1.5 144.5
c0.666992 74.667 4.33398 111 11.001 109c13.333 -4 19 -47.667 17 -131c-1.33301 -52 -0.666016 -78 2.00098 -78c1.33301 -0.666992 3.33301 1 6 5c12 16 28.667 20.333 50 13c6.66699 -2.66699 13.334 -2 20.001 2s18.667 14 36 30c12.667 13.333 32.5 31 59.5 53
s43.167 35.667 48.5 41c2.66699 4.66699 19.167 21.834 49.5 51.501s47.833 44.167 52.5 43.5z" />
    <glyph glyph-name="L" unicode="L" horiz-adv-x="419" 
d="M30 559c0 10.667 5.33008 15.999 15.9971 15.999c17.333 0 27.333 -5.5 30 -16.5s2.33398 -44.833 -0.999023 -101.5c-3.33301 -57.333 -4.66602 -132.333 -3.99902 -225s3 -140.667 7 -144c9.33301 -2 42.5 1.5 99.5 10.5s89.833 13.167 98.5 12.5
c23.333 0.666992 48 -2 74 -8s39 -12 39 -18c0 -16 -16.333 -18.333 -49 -7c-20 6.66699 -42.5 9.33398 -67.5 8.00098s-69.5 -7.33301 -133.5 -18c-49.333 -9.33301 -76.666 -12.666 -81.999 -9.99902c-2 1.33301 -5 29.5 -9 84.5s-6 96.833 -6 125.5
c0 12.667 2.66699 51.667 8 117c10 105.333 10.667 162.333 2 171c-5.33301 5.33301 -10.333 4.66602 -15 -2.00098c-3.33301 -4 -5.33301 -5.83301 -6 -5.5s-1 3.83301 -1 10.5z" />
    <glyph glyph-name="M" unicode="M" horiz-adv-x="603" 
d="M561 68c-6.66699 0 -10 18.3398 -10 55.0068c0 38 -4 72.333 -12 103c-7.33301 30 -12 83 -14 159c-3.33301 131.333 -8.66602 197 -15.999 197c-2.66699 0 -18.667 -41.833 -48 -125.5s-51.333 -148.834 -66 -195.501c-2.66699 -10 -11 -32.833 -25 -68.5
s-22 -61.5 -24 -77.5c0 -12.667 -3 -19 -9 -19c-8.66699 0.666992 -33.334 48.334 -74.001 143.001c-10.667 26 -23.334 52.333 -38.001 79l-31 57c-6 13.333 -13 25.666 -21 36.999s-15 28 -21 50c-9.33301 28.667 -16.666 42.667 -21.999 42c-2 0 -4 -2.66699 -6 -8
c-2 -4.66699 -10.333 -54.667 -25 -150c-18.667 -120 -32.334 -200 -41.001 -240s-16.667 -60 -24 -60c-4 0 -5 6.33301 -3 19c18 103.333 38.333 226.666 61 369.999c14.667 93.333 19.334 144.666 14.001 153.999c-5.33301 10 -6.66602 18.667 -3.99902 26
c6 16 15.667 8 29 -24c4.66699 -12 9.33398 -26.333 14.001 -43c7.33301 -26.667 33.833 -85.834 79.5 -177.501s74.834 -155.167 87.501 -190.5l14 -31c21.333 44 54 130.5 98 259.5s67.333 204.5 70 226.5c-2 11.333 1.66699 19 11 23
c5.33301 2 9.66602 -0.333008 12.999 -7c7.33301 -22.667 14.666 -89.834 21.999 -201.501s14.333 -181.5 21 -209.5c7.33301 -30.667 11.166 -66.834 11.499 -108.501s-3.5 -62.834 -11.5 -63.501z" />
    <glyph glyph-name="N" unicode="N" horiz-adv-x="491" 
d="M77 617c6.66699 0 10.667 -3.00586 12 -9.00586c8.66699 -30 26.334 -80 53.001 -150c11.333 -35.333 34.166 -77.833 68.499 -127.5s70.833 -92.5 109.5 -128.5c26.667 -25.333 46.667 -48.666 60 -69.999c7.33301 -10.667 13.666 -19 18.999 -25s8.33301 -8.66699 9 -8
c13.333 13.333 22 101.333 26 264c1.33301 54 2.5 94 3.5 120s2.16699 48.167 3.5 66.5s3 29.5 5 33.5s4.66699 5.33301 8 4c7.33301 -2.66699 7.66602 -91.334 0.999023 -266.001c-3.33301 -85.333 -9 -155.333 -17 -210c-6 -36.667 -12.333 -55.667 -19 -57
c-5.33301 -0.666992 -13.333 7 -24 23c-21.333 28.667 -51.333 65.334 -90 110.001c-25.333 25.333 -51.666 54.333 -78.999 87s-43.666 54.334 -48.999 65.001c-3.33301 6.66699 -8.33301 15.834 -15 27.501l-16 28.5c-4 7.33301 -8.66699 16.833 -14 28.5
s-10 23.834 -14 36.501c-13.333 40 -21.666 60.333 -24.999 61c-2.66699 0.666992 -4.66699 -4.66602 -6 -15.999c-1.33301 -10 -2.66602 -32.667 -3.99902 -68c-6 -124.667 -12 -194.667 -18 -210c-5.33301 -12.667 -9.83301 -32.5 -13.5 -59.5
s-3.83398 -41.167 -0.500977 -42.5c4.66699 -1.33301 7 -4.33301 7 -9c0 -4 -2.33301 -5 -7 -3c-2 1.33301 -3.66699 0.833008 -5 -1.5s-2 -5.33301 -2 -9s-0.666992 -6.66699 -2 -9s-3 -2.83301 -5 -1.5c-10.667 6.66699 -8.33398 58 6.99902 154
c8.66699 52.667 14.667 128.334 18 227.001c3.33301 96 8.33301 144 15 144z" />
    <glyph glyph-name="O" unicode="O" horiz-adv-x="514" 
d="M376 525c-4 0 -20 6.99902 -48 20.999c-36.667 19.333 -68 27.833 -94 25.5s-50.667 -16.166 -74 -41.499c-30.667 -32.667 -51.334 -57.334 -62.001 -74.001s-20 -38 -28 -64c-10.667 -35.333 -16 -68.333 -16 -99c-0.666992 -20.667 0.666016 -36.5 3.99902 -47.5
s12.666 -29.167 27.999 -54.5c14 -24 24.833 -40.5 32.5 -49.5s17.834 -16.5 30.501 -22.5c18.667 -9.33301 45.667 -15.666 81 -18.999s64.333 -2.66602 87 2.00098c61.333 13.333 98.5 25.666 111.5 36.999s22.833 39.333 29.5 84c5.33301 36 3.83301 84.333 -4.5 145
s-18.166 97 -29.499 109c-2 1.33301 -9.16699 9.33301 -21.5 24s-21.166 22.667 -26.499 24zM324 574.999c0 -2.66699 6.99414 -6.00195 20.9941 -10.002c14.667 -2.66699 34.334 -15.667 59.001 -39c38.667 -29.333 63.667 -85.666 75 -168.999s6.33301 -150.333 -15 -201
c-9.33301 -23.333 -22.166 -39.5 -38.499 -48.5s-52.166 -18.833 -107.499 -29.5c-44 -8.66699 -88.167 -7.83398 -132.5 2.49902s-74.5 26.833 -90.5 49.5c-14.667 20.667 -28.5 45.334 -41.5 74.001s-20.5 50.667 -22.5 66c-2 20.667 0.333008 50.834 7 90.501
s14.667 67.5 24 83.5c14.667 24 34.334 51 59.001 81s47.334 50.333 68.001 61c16.667 8.66699 43.334 11.5 80.001 8.5s55 -9.5 55 -19.5z" />
    <glyph glyph-name="P" unicode="P" horiz-adv-x="410" 
d="M252 589c-6 3.33301 -27.3359 5.16504 -64.0029 5.49805s-64.334 -0.833984 -83.001 -3.50098c-11.333 -1.33301 -19.666 -4.33301 -24.999 -9s-9.83301 -13.667 -13.5 -27s-5.33398 -32.166 -5.00098 -56.499s0.5 -57.166 0.5 -98.499v-65
c12.667 2.66699 41.334 2 86.001 -2s74 -3.33301 88 2c20.667 4.66699 41.334 14.334 62.001 29.001s34 29.334 40 44.001c5.33301 13.333 9.33301 17.333 12 12c0.666992 -1.33301 1.33398 -2.83301 2.00098 -4.5s1.33398 -0.833984 2.00098 2.49902l2 49
c-1.33301 40.667 -4 64.5 -8 71.5s-19.667 16.5 -47 28.5l-19.5 8.5l-19.5 8.5c-4.66699 2 -8 3.66699 -10 5zM379.997 498.999c0 -22.667 -2.66602 -45 -7.99902 -67s-10.666 -33 -15.999 -33c-4 0 -10 -7.66699 -18 -23c-7.33301 -14.667 -23.333 -29 -48 -43
c-17.333 -10 -32.5 -16.167 -45.5 -18.5s-41.167 -4.5 -84.5 -6.5l-93 -4l2 -122c0.666992 -76 -1.33301 -115.667 -6 -119c-0.666992 -1.33301 -2.33398 -1.66602 -5.00098 -0.999023c-5.33301 1.33301 -9 9.83301 -11 25.5s-4 54.834 -6 117.501
c-4.66699 87.333 -8.33398 210.333 -11.001 369l13.5 10l13 9.5c2.33301 1.66699 6.33301 4.16699 12 7.5s10.5 5.66602 14.5 6.99902s9.16699 2.83301 15.5 4.5s13.166 3 20.499 4s15.333 1.5 24 1.5c34.667 2 61 2.33301 79 1c18 -2 41.833 -9.66699 71.5 -23
s50.834 -26 63.501 -38c10 -9.33301 16.333 -17.333 19 -24s4 -18.334 4 -35.001z" />
    <glyph glyph-name="Q" unicode="Q" horiz-adv-x="407" 
d="M239 534c0 11.333 10.999 13.667 32.999 7c20.667 -6.66699 34.667 -16.667 42 -30l9 -17c0 26 -4.66699 41.333 -14 46c-11.333 6 -35 9.5 -71 10.5s-59.667 -1.16699 -71 -6.5c-53.333 -25.333 -89.333 -82 -108 -170c-10.667 -49.333 -11.667 -89 -3 -119
s29.667 -57.667 63 -83c24.667 -20.667 47.167 -31.834 67.5 -33.501s41.5 3.16602 63.5 14.499c-12 7.33301 -23.167 18.333 -33.5 33s-13.166 26.334 -8.49902 35.001c2.66699 5.33301 5.33398 6 8.00098 2l8 -12c11.333 -19.333 23.5 -31.833 36.5 -37.5
s23.833 -3.5 32.5 6.5c7.33301 7.33301 19.333 27 36 59c28.667 58 34.667 114.333 18 169c-7.33301 24.667 -11 43 -11 55c0.666992 10.667 -6.83301 22.334 -22.5 35.001s-32.834 21 -51.501 25c-15.333 4 -23 7.66699 -23 11zM309.999 124.001c4 0 9.66699 -7 17 -21
c10.667 -19.333 21.667 -34.666 33 -45.999c14.667 -17.333 19.334 -28.666 14.001 -33.999c-2.66699 -4 -11.834 0.666992 -27.501 14s-33.834 30.833 -54.501 52.5s-32.334 33.5 -35.001 35.5c-37.333 -8 -68.333 -8.66699 -93 -2s-51.667 23.667 -81 51
c-42 40 -59.333 89.667 -52 149c8 67.333 22.667 120.166 44 158.499s51 65.5 89 81.5c18.667 7.33301 42.834 10.166 72.501 8.49902s57.167 -7.83398 82.5 -18.501c8 -3.33301 13.167 -7 15.5 -11s3.16602 -10.333 2.49902 -19
c0.666992 -16.667 4.83398 -34.5 12.501 -53.5s13.167 -36.833 16.5 -53.5c10.667 -41.333 12.834 -79.5 6.50098 -114.5s-22.5 -72.833 -48.5 -113.5c-25.333 -41.333 -30 -62.666 -14 -63.999z" />
    <glyph glyph-name="R" unicode="R" horiz-adv-x="526" 
d="M48 535c-1.33301 4 -2.33398 3 -3.00098 -3c-2 -14.667 -1.66699 -22 1 -22c0.666992 0 1.33398 1 2.00098 3c1.33301 8 1.33301 15.333 0 22zM242.999 604c-6 4.66699 -31.999 8 -77.999 10s-74 1 -84 -3c-16 -6.66699 -23.333 -13.334 -22 -20.001l3 -4
c2.66699 -2 4.83398 -13.833 6.50098 -35.5s3 -44.667 4 -69s1.83301 -38.166 2.5 -41.499c2.66699 -28.667 3.66699 -55.334 3 -80.001c36 6 73.667 6.66699 113 2c34 -3.33301 58.333 -1.66602 73 5.00098c13.333 7.33301 22.666 9 27.999 5
c5.33301 -3.33301 17.666 -4.5 36.999 -3.5s37.666 3.83301 54.999 8.5c60 16 74.667 57.333 44 124c-25.333 53.333 -68.666 83 -129.999 89c-30.667 4 -49 8.33301 -55 13zM416 147c0 -18 13.6689 -47.334 41.002 -88.001c19.333 -30 29.333 -38.667 30 -26
c0 6 1.66699 5.66699 5 -1c0 -0.666992 0.333008 -1.66699 1 -3c3.33301 -8.66699 4 -16.167 2 -22.5s-6 -9.5 -12 -9.5c-9.33301 0 -22.666 12.5 -39.999 37.5s-30.333 50.5 -39 76.5c-4 13.333 -13.667 34.666 -29 63.999l-52 95.5c-19.333 34.333 -30 53.166 -32 56.499
c-2.66699 6 -35.667 10.333 -99 13s-99 1.33398 -107 -3.99902c-6 -4.66699 -8.66699 -46 -8 -124c0.666992 -72.667 -1.33301 -110.667 -6 -114c-0.666992 -1.33301 -2.33398 -1.66602 -5.00098 -0.999023c-5.33301 0.666992 -8.83301 10.334 -10.5 29.001
s-3.5 68.334 -5.5 149.001c-2 116.667 -6 180.667 -12 192c-5.33301 10 -7.83301 30 -7.5 60s3.16602 53 8.49902 69c6.66699 17.333 15.334 28.333 26.001 33c24.667 12.667 78.334 12.667 161.001 0s138 -29 166 -49c27.333 -19.333 47.666 -44.333 60.999 -75
s16.666 -60 9.99902 -88c-2.66699 -13.333 -13.167 -25.833 -31.5 -37.5s-39.166 -19.5 -62.499 -23.5c-28.667 -4.66699 -45.334 -9 -50.001 -13c-4.66699 -2.66699 -3.33398 -11.834 3.99902 -27.501s26.333 -49.167 57 -100.5c24 -39.333 36 -62 36 -68z" />
    <glyph glyph-name="S" unicode="S" horiz-adv-x="486" 
d="M402 537c0 -4 5.00195 -11.6729 15.002 -23.0059s14.333 -20.333 13 -27c0 -10.667 2.66699 -18.667 8 -24c5.33301 -6 5.66602 -11.333 0.999023 -16c-6 -7.33301 -14 -1.66602 -24 17.001c-4.66699 8 -6.66699 14 -6 18c0 23.333 -20.5 49 -61.5 77s-81.5 44 -121.5 48
c-27.333 3.33301 -51.333 0 -72 -10c-27.333 -12.667 -51.5 -32.5 -72.5 -59.5s-31.5 -51.5 -31.5 -73.5c0 -7.33301 15.5 -25.166 46.5 -53.499s55.167 -47.166 72.5 -56.499c20 -10 46.833 -20.167 80.5 -30.5s62.5 -16.833 86.5 -19.5
c18 -2.66699 31.833 -6.83398 41.5 -12.501s28.834 -21.5 57.501 -47.5c10.667 -10 17 -18.167 19 -24.5s2.33301 -19.166 1 -38.499c-2 -31.333 -8.33301 -54.666 -19 -69.999s-27.334 -25.333 -50.001 -30c-20.667 -5.33301 -32 -9.33301 -34 -12
c-2.66699 -3.33301 -17 -9.16602 -43 -17.499s-43.333 -12.5 -52 -12.5c-14 4.66699 -38.5 20.334 -73.5 47.001s-57.5 42.667 -67.5 48c-44 22.667 -66 52.667 -66 90c0 14.667 2 22 6 22c4 -0.666992 9 -10 15 -28c4.66699 -15.333 10.167 -26.5 16.5 -33.5
s19.5 -16.833 39.5 -29.5c32 -20.667 56 -38.334 72 -53.001c23.333 -21.333 41 -32.833 53 -34.5s39.333 3.16602 82 14.499c50.667 13.333 76.667 20.666 78 21.999c7.33301 10.667 12.833 24.834 16.5 42.501s4.5 32.834 2.5 45.501
c-2.66699 20 -14.834 39.5 -36.501 58.5s-42.5 28.5 -62.5 28.5c-16.667 0 -48.834 8 -96.501 24s-80.5 29.667 -98.5 41c-24.667 16.667 -47.834 37.167 -69.501 61.5s-33.834 43.5 -36.501 57.5c-3.33301 26.667 7.83398 55.834 33.501 87.501
s58.334 54.834 98.001 69.501s82.5 13 128.5 -5c22.667 -10 46.834 -23.833 72.501 -41.5s38.5 -29.834 38.5 -36.501z" />
    <glyph glyph-name="T" unicode="T" horiz-adv-x="551" 
d="M521 625c0 -5.33301 -4.00098 -9.33398 -12.001 -12.001s-26.667 -5.66699 -56 -9c-116.667 -14 -175 -26 -175 -36c0 -8.66699 3 -45.334 9 -110.001c4 -44.667 6 -76.667 6 -96s-2.33301 -44.666 -7 -75.999c-8 -52.667 -11.333 -93 -10 -121
c0.666992 -44.667 -5 -65.334 -17 -62.001c-2 0.666992 -4.33301 2.33398 -7 5.00098c-5.33301 5.33301 -5 36 1 92c17.333 142.667 19.666 236.334 6.99902 281.001c-4.66699 23.333 -7.66699 44.666 -9 63.999c0 18.667 -2.66699 28.667 -8 30
c-0.666992 0 -4 0.333008 -10 1s-13.5 1.33398 -22.5 2.00098s-17.5 1 -25.5 1c-26 2 -55.167 -0.166992 -87.5 -6.5s-51.166 -13.5 -56.499 -21.5c-3.33301 -4 -6.66602 -5 -9.99902 -3c-4 4.66699 5 15.334 27 32.001c18.667 15.333 70 23.333 154 24
c88 1.33301 165.333 10 232 26c10 3.33301 27 5.66602 51 6.99902c10 0.666992 16.833 0.166992 20.5 -1.5s5.5 -5.16699 5.5 -10.5z" />
    <glyph glyph-name="U" unicode="U" horiz-adv-x="484" 
d="M349 103c-4 0 -13.667 -5.67188 -29 -17.0049c-13.333 -10 -33 -19.167 -59 -27.5s-48 -12.5 -66 -12.5c-17.333 0 -37 9.66699 -59 29c-50.667 44.667 -82.334 118.334 -95.001 221.001c-5.33301 39.333 -8.83301 89.5 -10.5 150.5s-0.5 95.167 3.5 102.5
c8.66699 16.667 14.334 13.334 17.001 -9.99902c1.33301 -11.333 2 -29.333 2 -54c2 -108 10.333 -193.333 25 -256s37.334 -108.334 68.001 -137.001c9.33301 -9.33301 17.666 -15.166 24.999 -17.499s19.333 -3.16602 36 -2.49902c26 0.666992 54.5 8.83398 85.5 24.501
s54.167 33.834 69.5 54.501c14.667 19.333 24.834 39.333 30.501 60s11.5 59.667 17.5 117c12.667 129.333 25.334 189.333 38.001 180c2 -0.666992 3.66699 -3 5 -7c1.33301 -14.667 -1.83398 -44.167 -9.50098 -88.5s-11.5 -74.833 -11.5 -91.5
c-2.66699 -38.667 -7.66699 -72.667 -15 -102c-5.33301 -21.333 -16.333 -46 -33 -74s-28.334 -42 -35.001 -42z" />
    <glyph glyph-name="V" unicode="V" horiz-adv-x="502" 
d="M36 490c-4.66699 -0.666992 -6.66406 10.332 -5.99707 32.999c1.33301 16.667 4.33301 24.334 9 23.001c8.66699 0 29.5 -36.667 62.5 -110s52.167 -125.666 57.5 -156.999c4.66699 -24.667 18.667 -61.334 42 -110.001s38.666 -73 45.999 -73
c3.33301 0 8.66602 9 15.999 27l72 177c22 57.333 46 108 72 152s44.667 66 56 66c13.333 0 13.333 -10 0 -30c-2.66699 -4 -6 -8.33301 -10 -13c-28.667 -34 -58.667 -91.333 -90 -172c-23.333 -59.333 -38.666 -95 -45.999 -107
c-6.66699 -12.667 -11.834 -25.5 -15.501 -38.5s-10.167 -28.167 -19.5 -45.5c-9.33301 -20 -17.333 -32.833 -24 -38.5s-13.834 -5.83398 -21.501 -0.500977s-17.834 17.666 -30.501 36.999c-18.667 28.667 -31 51.334 -37 68.001
c-3.33301 10.667 -7.16602 20.334 -11.499 29.001s-7.83301 17.167 -10.5 25.5s-5.66699 21.5 -9 39.5c-4.66699 22 -8.5 37.167 -11.5 45.5s-7.16699 18 -12.5 29s-11 24.833 -17 41.5c-28.667 77.333 -45 116 -49 116c-2.66699 0 -4.5 -2.5 -5.5 -7.5
s-3.16699 -7.16699 -6.5 -6.5z" />
    <glyph glyph-name="W" unicode="W" horiz-adv-x="729" 
d="M699 606c0 -8 -6.66113 -20.3359 -19.9941 -37.0029c-14.667 -18.667 -25.334 -49.334 -32.001 -92.001c-3.33301 -19.333 -6.33301 -41.166 -9 -65.499s-6.66699 -45.166 -12 -62.499c-35.333 -91.333 -56 -147.666 -62 -168.999
c-5.33301 -19.333 -12.666 -37 -21.999 -53s-16.666 -24 -21.999 -24s-10.833 7.33301 -16.5 22s-14.5 44.667 -26.5 90c-3.33301 14 -11.5 44.333 -24.5 91s-23.833 87.5 -32.5 122.5s-14.667 65.833 -18 92.5c-13.333 -28.667 -20 -48.667 -20 -60
c0 -20 -26.667 -86 -80 -198c-18 -36.667 -30.833 -64.834 -38.5 -84.501s-16.834 -40.834 -27.501 -63.501c-9.33301 -19.333 -16.666 -33.166 -21.999 -41.499s-10 -12.166 -14 -11.499c-7.33301 1.33301 -22.333 29 -45 83c-24.667 58.667 -42.5 105.5 -53.5 140.5
s-20.833 75.167 -29.5 120.5c-15.333 86 -27.333 133.667 -36 143c-3.33301 4 -5.16602 9.33301 -5.49902 16s1.5 10 5.5 10c12.667 -0.666992 23.667 -18.667 33 -54c10 -36.667 17.667 -69.667 23 -99s10.666 -55.333 15.999 -78s15 -52.667 29 -90
c38.667 -100.667 59.667 -151 63 -151c2 0 14 22.667 36 68s33 70 33 74c0 3.33301 9.66699 25.666 29 66.999l18 39.5l12.5 28c2.33301 5 5.16602 11.5 8.49902 19.5s5.33301 12.667 6 14s2.16699 5.5 4.5 12.5s3.66602 11.667 3.99902 14s2 8.83301 5 19.5s5.5 20 7.5 28
c7.33301 29.333 12.333 52 15 68c6 36.667 14.667 54.667 26 54l4 -2c5.33301 -3.33301 8 -11 8 -23c-0.666992 -12 5.66602 -50.833 18.999 -116.5s24.666 -113.167 33.999 -142.5c3.33301 -10.667 11.166 -38.5 23.499 -83.5s21.833 -75.5 28.5 -91.5
c4 -4 19.333 31 46 105c7.33301 20.667 13.666 39.334 18.999 56.001c5.33301 19.333 10 31 14 35c3.33301 4.66699 8.66602 33 15.999 85c6.66699 46.667 13 80.334 19 101.001s14.667 40 26 58c14.667 22 25.667 30.667 33 26c2.66699 -2 4 -5.33301 4 -10z" />
    <glyph glyph-name="X" unicode="X" horiz-adv-x="481" 
d="M334 165c0 -2.66699 2.99805 -7.33301 8.99805 -14s9 -11.334 9 -14.001c0 -8.66699 13.333 -29.5 40 -62.5s43.334 -49.5 50.001 -49.5c6 0 9 -5.66699 9 -17c0 -19.333 -9 -21 -27 -5c-6 5.33301 -13 12.333 -21 21c-35.333 38.667 -68 86 -98 142
c-8 16 -14.833 29 -20.5 39s-11.167 19 -16.5 27s-9.33301 13.667 -12 17l-15.5 18.5c-7.66699 9 -13.834 16.5 -18.501 22.5c-5.33301 6.66699 -9.33301 9.5 -12 8.5s-8.33398 -6.5 -17.001 -16.5c-8.66699 -10.667 -15.667 -21.834 -21 -33.501s-14 -25.834 -26 -42.501
c-9.33301 -12.667 -23.833 -35 -43.5 -67s-33.167 -52.667 -40.5 -62c-10.667 -3.33301 -15.667 1.66699 -15 15c0 4 4 22 12 54c0.666992 1.33301 1 2.33301 1 3l5 21c0.666992 -0.666992 1.66699 -4 3 -10c2 -12 4 -18.5 6 -19.5s4.33301 1.83301 7 8.5
c5.33301 14 23.333 43 54 87s49 74 55 90c0 4 -8.33301 15.667 -25 35c-7.33301 6.66699 -26 37.5 -56 92.5s-47.667 85.5 -53 91.5c-8 3.33301 -14.667 8 -20 14s-7 11 -5 15c4 6 9.83301 7.83301 17.5 5.5s11.167 -7.16602 10.5 -14.499c-1.33301 -7.33301 1 -11 7 -11
c10 0 31 -31.333 63 -94c8 -18 15.833 -32.333 23.5 -43s16.5 -22 26.5 -34s18.667 -23.333 26 -34c48.667 70 81.667 108.333 99 115c10 5.33301 19.833 14.333 29.5 27s19.834 21.667 30.501 27c14.667 6.66699 25 15.667 31 27c6.66699 10.667 11.667 16 15 16
c7.33301 0 7.66602 -7 0.999023 -21c-3.33301 -8 -7.66602 -13.667 -12.999 -17c-13.333 -7.33301 -40.166 -32.166 -80.499 -74.499s-65.166 -71.5 -74.499 -87.5l-20 -34c12.667 -14 33.667 -42.667 63 -86s45.333 -68.666 48 -75.999z" />
    <glyph glyph-name="Y" unicode="Y" horiz-adv-x="467" 
d="M431 589c12 0 0.667969 -25.6699 -33.999 -77.0029c-48 -70 -81 -120 -99 -150s-42 -75 -72 -135v-90c0 -64 -3.66699 -96 -11 -96c-2.66699 0.666992 -5 2.66699 -7 6c-4 6.66699 -6.66699 31.334 -8 74.001c-1.33301 34 -4.16602 63 -8.49902 87
s-9.16602 36 -14.499 36c-4 0 -7.66699 7 -11 21c-2 10.667 -7.83301 19.167 -17.5 25.5s-15.5 13.833 -17.5 22.5c-0.666992 4.66699 -13.167 32.334 -37.5 83.001s-36.5 79.334 -36.5 86.001c0 7.33301 -3.66699 14.666 -11 21.999c-4 4.66699 -7.66699 11.834 -11 21.501
s-5 17.667 -5 24s1.33301 10.166 4 11.499c7.33301 0 19.666 -11 36.999 -33s33.666 -47 48.999 -75c37.333 -71.333 59.666 -107 66.999 -107c0.666992 0 1.33398 0.666992 2.00098 2c3.33301 10.667 8.66602 12 15.999 4c3.33301 -3.33301 6 -7.66602 8 -12.999
c8 -17.333 14.333 -21.333 19 -12c2 3.33301 5 11.666 9 24.999c0.666992 2 1.33398 3.66699 2.00098 5c6 18.667 28.667 50 68 94s62 71 68 81s9.66699 16 11 18l8.5 13c4.33301 6.66699 7.66602 10.834 9.99902 12.501l9.5 6.5c4 2.66699 8.33301 5 13 7z" />
    <glyph glyph-name="Z" unicode="Z" horiz-adv-x="510" 
d="M430 602c2 -1.33301 -6.33203 -17.3369 -24.999 -48.0039l-64.5 -103c-24.333 -38 -38.833 -61.333 -43.5 -70l-40 -59.5c-25.333 -37.667 -43.666 -67.5 -54.999 -89.5c-12 -24.667 -39 -63.667 -81 -117c0 -1.33301 34.333 -2 103 -2c80 0 160 -7 240 -21
c4 -0.666992 7.66699 -2.5 11 -5.5s5 -5.83301 5 -8.5c0 -3.33301 -1.66699 -5.83301 -5 -7.5s-9.83301 -2.5 -19.5 -2.5s-22.334 1.16699 -38.001 3.5s-36.5 5.83301 -62.5 10.5c-57.333 10 -117 13.333 -179 10c-64 -3.33301 -97.333 -2.66602 -100 2.00098
s9.66602 21.334 36.999 50.001c27.333 27.333 48.333 56.333 63 87c20 40.667 47.333 84.334 82 131.001c24 32 51.167 73.333 81.5 124s46.166 80.334 47.499 89.001c6 0.666992 2.33301 1.33398 -11 2.00098c-78.667 6 -166.667 7.66699 -264 5
c-43.333 -1.33301 -66.333 -4 -69 -8c-2.66699 -6.66699 -6 -8.33398 -10 -5.00098c-3.33301 4 -4.33301 9 -3 15c1.33301 7.33301 4.5 11.833 9.5 13.5s17.833 2.83398 38.5 3.50098c13.333 0 34.333 2.16699 63 6.5s50 5.5 64 3.5c2 -2 39.333 -3.33301 112 -4
s110.334 -2.33398 113.001 -5.00098z" />
    <glyph glyph-name="underscore" unicode="_" horiz-adv-x="473" 
d="M30 -30c0 7.33301 4.33301 7.99805 13 1.99805c2 -1.33301 4 -3 6 -5c6 -6 72 -9.33301 198 -10c126.667 -1.33301 191 -3.33301 193 -6c6.66699 -6.66699 0.666992 -12.667 -18 -18c-6 -2 -13 -3.66699 -21 -5c-18 -3.33301 -68 -3.66602 -150 -0.999023
s-137.667 6.33398 -167 11.001c-35.333 6 -53.333 16.667 -54 32z" />
    <glyph glyph-name="grave" unicode="`" horiz-adv-x="189" 
d="M40 583c4 2.66699 17.833 4.8291 41.5 6.49609s37.167 4.5 40.5 8.5c4.66699 4.66699 10 6.33398 16 5.00098c10.667 -2 17.5 -25.667 20.5 -71s-0.5 -69.666 -10.5 -72.999c-8 2 -26.167 17.833 -54.5 47.5s-44.5 45.834 -48.5 48.501
c-7.33301 6.66699 -11.833 11.5 -13.5 14.5s-2 5.33301 -1 7s4.16699 3.83398 9.5 6.50098z" />
    <glyph glyph-name="a" unicode="a" horiz-adv-x="402" 
d="M52 156c0 -8.66699 11.334 -22.665 34.001 -41.998c16.667 -14.667 29.167 -23.334 37.5 -26.001s25.833 -4.33398 52.5 -5.00098c36 -0.666992 68.333 5.33301 97 18c31.333 14 50.166 28.833 56.499 44.5s0.5 33.5 -17.5 53.5c-9.33301 10 -17.833 16.5 -25.5 19.5
s-23.167 4.83301 -46.5 5.5c-46.667 2 -89.667 -4 -129 -18s-59 -30.667 -59 -50zM356.001 38.002c-12 0 -17.998 16.6719 -17.998 50.0049c0 16 -1.33301 24 -4 24c-1.33301 0 -3.33301 -1.33301 -6 -4c-8.66699 -6.66699 -26.334 -16.334 -53.001 -29.001
c-20 -9.33301 -35 -14.833 -45 -16.5s-29.333 -1.16699 -58 1.5c-24.667 1.33301 -42.667 3.5 -54 6.5s-23.333 8.83301 -36 17.5c-46.667 31.333 -61.334 63.666 -44.001 96.999c9.33301 17.333 33.666 32.166 72.999 44.499s83 18.5 131 18.5c29.333 0 47.5 -1 54.5 -3
s14.833 -8.66699 23.5 -20c7.33301 -10 12.666 -15.667 15.999 -17s6.33301 0.333984 9 5.00098c4.66699 7.33301 5.5 22.666 2.5 45.999s-8.83301 43.666 -17.5 60.999c-11.333 24 -24.666 40.667 -39.999 50s-37.666 14.666 -66.999 15.999
c-32.667 2 -58 -0.666992 -76 -8c-18.667 -8 -35.667 -18.333 -51 -31s-23 -22.667 -23 -30c0 -9.33301 -2.33301 -14 -7 -14c-3.33301 0 -5.5 3.33301 -6.5 10s-0.666992 14.167 1 22.5s4.16699 14.5 7.5 18.5c4.66699 6.66699 19 17 43 31s40.667 22.333 50 25
c15.333 4 36.5 5.5 63.5 4.5s45.833 -4.16699 56.5 -9.5c29.333 -16.667 53 -42.667 71 -78s23.333 -74.333 16 -117c-4.66699 -39.333 -6.33398 -76.333 -5.00098 -111c0.666992 -40.667 -1.66602 -61 -6.99902 -61z" />
    <glyph glyph-name="b" unicode="b" horiz-adv-x="429" 
d="M30 532c0 6 2.33496 9.00195 7.00195 9.00195c3.33301 -1.33301 5.83301 -7 7.5 -17s4.83398 -16 9.50098 -18c6.66699 -5.33301 13.5 -21 20.5 -47s12.167 -54.667 15.5 -86c3.33301 -29.333 6.33301 -43.333 9 -42c11.333 36 50 61 116 75c46 9.33301 83 3 111 -19
c12 -10 26.167 -26.333 42.5 -49s25.833 -39.334 28.5 -50.001c10.667 -42.667 -32.666 -115 -129.999 -217c-10.667 -10.667 -19.167 -17.667 -25.5 -21s-15.166 -5 -26.499 -5c-18.667 0 -37.834 4.16699 -57.501 12.5s-29.5 16.5 -29.5 24.5c0 7.33301 1 11 3 11
s12 -4.33301 30 -13c23.333 -11.333 41.333 -15.166 54 -11.499s32.667 18.5 60 44.5c23.333 22.667 44.666 48.834 63.999 78.501s31.333 55.5 36 77.5c3.33301 13.333 -7.5 35.166 -32.5 65.499s-46.5 47.166 -64.5 50.499c-15.333 2.66699 -38.5 0.333984 -69.5 -6.99902
s-51.5 -15.333 -61.5 -24c-16.667 -14.667 -27.5 -32.167 -32.5 -52.5s-7.16699 -55.166 -6.5 -104.499c0 -59.333 2 -104.333 6 -135c5.33301 -36 2.66602 -53.333 -8.00098 -52c-2 0.666992 -4.33301 2.33398 -7 5.00098c-10 10 -18 81.667 -24 215
c-1.33301 19.333 -2.66602 41.166 -3.99902 65.499s-2.33301 40.666 -3 48.999s-1.83398 19.666 -3.50098 33.999s-3.83398 27.5 -6.50098 39.5s-6.33398 27.667 -11.001 47c-11.333 35.333 -17 57.666 -17 66.999z" />
    <glyph glyph-name="c" unicode="c" horiz-adv-x="344" 
d="M139 407c18 18 30.168 28.667 36.501 32s16.833 4.33301 31.5 3c35.333 -4 60 -19 74 -45c7.33301 -13.333 8.33301 -19.666 3 -18.999c-4.66699 0.666992 -12.334 6 -23.001 16c-39.333 36.667 -78 35 -116 -5c-10 -10.667 -24.333 -32.5 -43 -65.5
s-31 -58.167 -37 -75.5c-18 -50.667 -10.5 -96.334 22.5 -137.001s72.5 -53.334 118.5 -38.001c18 6 40.333 23 67 51c29.333 30.667 43.333 40.667 42 30c-1.33301 -5.33301 -6.33301 -15.333 -15 -30c-17.333 -29.333 -36.5 -50.166 -57.5 -62.499
s-46.833 -17.5 -77.5 -15.5c-44.667 2.66699 -79.667 20 -105 52s-34 71.667 -26 119c4.66699 28 17 60.167 37 96.5s42.667 67.5 68 93.5z" />
    <glyph glyph-name="d" unicode="d" horiz-adv-x="389" 
d="M331 164c0.666992 2.66699 -7.16699 18.998 -23.5 48.998s-24.5 46 -24.5 48c0 6.66699 -11 21 -33 43s-38.333 35 -49 39c-14.667 6.66699 -25.667 9.5 -33 8.5s-21 -6.16699 -41 -15.5c-14 -6.66699 -24 -13.167 -30 -19.5s-13.333 -18.833 -22 -37.5
c-14 -35.333 -20.167 -69.666 -18.5 -102.999s11.667 -62.166 30 -86.499s40.833 -36.833 67.5 -37.5c10 0 25.333 5.83301 46 17.5s36 23.167 46 34.5c9.33301 12 18 18 26 18c7.33301 0 11 2.33301 11 7c-0.666992 2 1.5 4.66699 6.5 8s10.667 6.5 17 9.5
s12 6.16699 17 9.5s7.5 6 7.5 8zM352.999 72.998c-4 0 -7.00098 2.16504 -9.00098 6.49805s-4.66699 14.5 -8 30.5c-1.33301 6.66699 -2.66602 10.834 -3.99902 12.501s-3.16602 2.16699 -5.49902 1.5s-6.5 -3 -12.5 -7c-11.333 -7.33301 -21.666 -18.666 -30.999 -33.999
c-6 -10 -11.167 -16.5 -15.5 -19.5s-10.833 -4.16699 -19.5 -3.5c-12 1.33301 -22 -0.666992 -30 -6c-11.333 -8.66699 -25.5 -14.5 -42.5 -17.5s-33.167 -2.5 -48.5 1.5c-19.333 5.33301 -34.833 13.333 -46.5 24s-22.5 27 -32.5 49c-25.333 54 -23 112.667 7 176
c10.667 22.667 19.334 37.667 26.001 45s17.334 14.333 32.001 21c21.333 10 44.666 14 69.999 12c22.667 -2 42.167 -10 58.5 -24s35.166 -38.667 56.499 -74c17.333 -31.333 27.666 -47 30.999 -47c1.33301 7.33301 1.66602 33.333 0.999023 78s-2.16699 93.667 -4.5 147
s-4.16602 81.333 -5.49902 84c-2 2.66699 -1.66699 9 1 19c2 7.33301 5 11.833 9 13.5s7.66699 0.5 11 -3.5s5 -10 5 -18c1.33301 -24.667 4.66602 -115.667 9.99902 -273c3.33301 -129.333 2.33301 -194 -3 -194z" />
    <glyph glyph-name="e" unicode="e" horiz-adv-x="394" 
d="M99 260c0 -2.66699 6.99805 -4.33594 20.998 -5.00293s30.833 0 50.5 2s37.167 4.66699 52.5 8c98.667 22.667 124 59.334 76 110.001c-10 12 -24.5 23.333 -43.5 34s-36.167 17.334 -51.5 20.001c-11.333 -0.666992 -23.166 -6 -35.499 -16s-22.5 -22.667 -30.5 -38
c-7.33301 -14.667 -15.666 -35.667 -24.999 -63s-14 -44.666 -14 -51.999zM256.998 428.998c10 0 27.001 -10.665 51.001 -31.998c20.667 -19.333 33.667 -36.666 39 -51.999s3.16602 -29.833 -6.50098 -43.5s-27.167 -26.834 -52.5 -39.501
c-15.333 -7.33301 -41.5 -15 -78.5 -23s-65.833 -12 -86.5 -12c-13.333 0 -22 -1.16699 -26 -3.5s-7 -7.5 -9 -15.5c-3.33301 -14 -3 -29.333 1 -46s11 -30 21 -40c11.333 -14 35.666 -25.5 72.999 -34.5s77 -14.5 119 -16.5l32 31c20.667 20.667 31 27.334 31 20.001
c-1.33301 -5.33301 -6.66602 -15 -15.999 -29c-12 -18 -24.667 -29.5 -38 -34.5s-36 -6.16699 -68 -3.5c-66 5.33301 -113 19.666 -141 42.999s-40 58.333 -36 105c1.33301 18 1.16602 29 -0.500977 33s-7.16699 8 -16.5 12c-8.66699 3.33301 -14.5 6.66602 -17.5 9.99902
s-2.5 5.66602 1.5 6.99902s10.667 1.33301 20 0l24 -5c4.66699 35.333 16 71.833 34 109.5s35.333 60.5 52 68.5c26.667 14 48.334 14.667 65.001 2c10 -7.33301 19.667 -11 29 -11z" />
    <glyph glyph-name="f" unicode="f" 
d="M315 434c0 -8 -8 -12 -24 -12c-19.333 -0.666992 -47.5 -4.5 -84.5 -11.5s-62.5 -11.167 -76.5 -12.5c-7.33301 -44.667 -7.33301 -95 0 -151s18 -106.333 32 -151c3.33301 -10.667 2 -16 -4 -16c-8 0 -13.667 8.66699 -17 26c-0.666992 3.33301 -2.5 9.83301 -5.5 19.5
s-5 16 -6 19s-2.66699 8.66699 -5 17s-3.83301 14.5 -4.5 18.5s-1.83398 10 -3.50098 18s-2.83398 15.167 -3.50098 21.5l-2.5 23c-1 9 -1.83301 18.333 -2.5 28s-1 20.167 -1 31.5l-4 101c-18 -6.66699 -37.667 -7.66699 -59 -3c-9.33301 2.66699 -14 6.33398 -14 11.001
c1.33301 4.66699 8 7.66699 20 9c33.333 1.33301 51.833 3.16602 55.5 5.49902s6.5 13.5 8.5 33.5c2 21.333 9 47.5 21 78.5s22.333 49.833 31 56.5c13.333 9.33301 25.833 10.166 37.5 2.49902s21.5 -18.5 29.5 -32.5s10.667 -23.333 8 -28
c-2 -0.666992 -4.66699 0.333008 -8 3s-7.16602 6.33398 -11.499 11.001s-8.33301 9.16699 -12 13.5s-7.66699 8.83301 -12 13.5s-7.16602 8 -8.49902 10c-23.333 -20.667 -40.666 -64.667 -51.999 -132c-3.33301 -18 -2.5 -28.5 2.5 -31.5s19.167 -1.16699 42.5 5.5
c18.667 6 45 10 79 12c23.333 2 38.166 2.66699 44.499 2s9.5 -3.66699 9.5 -9z" />
    <glyph glyph-name="g" unicode="g" horiz-adv-x="408" 
d="M276 6c4.66699 8.66699 9.66504 23.6689 14.998 45.002s8 37 8 47c-3.33301 2.66699 -10.166 -1.5 -20.499 -12.5s-22.5 -26.833 -36.5 -47.5c-20 -32 -32.667 -49.333 -38 -52c-4.66699 -2.66699 -7.16699 -9.83398 -7.5 -21.501s1.83398 -18.834 6.50098 -21.501
c5.33301 -3.33301 17.333 3.16699 36 19.5s31 30.833 37 43.5zM202.998 450.002c62.667 0 103.999 -14 123.999 -42c14.667 -22 19.334 -37.333 14.001 -46c-0.666992 -2 -2.33398 -3 -5.00098 -3c-4.66699 0 -7 4.66699 -7 14c0 10.667 -8.66699 21.667 -26 33
c-12 9.33301 -22.667 15 -32 17s-29.333 3 -60 3h-65c-40 -42.667 -66.333 -81 -79 -115c-16 -34.667 -20.167 -70.334 -12.5 -107.001s25.834 -60.667 54.501 -72c14.667 -7.33301 32.167 -10 52.5 -8s34.833 7.66699 43.5 17c32 47.333 53 106.666 63 177.999
c6 30 5.66699 51.667 -1 65c-6 12.667 -6.33301 21.667 -1 27c8 8 16 0 24 -24c2 -4.66699 3.66699 -10.334 5 -17.001c19.333 -71.333 30 -125.333 32 -162c2.66699 -43.333 5 -65 7 -65c3.33301 0 11.333 6.33301 24 19c14 12.667 20.667 15.334 20 8.00098
c-1.33301 -8 -9.33301 -21 -24 -39c-16 -16.667 -27 -37.334 -33 -62.001c-4.66699 -18.667 -13.5 -40.5 -26.5 -65.5s-24.5 -42.167 -34.5 -51.5c-11.333 -10 -24 -17.667 -38 -23c-12 -4.66699 -20 -6.83398 -24 -6.50098s-9.33301 3.83301 -16 10.5
c-10 10.667 -13.833 21.334 -11.5 32.001s13.5 30.334 33.5 59.001c23.333 33.333 41 56.5 53 69.5s23.333 20.833 34 23.5c7.33301 2 12 5.33301 14 10s3 15.334 3 32.001c0 12 -1.16699 30.333 -3.5 55s-5 46.834 -8 66.501s-5.16699 28.834 -6.5 27.501
c-2 -2 -9 -23.333 -21 -64c-15.333 -52.667 -30.333 -88.334 -45 -107.001s-36.334 -30 -65.001 -34c-29.333 -4 -56.833 4 -82.5 24s-40.5 45.333 -44.5 76c-6.66699 45.333 0.833008 91.333 22.5 138s48.834 78.667 81.501 96c14.667 8.66699 37 13 67 13z" />
    <glyph glyph-name="h" unicode="h" horiz-adv-x="400" 
d="M85 262c3.33301 0 7.99902 7.66504 13.999 22.998c15.333 35.333 35 65.333 59 90s48.333 40.334 73 47.001c13.333 3.33301 23.5 4.33301 30.5 3s18.5 -6.33301 34.5 -15c24 -13.333 41.5 -27.833 52.5 -43.5s18.167 -35.167 21.5 -58.5
c0.666992 -6 -3.16602 -52.167 -11.499 -138.5s-10.5 -133.166 -6.5 -140.499s3.5 -12.666 -1.5 -15.999s-10.167 -2.33301 -15.5 3c-11.333 11.333 -10.333 67.666 3 168.999c9.33301 68.667 11 115.167 5 139.5s-24.667 45.833 -56 64.5
c-13.333 8.66699 -23.333 13.667 -30 15s-15.334 0.333008 -26.001 -3c-15.333 -4 -33.666 -16.667 -54.999 -38s-37.666 -43.333 -48.999 -66c-14 -27.333 -23 -52.333 -27 -75s-5.33301 -54.334 -4 -95.001c2.66699 -51.333 4.33398 -78.333 5.00098 -81
c1.33301 -5.33301 -0.5 -12.666 -5.5 -21.999s-9.16699 -13.333 -12.5 -12c-5.33301 7.33301 -9.5 42.166 -12.5 104.499s-5.16699 96.833 -6.5 103.5c-2.66699 14 -6.33398 68.333 -11.001 163c-3.33301 86 -8.33301 124.333 -15 115
c-1.33301 -1.33301 -2.66602 -5 -3.99902 -11s-2.33301 -5.66699 -3 1c-0.666992 1.33301 -1 3 -1 5c0 12 2.66699 20.667 8 26c4 4 8 6.5 12 7.5s7.5 0.5 10.5 -1.5s4.83301 -5.33301 5.5 -10c1.33301 -13.333 3.16602 -43.333 5.49902 -90s4.66602 -86.167 6.99902 -118.5
s4.5 -47.166 6.5 -44.499z" />
    <glyph glyph-name="i" unicode="i" horiz-adv-x="119" 
d="M61 83c-6.66699 0 -10.498 6.16602 -11.498 18.499s-1.83301 51.833 -2.5 118.5c-0.666992 105.333 -2.33398 158 -5.00098 158l-5 -5c-4 0 -6.33301 3 -7 9c2 23.333 5.66699 36.333 11 39c4 1.33301 9.66699 -0.666992 17 -6c4.66699 -3.33301 7.66699 -14.333 9 -33
s1.66602 -58 0.999023 -118c-0.666992 -86 0.333008 -129 3 -129c1.33301 0 2.66602 2.33301 3.99902 7c4.66699 12 8.33398 18 11.001 18c6 0.666992 5.33301 -13.666 -2 -42.999c-5.33301 -22.667 -13 -34 -23 -34zM52.002 568.999c8.66699 0 13.001 -8 13.001 -24
c0 -30.667 -6 -46 -18 -46c-5.33301 0 -10 9 -14 27s-4 30 0 36c3.33301 4.66699 9.66602 7 18.999 7z" />
    <glyph glyph-name="j" unicode="j" horiz-adv-x="242" 
d="M143 415c-4 -0.666992 -6.83105 1.16602 -8.49805 5.49902s-2.16699 9 -1.5 14s2.33398 7.83301 5.00098 8.5c4 0 10 -4.33301 18 -13s12 -15.334 12 -20.001c0 -6 2.33301 -9 7 -9c4 0 9.66699 -12.333 17 -37c18 -62.667 24 -134.167 18 -214.5
s-22 -141.166 -48 -182.499c-11.333 -16.667 -19.333 -31 -24 -43c-2.66699 -6.66699 -19.334 -17.667 -50.001 -33s-47.667 -21.333 -51 -18c-6 5.33301 -8.16699 20.166 -6.5 44.499s5.5 36.5 11.5 36.5c4 0 5 -7 3 -21c-4 -19.333 -3.5 -30.666 1.5 -33.999
s16.833 0.333984 35.5 11.001c10 6 18.167 11.833 24.5 17.5s10.666 10 12.999 13s6.33301 9.5 12 19.5l12.5 22c22.667 38 37 96 43 174s1 141.667 -15 191c-8.66699 29.333 -13.334 46 -14.001 50c-3.33301 12 -8.33301 18 -15 18zM159.002 504
c-12 12 -15.335 31.001 -10.002 57.001s17 37.667 35 35c6.66699 -1.33301 10.834 -4.33301 12.501 -9s2.83398 -15.334 3.50098 -32.001c0.666992 -50 -9 -70 -29 -60z" />
    <glyph glyph-name="k" unicode="k" horiz-adv-x="309" 
d="M38 527c6 -1.33301 11.668 -9.16504 17.001 -23.498s9 -22.5 11 -24.5c5.33301 -6 7.33301 -40.333 6 -103c-0.666992 -57.333 0.666016 -87.333 3.99902 -90c2 -0.666992 5.33301 -0.333984 10 0.999023c10.667 2.66699 28.667 17.334 54 44.001
c24 24 40.5 41.667 49.5 53s23.5 33 43.5 65c21.333 33.333 35 50 41 50c3.33301 0 5 -1 5 -3c-0.666992 -2.66699 -13.334 -24.667 -38.001 -66c-26.667 -44.667 -57 -85.334 -91 -122.001c19.333 -18 35 -43 47 -75c8.66699 -24.667 16.334 -43 23.001 -55
c4 -6.66699 8.5 -17.5 13.5 -32.5s8.83301 -28.5 11.5 -40.5s3 -18 1 -18c-2.66699 0 -1.66699 -2.33301 3 -7c7.33301 -7.33301 7.66602 -23.333 0.999023 -48c-3.33301 -10 -6.33301 -15 -9 -15s-4.66699 6.33301 -6 19c0 12.667 -3 31.667 -9 57
c-5.33301 19.333 -18.5 53.666 -39.5 102.999s-34.5 77 -40.5 83c-4 4 -15.167 1.66699 -33.5 -7s-28.166 -13 -29.499 -13c-8.66699 -2.66699 -13 -19.667 -13 -51c0 -33.333 3 -54 9 -62c6.66699 -10 8.66699 -30.333 6 -61c-1.33301 -3.33301 -5 -5 -11 -5
c-18 0 -26.667 73.333 -26 220c0 72.667 -1 122.5 -3 149.5s-6.33301 48.833 -13 65.5c-2.66699 8 -0.666992 12 6 12z" />
    <glyph glyph-name="l" unicode="l" horiz-adv-x="107" 
d="M37 583c8.66699 5.33301 14.667 3.00098 18 -6.99902c2.66699 -8.66699 6 -28.334 10 -59.001c12.667 -90.667 15 -176.667 7 -258c-6.66699 -60 -7.66699 -102.667 -3 -128c6 -31.333 4 -46 -6 -44c-2 0.666992 -4.66699 2.66699 -8 6
c-13.333 13.333 -14.666 80 -3.99902 200c9.33301 114 3.66602 201 -17.001 261c-4.66699 15.333 -3.66699 25 3 29z" />
    <glyph glyph-name="m" unicode="m" horiz-adv-x="585" 
d="M462 415c22.667 0 41.8398 -5.33398 57.5068 -16.001s25.167 -24.667 28.5 -42c6.66699 -38 8 -74.167 4 -108.5s-14.667 -77.833 -32 -130.5c-1.33301 -4.66699 -10.333 -34.334 -27 -89.001c-2.66699 -11.333 -7.33398 -17 -14.001 -17
c-4.66699 0.666992 -7.33398 4.66699 -8.00098 12c-0.666992 6 2.66602 19.833 9.99902 41.5s12.666 34.5 15.999 38.5c4 4 6 11.333 6 22c0 8 5.66699 28.333 17 61c11.333 30 16 63.667 14 101c-1.33301 31.333 -3.5 53 -6.5 65s-9.5 22 -19.5 30
c-10.667 8.66699 -26.334 13.167 -47.001 13.5s-39 -3.83398 -55 -12.501c-11.333 -6 -30.333 -21.5 -57 -46.5s-43.667 -43.167 -51 -54.5c-7.33301 -12.667 -12.333 -33.667 -15 -63c-2.66699 -24 -8.66699 -53.667 -18 -89s-16.666 -55.666 -21.999 -60.999
c-7.33301 -7.33301 -11 -2.66602 -11 14.001c0 17.333 3.66699 45 11 83c15.333 75.333 17.666 137 6.99902 185c-2.66699 14 -7.5 26.833 -14.5 38.5s-13.167 17.5 -18.5 17.5c-2.66699 0 -17.834 -13.333 -45.501 -40s-44.167 -43.667 -49.5 -51
c-12.667 -18 -24.334 -46.833 -35.001 -86.5s-18 -82.5 -22 -128.5c-2.66699 -29.333 -5.66699 -47.666 -9 -54.999s-10 -9.33301 -20 -6c-7.33301 2.66699 -8 7 -2 13c4.66699 6.66699 8.66699 26 12 58c10.667 125.333 48.667 218.666 114 279.999
c32.667 30.667 60 39 82 25c8 -5.33301 16 -20.666 24 -45.999s13 -49.333 15 -72l49 49c28.667 27.333 51.5 45.333 68.5 54s38.167 13 63.5 13z" />
    <glyph glyph-name="n" unicode="n" horiz-adv-x="334" 
d="M259 31c-2.66699 2 -3.83789 9.16406 -3.50488 21.4971s1.83301 29.166 4.5 50.499s6.33398 41.333 11.001 60c10.667 44.667 11.334 90.334 2.00098 137.001s-24.666 77.334 -45.999 92.001c-10 6.66699 -25.667 12.167 -47 16.5s-35.333 5.16602 -42 2.49902
s-18 -17.667 -34 -45s-28 -52.333 -36 -75c-9.33301 -29.333 -13.666 -75.666 -12.999 -138.999c0.666992 -66 -2 -101.667 -8 -107c-3.33301 -2.66699 -6 0 -8 8c-2.66699 10.667 -5 39 -7 85c-2.66699 54 -2.5 92.333 0.5 115s11.833 48.667 26.5 78
c26.667 56 48.334 88.667 65.001 98c18.667 10.667 44.667 10.167 78 -1.5s56.666 -28.167 69.999 -49.5c7.33301 -11.333 15 -35.5 23 -72.5s11 -61.5 9 -73.5l-7 -36c-4.66699 -23.333 -8.5 -45.166 -11.5 -65.499s-3.83301 -33.166 -2.5 -38.499
c2.66699 -8.66699 0.833984 -21 -5.49902 -37s-12.5 -24 -18.5 -24z" />
    <glyph glyph-name="o" unicode="o" 
d="M64 297c-5.33301 0 -8.16406 -6.33301 -8.49707 -19s1.83398 -28.167 6.50098 -46.5s10.667 -35.166 18 -50.499c13.333 -28 29.166 -50 47.499 -66s36.5 -23.667 54.5 -23c16.667 0.666992 33.667 7.5 51 20.5s30.666 28.833 39.999 47.5
c26.667 54 24.667 110.333 -6 169c-26.667 48 -44.667 70.333 -54 67c-1.33301 -0.666992 -2.33301 -1.66699 -3 -3c-6.66699 -7.33301 -10.667 -7.33301 -12 0c-1.33301 5.33301 0 10.666 4 15.999c4 6 5.5 10 4.5 12s-5.5 4.66699 -13.5 8
c-34.667 16 -65.334 8.5 -92.001 -22.5s-38.334 -60.833 -35.001 -89.5c2.66699 -13.333 2 -20 -2 -20zM273.002 386c0 -13.333 6.33105 -30.665 18.998 -51.998c12 -20.667 19.333 -47.334 22 -80.001s-0.333008 -59.334 -9 -80.001
c-15.333 -36 -34.666 -63.5 -57.999 -82.5s-47.333 -26.833 -72 -23.5c-46.667 6 -84.334 38 -113.001 96c-17.333 35.333 -27.666 63 -30.999 83c-4 27.333 0.333008 60.833 13 100.5s28 67.5 46 83.5c8.66699 8.66699 22.334 16.667 41.001 24c28.667 10 59.5 7 92.5 -9
s49.5 -36 49.5 -60z" />
    <glyph glyph-name="p" unicode="p" horiz-adv-x="380" 
d="M252 422c-30.667 8 -51.335 11.834 -62.002 11.501s-26.334 -6.5 -47.001 -18.5c-6.66699 -4 -14.667 -8.33301 -24 -13s-15 -7.66699 -17 -9s-4.5 -4.83301 -7.5 -10.5s-4.16699 -12.167 -3.5 -19.5s1.66699 -19 3 -35c2.66699 -41.333 -3.33301 -102.333 -18 -183
c-3.33301 -19.333 -0.333008 -33.333 9 -42c6.66699 -6 11 -9 13 -9s5.33301 3 10 9c8 11.333 12.667 14.666 14 9.99902c0.666992 -2 0.333984 -5 -0.999023 -9c-3.33301 -8 3 -11 19 -9c22.667 2.66699 55 13.667 97 33c22 10 38 21.167 48 33.5s19.333 32.5 28 60.5
c8.66699 29.333 13.334 51.5 14.001 66.5s-2.66602 34.833 -9.99902 59.5c-7.33301 22.667 -16 39.667 -26 51s-23 19 -39 23zM349.999 300.001c0 -69.333 -17.999 -121.996 -53.999 -157.996c-18.667 -18.667 -44.334 -35.167 -77.001 -49.5s-61.667 -21.5 -87 -21.5
c-28.667 0 -46 3 -52 9c-7.33301 6 -11 5.66699 -11 -1c-9.33301 -73.333 -8.66602 -117 2.00098 -131c9.33301 -24 8.33301 -36 -3 -36c-4 0 -11 10.667 -21 32c-6.66699 15.333 -10.167 29.666 -10.5 42.999s1.16699 45.333 4.5 96c6 83.333 9.33301 146 10 188
c2 50 1.33301 75.333 -2 76c-1.33301 0 -3 -0.666992 -5 -2c-10 -8.66699 -14.667 -8.66699 -14 0l7 19c6.66699 12.667 13.834 22.167 21.501 28.5s27.5 18.5 59.5 36.5c25.333 14 42.666 22.167 51.999 24.5s24.666 2.5 45.999 0.5
c31.333 -2.66699 55 -8.83398 71 -18.501s30.333 -25.834 43 -48.501c8.66699 -16 14.167 -29.333 16.5 -40s3.5 -26.334 3.5 -47.001z" />
    <glyph glyph-name="q" unicode="q" 
d="M129 429c-5.33301 0 -15.666 -8.33301 -30.999 -25s-25 -30.334 -29 -41.001c-4 -11.333 -4.66699 -21.666 -2 -30.999c2.66699 -10 1.33398 -15 -3.99902 -15c-3.33301 0 -5.66602 -7.5 -6.99902 -22.5s-1 -33.667 1 -56s5 -42.5 9 -60.5l11 -48l36 -14
c1.33301 -0.666992 3.66602 -1.66699 6.99902 -3c30.667 -12.667 50.5 -17.667 59.5 -15s23.5 16.667 43.5 42c1.33301 1.33301 2.66602 3.33301 3.99902 6c3.33301 3.33301 5.66602 6 6.99902 8c25.333 32.667 40.833 56.667 46.5 72s8.16699 42 7.5 80
c-0.666992 47.333 -4.66699 74 -12 80c-1.33301 4.66699 -24 13 -68 25s-70.333 18 -79 18zM89 431c14 12 28.334 18.332 43.001 18.999s41 -4 79 -14c64.667 -16.667 98.334 -35.667 101.001 -57c2.66699 -19.333 3.5 -106.166 2.5 -260.499
s-3.16699 -232.166 -6.5 -233.499c-4.66699 -1.33301 -8.33398 2 -11.001 10c-5.33301 17.333 -9 67.333 -11 150l-4 136l-40 -54c-23.333 -30 -40 -47 -50 -51s-31.333 -1 -64 9c-29.333 9.33301 -49.833 20.666 -61.5 33.999s-21.167 37.333 -28.5 72
c-10.667 49.333 -11.334 96.333 -2.00098 141s27 77.667 53 99z" />
    <glyph glyph-name="r" unicode="r" horiz-adv-x="252" 
d="M52 59c-12.667 0 -17.3301 78 -13.9971 234c1.33301 60.667 -0.333984 93.334 -5.00098 98.001c-6 7.33301 -5.33301 18.666 2 33.999c6 12.667 11.333 14.667 16 6c1.33301 -2 2.33301 -5.33301 3 -10v-15c12.667 17.333 28.667 32 48 44
c17.333 9.33301 31.833 13.666 43.5 12.999s25.5 -6.33398 41.5 -17.001c27.333 -18.667 38.666 -39.667 33.999 -63c-2 -9.33301 -7.33301 -6.66602 -16 8.00098c-12 20.667 -31.333 38.334 -58 53.001c-39.333 -19.333 -61 -34.333 -65 -45
c-4 -10 -7.83301 -44.5 -11.5 -103.5s-5.16699 -108.833 -4.5 -149.5c0.666992 -36 0.166992 -59.5 -1.5 -70.5s-5.83398 -16.5 -12.501 -16.5z" />
    <glyph glyph-name="s" unicode="s" horiz-adv-x="339" 
d="M37 359c0 29.333 5.49609 52 16.4961 68s28.833 22.667 53.5 20c3.33301 -0.666992 12.666 -2 27.999 -4s27 -3.33301 35 -4c20.667 -2 39.834 -6.5 57.501 -13.5s30.167 -15 37.5 -24s8 -17.167 2 -24.5c-4 -4.66699 -7.66699 -7.66699 -11 -9s-5.83301 -1 -7.5 1
s-2.5 5.33301 -2.5 10c0 8.66699 -5 15.334 -15 20.001c-11.333 5.33301 -31.166 10.5 -59.499 15.5s-51.5 7.5 -69.5 7.5c-14.667 0 -23.667 -1.16699 -27 -3.5s-7 -10.833 -11 -25.5c-5.33301 -18.667 -6 -34.667 -2 -48c4.66699 -12 18.5 -23.167 41.5 -33.5
s50.833 -17.5 83.5 -21.5c62.667 -8.66699 101 -25.667 115 -51c4.66699 -9.33301 6.83398 -16.5 6.50098 -21.5s-3.16602 -16.5 -8.49902 -34.5c-6.66699 -20 -18.5 -41.667 -35.5 -65s-32.833 -39.333 -47.5 -48c-27.333 -16 -71 -13 -131 9
c-24 8.66699 -38.833 15.167 -44.5 19.5s-9.16699 11.166 -10.5 20.499c-1.33301 10.667 -1.33301 16 0 16s5 -3.66699 11 -11c8 -9.33301 30.667 -19.333 68 -30s62.666 -14.334 75.999 -11.001c12.667 2.66699 28.334 13.334 47.001 32.001
c23.333 23.333 38.333 47.5 45 72.5s3.33398 43.5 -9.99902 55.5c-8 8 -29.667 14.333 -65 19c-58 7.33301 -100.167 18.833 -126.5 34.5s-39.5 36.5 -39.5 62.5z" />
    <glyph glyph-name="t" unicode="t" horiz-adv-x="342" 
d="M30 394c0 6 13.665 10 40.998 12c32 1.33301 51.167 5.5 57.5 12.5s9.5 27.5 9.5 61.5c0 36 -2 62.667 -6 80c-5.33301 20 -4.33301 29 3 27c2.66699 -0.666992 6 -3 10 -7c6.66699 -8 11 -36 13 -84c0.666992 -16.667 1.33398 -29.334 2.00098 -38.001
s1.5 -15.834 2.5 -21.501s2.16699 -9 3.5 -10s3.33301 -1.16699 6 -0.5c8 2 19.167 4.5 33.5 7.5s32 5.83301 53 8.5s33.167 1.33398 36.5 -3.99902c24 -10.667 24.333 -17.667 1 -21l-23 -2c-33.333 -0.666992 -72.333 -6.33398 -117 -17.001
c0 -10.667 0.5 -42.5 1.5 -95.5s1.16699 -97 0.5 -132s-2.66699 -58.833 -6 -71.5c-6.66699 -31.333 -12 -46 -16 -44c-3.33301 1.33301 -3.66602 15.333 -0.999023 42c4 40 2 136 -6 288c-4.66699 0.666992 -11.167 0.833984 -19.5 0.500977s-17.333 -0.5 -27 -0.5h-27
c-8.33301 0 -15 0.833008 -20 2.5s-6.83301 3.83398 -5.5 6.50098z" />
    <glyph glyph-name="u" unicode="u" horiz-adv-x="397" 
d="M165 87c54.667 8 97.6689 34.1699 129.002 78.5029s44 97.166 38 158.499c-4.66699 56.667 -1.66699 88.334 9 95.001c1.33301 1.33301 2.66602 1.66602 3.99902 0.999023c4 -1.33301 9 -21.833 15 -61.5s8 -64.834 6 -75.501
c-17.333 -78.667 -25.666 -137.667 -24.999 -177c0 -46 -3 -69 -9 -69c-2 0 -4.66699 2.66699 -8 8c-2.66699 6.66699 -4 45 -4 115c-34.667 -42 -56.667 -64 -66 -66c-8 0 -20.667 -4.66699 -38 -14c-20.667 -10.667 -39.334 -15.334 -56.001 -14.001
s-34.334 9.33301 -53.001 24c-30 23.333 -50.833 48.166 -62.5 74.499s-16.167 58.833 -13.5 97.5c8 101.333 15.333 157.333 22 168c2.66699 5.33301 6.66699 4 12 -4c4.66699 -9.33301 4 -33.666 -2 -72.999c-11.333 -85.333 -11.666 -144.333 -0.999023 -177
c4.66699 -16 19.667 -34.833 45 -56.5s44.666 -32.5 57.999 -32.5z" />
    <glyph glyph-name="v" unicode="v" horiz-adv-x="350" 
d="M44 362c0 12 -2.33203 19.3301 -6.99902 21.9971s-7 8.33398 -7 17.001s2.33301 14.667 7 18c11.333 7.33301 27.333 -40.334 48 -143.001c8.66699 -42.667 18.334 -79.167 29.001 -109.5s19.334 -45.166 26.001 -44.499c1.33301 0 6.16602 7.33301 14.499 22
s18.166 33.834 29.499 57.501s22 47.167 32 70.5c17.333 37.333 45 110.333 83 219c1.33301 4.66699 4.5 7.33398 9.5 8.00098s8.83301 -1.33301 11.5 -6c-0.666992 -13.333 -8.33398 -39.666 -23.001 -78.999s-23 -62.333 -25 -69c-16 -43.333 -37.167 -92.333 -63.5 -147
s-44.5 -86.334 -54.5 -95.001c-14.667 -14 -31.667 -5 -51 27c-14 24 -24.667 54 -32 90c-1.33301 9.33301 -6 31.833 -14 67.5s-12.333 60.5 -13 74.5z" />
    <glyph glyph-name="w" unicode="w" horiz-adv-x="579" 
d="M395 98c0 -18.667 -2.66992 -29.1689 -8.00293 -31.502s-12.666 3.83398 -21.999 18.501l-21 31.5c-9.33301 13.667 -15.5 23 -18.5 28s-7.66699 13.5 -14 25.5s-11.333 23.333 -15 34l-14 42c-5.66699 17.333 -11.5 37.666 -17.5 60.999l-12 42
c-6.66699 -33.333 -13.334 -57.666 -20.001 -72.999c-12.667 -26.667 -30.334 -80.334 -53.001 -161.001c-3.33301 -10 -10.166 -16.5 -20.499 -19.5s-19.5 -1.16699 -27.5 5.5c-12 10 -22.5 28.167 -31.5 54.5s-20.5 72.166 -34.5 137.499
c-5.33301 24 -13.666 50.333 -24.999 79c-10 23.333 -12.667 35 -8 35h4c18 -3.33301 35 -43.666 51 -120.999c20 -97.333 37.667 -152.333 53 -165c6 -4.66699 10 -6 12 -4c2.66699 2.66699 11 24 25 64c4.66699 16 11.834 34.833 21.501 56.5s16.834 41.334 21.501 59.001
s7 37.834 7 60.501c0 34.667 5 51.334 15 50.001c11.333 -1.33301 21.333 -18 30 -50c1.33301 -4 2.33301 -8.33301 3 -13c20 -89.333 42.333 -152.333 67 -189c12.667 -18.667 20.667 -28 24 -28c2 0 3.66699 2 5 6c10 29.333 22.167 58.5 36.5 87.5
s24.166 49.833 29.499 62.5c10.667 27.333 26.167 62.666 46.5 105.999s34.166 69 41.499 77c12.667 13.333 20.334 18.333 23.001 15c1.33301 -2 -1.33398 -7 -8.00098 -15c-12 -14 -38.333 -74 -79 -180c-11.333 -30 -19.666 -48.667 -24.999 -56
c-7.33301 -10 -16.166 -31 -26.499 -63s-15.5 -55 -15.5 -69z" />
    <glyph glyph-name="x" unicode="x" horiz-adv-x="355" 
d="M84 458c0 2.66699 1.66992 4.49902 5.00293 5.49902s6.83301 1.16699 10.5 0.5s5.5 -2.33398 5.5 -5.00098c4.66699 -8 16.5 -23.5 35.5 -46.5s31.833 -40.167 38.5 -51.5c19.333 -30 31.333 -39.333 36 -28c0.666992 2 1 4.66699 1 8c0 6.66699 12 23 36 49
s38 37.667 42 35c8.66699 -5.33301 4.66699 -17 -12 -35c-34.667 -39.333 -54.834 -64.833 -60.501 -76.5s-4.16699 -23.5 4.5 -35.5c7.33301 -9.33301 21.666 -41 42.999 -95c21.333 -53.333 36.666 -81.333 45.999 -84c10 -2.66699 13 -8 9 -16
c-3.33301 -7.33301 -9.66602 -10.333 -18.999 -9c-10 0.666992 -29.333 34.667 -58 102c-30 68.667 -46 103.667 -48 105c-2.66699 2.66699 -7.33398 0 -14.001 -8l-32.5 -45.5l-45.5 -63.5c-50.667 -69.333 -76.334 -92.333 -77.001 -69c0 8 2.33301 21 7 39
c4.66699 19.333 7.66699 29 9 29c0.666992 0.666992 1.33398 -3.66602 2.00098 -12.999c0.666992 -12 2 -18 4 -18l7 4c4 2 20.333 23.667 49 65s44 63 46 65c4 2.66699 9.66699 10.667 17 24c4.66699 8.66699 6.66699 15.5 6 20.5s-4.66699 13.833 -12 26.5
c-10.667 19.333 -24.667 41.833 -42 67.5s-28 39.834 -32 42.501c-4.66699 2 -7 5.66699 -7 11z" />
    <glyph glyph-name="y" unicode="y" horiz-adv-x="353" 
d="M318 436c4 -2.66699 4.49902 -14.001 1.49902 -34.001s-8.83301 -45.5 -17.5 -76.5s-17.667 -58.167 -27 -81.5c-39.333 -98.667 -74.666 -176.667 -105.999 -234c-8.66699 -13.333 -16 -28 -22 -44c-5.33301 -12.667 -12 -19 -20 -19c-4 0 -6 2.66699 -6 8
c0 4 10.333 27 31 69s33.667 66.333 39 73c8.66699 10.667 27.167 56.334 55.5 137.001s45.833 135.334 52.5 164.001c0.666992 3.33301 1.5 8.16602 2.5 14.499s1.83301 10.5 2.5 12.5s2.16699 4.16699 4.5 6.5s5.5 3.83301 9.5 4.5zM29.999 432.999
c4 0.666992 6.99902 1.49512 8.99902 2.49512s4.5 -0.666992 7.5 -5s5.16699 -8.16602 6.5 -11.499s3.66602 -8.5 6.99902 -15.5s6 -12.833 8 -17.5c24 -62.667 51.333 -127 82 -193c19.333 -41.333 25.333 -66.666 18 -75.999c-0.666992 -1.33301 -2 -2 -4 -2
c-10.667 0 -20 15 -28 45c-1.33301 8.66699 -9.66602 29.834 -24.999 63.501s-23.666 52.834 -24.999 57.501c0 3.33301 -3 11 -9 23c-4.66699 8.66699 -13.667 31.334 -27 68.001s-20 57 -20 61z" />
    <glyph glyph-name="z" unicode="z" horiz-adv-x="421" 
d="M90 108c0.666992 -1.33301 4 -1.83496 10 -1.50195s14 1.16602 24 2.49902c73.333 12.667 136 20.834 188 24.501s78.333 1.5 79 -6.5c0 -6.66699 -33 -12.667 -99 -18c-64.667 -4.66699 -111 -11 -139 -19c-16.667 -4.66699 -34.5 -7.83398 -53.5 -9.50098
s-34.667 -1.66699 -47 0s-18.5 4.83398 -18.5 9.50098c0 6.66699 5.66699 12.667 17 18c8.66699 4 22.334 18.667 41.001 44s35.667 52.333 51 81c3.33301 8 16.166 27.833 38.499 59.5l70 96.5l41.5 56c0 0.666992 -22.833 -0.333008 -68.5 -3s-84.167 -5.66699 -115.5 -9
c-35.333 -3.33301 -56.666 -10 -63.999 -20c-8.66699 -12.667 -13.667 -15 -15 -7c0 4 1.33301 10 4 18c5.33301 12.667 13 20.334 23 23.001c21.333 4.66699 54.5 9.5 99.5 14.5s70.833 6.83301 77.5 5.5c12.667 -1.33301 30 0 52 4c46.667 8 72 6.33301 76 -5
c0.666992 -2.66699 -0.833008 -5.5 -4.5 -8.5s-8.16699 -5.5 -13.5 -7.5c-15.333 -5.33301 -42.833 -33 -82.5 -83s-70.834 -96 -93.501 -138c-6 -13.333 -19.5 -34.666 -40.5 -63.999s-33.5 -48.333 -37.5 -57z" />
    <glyph glyph-name="uni0093" horiz-adv-x="279" 
d="M249 290c0 -8.66699 -6.00098 -19.1689 -18.001 -31.502s-23.667 -19.833 -35 -22.5c-13.333 -3.33301 -26.333 2.33398 -39 17.001c-8.66699 10 -13.667 17.5 -15 22.5s-0.333008 13.5 3 25.5c3.33301 12.667 11.833 32.5 25.5 59.5s24.167 44.833 31.5 53.5
c3.33301 6 9.33301 8.33301 18 7c16 -3.33301 13.667 -25.333 -7 -66c-12 -24.667 -13.667 -39 -5 -43c2 -0.666992 4.66699 -0.333984 8 0.999023c6.66699 2.66699 13.834 1.33398 21.501 -3.99902s11.5 -11.666 11.5 -18.999zM122.999 412.998
c0 -7.33301 -5.66797 -18.333 -17.001 -33c-6 -8 -10.167 -13.833 -12.5 -17.5s-3.66602 -7 -3.99902 -10s0.5 -5 2.5 -6s5.33301 -2.16699 10 -3.5c7.33301 -2 11.5 -6.83301 12.5 -14.5s-1.16699 -21.167 -6.5 -40.5c-4 -14.667 -10.167 -24.167 -18.5 -28.5
s-21.833 -5.5 -40.5 -3.5c-9.33301 0.666992 -15 2.5 -17 5.5s-2.33301 10.167 -1 21.5c2 22 7.33301 44.833 16 68.5s18 40.5 28 50.5c15.333 16 29 22.667 41 20c4.66699 -1.33301 7 -4.33301 7 -9z" />
    <glyph glyph-name="uni0094" horiz-adv-x="267" 
d="M173 269c-4.66699 0 -7.99805 1.16797 -9.99805 3.50098s-2.33301 5.33301 -1 9s4.33301 7.83398 9 12.501c7.33301 7.33301 10.5 14.166 9.5 20.499s-5.83301 10.166 -14.5 11.499c-7.33301 -2 -12.833 2.83301 -16.5 14.5s-5.33398 24.334 -5.00098 38.001
s1.5 23.5 3.5 29.5c3.33301 7.33301 6.83301 11.666 10.5 12.999s14.167 1 31.5 -1c28.667 -4.66699 44 -9.16699 46 -13.5s-1 -25.833 -9 -64.5c-6 -22.667 -13.833 -40.5 -23.5 -53.5s-19.834 -19.5 -30.501 -19.5zM34.002 282.001
c0 5.33301 2.33496 7.99707 7.00195 7.99707c4 0.666992 10 7.33398 18 20.001s13.333 23.334 16 32.001l-22 7c-10 2.66699 -16.167 6 -18.5 10s-3.83301 12.333 -4.5 25c-0.666992 32 8.33301 50 27 54c15.333 2.66699 25.166 3.5 29.499 2.5
s10.166 -6.16699 17.499 -15.5c18 -22.667 13.667 -59.667 -13 -111c-7.33301 -14 -13.5 -23.5 -18.5 -28.5s-11.167 -7.83301 -18.5 -8.5c-13.333 -1.33301 -20 0.333984 -20 5.00098z" />
    <glyph glyph-name=".null" horiz-adv-x="0" 
 />
    <glyph glyph-name="nonmarkingreturn" horiz-adv-x="333" 
 />
    </font>
</defs>
</svg>
