<?xml version="1.0" standalone="no"?>
<!DOCTYPE svg PUBLIC "-//W3C//DTD SVG 1.1//EN" "http://www.w3.org/Graphics/SVG/1.1/DTD/svg11.dtd" >
<svg>
<metadata>
Created by FontForge 20090914 at Sat Feb 27 01:02:00 2016
 By www-data
Copyright (c) 2016, root
</metadata>
<defs>
<font id="Aria" horiz-adv-x="365" >
  <font-face 
    font-family="Aria"
    font-weight="400"
    font-stretch="normal"
    units-per-em="1000"
    panose-1="2 0 5 3 0 0 0 0 0 0"
    ascent="800"
    descent="-200"
    x-height="442.5"
    cap-height="657.501"
    bbox="28.6784 -199.474 771 786.002"
    underline-thickness="50"
    underline-position="-100"
    unicode-range="U+0020-U+0094"
  />
<missing-glyph horiz-adv-x="364" 
d="M33 0v666h265v-666h-265zM66 33h199v600h-199v-600z" />
    <glyph glyph-name=".notdef" horiz-adv-x="364" 
d="M33 0v666h265v-666h-265zM66 33h199v600h-199v-600z" />
    <glyph glyph-name="space" unicode=" " horiz-adv-x="449" 
 />
    <glyph glyph-name="exclam" unicode="!" horiz-adv-x="348" 
d="M187 20c-6.66699 0 -9.99707 -2.99707 -9.99707 -8.99707c0 -6.66699 -5 -13.667 -15 -21s-18 -10 -24 -8c-5.33301 2 -10.5 -0.5 -15.5 -7.5s-10.833 -9.16699 -17.5 -6.5c-8.66699 2.66699 -16.667 1 -24 -5c-6.66699 -5.33301 -10.334 -6 -11.001 -2
s2.33301 9.33301 9 16c4 4 5 6 3 6c-1.33301 0.666992 -5.33301 0 -12 -2c-8 -2 -13.5 -2.16699 -16.5 -0.5s-5.5 6.5 -7.5 14.5c-5.33301 22 -2 41.167 10 57.5s35.667 33.166 71 50.499c5.33301 2.66699 10.666 5.16699 15.999 7.5s9.66602 4.16602 12.999 5.49902l6 3
c5.33301 0.666992 9.83301 -2.5 13.5 -9.5s6.66699 -15.333 9 -25s4.5 -15.834 6.5 -18.501c4.66699 -6 6.5 -15.167 5.5 -27.5s-4.16699 -18.5 -9.5 -18.5zM223.003 446.003c2 2 0.666992 3.66797 -4 5.00098c-10.667 3.33301 -19.667 3 -27 -1
c-2.66699 -1.33301 -1 -3 5 -5c2 -0.666992 4.66699 -1.33398 8 -2.00098c10 -2.66699 16 -1.66699 18 3zM68.0029 545.004c6.66699 -7.33301 12.6641 -12.167 17.9971 -14.5s12.666 -4.83301 21.999 -7.5s20 -7.33398 32 -14.001
c58.667 -29.333 96.334 -34.333 113.001 -15c8.66699 9.33301 19.334 15.333 32.001 18c8 2 13.167 2.33301 15.5 1s3.5 -5 3.5 -11c0 -9.33301 3 -18.666 9 -27.999c5.33301 -8.66699 6.16602 -14.834 2.49902 -18.501s-13.167 -5.16699 -28.5 -4.5
c-10.667 0.666992 -18 -0.5 -22 -3.5s-9.33301 -11.5 -16 -25.5c-30 -64.667 -45.667 -125.667 -47 -183c-0.666992 -46.667 -10.667 -70 -30 -70c-8 0 -13 4.66699 -15 14c-2 6 -4.66699 9.5 -8 10.5s-11.333 0.5 -24 -1.5c-16 -2.66699 -24 -2 -24 2
c0 0.666992 0.333008 2 1 4c4.66699 6.66699 6.5 32.834 5.5 78.501s-4.16699 81.5 -9.5 107.5c-7.33301 45.333 -26.666 90 -57.999 134c-8.66699 12 -11.667 22 -9 30c2.66699 7.33301 7.83398 10.833 15.501 10.5s14.834 -4.83301 21.501 -13.5z" />
    <glyph glyph-name="quotedbl" unicode="&#x22;" horiz-adv-x="354" 
d="M111 526c1.33301 -7.33301 2.66699 -11.333 4 -12s2 0 2 2c1.33301 10 0 17.667 -4 23c-2 2 -3 1.33301 -3 -2c0 -2 0.333008 -5.66699 1 -11zM34.001 644c6.66699 4 13.001 4.5 19.001 1.5s8 -7.16699 6 -12.5c-1.33301 -2.66699 -1.5 -4.5 -0.5 -5.5
s2.83301 -1.16699 5.5 -0.5c4 2 10 -4 18 -18s14 -19.667 18 -17c4 2 5.33301 1 4 -3c0 -1.33301 -0.333008 -3 -1 -5c-3.33301 -8 -0.666016 -16.333 8.00098 -25c15.333 -16.667 26.166 -45.667 32.499 -87s4.16602 -66.666 -6.50098 -75.999
c-16.667 -12.667 -26.334 -7 -29.001 17c-0.666992 8.66699 -1 20 -1 34c0.666992 23.333 -0.166016 40.5 -2.49902 51.5s-8.83301 27.167 -19.5 48.5c-15.333 31.333 -29.333 54.333 -42 69c-12.667 15.333 -15.667 24.666 -9 27.999zM284.002 607
c0 -6.66699 1.33301 -11.001 4 -13.001c2.66699 -2.66699 4.66699 -1 6 5c0.666992 4.66699 -0.333008 9.33398 -3 14.001c-4 8 -6.33301 9.33301 -7 4v-10zM261.002 406.999c0 3.33301 0.493164 5.66895 1.49316 7.00195s2.5 1.66602 4.5 0.999023
c1.33301 -0.666992 2.66602 1 3.99902 5c0.666992 2.66699 1.66699 8.66699 3 18c2.66699 18 5.33398 27 8.00098 27c5.33301 1.33301 6 13 2 35c-2.66699 20 -2 29.667 2 29c0.666992 0 1.33398 -0.333008 2.00098 -1c6 -3.33301 8.66699 -2.33301 8 3
c-1.33301 4 -3.66602 6.33301 -6.99902 7c-4.66699 0 -7 6.33301 -7 19c0.666992 8 -4.66602 25.333 -15.999 52s-15.666 43.667 -12.999 51c0 2.66699 1.83301 4.16699 5.5 4.5s7.83398 -0.5 12.501 -2.5s8.66699 -5 12 -9c18.667 -22.667 31.334 -55.167 38.001 -97.5
s4.33398 -77.833 -6.99902 -106.5c-9.33301 -24.667 -22 -41.334 -38 -50.001c-9.33301 -4 -14.333 -1.33301 -15 8z" />
    <glyph glyph-name="dollar" unicode="$" 
d="M179 629c6 0 4.66699 -2 -4 -6c-15.333 -7.33301 -23 -9.33301 -23 -6l6 6c6 4 13 6 21 6zM222 318c-3.33301 -4 -5.66699 -17 -7 -39s-2 -46.5 -2 -73.5s-0.333008 -42.833 -1 -47.5c-1.33301 -23.333 -1.33301 -36.666 0 -39.999c3.33301 -4.66699 12.5 -3.5 27.5 3.5
s26.833 15.833 35.5 26.5c18 22 25.333 46.167 22 72.5s-17 50.166 -41 71.499c-18.667 17.333 -30 26 -34 26zM191.999 499c-0.666992 42.667 -3.50098 67.668 -8.50098 75.001s-17.167 5.66602 -36.5 -5.00098c-16.667 -8.66699 -28.5 -17 -35.5 -25
s-11.833 -18.667 -14.5 -32c-3.33301 -19.333 -2.16602 -35 3.50098 -47s19.167 -26.667 40.5 -44c24 -20 37.667 -29 41 -27c2 0.666992 4 4 6 10c4 11.333 5.33301 43 4 95zM242.998 84.001c-13.333 -6 -23.001 -13.3301 -29.001 -21.9971s-8.33301 -23.334 -7 -44.001
c0 -17.333 -0.833008 -28.5 -2.5 -33.5s-5.16699 -7.5 -10.5 -7.5c-10.667 0 -18.334 4 -23.001 12s-5.66699 18.333 -3 31c3.33301 14 1.33301 22.333 -6 25c-3.33301 0.666992 -5.66602 1.83398 -6.99902 3.50098s-1.83301 3.33398 -1.5 5.00098
s-0.166992 3.16699 -1.5 4.5s-3.66602 2.33301 -6.99902 3c-38.667 4.66699 -63.5 10.334 -74.5 17.001s-18.5 21 -22.5 43c-2 11.333 -2.66699 18.666 -2 21.999s4 5 10 5c8.66699 0 17 -8.33301 25 -25c5.33301 -10.667 10.666 -17.334 15.999 -20.001s16.333 -5 33 -7
l19.5 -2c6.33301 -0.666992 11.166 -1 14.499 -1s5.33301 0.333008 6 1c1.33301 9.33301 5 95 11 257c-33.333 20.667 -50.666 33.334 -51.999 38.001c0 3.33301 -5.66699 7 -17 11c-32 8 -49 35.333 -51 82c-1.33301 30 0.333984 50 5.00098 60c4 11.333 4.66699 17 2 17
c-5.33301 -1.33301 -12 -9.33301 -20 -24c-8 -15.333 -11 -31.333 -9 -48c1.33301 -16.667 0.333008 -24.334 -3 -23.001c-5.33301 3.33301 -7.16602 14.5 -5.49902 33.5s6.16699 34.167 13.5 45.5c6 11.333 15.5 19 28.5 23s22.833 8.66699 29.5 14
c11.333 9.33301 14.666 13.666 9.99902 12.999c-4 0 -11.667 -3.66699 -23 -11c-10 -6 -15 -7.66699 -15 -5l1 2c4 6.66699 13.167 13.167 27.5 19.5s23.833 8.16602 28.5 5.49902c4 -3.33301 5 -2.66602 3 2.00098c-0.666992 1.33301 -0.333984 2.5 0.999023 3.5
s3.33301 1.66699 6 2s5.5 0.666016 8.5 0.999023s6.66699 0.5 11 0.5h11h10.5h8c0.666992 5.33301 1.5 15.666 2.5 30.999s1.83301 29.833 2.5 43.5s1.66699 27.834 3 42.501s2.83301 27 4.5 37s3.16699 16.333 4.5 19c13.333 0 21.333 -4.33301 24 -13
s2.66699 -30.334 0 -65.001l-4 -70c37.333 -7.33301 59 -13 65 -17c4 -2 3.33301 -3 -2 -3l-54 10c-6 1.33301 -10 1.5 -12 0.5s-2.33301 -3.16699 -1 -6.5c2 -5.33301 15 -9.66602 39 -12.999s38.667 -2.66602 44 2.00098c3.33301 3.33301 8.66602 1 15.999 -7
c9.33301 -10.667 8.33301 -11.667 -3 -3c-5.33301 4.66699 -8.66602 6.66699 -9.99902 6s-2 -4.33398 -2 -11.001c0 -9.33301 -3.16699 -15 -9.5 -17s-19.166 -1.66699 -38.499 1c-20.667 3.33301 -31.667 3.66602 -33 0.999023c-2 -16 -1.66699 -90.667 1 -224
c28.667 -16.667 55.334 -39.667 80.001 -69c14.667 -18.667 23.167 -31.667 25.5 -39s2.83301 -22.333 1.5 -45c-2 -30 -7.66699 -52 -17 -66c-6.66699 -10 -18.834 -21.5 -36.501 -34.5s-30.167 -19.5 -37.5 -19.5z" />
    <glyph glyph-name="percent" unicode="%" horiz-adv-x="724" 
d="M504 296c0 -5.33301 -3.99707 -8.83008 -11.9971 -10.4971s-14.667 -0.166992 -20 4.5c-6 4.66699 -12.167 4 -18.5 -2s-17.833 -22 -34.5 -48c-10.667 -16.667 -17.334 -29.334 -20.001 -38.001s-3.66699 -21.334 -3 -38.001
c1.33301 -26.667 2.66602 -40.667 3.99902 -42c2.66699 -2.66699 23.334 -4.66699 62.001 -6c26 -0.666992 44.167 -0.166992 54.5 1.5s25.166 7.16699 44.499 16.5c20 10 38 23.167 54 39.5s24 29.5 24 39.5c0 7.33301 -5.83301 19.666 -17.5 36.999s-22.5 30 -32.5 38
c-6 4 -15.833 7.5 -29.5 10.5s-26.334 4.33301 -38.001 4s-17.5 -2.5 -17.5 -6.5zM616.003 311.003c10.667 -8 20.833 -14.1641 30.5 -18.4971s19.167 -11.833 28.5 -22.5c8.66699 -9.33301 11.667 -14 9 -14c-0.666992 0 -1.33398 0.333008 -2.00098 1h-4
c0 -1.33301 2 -3.33301 6 -6c16 -13.333 13.833 -35.5 -6.5 -66.5s-48.5 -55.167 -84.5 -72.5c-13.333 -6.66699 -24 -12.667 -32 -18c-8 -6 -29.167 -11.333 -63.5 -16s-56.166 -5.33398 -65.499 -2.00098c-10 3.33301 -18.667 4.33301 -26 3
c-14.667 -5.33301 -28.667 4.83398 -42 30.501s-17.666 50.5 -12.999 74.5c2.66699 14 11.5 35.667 26.5 65s26.833 49 35.5 59s13 17.667 13 23c0 2.66699 0.666992 4.16699 2 4.5s3 0.166016 5 -0.500977s3.66699 -0.833984 5 -0.500977s2 1.83301 2 4.5
c1.33301 3.33301 5.16602 4.5 11.499 3.5s11.5 0.166992 15.5 3.5c12.667 7.33301 35 7.16602 67 -0.500977s59.333 -19.167 82 -34.5zM221.002 533.006c0 24.667 -2.33301 39.8311 -7 45.498s-17 8.5 -37 8.5c-13.333 0 -23 4.66699 -29 14c-16 26 -36.667 14.667 -62 -34
c-10.667 -20 -15.667 -46.333 -15 -79s6.66699 -53 18 -61c16 -11.333 37.5 -12.666 64.5 -3.99902s45.833 23.334 56.5 44.001c7.33301 14.667 11 36.667 11 66zM178.002 630.003c0 -2.66699 9.33301 -7.16797 28 -13.501s29.334 -8.5 32.001 -6.5
s7.33398 -1.83301 14.001 -11.5s9 -16.167 7 -19.5c-2 -5.33301 -0.666992 -17.666 4 -36.999c5.33301 -24 5.33301 -43.5 0 -58.5s-18 -33.5 -38 -55.5c-28.667 -30 -57.834 -47.167 -87.501 -51.5s-56.834 4.16699 -81.501 25.5c-10 8.66699 -16.333 16.667 -19 24
s-4.66699 21.333 -6 42c-4 66 14 120.333 54 163c12 12 24.667 18.667 38 20c10.667 0 22.5 -2.5 35.5 -7.5s19.5 -9.5 19.5 -13.5zM476.002 736.002c0.666992 5.33301 4.83008 11.498 12.4971 18.498s14.5 10.5 20.5 10.5c20 0 19 -16.667 -3 -50l-4 -5
c-7.33301 -8.66699 -34.166 -55.834 -80.499 -141.501s-71.5 -131.167 -75.5 -136.5c-9.33301 -12 -19.666 -28.833 -30.999 -50.5s-22 -39.834 -32 -54.501c-22.667 -38.667 -45.667 -83 -69 -133c-18.667 -39.333 -31 -63.666 -37 -72.999s-12.333 -13 -19 -11
c-10 2 -15 7.33301 -15 16s18.167 48.334 54.5 119.001s71.5 135 105.5 193c15.333 24.667 42.833 72.334 82.5 143.001s66.834 117.334 81.501 140.001c6 6 9 11 9 15z" />
    <glyph glyph-name="ampersand" unicode="&#x26;" horiz-adv-x="565" 
d="M228 -159c21.333 0 32 -0.666992 32 -2c0 -0.666992 -4 -2 -12 -4c-16 -4 -30.333 -4 -43 0c-12 3.33301 -10.333 5.33301 5 6h18zM119 -118c0 6.66699 4.66699 6.33203 14 -1.00098l8 -8c4.66699 -5.33301 6.66699 -8.16602 6 -8.49902s-4.66699 1.5 -12 5.5
c-10.667 4.66699 -16 8.66699 -16 12zM304 193.998c4.66699 -10 4.66699 -13 0 -9c-12 11.333 -25 28.333 -39 51c21.333 -18 34.333 -32 39 -42zM521 -105.002c2.66699 3.33301 0 8.99902 -8 16.999c-6.66699 5.33301 -10.167 8 -10.5 8s1.83398 -4 6.50098 -12
c2 -4.66699 4.16699 -8.16699 6.5 -10.5s4.16602 -3.16602 5.49902 -2.49902zM504 -60.0029c-2.66699 11.333 -6.00098 18.001 -10.001 20.001c-4.66699 2.66699 -6.66699 2 -6 -2c0 -4.66699 3.33301 -11.334 10 -20.001c4.66699 -6.66699 7.33398 -10 8.00098 -10
s0 4 -2 12zM451.999 100.998c-14 12.667 -27.6631 20.6689 -40.9961 24.002s-22.333 1 -27 -7c-2.66699 -5.33301 1.66602 -13 12.999 -23c13.333 -10.667 27.666 -26.667 42.999 -48c14 -18.667 22.667 -27.834 26 -27.501s6.66602 10.166 9.99902 29.499
c2 11.333 1.66699 19.833 -1 25.5s-10.334 14.5 -23.001 26.5zM211.003 176c-9.33301 0 -25.8311 -22.1689 -49.498 -66.502s-35.5 -75.5 -35.5 -93.5c0 -24 9 -45.333 27 -64s43.333 -33 76 -43c61.333 -18 118.333 -5.66699 171 37c20 16.667 31.167 28.834 33.5 36.501
s-1.16699 18.5 -10.5 32.5c-8 10.667 -22 24.834 -42 42.501s-32.667 26.5 -38 26.5c-6.66699 0 -13.5 -9 -20.5 -27s-9.5 -34 -7.5 -48c1.33301 -13.333 1.16602 -22 -0.500977 -26s-6.16699 -7 -13.5 -9c-18 -4.66699 -28.333 5 -31 29c-4 30.667 4.66699 60.667 26 90
c2 2 4 4.33301 6 7c7.33301 8.66699 8.66602 14.667 3.99902 18c-2.66699 2.66699 -18.167 13 -46.5 31s-44.5 27 -48.5 27zM45.0049 418.998c-1.33301 3.33301 -2.00098 3.00098 -2.00098 -0.999023c-2 -12.667 -2 -20.334 0 -23.001
c0.666992 -0.666992 1.33398 0.333008 2.00098 3c1.33301 7.33301 1.33301 14.333 0 21zM245.004 495.999c-16.667 8 -36.332 13.667 -58.999 17c-38.667 4 -71.667 -12 -99 -48c-23.333 -30 -25.833 -65 -7.5 -105s53.166 -76.333 104.499 -109c10 -6 17 -8.66699 21 -8
s13.333 7 28 19c46.667 37.333 76 65.166 88 83.499s14.333 39.5 7 63.5c-4.66699 14.667 -15.5 30.834 -32.5 48.501s-33.833 30.5 -50.5 38.5zM520.006 -72.001c-4 0 -1.99219 -4.00488 6.00781 -12.0049c5.33301 -3.33301 8.16602 -9.66602 8.49902 -18.999
s-0.5 -20.333 -2.5 -33s-2.66699 -21.334 -2 -26.001c0 -11.333 -5.66699 -17 -17 -17c-8 0 -12.667 1.66699 -14 5s-1.33301 12 0 26c3.33301 11.333 0.666016 28.5 -8.00098 51.5s-16.334 38.167 -23.001 45.5c-0.666992 0 -9.83398 -6.16699 -27.501 -18.5
s-28.5 -16.5 -32.5 -12.5c-5.33301 2.66699 -6.33301 1.66699 -3 -3c2 -3.33301 1.66699 -5.66602 -1 -6.99902s-6 -2.33301 -10 -3s-6 -2 -6 -4c0 -5.33301 -8.66699 -12.166 -26 -20.499s-32.666 -13.166 -45.999 -14.499c-18.667 -1.33301 -29.334 -2.33301 -32.001 -3
c-4.66699 -1.33301 -16.834 -0.166016 -36.501 3.50098s-36.5 7.83398 -50.5 12.501c-35.333 10.667 -66.333 34.334 -93 71.001c-8 11.333 -13 21.166 -15 29.499s-2.66699 20.5 -2 36.5c1.33301 22 5.66602 42.333 12.999 61s22.333 45.334 45 80.001
c14.667 23.333 22.834 37.833 24.501 43.5s-0.166016 11.834 -5.49902 18.501c-6.66699 8 -21 19 -43 33c-14.667 9.33301 -31.667 27.166 -51 53.499s-29 45.166 -29 56.499c0 8 -2.33301 13 -7 15c-5.33301 2.66699 -6.16602 15 -2.49902 37s9.5 40.667 17.5 56
c10 18 34.667 44.333 74 79c59.333 -2 104.333 -9.16699 135 -21.5s59.334 -37.5 86.001 -75.5c17.333 -22.667 27.333 -37.667 30 -45s2.33398 -17.333 -0.999023 -30c-6.66699 -24.667 -15.334 -44.667 -26.001 -60s-27.667 -32.333 -51 -51
c-33.333 -25.333 -52 -41.333 -56 -48s0 -14 12 -22c4.66699 -4 19.334 -12.5 44.001 -25.5s39.667 -22.167 45 -27.5c2.66699 -4.66699 5.16699 -6.83398 7.5 -6.50098s6.83301 2.83301 13.5 7.5c9.33301 6 25.666 9.66699 48.999 11c14 0.666992 24.667 -0.333008 32 -3
s16.666 -9 27.999 -19c17.333 -15.333 29.666 -27.666 36.999 -36.999c6.66699 -9.33301 9.66699 -24.333 9 -45s-4.33398 -35.667 -11.001 -45c-6.66699 -4.66699 -8.83398 -12.5 -6.50098 -23.5s5.16602 -20 8.49902 -27s6.66602 -13.167 9.99902 -18.5
c3.33301 -4.66699 4 -7.66699 2 -9z" />
    <glyph glyph-name="quotesingle" unicode="'" horiz-adv-x="110" 
d="M60 502c-9.33301 0 -13.665 6.66797 -12.998 20.001c0.666992 5.33301 -2.33301 25.166 -9 59.499s-9.33398 54.5 -8.00098 60.5c2 5.33301 6.16699 8.33301 12.5 9s11.166 -1.33301 14.499 -6c1.33301 -4 4.16602 -18.5 8.49902 -43.5s7.83301 -40.833 10.5 -47.5
c4.66699 -14.667 5.33398 -27 2.00098 -37s-9.33301 -15 -18 -15z" />
    <glyph glyph-name="parenleft" unicode="(" horiz-adv-x="319" 
d="M269 665c-26.667 0 -52.834 -12.8389 -78.501 -38.5059s-47.167 -60.5 -64.5 -104.5c-22.667 -58.667 -38 -105.167 -46 -139.5s-11.667 -71.166 -11 -110.499c0.666992 -141.333 48 -260.333 142 -357c12.667 -13.333 12.334 -26.666 -0.999023 -39.999
c-8 -8 -16 -9.5 -24 -4.5s-17.667 18.167 -29 39.5c-24 42 -42 57.667 -54 47c-2 -1.33301 -3 -1.66602 -3 -0.999023c0.666992 0.666992 1.66699 2.33398 3 5.00098c3.33301 7.33301 -2.33398 27 -17.001 59c-6.66699 12.667 -11 18.667 -13 18c-2 -2 -5 2.66699 -9 14
c-12 34.667 -21.667 85.334 -29 152.001c-6 54 -6 98.333 0 133c5.33301 32 15.333 72.833 30 122.5s25.334 79.834 32.001 90.501c6.66699 10 10 18 10 24c0 6.66699 11 23.5 33 50.5s34.667 39.5 38 37.5c4.66699 -3.33301 7 -1.33301 7 6c0 8 10 18.333 30 31
c23.333 17.333 36.666 24.666 39.999 21.999c1.33301 -0.666992 -2 -4 -10 -10c-7.33301 -6 -9.66602 -9 -6.99902 -9c2.66699 -0.666992 9 0 19 2c11.333 2 18.5 2.33301 21.5 1s5.5 -5.66602 7.5 -12.999c6 -18 0.333008 -27 -17 -27z" />
    <glyph glyph-name="parenright" unicode=")" horiz-adv-x="186" 
d="M45 -58c6 0 7 -3.66602 3 -10.999c-2.66699 -4.66699 -6 -7.66699 -10 -9c-3.33301 -0.666992 -5 0.666016 -5 3.99902c0 6.66699 3.33301 12 10 16h2zM86 -0.999023c0 -16 -4.83887 -28.834 -14.5059 -38.501s-20.167 -12.167 -31.5 -7.5c-14 6.66699 -14 23.667 0 51
c15.333 28.667 29.333 61 42 97c3.33301 9.33301 9.83301 51 19.5 125s14.167 118.667 13.5 134c0.666992 6 -1.5 24.5 -6.5 55.5s-6.5 50.167 -4.5 57.5c2.66699 4.66699 1.33398 7.66699 -3.99902 9c-3.33301 0 -6.16602 6.83301 -8.49902 20.5
s-5.16602 20.5 -8.49902 20.5c-2 0 -3 1.16699 -3 3.5s0.5 5 1.5 8s1.33301 5.5 1 7.5s-1.83301 3 -4.5 3c-3.33301 0 -4 4.66699 -2 14s1 14 -3 14s-6 3 -6 9c-4.66699 18 -9 32.333 -13 43c-5.33301 15.333 -8.33301 25 -9 29s1.33301 7.66699 6 11
c6.66699 4.66699 12.334 6.33398 17.001 5.00098c3.33301 -3.33301 6.83301 -7.5 10.5 -12.5s7.16699 -11.333 10.5 -19s6.16602 -14.834 8.49902 -21.501s5.16602 -15.5 8.49902 -26.5s6 -19.5 8 -25.5s4.5 -15 7.5 -27s5.16699 -20 6.5 -24
c14 -48 22.5 -88.833 25.5 -122.5s1.83301 -75.167 -3.5 -124.5c-3.33301 -23.333 -6.16602 -50.166 -8.49902 -80.499s-4.83301 -52.833 -7.5 -67.5c-1.33301 -2.66699 -4.66602 -12 -9.99902 -28s-10.666 -30.667 -15.999 -44s-9.66602 -21.333 -12.999 -24
c-6 -4.66699 -9 -12.667 -9 -24z" />
    <glyph glyph-name="asterisk" unicode="*" horiz-adv-x="349" 
d="M293 566c-10.667 0 -28.832 -5.00098 -54.499 -15.001s-38.5 -17 -38.5 -21s9.33301 -10 28 -18c32 -14 40.667 -29 26 -45c-5.33301 -4.66699 -10.333 -6.5 -15 -5.5s-14.334 5.16699 -29.001 12.5c-20.667 10 -32.667 14 -36 12c-4 -5.33301 -7 -22.666 -9 -51.999
c-2.66699 -30.667 -8.33398 -49 -17.001 -55c-10.667 -6 -18.667 -4.5 -24 4.5s-5.66602 21.5 -0.999023 37.5c6.66699 24.667 6.66699 36 0 34c-2.66699 -0.666992 -6.66699 -5 -12 -13c-22.667 -36 -39.334 -52 -50.001 -48c-15.333 6 -12.666 23 8.00098 51
c17.333 22.667 20.333 33.667 9 33c-2.66699 0 -6.33398 -0.333008 -11.001 -1c-14.667 -1.33301 -24.667 -0.333008 -30 3c-14 8.66699 -10.333 18.334 11 29.001l20 7l13.5 4.5l10.5 3.5c2 0.666992 4.33301 1.5 7 2.5s4.16699 2.16699 4.5 3.5s0.333008 3 0 5
s-1.66602 4.16699 -3.99902 6.5s-5.16602 5.5 -8.49902 9.5c-16 15.333 -19.667 27.666 -11 36.999s22 7.66602 40 -5.00098c10.667 -6.66699 18.167 -8.5 22.5 -5.5s8.16602 12.833 11.499 29.5c2 4 3.33301 9.16699 4 15.5s1.33398 10.5 2.00098 12.5s2.5 3.83301 5.5 5.5
s7.5 0.5 13.5 -3.5c8.66699 -4.66699 12.334 -9 11.001 -13c-1.33301 -1.33301 0.333984 -2.33301 5.00098 -3c4 -0.666992 9.33301 -0.666992 16 0c13.333 2 21.166 0.5 23.499 -4.5s-1.5 -12.833 -11.5 -23.5c-8 -8.66699 -8.66699 -13 -2 -13
c6.66699 0.666992 19 5.33398 37 14.001c19.333 9.33301 33.166 14 41.499 14s14.166 -4.66699 17.499 -14c5.33301 -18.667 -2.66699 -28 -24 -28z" />
    <glyph glyph-name="plus" unicode="+" horiz-adv-x="442" 
d="M372 421c0 4.66699 -3.1709 7.49414 -9.50391 8.49414s-20.166 1.16699 -41.499 0.5c-11.333 -0.666992 -20.166 -1.16699 -26.499 -1.5s-11.5 -1.16602 -15.5 -2.49902s-6.5 -2.66602 -7.5 -3.99902s-1.5 -3.33301 -1.5 -6c1.33301 -8.66699 -1 -13 -7 -13
c-4 0 -5.66699 -34.667 -5 -104c1.33301 -52.667 0.5 -85.834 -2.5 -99.501s-12.167 -24.5 -27.5 -32.5c-6 -3.33301 -9.66699 -1.33301 -11 6c-1.33301 8 -1.66602 40.333 -0.999023 97c1.33301 74.667 1 115 -1 121c-2.66699 6.66699 -10.334 8.33398 -23.001 5.00098
l-16 -4c-36.667 -8 -79 -23.667 -127 -47c-4 -1.33301 -8.66699 2.66699 -14 12c-5.33301 6.66699 -6.16602 11.834 -2.49902 15.501s16.834 9.83398 39.501 18.501c11.333 4 28 11 50 21s38 16.333 48 19c0 -0.666992 3.5 0.833008 10.5 4.5s14.333 7.16699 22 10.5
s12.167 4.33301 13.5 3c3.33301 -2.66699 6.33301 23 9 77c2 52.667 6.33301 84.334 13 95.001c5.33301 9.33301 11.166 14.333 17.499 15s11.833 -3 16.5 -11c6 -11.333 1.66699 -34.666 -13 -69.999c-4 -6 -5.66699 -25 -5 -57c1.33301 -24 5.33301 -34.667 12 -32
c7.33301 2 28.5 2.66699 63.5 2s56.5 -2.33398 64.5 -5.00098c10 -1.33301 16 -8.16602 18 -20.499s-0.5 -23.666 -7.5 -33.999s-16.167 -13.5 -27.5 -9.5c-13.333 1.33301 -22.666 4.66602 -27.999 9.99902c-3.33301 3.33301 -3 5 1 5c2 0 4.33301 -0.333008 7 -1
c10 -0.666992 15 2 15 8z" />
    <glyph glyph-name="comma" unicode="," horiz-adv-x="228" 
d="M114 -58c-13.333 0 -16.333 8.99805 -9 26.998c4.66699 10.667 12 21.334 22 32.001c16 17.333 24 32 24 44c0 4.66699 0.666992 8.33398 2 11.001s3 3.66699 5 3c1.33301 -0.666992 2 0 2 2c0 8 -4.33301 19.667 -13 35c-4 0 -21 -9 -51 -27l-26 15
c-24 14 -37.333 30.167 -40 48.5s6 36.5 26 54.5c10.667 10 19.167 16.167 25.5 18.5s15.166 2.5 26.499 0.5c20.667 -3.33301 36 -9.33301 46 -18s14.333 -20.334 13 -35.001c-0.666992 -14.667 3 -28.167 11 -40.5s13 -22.5 15 -30.5
c3.33301 -11.333 4.66602 -20.166 3.99902 -26.499s-3.66699 -15.5 -9 -27.5c-9.33301 -19.333 -22.166 -38.5 -38.499 -57.5s-28.166 -28.5 -35.499 -28.5z" />
    <glyph glyph-name="hyphen" unicode="-" horiz-adv-x="343" 
d="M176 296c6.66699 2 21.834 3.99902 45.501 5.99902s39.5 5 47.5 9c13.333 8.66699 24.833 9.66699 34.5 3s11.834 -16.667 6.50098 -30c-2.66699 -7.33301 -7.5 -11.833 -14.5 -13.5s-24.833 -2.83398 -53.5 -3.50098c-42 -0.666992 -74.667 -3 -98 -7
s-48.333 -11.667 -75 -23c-9.33301 -4 -15.833 -6.33301 -19.5 -7s-6.5 -0.5 -8.5 0.5s-4.33301 4.16699 -7 9.5c-8.66699 16.667 0 27.334 26 32.001c9.33301 2 27.166 5.33301 53.499 10s47.166 9.33398 62.499 14.001z" />
    <glyph glyph-name="period" unicode="." horiz-adv-x="144" 
d="M49 133c22 26.667 40.666 28.333 55.999 5c7.33301 -11.333 10.333 -23.5 9 -36.5s-6.66602 -22.167 -15.999 -27.5c-8 -4 -15.667 -10.333 -23 -19c-5.33301 -5.33301 -8 -6.33301 -8 -3c1.33301 10.667 0.333008 16 -3 16c-1.33301 0 -2.66602 -1.33301 -3.99902 -4
c-4.66699 -6 -10.667 -7.33301 -18 -4c-9.33301 3.33301 -13.333 13 -12 29s7.66602 30.667 18.999 44z" />
    <glyph glyph-name="slash" unicode="/" horiz-adv-x="316" 
d="M93 54c4 15.333 6.66797 23.001 8.00098 23.001c3.33301 -0.666992 1.66602 -14.334 -5.00098 -41.001c-2.66699 -10.667 -5.33398 -18.334 -8.00098 -23.001c-5.33301 -8.66699 -6.33301 -7.66699 -3 3c0.666992 4.66699 3.33398 17.334 8.00098 38.001z
M107.001 112.001c3.33301 12.667 5.66895 19.333 7.00195 20c3.33301 0.666992 2.66602 -10.333 -2.00098 -33c-2 -8.66699 -4 -12.667 -6 -12c-1.33301 0 -1.83301 2.66699 -1.5 8s1.16602 11 2.49902 17zM131.004 191c1.33301 4 8.33203 26.167 20.999 66.5
s21.667 64.5 27 72.5c2 -2 -4 -26.667 -18 -74s-24.667 -79.333 -32 -96c-5.33301 -11.333 -8.66602 -17 -9.99902 -17c-3.33301 1.33301 0.666992 17.333 12 48zM245.003 545c-4 0 -4.67188 -3.66602 -2.00488 -10.999c1.33301 -5.33301 -1.5 -9.33301 -8.5 -12
s-9.83301 -7.33398 -8.5 -14.001c0 -13.333 -6 -40.333 -18 -81s-19.667 -60.667 -23 -60c-4 -1.33301 -8.5 -7.33301 -13.5 -18s-9.66699 -22.5 -14 -35.5s-7.5 -21.167 -9.5 -24.5c-4 -13.333 -10 -32 -18 -56s-14.5 -44.667 -19.5 -62s-10.833 -39.333 -17.5 -66
c-14 -51.333 -23.667 -79.666 -29 -84.999c-5.33301 -4.66699 -9.16602 -6.66699 -11.499 -6s-6.5 4.66699 -12.5 12c-10 11.333 -12.333 21.666 -7 30.999c4.66699 8 12.834 31.167 24.501 69.5s19.834 67.833 24.501 88.5c2.66699 12.667 14 46.5 34 101.5
s34.667 92.167 44 111.5c12.667 26.667 26 60.5 40 101.5s26.667 73.167 38 96.5c0 0.666992 2.66699 7.66699 8 21c4 10.667 10.833 17 20.5 19s15.834 -1.66699 18.501 -11c2.66699 -5.33301 -2.16602 -25 -14.499 -59s-20.833 -51 -25.5 -51z" />
    <glyph glyph-name="zero" unicode="0" horiz-adv-x="406" 
d="M373 254c-6 0 -6.32715 -3.00195 -0.994141 -9.00195c6 -4.66699 3.16699 -17 -8.5 -37s-17.167 -31.667 -16.5 -35c-2.66699 -19.333 -13.5 -38.833 -32.5 -58.5s-40.167 -33.5 -63.5 -41.5c-18.667 -6.66699 -31.334 -10 -38.001 -10s-13.667 4 -21 12
c-7.33301 6.66699 -11 9.33398 -11 8.00098s1 -4 3 -8c3.33301 -8.66699 0.666016 -12.667 -8.00098 -12c-7.33301 0.666992 -21.333 4.33398 -42 11.001c-51.333 16.667 -82.666 46.334 -93.999 89.001c-7.33301 27.333 -10.5 76 -9.5 146s5.5 121.333 13.5 154
c6.66699 26 15.667 51 27 75s21.666 39.667 30.999 47c8 6 14.667 5 20 -3c7.33301 -8.66699 10.166 -17.334 8.49902 -26.001s-9.83398 -26.667 -24.501 -54l-26 -50l-3 -131c-2.66699 -85.333 0 -136.666 8 -153.999c12.667 -27.333 30.334 -44.333 53.001 -51
c10 -2 13.667 -6 11 -12c-2.66699 -4 -1 -5.66699 5 -5c3.33301 0 8 0.666992 14 2c10.667 1.33301 19.834 4.66602 27.501 9.99902s16.167 8.33301 25.5 9c17.333 2 32.666 9 45.999 21s26.333 31 39 57c17.333 33.333 25.833 60.666 25.5 81.999
s-9.16602 45.333 -26.499 72c-18.667 28.667 -33.834 48.5 -45.501 59.5s-29.5 22.833 -53.5 35.5c-46.667 23.333 -59.334 41 -38.001 53c7.33301 4.66699 17.5 6 30.5 4s20.833 -6.33301 23.5 -13c2 -5.33301 11.667 -13.666 29 -24.999c12.667 -7.33301 29 -21 49 -41
s30.333 -32.667 31 -38c-0.666992 0 3.5 -7.66699 12.5 -23s17.167 -30.5 24.5 -45.5s8.66602 -22.5 3.99902 -22.5c-5.33301 -4 -5.33301 -12 0 -24s5.66602 -18 0.999023 -18z" />
    <glyph glyph-name="one" unicode="1" horiz-adv-x="468" 
d="M378 41c-4 -5.33301 -10.666 -5.33203 -19.999 0.000976562c-6 3.33301 -5.33301 5.66602 2 6.99902h8c2.66699 0 5 -0.333008 7 -1s3.16699 -1.5 3.5 -2.5s0.166016 -2.16699 -0.500977 -3.5zM183.001 -0.999023c18.667 6 22.667 12.6641 12 19.9971l-3 -1
c-1.33301 -1.33301 -3.33301 -2.66602 -6 -3.99902l-8 -4c-11.333 -5.33301 -16.5 -9.66602 -15.5 -12.999s7.83301 -2.66602 20.5 2.00098zM115.001 402.998c-2.66699 0 -2.33496 -2.33398 0.998047 -7.00098c0.666992 -3.33301 -1.33301 -6.16602 -6 -8.49902l-14.5 -7.5
c-5 -2.66699 -7.5 -5.66699 -7.5 -9c-1.33301 -4 -0.333008 -5.33301 3 -4l14 8c12.667 12 18.334 19.667 17.001 23c-1.33301 1.33301 -3.66602 3 -6.99902 5zM156 423.997c9.33301 10 12.001 14.667 8.00098 14c-6.66699 -1.33301 -14.334 -7 -23.001 -17
c-4.66699 -5.33301 -6 -9 -4 -11c2 0 8.33301 4.66699 19 14zM297.001 33.9971c-0.666992 2.66699 -3.16504 4.00195 -7.49805 4.00195s-8.33301 -1 -12 -3s-4.83398 -4.33301 -3.50098 -7c-2.66699 -6 -21 -17.5 -55 -34.5s-52.667 -27.5 -56 -31.5
c-13.333 -10 -25 -12.333 -35 -7c-9.33301 4.66699 -13 12 -11 22c1.33301 6.66699 4.5 10.167 9.5 10.5s8.5 1.5 10.5 3.5c2.66699 3.33301 29.667 19 81 47c6.66699 190 6.33398 330.333 -0.999023 421c-56 -52.667 -99.667 -87.334 -131 -104.001
c-17.333 -9.33301 -28.333 -14.333 -33 -15s-9.66699 1.66602 -15 6.99902c-8 5.33301 -10.333 10.5 -7 15.5s8 9.33301 14 13s11 5.83398 15 6.50098c8 0 22.333 7.33301 43 22s38.334 30 53.001 46c16.667 17.333 33.5 39.666 50.5 66.999s26.833 48 29.5 62
c1.33301 8 5.5 16.667 12.5 26s11.167 16.333 12.5 21c0 5.33301 3 11 9 17c6 5.33301 10.5 7.83301 13.5 7.5s8.5 -3.16602 16.5 -8.49902c5.33301 -4.66699 8 -8.5 8 -11.5s-2.66699 -11.167 -8 -24.5c-6 -14 -10.667 -21 -14 -21l-3 2
c-3.33301 5.33301 -7 -5.66699 -11 -33c-2.66699 -18.667 -5.33398 -44 -8.00098 -76c-2.66699 -28.667 -5 -44.667 -7 -48c-1.33301 -4 0 -7 4 -9c3.33301 -2 3.16602 -13.833 -0.500977 -35.5s-4.16699 -33.167 -1.5 -34.5c2 0 3.5 -23.667 4.5 -71
s2.16699 -94.833 3.5 -142.5s2.66602 -71.834 3.99902 -72.501c4 -2.66699 26 2.33301 66 15c62.667 19.333 96 23.333 100 12c1.33301 -3.33301 1 -8 -1 -14c-3.33301 -8.66699 -20.333 -15.667 -51 -21c-30 -4.66699 -52.333 -11 -67 -19c-14 -6.66699 -21 -8 -21 -4z" />
    <glyph glyph-name="two" unicode="2" horiz-adv-x="445" 
d="M149 174c-31.333 34.667 -55.0029 40.001 -71.0029 16.001c-14 -22.667 -11.333 -45.334 8 -68.001c10.667 -13.333 27.667 -20 51 -20c16.667 -0.666992 26.834 0 30.501 2s5.83398 8.33301 6.50098 19c0.666992 14.667 -7.66602 31.667 -24.999 51zM40.9971 130.001
c0 16 -2.32812 25.3262 -6.99512 27.9932c-4.66699 0.666992 -4.83398 6.16699 -0.500977 16.5s5.5 15.833 3.5 16.5c-1.33301 3.33301 4.66699 12.333 18 27c10 10.667 18 17 24 19s17.333 2.33301 34 1c17.333 -2 29.666 -4.83301 36.999 -8.5
s16.666 -12.167 27.999 -25.5c16.667 -18.667 27 -35.667 31 -51c2.66699 -12 5.66699 -18.167 9 -18.5s12.666 4.5 27.999 14.5c10.667 7.33301 28.667 17.333 54 30c10 4.66699 18.5 10.834 25.5 18.501s12.333 14.834 16 21.501s7 17 10 31s4.83301 24.667 5.5 32
l3.5 39.5l3.5 39.5c3.33301 40 2.83301 70.667 -1.5 92s-13.833 40.333 -28.5 57c-14.667 16 -29 25 -43 27s-32.667 -2.33301 -56 -13c-11.333 -5.33301 -19.666 -11.166 -24.999 -17.499s-11.666 -17.166 -18.999 -32.499c-2.66699 -5.33301 -5 -10.666 -7 -15.999
s-3.33301 -9 -4 -11s-1.83398 -4.16699 -3.50098 -6.5s-3.83398 -3.83301 -6.50098 -4.5s-6.33398 -1.33398 -11.001 -2.00098c-7.33301 -2.66699 -11.333 1.33301 -12 12c-1.33301 20 5.66699 41.333 21 64c11.333 17.333 23.166 30.166 35.499 38.499
s23.166 10.833 32.499 7.5c4.66699 -2 7.33398 -2 8.00098 0c0 1.33301 -0.666992 2.66602 -2 3.99902c-2 8.66699 2.33301 14 13 16s23.334 2 38.001 0c17.333 0.666992 38 -8.66602 62 -27.999s39 -36.666 45 -51.999c2.66699 -14 6.33398 -28.333 11.001 -43
c7.33301 -22.667 5.66602 -68 -5.00098 -136s-23 -112.667 -37 -134s-49.667 -46.666 -107 -75.999c-15.333 -8 -25.166 -14.167 -29.499 -18.5s-5.5 -9.5 -3.5 -15.5c4 -12 12.5 -26.167 25.5 -42.5s23.167 -25.5 30.5 -27.5c28.667 -7.33301 51.334 -6.33301 68.001 3
c8.66699 4.66699 16 2 22 -8c6 -11.333 3 -21 -9 -29s-29.667 -12.333 -53 -13c-24 0 -44 5.5 -60 16.5s-31 29.5 -45 55.5l-22 40l-40 -3c-18.667 -2 -31.834 -2.16699 -39.501 -0.5s-18.834 7.83398 -33.501 18.501c-14 9.33301 -22.833 16.833 -26.5 22.5
s-5.5 13.834 -5.5 24.501z" />
    <glyph glyph-name="three" unicode="3" 
d="M335 415c0 -46 -16.666 -77.335 -49.999 -94.002l-21 -11l28 -26c12 -11.333 22.167 -26 30.5 -44s12.5 -34.333 12.5 -49c0 -8.66699 -6.66699 -27.5 -20 -56.5s-24 -47.833 -32 -56.5c-12 -12 -28.667 -23.667 -50 -35c-14.667 -8 -27.334 -12.833 -38.001 -14.5
s-29 -1.83398 -55 -0.500977c-38.667 0.666992 -66.667 7.33398 -84 20.001s-26 21.667 -26 27c0 7.33301 4.5 11.833 13.5 13.5s18.833 -0.833008 29.5 -7.5c15.333 -8.66699 38 -13.334 68 -14.001c22 -0.666992 37.5 0.166016 46.5 2.49902s19.833 7.83301 32.5 16.5
c34 21.333 55.667 57 65 107c5.33301 30.667 -1.33398 52.334 -20.001 65.001s-44.667 13.334 -78 2.00098c-12 -4.66699 -23.5 -5 -34.5 -1s-16.5 10.333 -16.5 19c0 10 18 21 54 33c6.66699 2.66699 22.334 18.334 47.001 47.001s38.667 47.667 42 57
c5.33301 14 5.66602 29.333 0.999023 46s-13.667 31.667 -27 45c-10 10 -18.833 16.333 -26.5 19s-21.5 4.33398 -41.5 5.00098c-22.667 0.666992 -38.5 -1.66602 -47.5 -6.99902s-23.167 -20.333 -42.5 -45c-5.33301 -7.33301 -12.833 -9 -22.5 -5s-14.5 11 -14.5 21
c0 8.66699 6 19.167 18 31.5s20.667 17.166 26 14.499c2 -1.33301 3.33301 -1.83301 4 -1.5s0.333984 1.83301 -0.999023 4.5c0 18 20.333 28 61 30s68.667 -2 84 -12c56.667 -38 85 -86.667 85 -146z" />
    <glyph glyph-name="four" unicode="4" horiz-adv-x="461" 
d="M343 27c-14 0 -22.667 7.50195 -26 22.502s-3.66602 47.5 -0.999023 97.5l5 93c-78.667 2.66699 -150.334 -3.66602 -215.001 -18.999c-15.333 -1.33301 -30 -3.33301 -44 -6c-14 -3.33301 -23.5 -0.833008 -28.5 7.5s-4.5 20.833 1.5 37.5
c3.33301 7.33301 5.66602 19.333 6.99902 36s4 27.667 8 33c4 2 5 5.33301 3 10c-2.66699 4 -0.333984 23 6.99902 57c22 105.333 35.333 161 40 167s11.334 7.66699 20.001 5c15.333 -3.33301 16.666 -25.666 3.99902 -66.999c-8 -24.667 -18 -68.667 -30 -132
s-17 -98 -15 -104c2.66699 -12 22.334 -8.66699 59.001 10c11.333 3.33301 73.333 3.66602 186 0.999023c3.33301 6 5.5 52.333 6.5 139s2.5 134 4.5 142c2 1.33301 5.66699 1.16602 11 -0.500977s11.5 -4 18.5 -7s11.167 -4.83301 12.5 -5.5l-10 -255l25 4
c16.667 3.33301 27.334 0.333008 32.001 -9c5.33301 -10.667 7 -17.334 5 -20.001s-11.667 -6.33398 -29 -11.001c-22 -4.66699 -33.667 -9 -35 -13c-2 -4 -3.66699 -40.667 -5 -110c-0.666992 -51.333 -1.66699 -81.333 -3 -90s-6 -13 -14 -13z" />
    <glyph glyph-name="five" unicode="5" horiz-adv-x="440" 
d="M30 149c0 10.667 4.33301 13.6641 13 8.99707c7.33301 -3.33301 21 -13.333 41 -30c20 -16 34.167 -25.667 42.5 -29s24.833 -5.33301 49.5 -6l51 -2c33.333 37.333 53 62.666 59 75.999c6.66699 16.667 5.66699 48.5 -3 95.5s-19 77.5 -31 91.5
c-8.66699 9.33301 -20 15 -34 17c-4.66699 -0.666992 -6.66699 -2 -6 -4c2.66699 -4.66699 0.333984 -7 -6.99902 -7c-8 0 -18.833 -8.5 -32.5 -25.5s-22.167 -31.833 -25.5 -44.5c-2.66699 -11.333 -8 -18.5 -16 -21.5s-15.333 -0.166992 -22 8.5
c-2.66699 -2 -4.66699 19 -6 63s-2 88.667 -2 134s-0.333008 68.333 -1 69c-1.33301 3.33301 -0.333008 10 3 20c2 6 9 10.833 21 14.5s37 8.83398 75 15.501c67.333 11.333 127 18.333 179 21c11.333 0.666992 20 -1.16602 26 -5.49902s7.66699 -9.83301 5 -16.5
c-6 -14 -29 -20.667 -69 -20c-24 0.666992 -57.5 -4 -100.5 -14s-70.167 -19 -81.5 -27c-8 -6 -12.667 -12.5 -14 -19.5s-2.33301 -23.5 -3 -49.5c-1.33301 -36.667 0 -59.334 4 -68.001c2.66699 -6 5.33398 -9.16699 8.00098 -9.5s8.66699 2.16699 18 7.5
c14 7.33301 31.5 10.833 52.5 10.5s35.833 -4.5 44.5 -12.5c17.333 -15.333 31.666 -40.166 42.999 -74.499s17.333 -72.5 18 -114.5c0.666992 -22.667 -1 -40.334 -5 -53.001s-13.333 -29 -28 -49c-14 -18.667 -33.833 -33.5 -59.5 -44.5s-45.5 -12.833 -59.5 -5.5
c-10 6 -13 6 -9 0c3.33301 -5.33301 1.66602 -8 -5.00098 -8c-8.66699 0.666992 -21 5.33398 -37 14.001c-18 8.66699 -38.5 24.334 -61.5 47.001s-34.5 38.334 -34.5 47.001z" />
    <glyph glyph-name="six" unicode="6" horiz-adv-x="353" 
d="M267 197c0.666992 6.66699 1 12.332 1 16.999s-0.333008 8.33398 -1 11.001s-1.5 4.5 -2.5 5.5s-2.5 1.5 -4.5 1.5c-20 -1.33301 -43.667 -13 -71 -35s-47.333 -46 -60 -72c-8 -15.333 -12.167 -25.166 -12.5 -29.499s2.5 -7.83301 8.5 -10.5
c7.33301 -4.66699 26 -2.33398 56 6.99902c51.333 16.667 80 51.667 86 105zM46 326.998c-1.33301 3.33301 -2.00098 3.00098 -2.00098 -0.999023c-2 -12.667 -2 -20.334 0 -23.001c0.666992 -0.666992 1.33398 0.333008 2.00098 3c1.33301 7.33301 1.33301 14.333 0 21z
M52.999 376.999c-1.33301 3.33301 -2.00098 3 -2.00098 -1c-2 -13.333 -2 -21.333 0 -24c0.666992 -0.666992 1.33398 0.333008 2.00098 3c1.33301 8 1.33301 15.333 0 22zM274.998 561.999c0 6.66699 -4.99902 12.499 -14.999 17.499s-21.333 7.5 -34 7.5
c-16.667 0 -31.667 -8.5 -45 -25.5s-28 -46.167 -44 -87.5c-2 -4.66699 -4.33301 -10.5 -7 -17.5l-7 -18c-2 -5 -3.33301 -8.5 -4 -10.5c-8 -20 -15.5 -53.5 -22.5 -100.5s-11 -87.333 -12 -121s1.16699 -53.167 6.5 -58.5c4.66699 0 7 1.66699 7 5
c0 6.66699 10 20.167 30 40.5s37.333 34.833 52 43.5c19.333 11.333 43 19 71 23c19.333 2.66699 31.5 3.33398 36.5 2.00098s12.167 -7.33301 21.5 -18c12.667 -14.667 16 -22.667 10 -24c-5.33301 -2 -5.33301 -6.33301 0 -13c4.66699 -6.66699 4.66699 -10 0 -10
c-6.66699 0 -8 -8 -4 -24c2 -10.667 2.16699 -18.334 0.5 -23.001s-6.5 -10.334 -14.5 -17.001c-11.333 -10.667 -16 -18 -14 -22c2.66699 -2.66699 0.666992 -4.66699 -6 -6c-2.66699 -2 -4 -3.33301 -4 -4c3.33301 -3.33301 0.833008 -9.33301 -7.5 -18
s-15.5 -13 -21.5 -13c-6.66699 0 -12.667 -4 -18 -12c-7.33301 -9.33301 -26.833 -14 -58.5 -14s-56.5 4.66699 -74.5 14c-13.333 6.66699 -22 13.334 -26 20.001s-11.667 25 -23 55c-12.667 36.667 -18.334 82 -17.001 136s8 98.333 20 133c8 22.667 13.833 37.667 17.5 45
s9 16 16 26s14.833 23.333 23.5 40c16.667 34 31 57.167 43 69.5s33 23.166 63 32.499c29.333 6.66699 56.333 0.333984 81 -18.999c16.667 -12 23 -23 19 -33c-3.33301 -10 -6 -15.667 -8 -17s-7.33301 -0.666016 -16 2.00098c-10 2 -15 6.66699 -15 14z" />
    <glyph glyph-name="seven" unicode="7" horiz-adv-x="391" 
d="M346 559c7.33301 0 12.0068 -4.00391 14.0068 -12.0039s0 -15.333 -6 -22c-10.667 -11.333 -18.834 -26.166 -24.501 -44.499s-13.834 -54.5 -24.501 -108.5c-24.667 -123.333 -31 -224.666 -19 -303.999c2 -14.667 2.5 -24 1.5 -28s-4.16699 -6 -9.5 -6
c-10.667 0 -17.834 4.83301 -21.501 14.5s-6.16699 29.834 -7.5 60.501c-4 111.333 2.33301 191.333 19 240c4.66699 13.333 8 30 10 50s5.33301 37.333 10 52c5.33301 21.333 5.66602 33 0.999023 35s-25 -2.33301 -61 -13c-32 -8.66699 -53.667 -12.334 -65 -11.001
c-10 2.66699 -15.667 1.33398 -17 -3.99902c-0.666992 -3.33301 1.66602 -6 6.99902 -8c9.33301 -3.33301 16.333 -11.333 21 -24c2 -6 1.33301 -9 -2 -9s-7 4.33301 -11 13c-2 6.66699 -9 15 -21 25s-19.667 13.333 -23 10c-2 -3.33301 2 -14.166 12 -32.499
s14.667 -29.166 14 -32.499c0 -5.33301 -2.33301 -8.83301 -7 -10.5s-9.83398 -1.5 -15.501 0.5s-9.16699 5.66699 -10.5 11c-9.33301 28 -26 54 -50 78c-22.667 21.333 -32.667 35.166 -30 41.499s17.667 3.83301 45 -7.5c19.333 -8 44.5 -13 75.5 -15s55.167 0 72.5 6
c7.33301 3.33301 18.666 7.16602 33.999 11.499s28.833 8.83301 40.5 13.5s20.5 10.334 26.5 17.001c8.66699 8.66699 16 13 22 13z" />
    <glyph glyph-name="eight" unicode="8" horiz-adv-x="371" 
d="M31 79c-2.66699 8 -1.66895 19.5 2.99805 34.5s9.33398 23.167 14.001 24.5c0 -2.66699 -2.33301 -10.834 -7 -24.501s-6.66699 -24.167 -6 -31.5c-0.666992 -11.333 -1.16699 -17.166 -1.5 -17.499s-1.16602 4.5 -2.49902 14.5zM205.998 348
c0 -4.66699 -9.66699 -21.999 -29 -51.999c-15.333 -24 -29.666 -52.667 -42.999 -86s-20 -57.333 -20 -72c0 -10 2.83301 -17.833 8.5 -23.5s15.834 -9.83398 30.501 -12.501c14 -3.33301 37 3.66699 69 21c8 4.66699 15.833 8.66699 23.5 12s13.667 5.83301 18 7.5
s6.5 2.16699 6.5 1.5c0 -2.66699 -9.66699 -8.66699 -29 -18c-26.667 -13.333 -34.667 -22 -24 -26c2.66699 -1.33301 6.66699 -2 12 -2c9.33301 0 19.666 4.66699 30.999 14s17 18 17 26c0 7.33301 3.66699 15.333 11 24c7.33301 7.33301 12.333 24.333 15 51
c2 18 2 31 0 39s-8.33301 20.333 -19 37c-14.667 24 -31.334 41 -50.001 51c-18.667 9.33301 -28 12 -28 8zM290.998 581.001c0 -5.33301 -6.33301 -8.00293 -19 -8.00293c-5.33301 0 -13 -1 -23 -3s-20.167 -4.66699 -30.5 -8s-20 -6.66602 -29 -9.99902
s-16.167 -6.66602 -21.5 -9.99902s-7.66602 -5.66602 -6.99902 -6.99902c2 -2.66699 1.33301 -3.66699 -2 -3c-10 2 -15 2.33301 -15 1v-2c0.666992 -2.66699 -6.33301 -11 -21 -25c-14 -12 -21.333 -21.167 -22 -27.5s5.33301 -17.166 18 -32.499
c8.66699 -10.667 25 -22 49 -34s37.667 -15.667 41 -11c3.33301 6.66699 13.166 31.334 29.499 74.001s24.5 65.334 24.5 68.001c0 6 4.66699 11.333 14 16c11.333 6 18.666 3.66699 21.999 -7c2.66699 -8.66699 -0.333008 -18.334 -9 -29.001
c-5.33301 -8 -9 -14.167 -11 -18.5s-4 -9.66602 -6 -15.999s-5.33301 -14.166 -10 -23.499l-35 -83l28 -15c18 -10.667 36.667 -29.834 56 -57.501s29 -49.834 29 -66.501c0 -14.667 -5.66699 -37.834 -17 -69.501s-22.666 -55.834 -33.999 -72.501
c-10.667 -15.333 -23.834 -25.5 -39.501 -30.5s-39.167 -6.16699 -70.5 -3.5c-17.333 2 -40 0.166992 -68 -5.5s-47.667 -7.83398 -59 -6.50098c-7.33301 2.66699 -5.66602 5 5.00098 7l15 3c22.667 4 34 8 34 12c0 4.66699 -2.33301 7 -7 7s-10.667 5.33301 -18 16
c-5.33301 7.33301 -8 13.5 -8 18.5s2.66699 13.167 8 24.5c4 6.66699 9.33301 24.334 16 53.001s11.667 45.667 15 51c5.33301 4 17.333 21.5 36 52.5s28.667 49.833 30 56.5c0.666992 5.33301 -1.16602 9.83301 -5.49902 13.5s-12.5 7.83398 -24.5 12.501
c-18 6.66699 -35.5 19.834 -52.5 39.501s-25.5 36.5 -25.5 50.5s5.5 29.833 16.5 47.5s23.167 30.5 36.5 38.5c16 9.33301 37 17.666 63 24.999c22.667 6.66699 46.667 10.167 72 10.5s39.666 -2.16699 42.999 -7.5c1.33301 -2.66699 2 -4.16699 2 -4.5
s-1.33301 0.166992 -4 1.5c-6 3.33301 -9 2.66602 -9 -2.00098z" />
    <glyph glyph-name="nine" unicode="9" horiz-adv-x="332" 
d="M267 440c3.33301 20.667 2.33301 31.998 -3 33.998c-2.66699 0.666992 -5 -3.33301 -7 -12c0 -6 -1.33301 -19.667 -4 -41c-2 -15.333 -1.33301 -22.666 2 -21.999c4.66699 4.66699 8.66699 18.334 12 41.001zM202 535.998
c-44.667 44.667 -88.668 26.666 -132.001 -54.001c-8.66699 -20 -11.334 -48 -8.00098 -84c2.66699 -25.333 5.33398 -41.166 8.00098 -47.499s10.667 -13.833 24 -22.5l27 -19c58 18.667 89 29.667 93 33c4.66699 8.66699 8.33398 65.667 11.001 171zM29.999 408.997
c0 36 4 64.998 12 86.998s22.333 43.667 43 65c19.333 19.333 35.166 30 47.499 32s31.5 -2.66699 57.5 -14c18.667 -8 31 -14.833 37 -20.5s7.66699 -12.5 5 -20.5c-3.33301 -5.33301 1.33398 -8.33301 14.001 -9c7.33301 0 19.666 0.666992 36.999 2l15 1l3 -53
c1.33301 -28 0.166016 -50 -3.50098 -66s-11.5 -32.333 -23.5 -49c-9.33301 -13.333 -17 -35.5 -23 -66.5s-8.66699 -59.833 -8 -86.5c0.666992 -24 -0.666016 -55.5 -3.99902 -94.5s-6.66602 -61.833 -9.99902 -68.5c-6 -6 -12 -7.33301 -18 -4
c-5.33301 2 -8.5 5.33301 -9.5 10s-0.5 14 1.5 28c4 38 8.66699 110.333 14 217l-28 -5c-38.667 -7.33301 -63.667 -10.666 -75 -9.99902s-25 6.33398 -41 17.001c-18.667 12.667 -30.5 25.167 -35.5 37.5s-7.5 35.833 -7.5 70.5z" />
    <glyph glyph-name="colon" unicode=":" horiz-adv-x="153" 
d="M63 128c2.66699 4.66699 10.333 6.33008 23 4.99707s21.667 -4.66602 27 -9.99902c11.333 -9.33301 13.666 -22.666 6.99902 -39.999s-17 -29.5 -31 -36.5s-27 -5.83301 -39 3.5c-5.33301 4 -8.16602 8.16699 -8.49902 12.5s2.16699 13.5 7.5 27.5
c7.33301 22.667 12 35.334 14 38.001zM64.999 468.996c18 4 31.5 -1.66699 40.5 -17s9.16699 -33 0.5 -53c-6 -14 -18.667 -23.667 -38 -29c-20 -5.33301 -31.333 -6.66602 -34 -3.99902c-6.66699 7.33301 -5.66699 25.666 3 54.999s18 45.333 28 48z" />
    <glyph glyph-name="semicolon" unicode=";" horiz-adv-x="229" 
d="M133 -72c-10.667 0 -16.499 3.66504 -17.499 10.998s2.5 15.333 10.5 24c6.66699 7.33301 11.5 22.833 14.5 46.5s2.16699 38.834 -2.5 45.501s-14.334 4.66699 -29.001 -6c-15.333 -10 -26.666 -15 -33.999 -15c-8.66699 0 -18.334 3.83301 -29.001 11.5
s-16 14.834 -16 21.501c0 22.667 18.333 53.334 55 92.001c12 12 21.667 15.667 29 11c32.667 -18 53 -62.667 61 -134c3.33301 -26.667 0.5 -51.334 -8.5 -74.001s-20.167 -34 -33.5 -34zM121.001 461.998c14.667 9.33301 26.833 13.334 36.5 12.001s19.5 -9 29.5 -23
c10.667 -14 14.667 -30.667 12 -50s-10.667 -34.333 -24 -45c-17.333 -15.333 -35.333 -17.666 -54 -6.99902s-28.334 25.667 -29.001 45c-2.66699 19.333 -2.16699 33.166 1.5 41.499s12.834 17.166 27.501 26.499z" />
    <glyph glyph-name="equal" unicode="=" horiz-adv-x="505" 
d="M264 224c111.333 7.33301 169.332 7.66992 173.999 1.00293c3.33301 -6 1 -12.333 -7 -19s-15.667 -8.66699 -23 -6s-39.5 4 -96.5 4s-95.5 -1.33301 -115.5 -4c-96 -12.667 -148 -17.334 -156 -14.001c-8.66699 3.33301 -11.667 10.166 -9 20.499
s8.33398 14.833 17.001 13.5c27.333 -4.66699 99.333 -3.33398 216 3.99902zM439.999 445.004c10 6 19.666 2.00195 28.999 -11.998c9.33301 -12.667 9 -21.334 -1 -26.001c-5.33301 -2.66699 -13.666 -2.33398 -24.999 0.999023c-18 4 -82.5 5.33301 -193.5 4
s-174.167 -4 -189.5 -8c-9.33301 -3.33301 -15.833 -4.83301 -19.5 -4.5s-6.5 2.83301 -8.5 7.5c-4 10.667 0.333008 17.667 13 21c19.333 4.66699 83.333 7.66699 192 9c129.333 1.33301 197 4 203 8z" />
    <glyph glyph-name="greater" unicode="&#x3e;" horiz-adv-x="492" 
d="M351 336c6.66699 6.66699 7.33398 10 2.00098 10c-7.33301 0 -17 -5 -29 -15c-6.66699 -4.66699 -10.334 -7.66699 -11.001 -9l10 3c10.667 4 16 5.33301 16 4c2 -2 6 0.333008 12 7zM437 339c-8 0.666992 -15.3311 -1.33203 -21.998 -5.99902
s-13.334 -6.33398 -20.001 -5.00098c-8 2.66699 -28 -1.83301 -60 -13.5s-56.667 -23.5 -74 -35.5c-16.667 -11.333 -39.667 -38.666 -69 -81.999s-46.666 -75.666 -51.999 -96.999c-2.66699 -12.667 -5.66699 -20.834 -9 -24.501s-8.66602 -5.5 -15.999 -5.5
c-6 0 -10.333 1 -13 3s-3.83398 5.83301 -3.50098 11.5s2.33301 13 6 22s9.16699 21.167 16.5 36.5c19.333 38.667 49 80.167 89 124.5s77 76.833 111 97.5c7.33301 4 6.66602 8 -2.00098 12c-4.66699 2 -14.334 5.33301 -29.001 10c-6.66699 2 -12.334 3.83301 -17.001 5.5
s-9 3.33398 -13 5.00098s-7 3 -9 4s-2.66699 1.83301 -2 2.5c2 2 -11.333 8.66699 -40 20c-1.33301 0.666992 -3 1.33398 -5 2.00098c-40 14.667 -74 29.5 -102 44.5s-48 28.667 -60 41s-15 22.166 -9 29.499c6.66699 7.33301 12.334 10.333 17.001 9
s12.334 -7.66602 23.001 -18.999c16 -18 46.167 -36.333 90.5 -55s91.166 -32.334 140.499 -41.001c44.667 -8.66699 71.667 -17.334 81 -26.001c8.66699 -8.66699 18 -13 28 -13c18 -1.33301 32.667 -12.333 44 -33c5.33301 -8.66699 6.5 -14.834 3.5 -18.501
s-10.833 -5.5 -23.5 -5.5z" />
    <glyph glyph-name="question" unicode="?" horiz-adv-x="421" 
d="M177 -58c17.333 18.667 40.333 16.999 69 -5.00098c12 -9.33301 19.333 -16.666 22 -21.999s3.66699 -15.333 3 -30c-0.666992 -14 -3 -24 -7 -30s-15 -15.333 -33 -28c-22 -15.333 -38.833 -24 -50.5 -26s-22.167 2.33301 -31.5 13c-9.33301 10 -16 12 -20 6
c-2 -3.33301 -3 -2 -3 4l9 73c1.33301 12 8 21.5 20 28.5s19.333 12.5 22 16.5zM370 381.999c5.33301 0 0.668945 -8.66699 -13.998 -26c-4 -4.66699 -7.33301 -8.33398 -10 -11.001c-6.66699 -5.33301 -6.33398 -2.66602 0.999023 8.00098l4 6
c11.333 15.333 17.666 23 18.999 23zM338.003 572.999c4.66699 0 12.501 -6.33203 23.501 -18.999s18.833 -24.667 23.5 -36c6.66699 -16 8 -37 4 -63c-4 -37.333 -8.66699 -59 -14 -65c-0.666992 -1.33301 -1.33398 -1 -2.00098 1v3c-1.33301 6 -3.66602 9 -6.99902 9
c-5.33301 0 -15.5 -11.5 -30.5 -34.5s-22.167 -38.167 -21.5 -45.5c0 -3.33301 -0.333008 -6 -1 -8s-1.66699 -2.66699 -3 -2c-3.33301 0 -9.66602 -5.83301 -18.999 -17.5l-28 -36.5c-9.33301 -12.667 -14.666 -19.667 -15.999 -21c-8.66699 -10 -18.5 -32.667 -29.5 -68
s-16.833 -63 -17.5 -83c-0.666992 -18.667 -1.83398 -30.334 -3.50098 -35.001s-5.83398 -7 -12.501 -7s-10.667 2.66699 -12 8s-2.33301 19 -3 41c-1.33301 30 1.66699 54.333 9 73c8 18.667 10.333 28 7 28c-0.666992 0.666992 -2.66699 0 -6 -2s-5 -2.33301 -5 -1l2 4
c4 5.33301 8 7 12 5c2 -0.666992 4.33301 1 7 5s5 9.66699 7 17c6.66699 18 17.334 35 32.001 51c9.33301 9.33301 42 56.666 98 141.999c14 20.667 22 41.667 24 63c2 22.667 -2 38.5 -12 47.5s-30.333 14.5 -61 16.5c-20.667 1.33301 -36.334 0.833008 -47.001 -1.5
s-28.334 -9.83301 -53.001 -22.5c-36 -18 -62 -34.333 -78 -49c-34 -34 -48 -81 -42 -141c4 -29.333 3.33301 -46 -2 -50c-5.33301 -2.66699 -11.666 -1 -18.999 5s-10 11.667 -8 17c2.66699 7.33301 2 17.333 -2 30c-3.33301 12.667 -1.66602 34.334 5.00098 65.001
s14.334 51 23.001 61c6.66699 8 9.33398 16.667 8.00098 26c-0.666992 4 -0.666992 7 0 9s2 2.66699 4 2c14.667 -3.33301 21.334 -1.66602 20.001 5.00098c-0.666992 2 -2 4.33301 -4 7c-6.66699 7.33301 -3 17.333 11 30c8 7.33301 12.167 10.833 12.5 10.5
s-1.5 -2.83301 -5.5 -7.5c-12.667 -18.667 -10.334 -25.334 6.99902 -20.001c12 3.33301 30 12 54 26c5.33301 4.66699 15.666 9.66699 30.999 15s25.333 10.333 30 15c3.33301 4 1.66602 5 -5.00098 3c-1.33301 0 -3 -0.333008 -5 -1c-5.33301 -2 -8.33301 -2.66699 -9 -2
c0 0.666992 1 2 3 4c4.66699 4.66699 11.167 7.66699 19.5 9s18.166 1.33301 29.499 0s20.5 -2.5 27.5 -3.5s16.667 -3.16699 29 -6.5s19.166 -5 20.499 -5z" />
    <glyph glyph-name="at" unicode="@" horiz-adv-x="690" 
d="M599 262c0.666992 9.33301 1.66699 14.335 3 15.002l3 -8c2 -14.667 1 -22.334 -3 -23.001c-2.66699 -2.66699 -4 -1.33398 -4 3.99902c0 2.66699 0.333008 6.66699 1 12zM612 299.002c-1.33301 -5.33301 -2.33398 -4.66602 -3.00098 2.00098
c-2 17.333 -1.66699 25.666 1 24.999c0.666992 0 1.33398 -1 2.00098 -3c1.33301 -8.66699 1.33301 -16.667 0 -24zM605.999 360.002c-2 -0.666992 -3.66602 1 -4.99902 5c-2.66699 12.667 -2.33398 23 0.999023 31l5 -10c4 -17.333 3.66699 -26 -1 -26zM376 226.002
c7.33301 7.33301 14.5 23.668 21.5 49.001s6.83301 43.333 -0.5 54c-5.33301 12.667 -10.333 14.667 -15 6c-4 -8.66699 -8 -31 -12 -67c-2.66699 -30.667 -2.66699 -46 0 -46c0.666992 -0.666992 2.66699 0.666016 6 3.99902zM441 70.0039
c-28 0 -49.9971 6.00781 -65.9971 18.0078c-16 13.333 -24 22.666 -24 27.999c0 15.333 -14.667 13.333 -44 -6c-35.333 -24 -73.666 -18 -114.999 18c-19.333 17.333 -31.833 34.666 -37.5 51.999s-6.5 42 -2.5 74c6 46 14.667 82.833 26 110.5s28.333 54.167 51 79.5
c16.667 18.667 34 30.167 52 34.5s34 0.833008 48 -10.5c6.66699 -5.33301 12.167 -14.5 16.5 -27.5s6.16602 -24.833 5.49902 -35.5s-4 -16 -10 -16c-6 -1.33301 -11.333 5.83398 -16 21.501s-8 23.834 -10 24.501c-6 3.33301 -17.5 0 -34.5 -10s-32.5 -22.667 -46.5 -38
c-16.667 -19.333 -28.5 -38.666 -35.5 -57.999s-11.833 -47 -14.5 -83l-5 -52l30 -27c32.667 -30 66 -35 100 -15c8.66699 5.33301 14.334 11 17.001 17s5 18.333 7 37c2.66699 30.667 4 57.667 4 81c0 38.667 10.333 69.667 31 93c8.66699 10 16.667 14.833 24 14.5
s16.333 -5.83301 27 -16.5c17.333 -18.667 24.166 -47.834 20.499 -87.501s-16.834 -71.834 -39.501 -96.501c-14 -16.667 -20.333 -30.334 -19 -41.001c1.33301 -8.66699 10 -18.834 26 -30.501s28 -16.5 36 -14.5c6 2 20.667 3.66699 44 5
c15.333 0.666992 26.833 3 34.5 7s19.167 14.333 34.5 31c24 25.333 40.833 49 50.5 71s14.834 50.333 15.501 85c0.666992 36.667 -3.5 72.5 -12.5 107.5s-18.833 52.5 -29.5 52.5c-5.33301 0 -11.666 7 -18.999 21c-5.33301 9.33301 -16.5 20 -33.5 32
s-27.167 19.667 -30.5 23c-10 9.33301 -26.5 19 -49.5 29s-39.833 15 -50.5 15c-14 0 -35.333 -4.16699 -64 -12.5s-53.334 -17.5 -74.001 -27.5c-24.667 -12 -59.334 -39.667 -104.001 -83c-28.667 -28.667 -47.334 -49 -56.001 -61s-16 -27.333 -22 -46
c-13.333 -42 -17.333 -101.5 -12 -178.5s18.666 -129.167 39.999 -156.5c5.33301 -3.33301 13.333 -13.666 24 -30.999c22 -36 51.5 -61.333 88.5 -76s76.167 -16.667 117.5 -6c9.33301 2.66699 15.833 3.33398 19.5 2.00098s7.16699 -5.33301 10.5 -12
c6 -10.667 4.33301 -20.334 -5 -29.001c-14 -14.667 -53.667 -19 -119 -13c-12 0.666992 -29.667 6.66699 -53 18s-35 19.333 -35 24c0 3.33301 -4.66699 7 -14 11c-6.66699 2.66699 -14.5 13 -23.5 31s-15.833 29 -20.5 33c-7.33301 10 -18.666 29 -33.999 57
c-12 22.667 -20 46.167 -24 70.5s-6.33301 62.166 -7 113.499c-0.666992 69.333 6.33301 122.666 21 159.999s44.667 78.666 90 123.999c38 37.333 73.333 65.166 106 83.499s68.667 30.5 108 36.5c20.667 3.33301 36.167 5.33301 46.5 6s17.333 0.666992 21 0
s9.66699 -2.83398 18 -6.50098s16.5 -6.83398 24.5 -9.50098c12 -3.33301 27.833 -12.5 47.5 -27.5s32.167 -23.833 37.5 -26.5c12 -6.66699 26.167 -19.167 42.5 -37.5s29.166 -36.5 38.499 -54.5c17.333 -33.333 26.666 -73 27.999 -119s-5.66699 -90.333 -21 -133
c-11.333 -32 -30.666 -60.667 -57.999 -86c-22 -22 -42.333 -36.667 -61 -44s-44.667 -11 -78 -11z" />
    <glyph glyph-name="A" unicode="A" horiz-adv-x="642" 
d="M270 70c22.667 0 36.667 -0.666016 42 -1.99902c1.33301 -1.33301 2.66602 1 3.99902 7c2.66699 21.333 2.33398 35.666 -0.999023 42.999c-2.66699 -0.666992 -6.83398 -4 -12.501 -10s-12.167 -13.5 -19.5 -22.5s-11.666 -14.167 -12.999 -15.5zM230 74.001
c-0.666992 -1.33301 0.333984 -1.33301 3.00098 0c12.667 9.33301 27.334 26 44.001 50c8 12 12.667 21 14 27c-1.33301 1.33301 -6.83301 -3.5 -16.5 -14.5s-19.334 -23.167 -29.001 -36.5s-14.834 -22 -15.501 -26zM420.001 -157.999
c0 3.33301 -6.16992 8.16504 -18.5029 14.498s-18.166 11.5 -17.499 15.5c0 4.66699 -6.66699 13.667 -20 27c-13.333 16 -24.5 36.333 -33.5 61s-12.167 48.667 -9.5 72c-2 0 -9.83301 -1.33301 -23.5 -4s-23.334 -4.16699 -29.001 -4.5s-12.834 0.5 -21.501 2.5
c-4 3.33301 -25.833 -10.5 -65.5 -41.5s-74.167 -60.833 -103.5 -89.5c-10.667 -10.667 -18.5 -17.167 -23.5 -19.5s-9.83301 -1.5 -14.5 2.5c-8.66699 7.33301 -12 15 -10 23s8.66699 14.333 20 19c7.33301 1.33301 19.5 10.666 36.5 27.999s27.5 27 31.5 29
c2.66699 0 11 5.83301 25 17.5s26.833 23.5 38.5 35.5s16.167 18 13.5 18c-3.33301 0 -2 2.33301 4 7c7.33301 4.66699 19 18.334 35 41.001c48.667 66 76 99.667 82 101c2.66699 0 1.5 -3.33301 -3.5 -10l-15 -19.5c-5 -6.33301 -6.16699 -9.83301 -3.5 -10.5
c2 -2 5.5 -0.666992 10.5 4s9.83301 10.834 14.5 18.501s7 14.167 7 19.5c2.66699 18 8.33398 45.667 17.001 83s15.334 69.333 20.001 96c10.667 55.333 21.667 95 33 119c13.333 26 25.333 36.833 36 32.5s16 -22.833 16 -55.5c0 -63.333 -18 -134.666 -54 -213.999
c-35.333 -80.667 -48.666 -136.667 -39.999 -168c1.33301 -6 4.16602 -10 8.49902 -12s11.833 -2.66699 22.5 -2c16.667 0 26.834 -1.33301 30.501 -4s3.83398 -8.66699 0.500977 -18c-3.33301 -10 -14 -15 -32 -15c-16 0 -24.833 -2.5 -26.5 -7.5s1.5 -21.833 9.5 -50.5
c8.66699 -28 21.667 -52 39 -72c13.333 -14 23 -22.5 29 -25.5s17.667 -4.16699 35 -3.5c56 1.33301 94 12 114 32c14 14 22.667 17 26 9c4.66699 -9.33301 -1 -23 -17 -41c-12.667 -14 -27.5 -24 -44.5 -30s-41.833 -10.667 -74.5 -14c-36 -3.33301 -54 -2 -54 4z" />
    <glyph glyph-name="B" unicode="B" horiz-adv-x="458" 
d="M334 272c0 -2.66699 8.16895 -12 24.502 -28s25.166 -23.333 26.499 -22c2 2 5.83301 -1.5 11.5 -10.5s11.334 -20.333 17.001 -34s9.5 -25.5 11.5 -35.5c5.33301 -25.333 4 -52.166 -4 -80.499s-21.333 -51.833 -40 -70.5c-6 -6.66699 -11.667 -12.667 -17 -18
s-11 -10.166 -17 -14.499l-15.5 -11.5c-4.33301 -3.33301 -10.166 -6.66602 -17.499 -9.99902s-12.833 -6 -16.5 -8s-9.83398 -4.5 -18.501 -7.5s-14.834 -5 -18.501 -6s-10.834 -3.16699 -21.501 -6.5l-22 -7c-16.667 -5.33301 -27.667 -5.66602 -33 -0.999023
s-6 14.334 -2 29.001c1.33301 6.66699 4.33301 11.5 9 14.5s13 5.5 25 7.5c52 8 94.167 26.167 126.5 54.5s48.5 61.166 48.5 98.499c0 14 -5.16699 31.667 -15.5 53s-19.5 33.333 -27.5 36c-9.33301 2.66699 -15 7.33398 -17 14.001c-3.33301 8.66699 -8.83301 12 -16.5 10
s-13.167 -8 -16.5 -18c-4.66699 -12 -11.167 -17.333 -19.5 -16s-13.166 8.66602 -14.499 21.999c-1.33301 8.66699 0.166992 17.834 4.5 27.501s5.5 18.5 3.5 26.5c-2 9.33301 1 19 9 29s16.333 15 25 15c6.66699 0 14.167 12.667 22.5 38s12.5 47.666 12.5 66.999
c0 52.667 -37.667 98.667 -113 138c-24 12.667 -53.5 23.167 -88.5 31.5s-55.167 9.83301 -60.5 4.5c-4.66699 -4.66699 -1 -19.334 11 -44.001c26.667 -56 43.334 -135.667 50.001 -239c3.33301 -58.667 -3.33398 -146 -20.001 -262
c-4.66699 -31.333 -7.66699 -58.333 -9 -81c-0.666992 -11.333 -2.66699 -20.5 -6 -27.5s-7.16602 -11 -11.499 -12s-9.16602 1.16699 -14.499 6.5c-4.66699 5.33301 -6.83398 11.166 -6.50098 17.499s3.16602 21.166 8.49902 44.499
c7.33301 29.333 11.666 61.333 12.999 96c1.33301 30.667 4 47 8 49c3.33301 2 3.66602 45.667 0.999023 131c-2 70 -6.83301 124.833 -14.5 164.5s-20.5 77.167 -38.5 112.5c-12 23.333 -18.5 39.666 -19.5 48.999s2.5 18.666 10.5 27.999
c8 8.66699 23.333 13.334 46 14.001s45.334 -3 68.001 -11c12.667 -4.66699 24.334 -7 35.001 -7s22.667 -4 36 -12c13.333 -8.66699 28.666 -17.667 45.999 -27c19.333 -10.667 38.333 -25.167 57 -43.5s32 -35.833 40 -52.5c10.667 -21.333 15 -43 13 -65
s-10.667 -51 -26 -87c-14.667 -34 -22 -51.667 -22 -53z" />
    <glyph glyph-name="C" unicode="C" horiz-adv-x="513" 
d="M311 65c-5.33301 1.33301 -4.66797 2.33398 1.99902 3.00098c18.667 1.33301 27.334 0.666016 26.001 -2.00098l-3 -1c-8.66699 -1.33301 -17 -1.33301 -25 0zM372.998 139.001c0 -5.33301 -8.16797 -15.167 -24.501 -29.5s-29.833 -23.5 -40.5 -27.5
c-6 -2 -10.5 -4 -13.5 -6s-4.16699 -4 -3.5 -6c0 -0.666992 -2.16699 -1.5 -6.5 -2.5s-10.666 -2 -18.999 -3s-17.5 -1.5 -27.5 -1.5c-24 -0.666992 -41.667 0 -53 2s-24 6.66699 -38 14c-36 18.667 -68.667 49.334 -98 92.001c-9.33301 13.333 -15 24.833 -17 34.5
s-2.66699 31.167 -2 64.5c0.666992 36.667 4.5 67.167 11.5 91.5s20.5 55.5 40.5 93.5c10.667 20 35.167 50.667 73.5 92s60.166 61 65.499 59c4 -2 14.333 1.33301 31 10c23.333 12.667 53.5 15.167 90.5 7.5s67.167 -22.834 90.5 -45.501
c14.667 -14 27.667 -32.667 39 -56s14.333 -37.666 9 -42.999c-7.33301 -6.66699 -16.333 -7.5 -27 -2.5s-17 13.167 -19 24.5c-4.66699 22.667 -18.167 42 -40.5 58s-47 25.333 -74 28s-53.833 -1.33301 -80.5 -12c-33.333 -16 -68.833 -50.333 -106.5 -103
s-60.834 -101.334 -69.501 -146.001c-7.33301 -35.333 -8.16602 -64.166 -2.49902 -86.499s20.834 -47.833 45.501 -76.5c18 -20.667 35.167 -34.667 51.5 -42s39.5 -11.333 69.5 -12c22.667 -0.666992 38.667 0.166016 48 2.49902s22.333 8.83301 39 19.5
c32.667 20 51.667 24.333 57 13c0.666992 -1.33301 1 -3 1 -5z" />
    <glyph glyph-name="D" unicode="D" horiz-adv-x="549" 
d="M224 34c24 0 63.001 18.334 117.001 55.001s91.667 70.334 113 101.001c12 17.333 19.333 30.5 22 39.5s4 25.167 4 48.5c-0.666992 35.333 -8 66.333 -22 93c-30.667 62 -92.667 130 -186 204c-22.667 16.667 -38.667 26.5 -48 29.5s-20.666 1.83301 -33.999 -3.5
c-6.66699 -2.66699 -13.834 -7.33398 -21.501 -14.001s-13.334 -13.167 -17.001 -19.5s-4.16699 -10.5 -1.5 -12.5c17.333 -9.33301 34.333 -52.333 51 -129c8 -34.667 12.333 -60.834 13 -78.501s-1 -51.5 -5 -101.5c-5.33301 -66 -14.333 -120 -27 -162
c-13.333 -37.333 -18 -58 -14 -62c4 -0.666992 13.167 1.5 27.5 6.5s23.833 6.83301 28.5 5.5zM208.001 651.001c12.667 0 27.5 -4.66797 44.5 -14.001s34.667 -20.833 53 -34.5s29.5 -21.834 33.5 -24.501c26 -19.333 54.833 -48.333 86.5 -87s53.834 -72.667 66.501 -102
c10 -26 17 -46.333 21 -61s5.5 -33 4.5 -55s-6.83301 -43 -17.5 -63c-13.333 -30.667 -29.666 -55.667 -48.999 -75c-19.333 -20.667 -45.5 -42.834 -78.5 -66.501s-60.5 -40.167 -82.5 -49.5c-48 -19.333 -82.667 -32.666 -104 -39.999c-20.667 -7.33301 -32 -8 -34 -2
c-1.33301 5.33301 -4.33301 6.33301 -9 3c-4 -2 -6 -2 -6 0c0.666992 3.33301 6.66699 20.333 18 51c23.333 62 36 102.667 38 122c0 2 -2 1.33301 -6 -2c-4.66699 -2.66699 -14.5 -27.5 -29.5 -74.5s-23.5 -80.167 -25.5 -99.5c-1.33301 -12.667 -3.83301 -22.667 -7.5 -30
s-8 -11.166 -13 -11.499s-10.5 2.83398 -16.5 9.50098c-9.33301 10.667 2.33398 60.334 35.001 149.001c24.667 68 39.834 124.667 45.501 170s3.16699 92 -7.5 140c-6.66699 31.333 -13 54 -19 68s-19 36.333 -39 67c-20.667 32 -39 51 -55 57
c-16.667 5.33301 -25 13.333 -25 24c0 10 3.16699 16.833 9.5 20.5s14.666 3.5 24.999 -0.5s21.166 -11 32.499 -21c9.33301 -8.66699 15.666 -13.334 18.999 -14.001s7.66602 1.33301 12.999 6c4.66699 4.66699 11 8.5 19 11.5s14 7.83301 18 14.5c6 9.33301 20 14 42 14z
" />
    <glyph glyph-name="E" unicode="E" horiz-adv-x="514" 
d="M147 438c0 -8 2.00098 -15.001 6.00098 -21.001c4.66699 -7.33301 7 -8.66602 7 -3.99902c-0.666992 12.667 -4.33398 21.667 -11.001 27zM404.001 118.999c3.33301 0.666992 11.332 -7.33301 23.999 -24s20.334 -25 23.001 -25c4.66699 0 10.334 -6.33301 17.001 -19
s9 -21.667 7 -27c-3.33301 -7.33301 -11 -11 -23 -11c-12.667 0 -25.667 10.667 -39 32c-12.667 20 -31.334 36.333 -56.001 49c-21.333 10.667 -38.333 16.334 -51 17.001s-35.334 -2.66602 -68.001 -9.99902c-21.333 -4.66699 -36 -9.33398 -44 -14.001s-17 -13 -27 -25
c-13.333 -16.667 -25.166 -25.667 -35.499 -27s-17.5 5.33398 -21.5 20.001l-4 18c-2 -6 -4.5 -16 -7.5 -30s-4.83301 -22.667 -5.5 -26c-2 -10.667 -7.33301 -17.667 -16 -21s-15.667 -1 -21 7c-5.33301 7.33301 -0.666016 27 14.001 59
c28.667 62.667 46.667 116.667 54 162s6.33301 96.333 -3 153c-7.33301 45.333 -12.666 72.833 -15.999 82.5s-11 21.167 -23 34.5c-14 16.667 -21 26.667 -21 30c0 4 -3 6 -9 6c-7.33301 0 -13.5 6.33301 -18.5 19s-5.16699 23.334 -0.5 32.001
c5.33301 9.33301 10.5 13.166 15.5 11.499s14.833 -10.5 29.5 -26.5c18 -19.333 29 -27.333 33 -24c2.66699 1.33301 1.66699 6.16602 -3 14.499s-11.5 17.666 -20.5 27.999s-17.5 18.5 -25.5 24.5c-11.333 9.33301 -14.333 14 -9 14s21 -13.667 47 -41
c24.667 -26 38 -35.667 40 -29v2l2 7l3 -10c3.33301 -14 13.833 -24.667 31.5 -32s36.167 -8.66602 55.5 -3.99902c8 2.66699 25.167 4.66699 51.5 6s42.833 4 49.5 8c2.66699 4 12.334 7.33301 29.001 10c25.333 4.66699 54.333 21.334 87 50.001
c11.333 9.33301 20.5 12.166 27.5 8.49902s9.16699 -11.834 6.5 -24.501c-2 -9.33301 -4.33301 -15.5 -7 -18.5s-7.16699 -6.33301 -13.5 -10s-12.166 -7.83398 -17.499 -12.501c-10 -9.33301 -21 -15.5 -33 -18.5s-23.333 -7.5 -34 -13.5
c-18 -8.66699 -58.667 -16 -122 -22c-61.333 -4.66699 -92.333 -7.33398 -93 -8.00098c-0.666992 -6 1.33301 -24.5 6 -55.5s6.66699 -49.833 6 -56.5c0 -18 1 -27 3 -27c1.33301 0 16 6.66699 44 20c18.667 10 33.167 15.833 43.5 17.5s28.5 1.83398 54.5 0.500977
c38 -2.66699 65.667 -9.66699 83 -21c13.333 -9.33301 22.333 -18.166 27 -26.499s5 -15.833 1 -22.5s-12.333 -11.334 -25 -14.001c-12.667 -3.33301 -19 -1.66602 -19 5.00098c0 7.33301 -10.333 16 -31 26c-14.667 6.66699 -25.834 10.5 -33.501 11.5
s-21.167 0.166992 -40.5 -2.5c-28.667 -4.66699 -48.334 -10 -59.001 -16c-11.333 -6 -23.333 -16.667 -36 -32s-19.334 -27 -20.001 -35c0 -9.33301 -7.33301 -36 -22 -80c-16.667 -48 -20.667 -72.333 -12 -73c2.66699 0 6.66699 2 12 6c28.667 20 52.5 33.5 71.5 40.5
s43.167 11.5 72.5 13.5c28.667 2 47.167 2.16699 55.5 0.5s18.166 -6.5 29.499 -14.5c16.667 -11.333 26.667 -17 30 -17z" />
    <glyph glyph-name="F" unicode="F" horiz-adv-x="455" 
d="M71 215c0 1.33301 6.16113 14.6631 18.4941 39.9961s17.833 40.666 16.5 45.999c0 9.33301 2.66699 20.333 8 33s10.333 19 15 19c5.33301 4 7.5 18.667 6.5 44s-4.5 53.166 -10.5 83.499s-12 46.5 -18 48.5c-5.33301 1.33301 -6.66602 4.33301 -3.99902 9
c2.66699 5.33301 0.833984 14.833 -5.49902 28.5s-12.166 20.5 -17.499 20.5c-6.66699 0 -12.334 5 -17.001 15c-5.33301 9.33301 -5.33301 17.5 0 24.5s13.666 10.5 24.999 10.5c10 0 22.5 -7.83301 37.5 -23.5s25.167 -31.167 30.5 -46.5
c2.66699 -7.33301 5.33398 -12.333 8.00098 -15s5.33398 -4.16699 8.00098 -4.5s6.5 -1 11.5 -2s10.167 -3.16699 15.5 -6.5c14.667 -8 34.5 -7.66699 59.5 1s48.167 23.334 69.5 44.001c14 13.333 24.167 25.5 30.5 36.5s14.5 21.5 24.5 31.5
c6.66699 6.66699 13.334 11.334 20.001 14.001s12 2.83398 16 0.500977s6 -6.5 6 -12.5c0 -18.667 -26 -51.667 -78 -99c-31.333 -28.667 -54.666 -46.167 -69.999 -52.5s-43.333 -11.5 -84 -15.5c-6.66699 -74 -16.334 -128 -29.001 -162
c40.667 -3.33301 78.5 1.5 113.5 14.5s55.5 30.167 61.5 51.5c4 14.667 9.83301 24.334 17.5 29.001s15.834 3 24.501 -5c9.33301 -8 15.666 -10.333 18.999 -7h2c-2 -5.33301 -10.667 -17.333 -26 -36c-38.667 -50 -98 -79.667 -178 -89
c-9.33301 -1.33301 -19.166 -2.66602 -29.499 -3.99902l-23.5 -3l-8 -1c-16.667 -42.667 -29.667 -70.667 -39 -84c-13.333 -22 -20 -35.667 -20 -41c0 -11.333 -11.333 -20.333 -34 -27c-7.33301 -2 -11.666 -2.16699 -12.999 -0.5s-1 6.83398 1 15.501
c0.666992 7.33301 7.16699 21.5 19.5 42.5s18.833 32.5 19.5 34.5z" />
    <glyph glyph-name="G" unicode="G" horiz-adv-x="544" 
d="M145 -17c14 -9.33301 27.3311 -15.998 39.998 -19.998s23 -7.66699 31 -11c12.667 -6.66699 31.334 -8.66699 56.001 -6c21.333 2.66699 49.833 11.167 85.5 25.5s60.5 27.166 74.5 38.499c13.333 11.333 24 27.666 32 48.999s10.333 40.333 7 57
c-2 11.333 -5.16699 19.333 -9.5 24s-13.166 10 -26.499 16c-19.333 8 -47.666 13.5 -84.999 16.5s-67 2.16699 -89 -2.5c-18 -4.66699 -33 -5 -45 -1s-18 10.667 -18 20c0 12 7.83301 19.667 23.5 23s48.5 4.66602 98.5 3.99902
c40.667 -0.666992 68.667 -2.33398 84 -5.00098s31 -7.66699 47 -15c16 -6.66699 27.167 -13.167 33.5 -19.5s12.5 -16.833 18.5 -31.5c8.66699 -20 12.167 -37.5 10.5 -52.5s-9.5 -36.833 -23.5 -65.5c-10 -20 -19.5 -35 -28.5 -45s-20.5 -18.333 -34.5 -25
c-28.667 -13.333 -62.167 -26.333 -100.5 -39s-63.833 -19 -76.5 -19c-30 0 -71 13.333 -123 40c-15.333 8.66699 -26.666 16.834 -33.999 24.501s-15 19.5 -23 35.5c-16 31.333 -26.5 58.333 -31.5 81s-7.83301 58.334 -8.5 107.001c-0.666992 60 4.33301 112 15 156
c10 37.333 19.5 65.666 28.5 84.999s22.833 41.333 41.5 66c38.667 50.667 86.334 73.334 143.001 68.001c67.333 -6 119.666 -29.333 156.999 -70c23.333 -26 38.166 -44 44.499 -54s7.16602 -17.333 2.49902 -22c-6 -6 -14.833 -6.83301 -26.5 -2.5
s-20.167 11.833 -25.5 22.5c-19.333 37.333 -52.5 63.833 -99.5 79.5s-88.5 14.167 -124.5 -4.5c-18.667 -9.33301 -36.5 -23.833 -53.5 -43.5s-28.5 -39.167 -34.5 -58.5c-2.66699 -8 -5.5 -15.833 -8.5 -23.5s-5 -13 -6 -16s-2.33301 -7.66699 -4 -14
s-3.16699 -13.5 -4.5 -21.5s-3.33301 -19.333 -6 -34c-12 -76 -11.167 -142.5 2.5 -199.5s38.167 -96.167 73.5 -117.5z" />
    <glyph glyph-name="H" unicode="H" horiz-adv-x="618" 
d="M203 79c-4 -8 -7.16602 -20.666 -9.49902 -37.999s-6.5 -29.333 -12.5 -36c-6.66699 -8.66699 -13.667 -7.33398 -21 3.99902c-6.66699 10 -7.66699 18.333 -3 25c7.33301 14 14.333 40 21 78s9.66699 71 9 99c-0.666992 54 -1.66699 88.5 -3 103.5
s-4.66602 32.5 -9.99902 52.5c-13.333 45.333 -33 89.833 -59 133.5s-49 69.834 -69 78.501c-12 5.33301 -17 14.333 -15 27c0.666992 9.33301 3.16699 15.666 7.5 18.999s10.166 3.33301 17.499 0s15.333 -10 24 -20l18.5 -19c9 -9.33301 15.667 -16.5 20 -21.5l17 -20
c7 -8.33301 12.833 -16.5 17.5 -24.5s8.66699 -16.667 12 -26c26.667 -67.333 46 -119 58 -155c0.666992 0 9 3.66699 25 11c21.333 10.667 53.833 15.334 97.5 14.001s80.167 -8.33301 109.5 -21c2.66699 -1.33301 4.66699 -1.33301 6 0s3 4.66602 5 9.99902
s3.83301 12.5 5.5 21.5l6.5 36.5c7.33301 50.667 16.333 90.667 27 120s27.667 61.666 51 96.999c5.33301 6.66699 11.833 8.66699 19.5 6s11.834 -8.66699 12.501 -18c1.33301 -12 -2.33398 -20.667 -11.001 -26c-12.667 -8.66699 -23.834 -22.834 -33.501 -42.501
s-15.834 -39.5 -18.501 -59.5c-3.33301 -37.333 -9 -65.333 -17 -84c-4.66699 -10.667 -7.5 -32.834 -8.5 -66.501s-1 -80.167 0 -139.5s1.5 -91.666 1.5 -96.999l20 -26c9.33301 -13.333 14.5 -22 15.5 -26s-1.16699 -10.333 -6.5 -19
c-4.66699 -7.33301 -8.5 -12 -11.5 -14s-6.16699 -2.33301 -9.5 -1s-8.66602 5 -15.999 11c-6 4.66699 -10.5 13.167 -13.5 25.5s-6.16699 35.5 -9.5 69.5c-6 56.667 -8 90 -6 100c3.33301 12.667 -1.16699 30.834 -13.5 54.501s-24.5 37.834 -36.5 42.501
c-10.667 4 -30.5 7 -59.5 9s-54.5 2.33301 -76.5 1l-55 -54c-4 -106.667 -10.667 -171.667 -20 -195z" />
    <glyph glyph-name="I" unicode="I" horiz-adv-x="557" 
d="M300 601c2 -3.33301 9.32812 -4.99902 21.9951 -4.99902s28 1.66699 46 5s31.333 7.33301 40 12c8 4.66699 20.667 10.334 38 17.001c8.66699 3.33301 13.834 4.16602 15.501 2.49902s2.5 -8.16699 2.5 -19.5c0 -16 -5.33301 -25.333 -16 -28
c-25.333 -6.66699 -50.833 -15.5 -76.5 -26.5s-37.834 -18.5 -36.501 -22.5c32 -112 28 -242.333 -12 -391c-10 -32.667 -12.667 -49.667 -8 -51c6 -1.33301 16.333 -3 31 -5s26.167 -3.83301 34.5 -5.5s18.5 -4.66699 30.5 -9s23 -9.5 33 -15.5
c33.333 -16.667 52 -25 56 -25c6 0.666992 13.667 13.667 23 39l3 -28c2.66699 -32.667 -1.83301 -52.334 -13.5 -59.001s-30.167 -0.333984 -55.5 18.999c-26 20.667 -49.333 33.834 -70 39.501s-58.667 10.167 -114 13.5c-39.333 2.66699 -73.333 -0.666016 -102 -9.99902
c-21.333 -6.66699 -43 -16.5 -65 -29.5s-33 -22.167 -33 -27.5c0 -4 -7 -6.66699 -21 -8c-9.33301 -1.33301 -15.166 -1.16602 -17.499 0.500977s-3.5 7.16699 -3.5 16.5c0 8.66699 2.5 15.167 7.5 19.5s17.833 11.166 38.5 20.499c14.667 6 28.834 13.5 42.501 22.5
s26.667 16 39 21s29.5 8.16699 51.5 9.5c31.333 1.33301 50.666 5 57.999 11c10.667 5.33301 27.667 54 51 146c7.33301 28.667 9.33301 73 6 133s-10.333 102.667 -21 128l-10 24l-66 5c-72 4 -128.333 22 -169 54c-13.333 10.667 -22.166 21.5 -26.499 32.5
s-3.16602 19.833 3.50098 26.5c4.66699 4.66699 10.834 6.16699 18.501 4.5s12.5 -5.83398 14.5 -12.501c6.66699 -21.333 36.667 -38.5 90 -51.5s88.333 -11.833 105 3.5c4.66699 4 9.83398 7 15.501 9s10.5 2.5 14.5 1.5s6 -3.16699 6 -6.5z" />
    <glyph glyph-name="J" unicode="J" horiz-adv-x="737" 
d="M707 534c0 -12.667 -12.0029 -26.8408 -36.0029 -42.5078s-50 -26.167 -78 -31.5c-39.333 -8 -64.5 -14.167 -75.5 -18.5s-16.5 -10.833 -16.5 -19.5c0 -9.33301 5 -34.666 15 -75.999c9.33301 -37.333 14.333 -80.833 15 -130.5s-3 -88.167 -11 -115.5
c-14 -46 -34.833 -84.167 -62.5 -114.5s-60.5 -50.166 -98.5 -59.499c-98.667 -24.667 -156 -29 -172 -13c-5.33301 5.33301 -17.666 8 -36.999 8c-26 0 -55.667 9 -89 27c-7.33301 4 -14.666 18.333 -21.999 43c-5.33301 18 -8.16602 30.833 -8.49902 38.5
s2.16699 21.834 7.5 42.501c12.667 51.333 44.334 91 95.001 119c14.667 8 24.834 12.5 30.501 13.5s11.5 -0.833008 17.5 -5.5c9.33301 -6 14.333 -14.833 15 -26.5s-3.33301 -19.167 -12 -22.5c-16 -3.33301 -33 -18.5 -51 -45.5s-30 -49.167 -36 -66.5
c0 -6.66699 -2.33301 -11.667 -7 -15c-3.33301 -2 -4.5 -7.66699 -3.5 -17s3.16699 -15.666 6.5 -18.999c1.33301 -2 11.333 -5.66699 30 -11c68 -17.333 129.333 -23 184 -17s95.334 22.667 122.001 50c11.333 12 20.166 26.167 26.499 42.5s15.833 51.833 28.5 106.5
c7.33301 35.333 8.83301 77.333 4.5 126s-11.833 89.334 -22.5 122.001c-2 9.33301 -5 15.333 -9 18s-13.333 4.33398 -28 5.00098c-66 3.33301 -112.667 13.666 -140 30.999c-6.66699 4.66699 -20.834 12.667 -42.501 24s-36.5 22.333 -44.5 33
c-3.33301 6.66699 -4.5 11.834 -3.5 15.501s4.83301 8.16699 11.5 13.5c19.333 16 33.666 15 42.999 -3c10 -20 29 -36.333 57 -49c14 -6 40.167 -11.5 78.5 -16.5s64.166 -6.16699 77.499 -3.5c94.667 19.333 145.334 30 152.001 32c19.333 8.66699 37 20.334 53 35.001
c8 6.66699 16 9.33398 24 8.00098s12 -6.33301 12 -15z" />
    <glyph glyph-name="K" unicode="K" horiz-adv-x="536" 
d="M257 360c10.667 -3.33301 26.0039 -11.832 46.0039 -25.499s35 -22.834 45 -27.501c22.667 -12 45.667 -32.167 69 -60.5s40 -56.166 50 -83.499c9.33301 -28.667 18.333 -53.334 27 -74.001c10.667 -26.667 13 -44 7 -52
c-6.66699 -9.33301 -14.667 -10.666 -24 -3.99902s-15.333 18 -18 34c-11.333 63.333 -29 111 -53 143c-18 25.333 -52.833 53.166 -104.5 83.499s-87.834 44.166 -108.501 41.499c-13.333 -1.33301 -21 -2 -23 -2c-3.33301 -0.666992 -7.5 -10.334 -12.5 -29.001
s-7.5 -35 -7.5 -49c-1.33301 -18 -7.83301 -40 -19.5 -66s-19.167 -44.667 -22.5 -56c-8 -24.667 -15.833 -42.167 -23.5 -52.5s-18.167 -17.166 -31.5 -20.499c-8 -2 -12 -1.66699 -12 1c0 2 2.66699 9.33301 8 22c25.333 57.333 43.666 107.5 54.999 150.5
s12.666 67.167 3.99902 72.5c-5.33301 3.33301 -7.66602 9.5 -6.99902 18.5s4 16.167 10 21.5c7.33301 5.33301 8 14 2 26c-5.33301 11.333 -5.33301 22 0 32c10.667 17.333 10 44.666 -2 81.999c-6.66699 21.333 -16.167 40.833 -28.5 58.5s-24.166 29.167 -35.499 34.5
c-10.667 4.66699 -16.334 11.834 -17.001 21.501s3.66602 17.167 12.999 22.5c7.33301 4 15.166 4.83301 23.499 2.5s12.5 -6.16602 12.5 -11.499c2 -5.33301 9.5 -15 22.5 -29s20.833 -23.333 23.5 -28c7.33301 -11.333 15.833 -33.333 25.5 -66
s14.167 -54.334 13.5 -65.001c-0.666992 -16 -0.166992 -26 1.5 -30s7.16699 -7 16.5 -9c28 -5.33301 73.833 19.167 137.5 73.5s98.5 98.833 104.5 133.5c0.666992 2 1.66699 5.83301 3 11.5s2.33301 9.16699 3 10.5s1.83398 3.83301 3.50098 7.5s3.5 6 5.5 7
s4.66699 2 8 3s7 1.5 11 1.5c6.66699 -0.666992 10.667 -2.5 12 -5.5s1.66602 -9.83301 0.999023 -20.5c-3.33301 -30.667 -28.666 -69.5 -75.999 -116.5s-88 -82.167 -122 -105.5c-14.667 -7.33301 -22.334 -14.666 -23.001 -21.999c0 -3.33301 2.33301 -5 7 -5z
M56.0039 644.001c-7.33301 10 -9 14.667 -5 14c6 -2 12.333 -7.66699 19 -17c2 -4 2.33301 -6.66699 1 -8c-2.66699 -2.66699 -7.66699 1 -15 11z" />
    <glyph glyph-name="L" unicode="L" horiz-adv-x="567" 
d="M521 13c-12.667 0 -20.6689 2.99609 -24.002 8.99609c-4 6.66699 -18.333 20 -43 40c-18.667 15.333 -32.334 24.5 -41.001 27.5s-29.667 5.16699 -63 6.5c-89.333 4 -154 -7 -194 -33c-22.667 -14 -36 -19 -40 -15c-5.33301 5.33301 -10 5.66602 -14 0.999023
c-8 -6 -19 -9.66699 -33 -11s-24.333 0.333984 -31 5.00098s-9.5 8.33398 -8.5 11.001s7.16699 8 18.5 16c6.66699 5.33301 20.167 11.333 40.5 18s32.833 16 37.5 28c5.33301 10 12.5 43.667 21.5 101s13.833 97.333 14.5 120c0 15.333 2 24 6 26
c6.66699 4.66699 5.33398 30.834 -3.99902 78.501s-19.666 80.834 -30.999 99.501c-8 14 -22.667 26.667 -44 38c-21.333 12 -34.333 20.333 -39 25s-6 11 -4 19c6 24 31 18.667 75 -16c8 -6 16 -12.667 24 -20c30 -27.333 51.333 -75.333 64 -144
c2.66699 -15.333 0.166992 -55.833 -7.5 -121.5s-17.5 -128.834 -29.5 -189.501c-2 -9.33301 -2 -14.666 0 -15.999s9.66699 0.333984 23 5.00098c20 5.33301 58.667 8 116 8c38 0.666992 63.833 0 77.5 -2s27.834 -6.66699 42.501 -14c48.667 -24 82 -48.667 100 -74
c12 -17.333 8.66699 -26 -10 -26z" />
    <glyph glyph-name="M" unicode="M" horiz-adv-x="707" 
d="M136 185c1.33301 -3.33301 -9.17285 -33.1641 -31.5059 -89.4971s-33.166 -85.5 -32.499 -87.5c0 -5.33301 -6 -10.333 -18 -15c-16.667 -8 -24.667 -4.83301 -24 9.5s10.667 41.166 30 80.499c12.667 26 21.167 45.333 25.5 58s10.5 37.334 18.5 74.001
c10.667 44.667 13.834 95.334 9.50098 152.001s-13.166 85 -26.499 85c-5.33301 0 -8 4.33301 -8 13c0 1.33301 -3.16699 12.833 -9.5 34.5s-6.83301 34.5 -1.5 38.5c13.333 13.333 27.333 5 42 -25c10 -18.667 22.333 -29.334 37 -32.001
c36 -7.33301 67.833 -26.166 95.5 -56.499s48.834 -69.833 63.501 -118.5c11.333 -34.667 17.333 -52 18 -52s5.33398 16.333 14.001 49c8 32 21.667 59.667 41 83c36 42.667 73.167 77.5 111.5 104.5s70.166 41.167 95.499 42.5c10.667 0.666992 16.834 -0.5 18.501 -3.5
s3.16699 -12.5 4.5 -28.5c0.666992 -13.333 0.166992 -22.666 -1.5 -27.999s-5.16699 -9.66602 -10.5 -12.999c-9.33301 -4 -18 -20 -26 -48c-17.333 -58.667 -17.5 -126 -0.5 -202s45.167 -135.667 84.5 -179c10.667 -10.667 17.167 -18.834 19.5 -24.501
s2.5 -12.5 0.5 -20.5c-3.33301 -13.333 -8.83301 -20.333 -16.5 -21s-14.167 5.66602 -19.5 18.999c-6.66699 16 -12.667 25.667 -18 29c-9.33301 8 -25.166 35.667 -47.499 83s-33.5 77.333 -33.5 90c0 16.667 -3 41.334 -9 74.001c-4.66699 29.333 -5 67.166 -1 113.499
s10.667 76.166 20 89.499c8.66699 13.333 12 21.833 10 25.5s-9.33301 3.16699 -22 -1.5c-11.333 -4 -35.333 -23.333 -72 -58s-60.667 -61 -72 -79c-9.33301 -14 -19.5 -43.667 -30.5 -89s-16.167 -78.666 -15.5 -99.999c0.666992 -20.667 -1.83301 -35.834 -7.5 -45.501
s-13.167 -12.5 -22.5 -8.5c-5.33301 2 -11 14.833 -17 38.5s-9 44.5 -9 62.5c0 16.667 -5.83301 42.667 -17.5 78s-22.834 60.666 -33.501 75.999c-10 15.333 -22.167 29.166 -36.5 41.499s-26.833 20.166 -37.5 23.499c-8 2.66699 -12.667 0.666992 -14 -6
c-1.33301 -8 -0.666016 -28.667 2.00098 -62c2 -22 2 -43 0 -63s-5.33301 -41.5 -10 -64.5s-7.66699 -38.5 -9 -46.5z" />
    <glyph glyph-name="N" unicode="N" horiz-adv-x="483" 
d="M106 187c-1.33301 -15.333 -10.6689 -41.1709 -28.002 -77.5039s-32.666 -61.5 -45.999 -75.5c-4 24.667 1 51.334 15 80.001c10.667 20 24.334 63.667 41.001 131c12 48 18.667 80 20 96s0.666016 47 -2.00098 93c-4.66699 62 -5.66699 94.333 -3 97
c1.33301 4 -3.66699 12.333 -15 25c-10 10.667 -15.333 18.334 -16 23.001s2.33301 9.66699 9 15c14.667 12 29.667 2 45 -30c13.333 -26.667 21.833 -49.5 25.5 -68.5s4.5 -43.5 2.5 -73.5c-2 -30.667 -1.16699 -53 2.5 -67s13.5 -32.333 29.5 -55
c30 -42.667 61.333 -75 94 -97c21.333 -14 32 -14.667 32 -2c0 6.66699 1.33301 9.66699 4 9s9 -6 19 -16c7.33301 -8 15.5 -12.333 24.5 -13s18.5 0.333008 28.5 3c-19.333 60.667 -31 91.667 -35 93c-2.66699 -0.666992 -3.66699 1 -3 5
c0.666992 0.666992 1 1.33398 1 2.00098c3.33301 9.33301 2 27.5 -4 54.5s-12.333 42.833 -19 47.5c-8.66699 5.33301 -9.66699 8.66602 -3 9.99902c6 0 7.33301 5 4 15c-5.33301 18.667 -5.33301 52.167 0 100.5s12.666 79.833 21.999 94.5
c12 18.667 23.667 20.334 35 5.00098c5.33301 -8 2.66602 -22.667 -8.00098 -44c-21.333 -42 -19.666 -113.667 5.00098 -215c22.667 -96 41.334 -150.333 56.001 -163c16 -14 16.333 -30.333 1 -49c-6.66699 -8.66699 -11.5 -13.167 -14.5 -13.5s-9.83301 2.5 -20.5 8.5
c-13.333 8.66699 -27.666 11.334 -42.999 8.00098s-38.666 0.666992 -69.999 12c-20 6.66699 -35.833 13.834 -47.5 21.501s-26.834 21.5 -45.501 41.5c-30 30.667 -48 53 -54 67c-4 8.66699 -6.66699 13 -8 13s-6.33301 -13 -15 -39
c-0.666992 -0.666992 -1 -1.33398 -1 -2.00098c-10 -34 -15 -57.333 -15 -70z" />
    <glyph glyph-name="O" unicode="O" horiz-adv-x="524" 
d="M192 523c-25.333 0 -46.3271 -9.33203 -62.9941 -27.999s-31.334 -49.334 -44.001 -92.001c-12 -38 -17.333 -118.333 -16 -241c0.666992 -48 4.16699 -81.333 10.5 -100s19.166 -32 38.499 -40c16.667 -6.66699 43.167 -8.66699 79.5 -6s66.166 9 89.499 19
c22 8.66699 45.5 23.834 70.5 45.501s44.167 43.167 57.5 64.5c56.667 89.333 55.334 176.333 -3.99902 261c-17.333 24.667 -30.166 39.834 -38.499 45.501s-19.833 7.16699 -34.5 4.5s-24.334 -2 -29.001 2s-4.33398 11.333 0.999023 22
c8.66699 16.667 24.834 22.5 48.501 17.5s43.167 -18.5 58.5 -40.5c14.667 -22 26.334 -35.667 35.001 -41c8.66699 -6.66699 16.834 -22.5 24.501 -47.5s13.167 -51.5 16.5 -79.5c3.33301 -25.333 -2.33398 -56.333 -17.001 -93c-26.667 -68.667 -58 -118.334 -94 -149.001
c-12.667 -11.333 -34.334 -24.166 -65.001 -38.499s-56.334 -24.166 -77.001 -29.499c-27.333 -6.66699 -56.833 -8.33398 -88.5 -5.00098s-55.834 10.333 -72.501 21c-16 10.667 -28.5 35.167 -37.5 73.5s-12.5 81.166 -10.5 128.499
c3.33301 95.333 14.666 169.333 33.999 222c3.33301 7.33301 8.83301 20.833 16.5 40.5s13.5 33.167 17.5 40.5s11.167 16.166 21.5 26.499s23.166 18.833 38.499 25.5c12.667 5.33301 25.5 8 38.5 8s21.167 -2.66699 24.5 -8c4.66699 -6.66699 3.66699 -13.167 -3 -19.5
s-15.667 -9.5 -27 -9.5z" />
    <glyph glyph-name="P" unicode="P" horiz-adv-x="413" 
d="M259 513c-43.333 9.33301 -75.002 11.001 -95.002 5.00098c-12.667 -4 -20.167 -14.167 -22.5 -30.5s-1.16602 -46.833 3.50098 -91.5c4.66699 -52.667 4.66699 -94.667 0 -126c-4.66699 -32.667 -5.66699 -50.334 -3 -53.001c0.666992 -1.33301 4.66699 0.5 12 5.5
s15.666 11.5 24.999 19.5c36.667 32.667 67.334 58.667 92.001 78c40 32.667 62.833 54 68.5 64s4.83398 27 -2.49902 51c-12.667 44 -38.667 70 -78 78zM54.998 587.001c4.66699 0 12.167 -4.83398 22.5 -14.501s15.5 -16.5 15.5 -20.5
c0 -2.66699 2.33301 -7.33398 7 -14.001c3.33301 -4.66699 6.16602 -6.66699 8.49902 -6s7.16602 4.33398 14.499 11.001c11.333 10.667 32.833 17.834 64.5 21.501s54.5 1.83398 68.5 -5.49902c8 -4.66699 18 -7 30 -7c12.667 0 29.667 -12 51 -36s34.333 -45.667 39 -65
c5.33301 -24.667 7.33301 -44 6 -58s-7.33301 -28 -18 -42c-12.667 -16 -22 -24.667 -28 -26c-6 0 -9 -2 -9 -6c0 -2.66699 -7.66699 -9 -23 -19c-12.667 -7.33301 -29.834 -21.5 -51.501 -42.5s-32.5 -34.167 -32.5 -39.5c0 -4.66699 -2.33301 -7 -7 -7
c-7.33301 0 -19 -6.16699 -35 -18.5s-28 -24.166 -36 -35.499c-7.33301 -10.667 -13.166 -27.834 -17.499 -51.501s-9.5 -40.5 -15.5 -50.5c-12.667 -22 -21.667 -53 -27 -93c-2.66699 -18.667 -6.16699 -30.5 -10.5 -35.5s-10.833 -4.83301 -19.5 0.5
c-7.33301 3.33301 -10.666 8.16602 -9.99902 14.499s6 25.833 16 58.5c6 18 11.5 37.5 16.5 58.5s9.83301 43.5 14.5 67.5s8.33398 42 11.001 54c6 19.333 10.333 49.833 13 91.5s2.66699 77.167 0 106.5c-5.33301 61.333 -25 112 -59 152
c-14 16.667 -21.833 27.5 -23.5 32.5s0.5 10.5 6.5 16.5c5.33301 5.33301 11.333 8 18 8z" />
    <glyph glyph-name="Q" unicode="Q" horiz-adv-x="561" 
d="M149 3c0 0.666992 0.834961 0.831055 2.50195 0.498047s3.83398 -1.16602 6.50098 -2.49902s5.66699 -3 9 -5c12.667 -6.66699 34.167 -8 64.5 -4s56.166 11.667 77.499 23c31.333 16 45.666 21.667 42.999 17c-0.666992 -1.33301 -4.33398 -4.33301 -11.001 -9
c-12.667 -8.66699 -31.5 -17.5 -56.5 -26.5s-46.167 -14.5 -63.5 -16.5c-14 -1.33301 -29.5 0.833984 -46.5 6.50098s-25.5 11.167 -25.5 16.5zM404.002 117.997c0 4 -10.6631 15.833 -31.9961 35.5s-34.333 29.5 -39 29.5c-8.66699 0 -10 5.66699 -4 17
c3.33301 6 8 11 14 15c11.333 7.33301 20.666 8.83301 27.999 4.5s19 -17.833 35 -40.5l28 -40c24 21.333 40.333 42 49 62c8 16.667 11 31.834 9 45.501s-10.333 36.834 -25 69.501c-24 52 -49.5 91.167 -76.5 117.5s-62.167 47.166 -105.5 62.499
c-30 10.667 -52.833 14.334 -68.5 11.001s-32.167 -15 -49.5 -35c-20 -22.667 -38.833 -52.667 -56.5 -90s-29.834 -73 -36.501 -107c-8 -38.667 -10.833 -69.5 -8.5 -92.5s10.166 -42.833 23.499 -59.5c16 -20.667 32.833 -34.5 50.5 -41.5s43.167 -9.83301 76.5 -8.5
c45.333 1.33301 78.666 4.16602 99.999 8.49902s44.333 12.166 69 23.499c12.667 4.66699 19 9 19 13zM461.006 -18.0029c0 18.667 -4.8291 40.3359 -14.4961 65.0029s-18.167 37 -25.5 37c-6.66699 0 -10 -2.33301 -10 -7c0.666992 -2.66699 -1.83301 -5.16699 -7.5 -7.5
l-17.5 -7.5c-6 -2.66699 -8.33301 -5 -7 -7c2.66699 -4 -0.333008 -9 -9 -15c-4 -3.33301 -6.33301 -5.33301 -7 -6c-2 -0.666992 -2 0.333008 0 3c1.33301 1.33301 3 3.33301 5 6c7.33301 9.33301 6.33301 13.666 -3 12.999
c-7.33301 -1.33301 -19.666 -5.33301 -36.999 -12c-21.333 -8.66699 -94 -13 -218 -13l-15.5 19.5c-7 9 -13.5 17 -19.5 24l-14 16.5c-36 55.333 -39.667 132.666 -11 231.999c9.33301 34.667 26.166 73.834 50.499 117.501s43.166 69.167 56.499 76.5
c8.66699 4.66699 13 11.667 13 21c0 8 2.5 13.5 7.5 16.5s14.833 5.5 29.5 7.5c14.667 2.66699 23.334 5.33398 26.001 8.00098c9.33301 9.33301 20 4.33301 32 -15c6.66699 -10.667 25 -20.334 55 -29.001c25.333 -4 54.666 -22.667 87.999 -56s57.666 -64.333 72.999 -93
c9.33301 -18 15.666 -31.833 18.999 -41.5s9.33301 -21.834 18 -36.501c7.33301 -14 11.5 -25 12.5 -33s-0.166992 -22.333 -3.5 -43c-5.33301 -29.333 -14.333 -51.333 -27 -66c-20.667 -22 -32.167 -37.333 -34.5 -46s1.16699 -23.334 10.5 -44.001
c11.333 -26.667 16.666 -57.667 15.999 -93c-0.666992 -24.667 -2 -41 -4 -49s-6.66699 -15 -14 -21c-13.333 -12.667 -21 -12 -23 2c-1.33301 8 -0.333008 16.333 3 25c4.66699 11.333 7 28.333 7 51z" />
    <glyph glyph-name="R" unicode="R" horiz-adv-x="565" 
d="M118 264c2 0.666992 6.66992 2.00098 14.0029 4.00098s11.666 4.16699 12.999 6.5s1 6.5 -1 12.5c-2.66699 5.33301 -9.83398 5.66602 -21.501 0.999023s-18.834 -11 -21.501 -19c-2 -4.66699 -1 -7 3 -7zM210.003 318.001c-7.33301 0 -14.166 -1.50195 -20.499 -4.50195
s-10.333 -6.5 -12 -10.5s-0.833984 -8 2.49902 -12c2.66699 -3.33301 13.667 -0.666016 33 8.00098c20 8.66699 24 14.334 12 17.001c-3.33301 1.33301 -8.33301 2 -15 2zM135.003 521.999c0.666992 -2 6.83398 -23.333 18.501 -64s17.5 -65.667 17.5 -75v-28
c20.667 0.666992 60.667 -0.666016 120 -3.99902c40 -0.666992 82 16 126 50c14 11.333 25.833 26.166 35.5 44.499s13.167 32.833 10.5 43.5c-2.66699 10 -13.834 21 -33.501 33s-42.5 22 -68.5 30c-40 12.667 -82.833 16.167 -128.5 10.5s-78.167 -19.167 -97.5 -40.5z
M100.003 558.999c4 0 6.16797 1 6.50098 3s-0.833984 6.66699 -3.50098 14c-2 5.33301 -4.33301 8.83301 -7 10.5s-4.66699 1.16699 -6 -1.5s-1.33301 -6.66699 0 -12c2.66699 -9.33301 6 -14 10 -14zM483.004 117.999c0 -9.33301 3.66211 -21.335 10.9951 -36.002
s8.83301 -27.5 4.5 -38.5s-13.166 -16.167 -26.499 -15.5c-12 0.666992 -18 8 -18 22c0 12.667 -4.33301 35.334 -13 68.001s-16.667 55.667 -24 69c-8 15.333 -27 37.5 -57 66.5s-50 44.833 -60 47.5c-12 2 -26.833 -1.33301 -44.5 -10s-29.834 -13.667 -36.501 -15
c-17.333 -6 -28.333 -12 -33 -18c-9.33301 -10.667 -19.333 -68.667 -30 -174c-6.66699 -66.667 -19.667 -100 -39 -100c-6.66699 0.666992 -10.834 3.33398 -12.501 8.00098s-1.5 10.5 0.5 17.5s4.5 14.167 7.5 21.5l8.5 21c2.66699 6.66699 3.66699 11.667 3 15
c0 2.66699 1.66699 17 5 43l9.5 76.5c3 25 4.16699 39.833 3.5 44.5c-2 4 -14.667 2.66699 -38 -4s-37 -12.667 -41 -18c-5.33301 -7.33301 -11 -6 -17 4c-4 7.33301 -5.33301 15 -4 23c1.33301 12 -1 21.667 -7 29c-4 5.33301 -5.66699 9.16602 -5 11.499
s3.66699 5.83301 9 10.5c8.66699 6.66699 25.334 15.834 50.001 27.501s39.667 17.5 45 17.5c6 0.666992 8.5 5.83398 7.5 15.501s-5.83301 30.834 -14.5 63.501c-10 36.667 -21.667 62.667 -35 78c-8.66699 7.33301 -16 17.166 -22 29.499s-11.333 21.166 -16 26.499
c-14.667 12 -15.667 28.333 -3 49c6.66699 10 13.334 14.5 20.001 13.5s16.667 -7.83301 30 -20.5l21 -21l47 15c34.667 11.333 72.834 17.5 114.501 18.5s74.834 -3.16699 99.501 -12.5c63.333 -24.667 104 -46 122 -64c5.33301 -5.33301 8.33301 -10.833 9 -16.5
s-1.33301 -17.834 -6 -36.501c-6 -28 -13.333 -45 -22 -51c-9.33301 -6.66699 -12 -10 -8 -10c6.66699 0.666992 18.334 6.66699 35.001 18c14.667 9.33301 21.667 12 21 8c-6.66699 -8 -25.167 -20.333 -55.5 -37s-48.166 -27.334 -53.499 -32.001
c-20.667 -14.667 -44 -26.667 -70 -36l75 -87c10 -11.333 21.333 -32.166 34 -62.499s19 -51.166 19 -62.499z" />
    <glyph glyph-name="S" unicode="S" horiz-adv-x="406" 
d="M326 194c0 -4.66699 8.00098 -20.0029 24.001 -46.0029c34 -53.333 36.667 -104 8 -152c-8.66699 -14.667 -21 -29.667 -37 -45s-27.333 -23.333 -34 -24c-26 -6 -54.667 -4.33301 -86 5c-14.667 4.66699 -24.834 8.83398 -30.501 12.501s-9.16699 8.83398 -10.5 15.501
c-2 11.333 -0.666992 18.166 4 20.499s13.334 0.166016 26.001 -6.50098c14.667 -7.33301 33.667 -11 57 -11c16 0 27.5 1.5 34.5 4.5s17.167 10.5 30.5 22.5c20 19.333 30.833 37.333 32.5 54s-4.83301 40.667 -19.5 72c-16 32.667 -34.667 59.167 -56 79.5
s-52 40.833 -92 61.5c-44.667 22.667 -76.667 44 -96 64c-12.667 12.667 -20.334 22.167 -23.001 28.5s-3 14.833 -1 25.5c7.33301 40.667 26 77 56 109c18.667 21.333 26 32 22 32c-5.33301 0 -20.666 -8.66699 -45.999 -26s-41.666 -30.666 -48.999 -39.999
c-6.66699 -8 -10 -11.333 -10 -10c0 0.666992 0.666992 3.66699 2 9c2 6.66699 16.833 20.167 44.5 40.5s48.167 32.5 61.5 36.5c17.333 4.66699 35 10.667 53 18c22.667 8.66699 40.167 13.334 52.5 14.001s29.166 -1.66602 50.499 -6.99902
c26.667 -6.66699 49.667 -21.334 69 -44.001c15.333 -18 15.666 -28 0.999023 -30h-5c-14 1.33301 -26.667 6.33301 -38 15c-72.667 50.667 -136.667 39.667 -192 -33c-18 -24 -28.333 -43.667 -31 -59s1.66602 -31 12.999 -47c10 -13.333 27.333 -28.166 52 -44.499
s47.334 -27.833 68.001 -34.5c16 -5.33301 35.833 -18 59.5 -38s35.5 -34 35.5 -42z" />
    <glyph glyph-name="T" unicode="T" horiz-adv-x="611" 
d="M90 566c-4.66699 0 -11.166 3.66211 -19.499 10.9951s-15.833 10.666 -22.5 9.99902c-8.66699 0 -14.167 3.66699 -16.5 11s-0.833008 14.333 4.5 21c4.66699 6.66699 9.5 9.66699 14.5 9s18.833 -7 41.5 -19c32.667 -16.667 68 -29 106 -37s91 -13.667 159 -17
c52.667 -3.33301 85.5 -3.66602 98.5 -0.999023s36.833 14.334 71.5 35.001c22 14 36.667 18 44 12s10.833 -13.333 10.5 -22s-4.16602 -13 -11.499 -13s-16.333 -4.66699 -27 -14s-35 -17.666 -73 -24.999s-72.333 -10 -103 -8
c-42.667 2.66699 -64.334 0.666992 -65.001 -6c0 -2.66699 2.33301 -6.66699 7 -12c8 -9.33301 10.667 -15 8 -17c-3.33301 -3.33301 4.66699 -18 24 -44c15.333 -22 26.166 -41.667 32.499 -59s10.833 -42 13.5 -74c5.33301 -56 6.33301 -100 3 -132
s-13.333 -69.667 -30 -113c-18 -47.333 -30 -71.666 -36 -72.999c-2.66699 -0.666992 -6 1 -10 5c-7.33301 6 -5.66602 20.667 5.00098 44c10.667 22 14.667 38.333 12 49c-2.66699 10 -1.66699 18.333 3 25c4 6 5.66699 6 5 0c-2.66699 -14 -3.66699 -21 -3 -21
s2 1.33301 4 4c3.33301 2 6.5 13.167 9.5 33.5s5.5 31.5 7.5 33.5c6.66699 4.66699 8 36.834 4 96.501s-10 97.834 -18 114.501c-12.667 26 -35.667 52 -69 78c-6.66699 4.66699 -10.334 13 -11.001 25s1.66602 19.667 6.99902 23c14.667 8.66699 11.667 16.334 -9 23.001
c-6.66699 2 -15 3.66699 -25 5c-30 3.33301 -49.667 6.16602 -59 8.49902s-23.666 7.5 -42.999 15.5c-20 10 -34.667 15 -44 15z" />
    <glyph glyph-name="U" unicode="U" horiz-adv-x="724" 
d="M671 545c-4.66699 0 -19.998 -11.667 -45.998 -35c-16.667 -14.667 -27.5 -26 -32.5 -34s-8.5 -19 -10.5 -33c-2 -22 -1.33301 -50.5 2 -85.5s4.66602 -65.833 3.99902 -92.5c0 -33.333 -1.16699 -57.666 -3.5 -72.999s-7.5 -34 -15.5 -56
c-11.333 -30 -22 -51.5 -32 -64.5s-25.667 -26.833 -47 -41.5c-23.333 -16 -44.666 -26.5 -63.999 -31.5s-44 -6.5 -74 -4.5c-41.333 3.33301 -67 7.16602 -77 11.499s-29 20.5 -57 48.5c-22.667 21.333 -36.834 43 -42.501 65s-10.834 77.667 -15.501 167
c-6.66699 111.333 -17.334 181.333 -32.001 210c-8 15.333 -18.833 27.833 -32.5 37.5s-27.5 14.5 -41.5 14.5c-14.667 0 -22.667 4 -24 12c-0.666992 4.66699 1.5 7.66699 6.5 9s17.167 2.33301 36.5 3c21.333 0.666992 35.166 -0.333008 41.499 -3s16.166 -11 29.499 -25
c7.33301 -8 13.5 -16.5 18.5 -25.5s8.33301 -16.5 10 -22.5s4 -16 7 -30s5.5 -24.333 7.5 -31c3.33301 -10.667 6.5 -56.834 9.5 -138.501s7.5 -127.5 13.5 -137.5c6 -18.667 18.333 -39.667 37 -63s35.667 -39.333 51 -48c10.667 -5.33301 32.834 -8 66.501 -8
s56.5 2.66699 68.5 8c16 7.33301 35 19.5 57 36.5s35.667 30.5 41 40.5c6 16.667 10.333 41.5 13 74.5s3.83398 63.167 3.50098 90.5s-1.16602 63.333 -2.49902 108s-2 75.334 -2 92.001c44 36.667 74.667 63.667 92 81c14.667 16 25.167 25.333 31.5 28
s13.5 1.33398 21.5 -3.99902c5.33301 -2.66699 7 -7.83398 5 -15.501s-5.66699 -15.667 -11 -24s-9 -11.833 -11 -10.5z" />
    <glyph glyph-name="V" unicode="V" horiz-adv-x="652" 
d="M251 250c-3.33301 6.66699 -6.6748 16.165 -10.0078 28.498s-9.66602 24.5 -18.999 36.5c-15.333 22.667 -26.333 40 -33 52c-6.66699 13.333 -26.5 37.833 -59.5 73.5s-59.5 61.167 -79.5 76.5c-15.333 12 -21.333 23 -18 33c2.66699 10.667 7.66699 16 15 16
c16.667 0 56.834 -36.333 120.501 -109s96.167 -119 97.5 -139c1.33301 -14 9 -36.5 23 -67.5s23.667 -46.5 29 -46.5c4 0.666992 6.33301 -0.666016 7 -3.99902s0.333984 -6.83301 -0.999023 -10.5s-0.333008 -6.16699 3 -7.5c2 0 3.83301 -2 5.5 -6
s2.83398 -8.33301 3.50098 -13s1.83398 -9 3.50098 -13s3.5 -5.66699 5.5 -5c2.66699 0.666992 5.33398 5.83398 8.00098 15.501s8 36.167 16 79.5c6.66699 38.667 23.334 90.667 50.001 156c44.667 105.333 96.667 173.666 156 204.999c24.667 13.333 39.667 16 45 8
c9.33301 -14 -4.33398 -29.333 -41.001 -46c-24.667 -11.333 -44.667 -25.666 -60 -42.999c-13.333 -15.333 -28.166 -40 -44.499 -74s-29.166 -66.667 -38.499 -98c-0.666992 -1.33301 -8.33398 -25.833 -23.001 -73.5s-23.334 -81.5 -26.001 -101.5
c-2 -14.667 -4.66699 -29.167 -8 -43.5s-6.33301 -34.166 -9 -59.499c-4.66699 -39.333 -8 -60 -10 -62c-13.333 -0.666992 -22.166 1.66602 -26.499 6.99902s-7.16602 17.333 -8.49902 36c-1.33301 16 -9.5 44.167 -24.5 84.5s-31.167 78.5 -48.5 114.5z" />
    <glyph glyph-name="W" unicode="W" horiz-adv-x="715" 
d="M30 543c0 15.333 2.34082 22.9961 7.00781 22.9961c8.66699 0 24.667 -14 48 -42s40.333 -53.333 51 -76c36 -76 56.333 -140.333 61 -193c1.33301 -26 3.66602 -40 6.99902 -42c2 -2.66699 6.66699 -0.666992 14 6s15.333 16 24 28s16.334 24.333 23.001 37
c9.33301 19.333 14.833 35 16.5 47s2.16699 38.333 1.5 79c-0.666992 39.333 -0.333984 64 0.999023 74s5 17.333 11 22c15.333 12.667 29.5 14.834 42.5 6.50098s16.833 -21.166 11.5 -38.499c-2.66699 -8 -10.334 -63.667 -23.001 -167c28 -60.667 51 -102 69 -124
c18 -20.667 39 -40 63 -58s41 -27 51 -27c7.33301 0 11.666 3.33301 12.999 10c3.33301 10.667 5.66602 55.334 6.99902 134.001c0.666992 19.333 1.16699 40.5 1.5 63.5s0.666016 38.5 0.999023 46.5s1 18 2 30s2.16699 22.333 3.5 31s3.66602 19.334 6.99902 32.001
c8.66699 52.667 32 95.667 70 129c19.333 18 34.166 28.667 44.499 32s18.166 0 23.499 -10c4.66699 -9.33301 4.5 -17.833 -0.5 -25.5s-13.833 -12.834 -26.5 -15.501c-38.667 -8.66699 -65 -54.667 -79 -138c-5.33301 -35.333 -9.16602 -96.333 -11.499 -183
s-1.16602 -132.667 3.50098 -138c5.33301 -6.66699 6.33301 -15 3 -25s-10 -17.667 -20 -23c-10 -7.33301 -17.833 -7.66602 -23.5 -0.999023s-12.834 7 -21.501 1c-6.66699 -4.66699 -11.334 -6.66699 -14.001 -6s-6.66699 4.66699 -12 12c-6.66699 10 -18 19 -34 27
c-16.667 8 -37.334 26.333 -62.001 55s-43 55.334 -55 80.001c-16 32.667 -27.333 49 -34 49c-3.33301 0 -6 -3 -8 -9c0 -2.66699 -15.167 -24 -45.5 -64s-43.5 -62.333 -39.5 -67c2 -8 0.333008 -18.333 -5 -31s-12.166 -22.667 -20.499 -30
s-14.833 -8.66602 -19.5 -3.99902c-4.66699 5.33301 -7 16.666 -7 33.999s2.33301 28.666 7 33.999s7 25.833 7 61.5s-2.33301 64.167 -7 85.5c-8.66699 38 -23.667 80.333 -45 127s-40.333 77.667 -57 93c-16.667 16.667 -25 32.667 -25 48z" />
    <glyph glyph-name="X" unicode="X" horiz-adv-x="583" 
d="M419 240c-0.666992 -2.66699 6.33496 -17.8271 21.002 -45.4941s22 -43.167 22 -46.5c0 -6 6 -22.333 18 -49c12 -26 16 -49.333 12 -70s-7.66699 -31.667 -11 -33c-2 -0.666992 -5.5 5.16602 -10.5 17.499s-11.167 28.5 -18.5 48.5c-23.333 68 -50 130 -80 186
s-52 84 -66 84c-5.33301 0 -17.333 -14 -36 -42s-28 -45.667 -28 -53c-0.666992 -2 -4.5 -12.667 -11.5 -32l-21 -57.5c-7 -19 -13.333 -38 -19 -57s-8.5 -31.5 -8.5 -37.5c0 -41.333 -6 -71 -18 -89c-10 -14.667 -19.333 -9 -28 17c0 0.666992 -0.333008 1.66699 -1 3
c-5.33301 20 -4.66602 39.333 2.00098 58l25 69.5l17 48l10 30.5c6 20 19.333 50.833 40 92.5s35.667 67.834 45 78.501c4.66699 5.33301 5.66699 10.666 3 15.999s-11.334 15.666 -26.001 30.999c-20.667 21.333 -48 39.166 -82 53.499s-66.333 21.833 -97 22.5
c-17.333 0.666992 -28.5 2 -33.5 4s-7.83301 6.33301 -8.5 13c-1.33301 10 0.666992 19 6 27c5.33301 5.33301 13.333 8.33301 24 9s17.667 -1.33301 21 -6c1.33301 -3.33301 11.666 -7 30.999 -11c31.333 -4 60.333 -12.833 87 -26.5s47 -26.834 61 -39.501
s33.333 -32 58 -58l31 36c13.333 15.333 31.333 32 54 50s36.667 27 42 27c3.33301 0 17.666 9.66699 42.999 29c21.333 15.333 36.5 24.166 45.5 26.499s15.167 -1.16699 18.5 -10.5c2.66699 -6.66699 -0.5 -13.834 -9.5 -21.501s-29.167 -20.167 -60.5 -37.5
c-34 -18 -83 -58.333 -147 -121c51.333 -74 79.333 -118.667 84 -134z" />
    <glyph glyph-name="Y" unicode="Y" horiz-adv-x="578" 
d="M87 601c1.33301 4 -7.83105 16.499 -27.498 37.499s-29.5 32.833 -29.5 35.5c0 3.33301 9.66699 -5.33398 29 -26.001c18.667 -21.333 32.667 -32 42 -32c11.333 0 26.166 -16.667 44.499 -50s28.833 -63 31.5 -89c2 -24.667 5.66699 -37 11 -37
c4 0.666992 9 6.66699 15 18c2.66699 6 11.834 18 27.501 36s24.5 28.667 26.5 32c0 8.66699 27.167 34 81.5 76s86.833 63 97.5 63c6.66699 1.33301 13.5 4.33301 20.5 9s14.5 8 22.5 10c10 3.33301 20.333 5.83301 31 7.5s19.667 2 27 1s11 -3.16699 11 -6.5
c0 -4.66699 -5 -6 -15 -4c-8.66699 2.66699 -30.334 -2.33301 -65.001 -15s-60.667 -25 -78 -37c-16.667 -12 -26 -26.333 -28 -43c-0.666992 -16 -6 -26.667 -16 -32c-22.667 -11.333 -42 -25.666 -58 -42.999s-42.333 -52.333 -79 -105
c-32 -46.667 -62.333 -117.667 -91 -213c-9.33301 -32 -14.833 -81.833 -16.5 -149.5s1.5 -110.167 9.5 -127.5c6 -11.333 8.66699 -22.833 8 -34.5s0 -23.5 2 -35.5c1.33301 -3.33301 2.5 -6.5 3.5 -9.5s1.5 -5.5 1.5 -7.5v-2
c-0.666992 0.666992 -4.66699 7.33398 -12 20.001s-14 18 -20 16c-8.66699 0 -15 6.33301 -19 19c-4.66699 16 -6.33398 61.333 -5.00098 136s4.66602 123.334 9.99902 146.001c10.667 66 29.667 127.667 57 185c16 26 18 45 6 57c-4 4 -4 14.333 0 31
c8.66699 29.333 -1.66602 67.333 -30.999 114c-16.667 25.333 -25 41.666 -25 48.999z" />
    <glyph glyph-name="Z" unicode="Z" horiz-adv-x="714" 
d="M303 469c-5.33301 1.33301 -4.66797 2.33398 1.99902 3.00098c18.667 1.33301 27.334 0.666016 26.001 -2.00098l-3 -1c-8.66699 -1.33301 -17 -1.33301 -25 0zM249.998 516.001c14.667 2.66699 50.8359 4.67285 108.503 6.00586s94.167 6.66602 109.5 15.999
c31.333 16 49.666 17.667 54.999 5c2 -6.66699 0.666992 -14 -4 -22s-10 -12 -16 -12c-4.66699 0 -7.83398 -4.83301 -9.50098 -14.5s-5.16699 -14.167 -10.5 -13.5c-10 0 -25.667 -5.66699 -47 -17s-38 -22.666 -50 -33.999
c-27.333 -23.333 -60.833 -63.666 -100.5 -120.999s-69.834 -107.333 -90.501 -150c1.33301 -2.66699 12 -0.333984 32 6.99902c16 5.33301 34.667 7.16602 56 5.49902s38.333 -6.5 51 -14.5c6 -4 14.5 -6.83301 25.5 -8.5s18.833 -4.16699 23.5 -7.5
c4.66699 -4.66699 24.5 -12.667 59.5 -24s57.5 -17.333 67.5 -18c59.333 -4 101.333 0.333008 126 13c14.667 8 26.334 11.167 35.001 9.5s13 -7.5 13 -17.5c0 -8 -4.83301 -14.333 -14.5 -19s-30.5 -11 -62.5 -19c-72 -16.667 -135.333 -12.667 -190 12
c-81.333 36 -136 54.333 -164 55c-10.667 0 -24 -7.33301 -40 -22s-25.667 -28.334 -29 -41.001c-2.66699 -11.333 -8.83398 -21.333 -18.501 -30s-19.834 -13 -30.501 -13c-6 0 -9.33301 2.16699 -10 6.5s0 15.166 2 32.499c6.66699 60.667 50.667 148 132 262l19 26
l19.5 25l16.5 20.5c4 5 10.333 12.167 19 21.5l18 19.5l21 23c10.667 11.667 18 19.5 22 23.5c-16 6 -41.5 8.33301 -76.5 7s-57.167 -5 -66.5 -11c-5.33301 -4.66699 -28 -4.83398 -68 -0.500977s-66.667 9.83301 -80 16.5c-16 7.33301 -33 20.666 -51 39.999
c-13.333 14 -20.666 23 -21.999 27s0.666992 10 6 18c4.66699 7.33301 9.16699 12.166 13.5 14.499s8.33301 2.33301 12 0s6.5 -7.16602 8.5 -14.499c2.66699 -10.667 14 -23.5 34 -38.5s39 -25.167 57 -30.5c15.333 -4.66699 45 -4.33398 89 0.999023z" />
    <glyph glyph-name="grave" unicode="`" horiz-adv-x="132" 
d="M30 567c4.66699 11.333 12.999 9.33301 24.999 -6c6 -8.66699 11.333 -19.334 16 -32.001c28.667 -85.333 38 -133 28 -143c-8.66699 -8.66699 -16 -4 -22 14c-3.33301 8.66699 -7 22 -11 40c-5.33301 25.333 -13.666 53 -24.999 83
c-9.33301 22.667 -13 37.334 -11 44.001z" />
    <glyph glyph-name="a" unicode="a" horiz-adv-x="414" 
d="M298 257c5.33301 1.33301 10.333 18.333 15 51l1 14c-2 -2 -5.33301 -12 -10 -30c-6 -20 -8 -31.667 -6 -35zM352 374c0 -43.333 -16.6621 -100.999 -49.9951 -172.999c-16.667 -40.667 -25.667 -68.334 -27 -83.001c-0.666992 -8.66699 -0.666992 -19 0 -31l22 7
c24.667 6.66699 50.334 8.33398 77.001 5.00098c6.66699 -1.33301 10 -3 10 -5c-2.66699 -3.33301 -20 -9.33301 -52 -18c-10.667 -2 -19.5 -4 -26.5 -6s-12.333 -4.66699 -16 -8s-6.5 -6 -8.5 -8s-2.33301 -5.66699 -1 -11s2.33301 -9 3 -11s2.66699 -6.66699 6 -14
s5.66602 -12.333 6.99902 -15c3.33301 -6 12.666 -9.66699 27.999 -11c15.333 0 23.833 -2.66699 25.5 -8s-4.16602 -11.333 -17.499 -18c-9.33301 -4.66699 -15.833 -7 -19.5 -7s-8.83398 2.33301 -15.501 7c-8 5.33301 -17.167 17 -27.5 35s-15.5 31.333 -15.5 40
c0 7.33301 -6.33301 11 -19 11c-13.333 0 -41.333 -19.667 -84 -59c-34 -32 -57.333 -52.333 -70 -61s-24.667 -13 -36 -13c-10.667 0 -15.667 3.66699 -15 11c0.666992 9.33301 8.33398 16.666 23.001 21.999c7.33301 2.66699 20 11 38 25s33.833 27.667 47.5 41
s18.5 20 14.5 20c-8.66699 0.666992 -14.834 3.5 -18.501 8.5s-3.83398 10.833 -0.500977 17.5c5.33301 8.66699 16.666 13.334 33.999 14.001s32 8.66699 44 24c14.667 18 24.667 34.167 30 48.5s10.666 37.166 15.999 68.499c9.33301 58.667 24.666 116.667 45.999 174
c7.33301 20 12.5 31.167 15.5 33.5s9.5 0.833008 19.5 -4.5c8.66699 -5.33301 13 -21.333 13 -48z" />
    <glyph glyph-name="b" unicode="b" horiz-adv-x="432" 
d="M349 131c0 11.333 -1.33691 18.167 -4.00391 20.5s-10 3.5 -22 3.5c-17.333 0 -29.666 -4.66699 -36.999 -14c-8 -10.667 -14.667 -14 -20 -10c-6 4 -8.33301 8.66699 -7 14s7 14 17 26c8.66699 10 13.334 16.667 14.001 20s-1.66602 8 -6.99902 14
c-13.333 14.667 -14.666 24.334 -3.99902 29.001c8.66699 3.33301 21 1.33301 37 -6c14.667 -7.33301 25.5 -9.16602 32.5 -5.49902s13.167 14.167 18.5 31.5c8 18.667 7.5 37.334 -1.5 56.001s-20.833 34.667 -35.5 48c-14.667 10.667 -33.834 19.667 -57.501 27
s-45.834 11.333 -66.501 12c-23.333 0.666992 -37.333 5 -42 13c-5.33301 8 -4.33301 14.333 3 19c15.333 10 44.5 7.83301 87.5 -6.5s76.833 -33.166 101.5 -56.499c22.667 -20.667 36.834 -40.667 42.501 -60s4.16699 -42 -4.5 -68c-6.66699 -21.333 -13 -36 -19 -44
c-4 -6.66699 -3.66699 -17.334 1 -32.001c4.66699 -14 4 -34.5 -2 -61.5s-14.333 -47.833 -25 -62.5c-10 -14 -25 -27.5 -45 -40.5s-38.333 -20.833 -55 -23.5c-20.667 -4 -42.667 -6 -66 -6s-38 2 -44 6c-7.33301 4.66699 -15.666 1.33398 -24.999 -9.99902
c-10 -11.333 -24 -20.333 -42 -27s-30.333 -7.33398 -37 -2.00098c-6 5.33301 -5 8.33301 3 9c2 0.666992 4.66699 1 8 1c26 3.33301 50.167 27.166 72.5 71.499s35.5 95.166 39.5 152.499c1.33301 27.333 0.166016 53.166 -3.50098 77.499s-12.5 61.833 -26.5 112.5
c-12 42.667 -16.667 65.334 -14 68.001c1.33301 2 5.33301 2.33301 12 1c10 -0.666992 17.667 -13 23 -37c1.33301 -4 3.5 -11.833 6.5 -23.5l9 -35.5c3 -12 5.83301 -22.667 8.5 -32c12.667 -46.667 17.334 -94.167 14.001 -142.5s-14.666 -91.166 -33.999 -128.499
c-8.66699 -16.667 -11.667 -26.334 -9 -29.001c4 -4 19.167 -5.33301 45.5 -4s48.166 4.66602 65.499 9.99902c27.333 8 49.833 23.667 67.5 47s26.5 49.333 26.5 78z" />
    <glyph glyph-name="c" unicode="c" horiz-adv-x="369" 
d="M170 8c12.667 -0.666992 24.8301 0.327148 36.4971 2.99414s23.834 6.33398 36.501 11.001s21.334 7.66699 26.001 9c4 0 7.16699 2.5 9.5 7.5s6.16602 7.16699 11.499 6.5c9.33301 0 18.666 4.66699 27.999 14c14.667 14 21.667 17.333 21 10c-0.666992 -2 -2 -5 -4 -9
c-10 -18.667 -35.667 -37.5 -77 -56.5s-76.666 -28.5 -105.999 -28.5c-22.667 0 -45.167 8.83301 -67.5 26.5s-37.5 38.834 -45.5 63.501c-10.667 31.333 -12.5 76 -5.5 134s18.5 98.667 34.5 122c3.33301 4.66699 6.33301 13 9 25c3.33301 14.667 16.5 34.5 39.5 59.5
s40.167 38.167 51.5 39.5c24.667 3.33301 47.334 -4.33398 68.001 -23.001c16.667 -15.333 22.334 -23.666 17.001 -24.999c-3.33301 -1.33301 -11.333 2.33398 -24 11.001c-14.667 10.667 -30.667 14.667 -48 12c-17.333 -3.33301 -32.5 -12.666 -45.5 -27.999
s-28.167 -42.666 -45.5 -81.999c-17.333 -38.667 -28 -84.667 -32 -138s0.666992 -91 14 -113c12 -20 25 -33.667 39 -41s33.667 -10.666 59 -9.99902z" />
    <glyph glyph-name="d" unicode="d" horiz-adv-x="519" 
d="M219 194c0 -22 -4.00195 -51.333 -12.002 -88s-16.333 -64 -25 -82c-4.66699 -8.66699 -7 -14.834 -7 -18.501s2 -7.16699 6 -10.5c15.333 -9.33301 40.333 -12.666 75 -9.99902s62 7.33398 82 14.001c6 4 15.333 11.167 28 21.5s21.334 17.166 26.001 20.499
c16.667 13.333 31.834 35.333 45.501 66s21.5 59.667 23.5 87c2.66699 27.333 0.333984 49 -6.99902 65s-24.333 37 -51 63c-35.333 34 -73.333 56.667 -114 68c-28.667 7.33301 -53.834 9.83301 -75.501 7.5s-34.834 -9.16602 -39.501 -20.499
c-1.33301 -8 2.33398 -21.333 11.001 -40c22.667 -46.667 34 -94.334 34 -143.001zM156.998 403c0.666992 2 1.66797 4.33789 3.00098 7.00488s2.16602 4.5 2.49902 5.5s1 2.16699 2 3.5s2.33301 2.33301 4 3s3.83398 1.66699 6.50098 3s6 2.66602 10 3.99902
c42 14.667 91 8.5 147 -18.5s100 -65.833 132 -116.5c12 -19.333 19.167 -33.5 21.5 -42.5s3.16602 -24.167 2.49902 -45.5c-2.66699 -50.667 -21.834 -100.334 -57.501 -149.001s-76.167 -80.334 -121.5 -95.001c-14 -4 -39.333 -6.83301 -76 -8.5
s-57 -0.833984 -61 2.49902c-2 0 -3.33301 9 -4 27c0 12.667 -3.33301 13.334 -10 2.00098c-24 -33.333 -44.667 -54 -62 -62c-16 -7.33301 -30.667 -11 -44 -11c-9.33301 0 -15.333 1.16699 -18 3.5s-4 7.16602 -4 14.499c0 8 1 12.667 3 14s6.66699 1.33301 14 0
c24.667 -6.66699 50.667 7 78 41s46 75.333 56 124c15.333 72 11.666 137.667 -11.001 197c-11.333 29.333 -32.666 59.666 -63.999 90.999c-23.333 24 -37.5 40.333 -42.5 49s-5.16699 15.334 -0.5 20.001c4 4.66699 8.83301 5 14.5 1s17.834 -15.667 36.501 -35
c24.667 -26.667 39 -36.334 43 -29.001z" />
    <glyph glyph-name="e" unicode="e" horiz-adv-x="367" 
d="M30 422c0 9.33301 2.33203 13.9971 6.99902 13.9971c6 0 15.167 -3.16699 27.5 -9.5s20.166 -11.833 23.499 -16.5c3.33301 -6 9.33301 -9 18 -9c11.333 0 26 -5.66699 44 -17c50.667 -28.667 95.334 -22.334 134.001 18.999c12 12.667 18.333 15.334 19 8.00098
c-0.666992 -8 -6 -18.167 -16 -30.5s-21.667 -22.833 -35 -31.5c-12 -8 -31.667 -10.667 -59 -8c-26.667 3.33301 -42.667 7.33301 -48 12c-9.33301 7.33301 -14 5 -14 -7c0.666992 -7.33301 3 -17 7 -29c7.33301 -19.333 11 -41.666 11 -66.999
c0 -22.667 1.66699 -34 5 -34c2 0 4.33301 0.666992 7 2c8.66699 4.66699 27.667 8.33398 57 11.001s51.333 2.66699 66 0c16 -2 24.667 -5.66699 26 -11c0 -3.33301 -5 -5 -15 -5c-2 0.666992 -22.5 -3.16602 -61.5 -11.499s-60.5 -9.83301 -64.5 -4.5
c-10 6 -15.833 8.16699 -17.5 6.5s-2.5 -10.834 -2.5 -27.501s-5.33301 -42.334 -16 -77.001c-9.33301 -28 -13 -42 -11 -42c1.33301 0 4 1 8 3c13.333 6.66699 37.833 10.334 73.5 11.001s64.5 -2.33301 86.5 -9c26 -7.33301 41 -13.666 45 -18.999
c6 -10 2 -14.667 -12 -14c-8 0.666992 -17 2.66699 -27 6c-28.667 10.667 -60 14.167 -94 10.5s-56.333 -13.834 -67 -30.501c0 -4.66699 -7.33301 -5.33398 -22 -2.00098c-14 2.66699 -27.667 -0.666016 -41 -9.99902c-7.33301 -4.66699 -14.166 -7.66699 -20.499 -9
s-11.5 -0.5 -15.5 2.5s-6 7.5 -6 13.5c0 8.66699 7 14 21 16c8 1.33301 14.5 4.83301 19.5 10.5s11.167 15.5 18.5 29.5c18.667 36.667 30.667 76.334 36 119.001s3 80.667 -7 114c-6.66699 22.667 -17.667 45.167 -33 67.5s-28 34.833 -38 37.5
c-11.333 3.33301 -17 9.33301 -17 18z" />
    <glyph glyph-name="f" unicode="f" horiz-adv-x="378" 
d="M109 481c5.33301 13.333 12.6621 12.6689 21.9951 -1.99805c4.66699 -6.66699 8.33398 -15.334 11.001 -26.001c4 -15.333 9.66699 -26.5 17 -33.5s22.333 -15.5 45 -25.5c22 -10 54.667 2 98 36c32.667 24.667 47.334 32 44.001 22c-4 -12.667 -21.333 -33 -52 -61
c-15.333 -14 -28 -23.333 -38 -28c-17.333 -8 -40.333 -9.66699 -69 -5l7 -39c4 -21.333 9.33301 -36.333 16 -45s15.667 -11.334 27 -8.00098c9.33301 2.66699 20.833 7.5 34.5 14.5s25.334 13.667 35.001 20s13.834 10.5 12.501 12.5c-0.666992 2 -0.666992 3.16699 0 3.5
s2 -0.166992 4 -1.5c12 -7.33301 6.66699 -21.666 -16 -42.999c-32.667 -33.333 -62.667 -47.333 -90 -42c-10.667 2 -17.167 2 -19.5 0s-3.83301 -9.33301 -4.5 -22c-1.33301 -15.333 -4.66602 -28.5 -9.99902 -39.5s-9.33301 -21.833 -12 -32.5
c-6 -20.667 -14.5 -41.834 -25.5 -63.501s-21.167 -36.5 -30.5 -44.5c-10 -9.33301 -22.667 -15.333 -38 -18s-26.666 -0.666992 -33.999 6c-12.667 11.333 -16.667 19.333 -12 24c3.33301 1.33301 8 0.666016 14 -2.00098c20 -10.667 39.667 -4.16699 59 19.5
s35.666 61.834 48.999 114.501c12.667 50 17.5 90 14.5 120s-16.5 72.333 -40.5 127c-14.667 34 -20.667 54.667 -18 62z" />
    <glyph glyph-name="g" unicode="g" horiz-adv-x="410" 
d="M165 150c0 -4.66699 -3.16699 -7.00098 -9.5 -7.00098s-11.166 2.33301 -14.499 7c-9.33301 16 10 35.333 58 58l65 33c10.667 5.33301 25 8.83301 43 10.5s30.667 0.5 38 -3.5c12 -6.66699 21.167 -18.834 27.5 -36.501s8.16602 -36.5 5.49902 -56.5
c-2 -15.333 -8.66699 -35 -20 -59s-23.166 -44.5 -35.499 -61.5s-20.833 -23.833 -25.5 -20.5c-4 2.66699 -6 1.33398 -6 -3.99902c0 -13.333 -24.333 -26.333 -73 -39c-26 -6.66699 -45.833 -9.83398 -59.5 -9.50098s-28.834 4.5 -45.501 12.5
c-30 14 -51.5 35.167 -64.5 63.5s-19.167 67.166 -18.5 116.499c0.666992 70 18 139.333 52 208c16.667 34 28.5 55.333 35.5 64s17.167 16 30.5 22c22.667 10 48.667 11.667 78 5s50.666 -18.667 63.999 -36c8 -10.667 9.66699 -16 5 -16s-17 5 -37 15
c-22.667 11.333 -39.167 17.5 -49.5 18.5s-22.833 -2.16699 -37.5 -9.5s-26.5 -16.833 -35.5 -28.5s-21.167 -32.834 -36.5 -63.501c-21.333 -42.667 -34.666 -91.667 -39.999 -147s-1.33301 -99.666 12 -132.999c8.66699 -21.333 22.834 -37.666 42.501 -48.999
s41.5 -15.666 65.5 -12.999c33.333 4 63.833 16.833 91.5 38.5s49.5 49.834 65.5 84.501c17.333 38 19.666 68.167 6.99902 90.5s-33.667 25.5 -63 9.5l-38 -20c-51.333 -24 -77 -38.667 -77 -44z" />
    <glyph glyph-name="h" unicode="h" horiz-adv-x="519" 
d="M482 38c6.66699 0 8.33887 -6.32812 5.00586 -18.9951c-2 -4.66699 -6.83301 -5.33398 -14.5 -2.00098s-17.834 9.66602 -30.501 18.999c-21.333 16 -41 44.333 -59 85s-27 76.667 -27 108c0 5.33301 -0.166992 9.5 -0.5 12.5s-1 5.5 -2 7.5s-2 3.16699 -3 3.5
s-2.5 0.166016 -4.5 -0.500977c-6.66699 -2 -14 4.66699 -22 20c-10 18.667 -26.667 31.167 -50 37.5s-47 4.5 -71 -5.5l-21 -9c0 -37.333 -0.333008 -65.5 -1 -84.5s-2.83398 -41 -6.50098 -66s-9.5 -45.5 -17.5 -61.5c-16 -32.667 -33.5 -55.5 -52.5 -68.5
s-35.5 -12.833 -49.5 0.5c-10 9.33301 -13.333 17.666 -10 24.999c2 5.33301 3.66699 8.16602 5 8.49902s4 -2.16699 8 -7.5c5.33301 -8 14.333 -9.33301 27 -4c14 4.66699 27 20.5 39 47.5s20.667 58.833 26 95.5c2 16 2.5 25.333 1.5 28s-5.16699 3.33398 -12.5 2.00098
c-10 -2.66699 -17.667 2 -23 14c-4.66699 12 -2 28.333 8 49c8 14.667 12.167 24.667 12.5 30s-2.16699 15.333 -7.5 30c-1.33301 8.66699 -17.833 38.5 -49.5 89.5s-48.167 80.5 -49.5 88.5c9.33301 24 37.666 -4 84.999 -84c8.66699 -14.667 18 -31.334 28 -50.001
l13 -24.5c4.66699 -9 8.33398 -15.833 11.001 -20.5l4 -6c0.666992 -0.666992 10 2.66602 28 9.99902c27.333 11.333 56.5 12.333 87.5 3s51.5 -25.666 61.5 -48.999c3.33301 -8 5.33301 -9.66699 6 -5c0 3.33301 0.333008 13 1 29c0.666992 26 4.16699 57.5 10.5 94.5
s12.833 61.833 19.5 74.5c6 12 13 18.667 21 20c7.33301 0.666992 12.666 -2.33301 15.999 -9s2.66602 -12.667 -2.00098 -18c-8.66699 -10.667 -15.834 -38.5 -21.501 -83.5s-7.83398 -90.833 -6.50098 -137.5c1.33301 -45.333 3.16602 -74.5 5.49902 -87.5
s8.83301 -29.5 19.5 -49.5c11.333 -22 23.333 -40.833 36 -56.5s22.334 -23.5 29.001 -23.5z" />
    <glyph glyph-name="i" unicode="i" horiz-adv-x="426" 
d="M356 520c0 6.66699 3.33594 8.67188 10.0029 6.00488c4 -2.66699 7 -6.33398 9 -11.001c2.66699 -7.33301 -6.5 -20.333 -27.5 -39s-44.833 -35 -71.5 -49c-26 -12.667 -39 -20.334 -39 -23.001c20 -31.333 33 -60.666 39 -87.999c5.33301 -19.333 9 -50 11 -92
s1 -66 -3 -72c-1.33301 -2 1.66699 -4.66699 9 -8c6 -2.66699 13.667 -5.33398 23 -8.00098c24 -4.66699 41.333 -14.667 52 -30c10.667 -17.333 16 -28.666 16 -33.999c-0.666992 -3.33301 2.16602 -9.5 8.49902 -18.5s5.83301 -15.5 -1.5 -19.5
c-4 -4.66699 -7.33301 -7 -10 -7s-6.66699 2.66699 -12 8c-9.33301 8 -12.666 13.667 -9.99902 17c3.33301 4.66699 -0.5 14.167 -11.5 28.5s-20.833 22.5 -29.5 24.5c-15.333 3.33301 -26.5 3 -33.5 -1s-12.5 -13.333 -16.5 -28c-8.66699 -30 -18.667 -52 -30 -66
s-23.666 -19.333 -36.999 -16c-8.66699 2 -13 6 -13 12c0 2.66699 2 4 6 4c17.333 0 30.333 19.333 39 58c2.66699 11.333 4.5 20.833 5.5 28.5s1.16699 11.5 0.5 11.5l-40 -17c-22.667 -10.667 -42.834 -23.5 -60.501 -38.5s-27.834 -28.167 -30.501 -39.5
c-2.66699 -9.33301 -6.83398 -14.833 -12.501 -16.5s-11.834 1.16602 -18.501 8.49902c-9.33301 12 4.66699 34.667 42 68s72.333 54.333 105 63l27 7c1.33301 106 -8.66699 178 -30 216c-7.33301 15.333 -13.5 24.666 -18.5 27.999s-17.833 6.33301 -38.5 9
c-32 4 -57 11.167 -75 21.5s-33.667 26.833 -47 49.5c-11.333 18 -13.666 29 -6.99902 33c18 11.333 31 7 39 -13c5.33301 -12 16.166 -23.667 32.499 -35s32.833 -18.333 49.5 -21s25 0 25 8c0 6.66699 4 10.5 12 11.5s15 -1.5 21 -7.5
c8.66699 -8.66699 34.5 -1.33398 77.5 21.999s64.5 41.666 64.5 54.999z" />
    <glyph glyph-name="j" unicode="j" horiz-adv-x="644" 
d="M167 99c0 9.33301 -1.66895 15.667 -5.00195 19s-8.66602 4 -15.999 2s-17 -6.66699 -29 -14c-40 -25.333 -60.667 -58 -62 -98c0 -26.667 12.333 -48.5 37 -65.5s53.334 -23.833 86.001 -20.5c18 1.33301 39.333 7.66602 64 18.999s41.334 22.333 50.001 33l16 19
c7.33301 8.66699 12.333 15 15 19s6.16699 10 10.5 18s8 16.833 11 26.5s5.5 20.834 7.5 33.501c15.333 66 16.333 146.333 3 241c-4.66699 41.333 -6 65.333 -4 72c4.66699 12.667 10.667 13.667 18 3c5.33301 -7.33301 9 -17.666 11 -30.999
c14.667 -113.333 18.334 -196.333 11.001 -249c-10.667 -90 -48.334 -155.667 -113.001 -197c-26.667 -17.333 -63.334 -26.666 -110.001 -27.999c-36 -1.33301 -66.5 5.16699 -91.5 19.5s-40.167 34.166 -45.5 59.499c-3.33301 17.333 -1.66602 37.333 5.00098 60
s16.334 41.667 29.001 57c13.333 16.667 32.166 31 56.499 43s41.5 15.333 51.5 10c6.66699 -3.33301 12.667 -14.333 18 -33s5.66602 -30.334 0.999023 -35.001c-3.33301 -4 -8.33301 -3.83301 -15 0.5s-10 9.83301 -10 16.5zM188.998 435.001
c54.667 3.33301 131.998 13.499 231.998 30.499s154 29.5 162 37.5c8.66699 6 16.167 6.66699 22.5 2s8.83301 -12 7.5 -22c-0.666992 -6 -3.16699 -10 -7.5 -12s-13.166 -3.33301 -26.499 -4c-19.333 -1.33301 -46 -5.66602 -80 -12.999
c-72 -17.333 -145.167 -31.166 -219.5 -41.499s-114.5 -12.5 -120.5 -6.5c-4.66699 5.33301 -6.66699 10.166 -6 14.499s4.33398 7.83301 11.001 10.5s15 4 25 4z" />
    <glyph glyph-name="k" unicode="k" horiz-adv-x="538" 
d="M208 192c-2 7.33301 -5.33203 9.00098 -9.99902 5.00098c-3.33301 -2.66699 -4.66602 -7.33398 -3.99902 -14.001c0 -12.667 -4.66699 -34.667 -14 -66c-14.667 -48.667 -31.834 -86.834 -51.501 -114.501s-39.5 -41.5 -59.5 -41.5c-8 0 -15.5 1.83301 -22.5 5.5
s-11.667 7.66699 -14 12s-2.16602 8.5 0.500977 12.5c4.66699 4.66699 9.66699 4.66699 15 0c8 -6.66699 16.833 -7 26.5 -1s20.167 18.333 31.5 37s21.333 40.667 30 66c40.667 113.333 37.667 228.666 -9 345.999c-16 41.333 -21.667 64.333 -17 69c10 10 23 -3 39 -39
l10 -22c26.667 -64.667 40.667 -127 42 -187c0.666992 -10.667 1.5 -18.667 2.5 -24s2.83301 -8.16602 5.5 -8.49902s5.16699 0.333984 7.5 2.00098s6.5 4.83398 12.5 9.50098l16 12c19.333 17.333 36.666 27 51.999 29c13.333 2.66699 25.166 10.5 35.499 23.5
s25.166 39.833 44.499 80.5c15.333 32 23.333 64.667 24 98c1.33301 34.667 2.33301 53 3 55c1.33301 9.33301 7 6.33301 17 -9c8.66699 -13.333 13.667 -26.333 15 -39c2.66699 -17.333 0.833984 -36.5 -5.49902 -57.5s-19.5 -51.5 -39.5 -91.5l-27 -55l25 -9
c16 -5.33301 32.667 -16.833 50 -34.5s31 -37.167 41 -58.5s17.833 -47.333 23.5 -78s5.83398 -48.667 0.500977 -54c-6.66699 -6.66699 -13.334 -7.5 -20.001 -2.5s-10 13.5 -10 25.5c-1.33301 42.667 -13.333 81.667 -36 117c-40.667 61.333 -84 73.333 -130 36
c-14.667 -12.667 -30 -21.334 -46 -26.001c-14 -2.66699 -21.667 -7 -23 -13c-2 -4.66699 -7.66699 -6.5 -17 -5.5s-14 4.16699 -14 9.5z" />
    <glyph glyph-name="l" unicode="l" horiz-adv-x="373" 
d="M110 75c0 -10.667 -6.99902 -26.6699 -20.999 -48.0029s-25.333 -33.333 -34 -36c-10 -2.66699 -17.167 -1.33398 -21.5 3.99902s-4.83301 13.666 -1.5 24.999c3.33301 10.667 10.666 26.334 21.999 47.001s19.666 33 24.999 37c6.66699 4.66699 14.667 27.5 24 68.5
s14 73.167 14 96.5c-0.666992 68.667 -14.334 129.334 -41.001 182.001c-18 36.667 -25.667 56.334 -23 59.001c4.66699 4.66699 10.667 5.66699 18 3s12.333 -7.66699 15 -15c4 -12 7 -18.667 9 -20c6 -5.33301 14 -19.166 24 -41.499s17.333 -43.5 22 -63.5
c12 -50 13 -108.333 3 -175c-5.33301 -30 -7 -47.333 -5 -52c4 -2 20 -3 48 -3c18.667 -0.666992 33 -2.5 43 -5.5s22 -9.16699 36 -18.5c12 -7.33301 20.5 -13.666 25.5 -18.999s9.83301 -11.833 14.5 -19.5s10 -14.834 16 -21.501
c22.667 -24.667 27.334 -39.667 14.001 -45c-9.33301 -3.33301 -16.166 -3.83301 -20.499 -1.5s-9.83301 10.166 -16.5 23.499c-8.66699 17.333 -21.5 33.5 -38.5 48.5s-32.833 24.5 -47.5 28.5c-24 6.66699 -47.167 5.83398 -69.5 -2.49902s-33.5 -20.166 -33.5 -35.499z
" />
    <glyph glyph-name="m" unicode="m" horiz-adv-x="697" 
d="M168 419c0 -6 8.99414 -10.333 26.9941 -13c22 -3.33301 47.167 -12.5 75.5 -27.5s52.166 -32.167 71.499 -51.5l36 -37l11 20c12 23.333 36.833 47.5 74.5 72.5s72.834 40.167 105.501 45.5c16.667 2.66699 31.5 3.16699 44.5 1.5s20.167 -5.16699 21.5 -10.5
c-0.666992 -0.666992 0 -5.33398 2 -14.001c5.33301 -19.333 6 -29 2 -29c-1.33301 0 -2.66602 0.333008 -3.99902 1c-9.33301 3.33301 -16.333 -3.66699 -21 -21c-6 -21.333 -8.66699 -61 -8 -119c0.666992 -65.333 6.33398 -115 17.001 -149
c9.33301 -33.333 20 -56.666 32 -69.999c11.333 -12 14.666 -20.333 9.99902 -25c-4 -4 -11.167 -1.66699 -21.5 7s-20.666 20.667 -30.999 36s-17.5 30 -21.5 44c-9.33301 30 -15.833 71.167 -19.5 123.5s-3.16699 92.5 1.5 120.5c1.33301 8.66699 3 17.834 5 27.501
s3.83301 16.834 5.5 21.501s2.33398 9 2.00098 13s-1.16602 6.5 -2.49902 7.5s-5.33301 0.666992 -12 -1s-13.667 -4.16699 -21 -7.5s-19.333 -8.33301 -36 -15c-25.333 -12 -47 -25.667 -65 -41s-29 -29.333 -33 -42c-3.33301 -8.66699 -8 -16.667 -14 -24
c-10.667 -10.667 -14.334 -40.667 -11.001 -90c0.666992 -15.333 -3.33301 -23 -12 -23c-19.333 0 -29 17 -29 51c0 56 -14.667 95.333 -44 118c-16 12.667 -37.5 25 -64.5 37s-42.5 16 -46.5 12c-3.33301 -3.33301 -2.66602 -14.333 2.00098 -33
c8 -29.333 6.5 -77 -4.5 -143s-26.167 -117.333 -45.5 -154s-39.5 -62 -60.5 -76s-38.167 -13.333 -51.5 2c-6 7.33301 -7.33301 12.5 -4 15.5s9.33301 1.83301 18 -3.5c5.33301 -3.33301 9.83301 -4.5 13.5 -3.5s8.83398 4.83301 15.501 11.5
c16.667 18 32.334 46.5 47.001 85.5s25.5 78.667 32.5 119s10 78.166 9 113.499s-7.5 58.666 -19.5 69.999c-8 7.33301 -12.833 17.333 -14.5 30s0.833008 22.667 7.5 30c5.33301 8 11.333 9.5 18 4.5s10 -10.833 10 -17.5z" />
    <glyph glyph-name="n" unicode="n" horiz-adv-x="525" 
d="M475 401c-12 0 -28 -4.5 -48 -13.5s-36 -19.167 -48 -30.5c-10 -8.66699 -18.833 -19.834 -26.5 -33.501s-9.83398 -22.5 -6.50098 -26.5c3.33301 -4.66699 1.66602 -7.66699 -5.00098 -9c-6.66699 -2.66699 -6.16699 -17.834 1.5 -45.501s18.5 -53.167 32.5 -76.5
c20.667 -33.333 36.334 -56 47.001 -68s20.667 -18 30 -18c10.667 0 16 -2 16 -6c0 -11.333 -32.667 -20 -98 -26c-94.667 -10 -158 21 -190 93l-20 -57c-14.667 -42.667 -33.667 -73.5 -57 -92.5s-45 -21.167 -65 -6.5c-6.66699 4.66699 -9.5 7.66699 -8.5 9
s6.83301 3 17.5 5c24 5.33301 46 26.166 66 62.499s29.667 73.833 29 112.5c-0.666992 24 -4.16699 44.5 -10.5 61.5s-22.166 47.833 -47.499 92.5c-23.333 40.667 -35 65.667 -35 75c0 14 5.66699 16.333 17 7c7.33301 -6 15 -15.667 23 -29
c7.33301 -12.667 13 -21.167 17 -25.5s7.33301 -5.16602 10 -2.49902c7.33301 6 16 4.83301 26 -3.5s19.333 -22.166 28 -41.499s15 -41 19 -65c7.33301 -38.667 14 -65.167 20 -79.5s16.333 -29.166 31 -44.499c30.667 -32.667 83.334 -48 158.001 -46
c-10.667 24.667 -20 39.667 -28 45c-5.33301 3.33301 -15.833 20.166 -31.5 50.499s-24.834 51.833 -27.501 64.5c-8 38.667 -6.16699 69.834 5.5 93.501s37.834 48.834 78.501 75.501c28 18 51.333 26.667 70 26s28.667 -5.33398 30 -14.001
c0.666992 -4.66699 -0.333008 -8 -3 -10s-8.33398 -3 -17.001 -3z" />
    <glyph glyph-name="o" unicode="o" horiz-adv-x="439" 
d="M245 392c-46.667 20.667 -81.666 26.332 -104.999 16.999c-8.66699 -3.33301 -21.334 -21.666 -38.001 -54.999s-28.334 -63 -35.001 -89c-5.33301 -20.667 -8.66602 -51 -9.99902 -91c-1.33301 -25.333 -1.16602 -42.5 0.500977 -51.5s6.16699 -19.167 13.5 -30.5
c18.667 -29.333 48.667 -47 90 -53s84 1.33301 128 22c19.333 8.66699 39.5 24.834 60.5 48.501s33.167 43.5 36.5 59.5c2.66699 13.333 1.66699 31.666 -3 54.999s-11 43 -19 59c-8.66699 16 -26.334 36.167 -53.001 60.5s-48.667 40.5 -66 48.5zM43.001 275.998
c14 48.667 33.334 91.498 58.001 128.498s50 59.167 76 66.5v-8v-7.5c0 -1.66699 0.333008 -3.66699 1 -6s1.66699 -4 3 -5l5.5 -4c2.33301 -1.66699 5.16602 -3 8.49902 -4s7.66602 -1.83301 12.999 -2.5c41.333 -10.667 83.666 -38.667 126.999 -84
c33.333 -35.333 55.5 -72.166 66.5 -110.499s9.5 -73.166 -4.5 -104.499c-13.333 -29.333 -30.166 -53 -50.499 -71s-47.166 -32.667 -80.499 -44c-21.333 -7.33301 -48.666 -11.333 -81.999 -12s-56 2.33301 -68 9c-18.667 10 -35.334 22.167 -50.001 36.5
s-24 27.5 -28 39.5c-6 17.333 -8.5 45.333 -7.5 84s5.16699 71.667 12.5 99z" />
    <glyph glyph-name="p" unicode="p" horiz-adv-x="457" 
d="M347 213c-2.66699 0 -7.99609 -3.66504 -15.9961 -10.998s-14 -10 -18 -8c-8 1.33301 -16 -1 -24 -7c-10 -7.33301 -25.333 -11.5 -46 -12.5s-32.334 1.83301 -35.001 8.5c-3.33301 8 -2.5 13.833 2.5 17.5s14.5 5.5 28.5 5.5c13.333 0 33.666 6 60.999 18
s47.666 23.667 60.999 35c8 7.33301 15.5 17.666 22.5 30.999s10.5 24 10.5 32c0 8.66699 -10.333 22.667 -31 42c-36.667 35.333 -85.667 49 -147 41c-18 -2 -34.833 -8.33301 -50.5 -19s-23.5 -21 -23.5 -31c0.666992 -3.33301 -1.66602 -6.5 -6.99902 -9.5
s-9 -5.33301 -11 -7s0 -5.83398 6 -12.501c4.66699 -6 7.83398 -10.667 9.50098 -14s3.5 -8.16602 5.5 -14.499s4.66699 -13.166 8 -20.499c15.333 -34 23.5 -77.167 24.5 -129.5s-5.16699 -94.833 -18.5 -127.5c-25.333 -62.667 -41 -94 -47 -94c-3.33301 0 -8 -3 -14 -9
c-22 -22 -40.333 -31.333 -55 -28c-10 3.33301 -14.5 8 -13.5 14s6.83301 9 17.5 9c25.333 0 49.333 25.667 72 77c28 62 39.667 121.667 35 179c-3.33301 38 -11.333 72.333 -24 103s-34 63.667 -64 99c-20 24 -28 39.5 -24 46.5s16.333 -0.5 37 -22.5
c14 -14.667 22.833 -22.834 26.5 -24.501s7.5 0.833008 11.5 7.5c6.66699 11.333 17.5 24 32.5 38s26.833 22 35.5 24c14.667 2.66699 36.667 2.5 66 -0.5s50.666 -7.5 63.999 -13.5c17.333 -8 36.166 -20.167 56.499 -36.5s32.5 -29.166 36.5 -38.499
c1.33301 -4.66699 3.83301 -9.83398 7.5 -15.501l8.5 -13.5c2 -3.33301 2.66699 -8.33301 2 -15s-3.33398 -14.334 -8.00098 -23.001c-6.66699 -14.667 -18.167 -30 -34.5 -46s-28.5 -24 -36.5 -24z" />
    <glyph glyph-name="q" unicode="q" horiz-adv-x="488" 
d="M215 199c15.333 0 34.5 -10.667 57.5 -32s39.5 -44 49.5 -68c3.33301 -8.66699 6.5 -14 9.5 -16s6.83301 -1.66699 11.5 1s12 8.66699 22 18c28 27.333 48.833 59.833 62.5 97.5s16.167 69.5 7.5 95.5c-14.667 47.333 -40.5 83.333 -77.5 108s-74.167 31 -111.5 19
c-22.667 -6.66699 -33 -7.66699 -31 -3c2.66699 6.66699 17 14.667 43 24c12 4.66699 21.667 7 29 7c36.667 0 74.167 -19.833 112.5 -59.5s57.833 -78.834 58.5 -117.501c0.666992 -18 -2 -40.667 -8 -68s-11 -41 -15 -41s-6 -4.66699 -6 -14
c0 -10 -14.333 -29.333 -43 -58c-20.667 -20.667 -33 -34.834 -37 -42.501s-6.66699 -21.167 -8 -40.5c-0.666992 -20 -4.5 -38.833 -11.5 -56.5s-13.833 -26.5 -20.5 -26.5c-4.66699 0 -5.33398 4 -2.00098 12c4 10 6.66699 24.667 8 44s0.333008 31 -3 35
c-4 4 -20 1.33301 -48 -8c-70.667 -24.667 -127.334 -23.167 -170.001 4.5s-64 77.167 -64 148.5c0 104.667 37.667 192.667 113 264c32.667 30.667 56.667 49.667 72 57c13.333 6 23.833 9 31.5 9s16.834 -3 27.501 -9c10 -5.33301 13 -8.66602 9 -9.99902l-23 -5
c-28.667 -4.66699 -53.667 -15 -75 -31s-42.666 -39.667 -63.999 -71c-21.333 -32 -36.333 -61 -45 -87s-14 -59 -16 -99c-1.33301 -31.333 -1.5 -52.833 -0.5 -64.5s4.83301 -24.834 11.5 -39.501c29.333 -61.333 89 -75.333 179 -42c32 11.333 48.667 18 50 20
c4.66699 4.66699 0.666992 16.834 -12 36.501s-27.667 37.834 -45 54.501c-34.667 34.667 -44 52.667 -28 54z" />
    <glyph glyph-name="r" unicode="r" horiz-adv-x="472" 
d="M320 387c-15.333 7.33301 -38.5 12.834 -69.5 16.501s-55.167 3.5 -72.5 -0.5c-8 -1.33301 -12.5 -3.5 -13.5 -6.5s-0.5 -10.167 1.5 -21.5c6.66699 -30 10 -77 10 -141h59c32 0.666992 52.833 3.16699 62.5 7.5s23.5 18.166 41.5 41.499c35.333 46 29 80.667 -19 104z
M331 414.001c0 -5.33301 5.33496 -9.66602 16.002 -12.999c12 -4 22.667 -16 32 -36c9.33301 -18.667 12 -36 8 -52s-15.667 -35.333 -35 -58c-19.333 -24 -25.666 -37.333 -18.999 -40c2.66699 -1.33301 6.66699 -2 12 -2c10.667 0 27.5 -11.5 50.5 -34.5
s36.833 -42.5 41.5 -58.5c7.33301 -23.333 7.16602 -47.5 -0.500977 -72.5s-18.834 -37.5 -33.501 -37.5c-5.33301 0 -8.33301 3.33301 -9 10s2 10.667 8 12s9.66699 15 11 41c4 46 -16.333 80 -61 102c-33.333 17.333 -69 19.666 -107 6.99902
c-22 -8 -37.667 -12.333 -47 -13c-11.333 -1.33301 -17 -3 -17 -5c0.666992 -2 3 -30.667 7 -86s7 -84 9 -86c4 -10.667 4.5 -19.667 1.5 -27s-8.16699 -11 -15.5 -11c-8 0 -13.333 6 -16 18s-6 45.333 -10 100c-4.66699 58 -9.33398 89.333 -14.001 94s-13 7 -25 7
c-10 -0.666992 -18.167 2 -24.5 8s-7.83301 12 -4.5 18c2 2.66699 6.33301 5.66699 13 9s14.667 7 24 11s15.333 6.66699 18 8c-0.666992 8 -1.5 25 -2.5 51s-2.16699 49.167 -3.5 69.5s-3 32.833 -5 37.5c-2.66699 2.66699 -10.667 -0.333008 -24 -9
s-27 -20.334 -41 -35.001c-25.333 -26 -38 -29.333 -38 -10c0 6.66699 9.33301 18.834 28 36.501s40 34.5 64 50.5c16 10.667 43 16.334 81 17.001c28 1.33301 56.333 -0.333984 85 -5.00098s43 -10 43 -16z" />
    <glyph glyph-name="s" unicode="s" horiz-adv-x="306" 
d="M41 10c6.66699 0 9.99805 -2.33301 9.99805 -7c0 -2.66699 6.33301 -4.5 19 -5.5s27.667 -1 45 0s32 2.83301 44 5.5c30.667 6.66699 56 23.667 76 51c6.66699 8.66699 10 14.834 10 18.501s-3 9.83398 -9 18.501c-15.333 25.333 -43 49.333 -83 72
c-28.667 17.333 -51.667 37 -69 59s-26 43 -26 63c2 27.333 16 54 42 80s53 28.667 81 8c12.667 -8 20.334 -18 23.001 -30s-0.333008 -23.333 -9 -34c-6.66699 -8.66699 -10.667 -12.5 -12 -11.5s-1.33301 7.16699 0 18.5c0.666992 7.33301 0 13 -2 17s-6.66699 8 -14 12
c-17.333 9.33301 -33.833 7.16602 -49.5 -6.50098s-24.5 -30.834 -26.5 -51.501s3.33301 -39.667 16 -57c16.667 -16 36.334 -31.667 59.001 -47c34.667 -24 58.334 -42.833 71.001 -56.5s25.667 -34.167 39 -61.5c-3.33301 -4 -8 -10.167 -14 -18.5
s-10.667 -14.333 -14 -18l-13 -14c-5.33301 -5.66699 -11.333 -10.667 -18 -15s-14.334 -8.5 -23.001 -12.5c-17.333 -8.66699 -40.666 -13.667 -69.999 -15s-53 1.66699 -71 9c-14.667 6 -22.334 13 -23.001 21c-0.666992 5.33301 3 8 11 8z" />
    <glyph glyph-name="t" unicode="t" horiz-adv-x="516" 
d="M469 486c0 4.66699 3.00195 6.33008 9.00195 4.99707c16.667 -6 5.66699 -24.667 -33 -56c-24 -21.333 -64.333 -40.666 -121 -57.999c0 -2 6.16699 -14.5 18.5 -37.5s18.166 -35.833 17.499 -38.5c0 -1.33301 2.66699 -7.66602 8 -18.999s7.33301 -18.666 6 -21.999
c-1.33301 -2.66699 0.333984 -10.667 5.00098 -24c5.33301 -14.667 8 -43.334 8 -86.001c4 -42.667 -4.33301 -91.167 -25 -145.5s-41.334 -88.5 -62.001 -102.5c-12.667 -8.66699 -19 -9.33398 -19 -2.00098c0 5.33301 4.33301 12.666 13 21.999c10 11.333 22 35.5 36 72.5
s22.667 67.833 26 92.5c9.33301 75.333 -2.33398 146.333 -35.001 213c-15.333 33.333 -27.5 54 -36.5 62s-25.5 13 -49.5 15c-16.667 0 -29.834 1 -39.501 3s-19.5 4.83301 -29.5 8.5s-20.333 6.5 -31 8.5c-2 0.666992 -9.16699 4 -21.5 10s-21.166 9.33301 -26.499 10
c-22 4.66699 -38 11.834 -48 21.501s-11.333 19.167 -4 28.5c3.33301 4 6.66602 6 9.99902 6s9 -2 17 -6c42.667 -21.333 79.334 -35.666 110.001 -42.999c20 -5.33301 52.667 -7.66602 98 -6.99902s78 4 98 10c20 5.33301 41.833 15 65.5 29s35.5 24 35.5 30z" />
    <glyph glyph-name="u" unicode="u" horiz-adv-x="659" 
d="M176 350c-0.666992 -5.33301 3.3291 -12.3311 11.9961 -20.998s13 -15.334 13 -20.001c0.666992 -6 2.33398 -39.667 5.00098 -101c1.33301 -42 4.66602 -74.833 9.99902 -98.5s10.666 -40.334 15.999 -50.001s17.333 -26.834 36 -51.501l43 3
c18.667 1.33301 31.334 3.5 38.001 6.5s14.667 9.83301 24 20.5c12.667 16.667 19 28.667 19 36c0 8.66699 2.33301 13 7 13c4 4 8.16699 21.667 12.5 53s7.16602 48.666 8.49902 51.999c13.333 70 38 133.333 74 190c8.66699 13.333 15.334 23 20.001 29
s8.16699 10 10.5 12s6.83301 5.5 13.5 10.5s13 10.167 19 15.5c3.33301 2.66699 8 6.83398 14 12.501s10.5 9.5 13.5 11.5s8 4.16699 15 6.5s13.5 1.5 19.5 -2.5c5.33301 -2.66699 8.5 -4.66699 9.5 -6s0.833008 -2.83301 -0.5 -4.5s-5 -4.5 -11 -8.5
c-45.333 -31.333 -80 -65.666 -104 -102.999c-16.667 -25.333 -26.667 -38 -30 -38c-4.66699 0 -7 -3 -7 -9c0 -1.33301 -5.66699 -24 -17 -68s-18.666 -78.667 -21.999 -104c-6 -48.667 -11 -74.334 -15 -77.001c-2.66699 -2 -9 -13.333 -19 -34
c-7.33301 -16.667 -17.833 -28.834 -31.5 -36.501s-34.834 -13.5 -63.501 -17.5c-22.667 -2.66699 -39.667 -0.333984 -51 6.99902s-25.333 24.666 -42 51.999c-13.333 21.333 -21.666 39.333 -24.999 54s-7 48.334 -11 101.001c-0.666992 9.33301 -2.16699 27.333 -4.5 54
s-4.16602 46.334 -5.49902 59.001c-1.33301 8 -5.83301 17.167 -13.5 27.5s-12.5 17.833 -14.5 22.5c-10 20 -22.167 36.5 -36.5 49.5s-27.833 20.167 -40.5 21.5c-12 0.666992 -21.333 4.33398 -28 11.001s-8 13.334 -4 20.001c2.66699 4.66699 12.334 7 29.001 7
c14 0 29.833 -7 47.5 -21s31.834 -31 42.501 -51c10 -17.333 16.333 -26 19 -26c4 0 6 -3 6 -9z" />
    <glyph glyph-name="v" unicode="v" horiz-adv-x="558" 
d="M474 420c-2.66699 -8 -14.501 -24.666 -35.501 -49.999s-33.167 -43 -36.5 -53c-2.66699 -6.66699 -9 -20.5 -19 -41.5s-18 -39.333 -24 -55s-11 -31.167 -15 -46.5c-3.33301 -14.667 -10.333 -38.5 -21 -71.5s-17.667 -56.5 -21 -70.5c-2 -10.667 -6 -17.667 -12 -21
s-11.333 -1.33301 -16 6c-4 5.33301 -10 6.33301 -18 3c-4.66699 -1.33301 -7.83398 -1.83301 -9.50098 -1.5s-2.66699 1.16602 -3 2.49902s0.5 3.66602 2.5 6.99902c3.33301 9.33301 5.66602 47.666 6.99902 114.999c0.666992 48.667 0 79.334 -2 92.001
s-7.66699 28.667 -17 48c-24.667 51.333 -71.334 93.333 -140.001 126c-42 20 -63.333 35 -64 45c0 3.33301 2 6.66602 6 9.99902c6.66699 4.66699 34 -6 82 -32c62 -34.667 106 -70.834 132 -108.501s38.333 -83.167 37 -136.5c0 -34 0.666992 -51 2 -51
c1.33301 2.66699 8 22.834 20 60.501s20.667 59.5 26 65.5c11.333 18 22.666 42.667 33.999 74c10 26.667 22.667 52.5 38 77.5s27.333 38.833 36 41.5c6.66699 2 10 6.33301 10 13c-0.666992 2 0.5 4.16699 3.5 6.5s7.16699 4.33301 12.5 6l16.5 5
c5.66699 1.66699 10.834 3 15.501 4s7.33398 1.83301 8.00098 2.5c4.66699 0.666992 9.33398 -3 14.001 -11s6.33398 -14.667 5.00098 -20c-1.33301 -3.33301 -10.666 -9.66602 -27.999 -18.999s-26 -16.666 -26 -21.999z" />
    <glyph glyph-name="w" unicode="w" horiz-adv-x="801" 
d="M771 537c0 -2.66699 -8.66602 -7.66406 -25.999 -14.9971c-50 -20.667 -91.333 -44 -124 -70c-43.333 -35.333 -72.666 -74 -87.999 -116s-17.333 -90 -6 -144c4 -18.667 9.5 -32.834 16.5 -42.501s14.167 -12.834 21.5 -9.50098c6.66699 2.66699 10 1 10 -5
c-0.666992 -4 -3.33398 -7.66699 -8.00098 -11c-3.33301 -2.66699 -4.66602 -9 -3.99902 -19s-1.33301 -16.333 -6 -19c-6 -5.33301 -14.667 -1.66602 -26 11.001c-12 12 -23.667 18 -35 18c-28 -0.666992 -52.667 12.5 -74 39.5s-33.666 59.167 -36.999 96.5
c-9.33301 -28 -25.5 -59.5 -48.5 -94.5s-42.833 -58.167 -59.5 -69.5c-16 -10 -24 -19.333 -24 -28c0 -5.33301 -3.33301 -10.5 -10 -15.5s-11.667 -5.83301 -15 -2.5c-2.66699 2.66699 -5.66699 31 -9 85c-4.66699 66.667 -12.334 117.167 -23.001 151.5
s-29 69.5 -55 105.5c-10 14 -25.833 29.5 -47.5 46.5s-38.5 27.5 -50.5 31.5c-8 3.33301 -12.333 8.16602 -13 14.499s2.66602 11.166 9.99902 14.499c6 2.66699 18.667 -1.66602 38 -12.999s37 -24.333 53 -39c12.667 -11.333 27.5 -29.833 44.5 -55.5
s29.833 -48.5 38.5 -68.5c16.667 -42 28.667 -105 36 -189c0 -4 0.166992 -6.83301 0.5 -8.5s1.33301 -2.83398 3 -3.50098s3.5 -0.5 5.5 0.5s5.33301 2.83301 10 5.5c8.66699 4.66699 24.834 27.167 48.501 67.5s38.834 70.833 45.501 91.5c6.66699 23.333 12 52.333 16 87
c1.33301 15.333 2.66602 26.666 3.99902 33.999s3 13.333 5 18s4.16699 6.33398 6.5 5.00098s5.83301 -2.66602 10.5 -3.99902c4.66699 -2.66699 7.66699 -9.16699 9 -19.5s1.66602 -33.166 0.999023 -68.499c-1.33301 -52.667 0.666992 -89.334 6 -110.001
c4.66699 -17.333 13.334 -33.5 26.001 -48.5s25.667 -23.833 39 -26.5c5.33301 -0.666992 9.66602 -1 12.999 -1s5.16602 1.83301 5.49902 5.5s-0.166992 8.66699 -1.5 15s-3.66602 15.5 -6.99902 27.5c-4.66699 16.667 -6.66699 42 -6 76s3.66699 53.667 9 59
c4 5.33301 6 11.666 6 18.999c0 8 5.16699 21 15.5 39s21.166 33.333 32.499 46c15.333 17.333 34.833 33 58.5 47s60.5 32.333 110.5 55c6 2.66699 13 4.66699 21 6s14.667 1.83301 20 1.5s8 -1.5 8 -3.5z" />
    <glyph glyph-name="x" unicode="x" horiz-adv-x="393" 
d="M184 344c-0.666992 10 -20.667 24.5039 -60 43.5039s-68.333 28.167 -87 27.5c-4 0 -6.33301 4.16699 -7 12.5s1 14.166 5 17.499c6.66699 7.33301 27.167 4.16602 61.5 -9.50098s63.5 -29.834 87.5 -48.501l25 -19l28 28c17.333 18 32.666 30.333 45.999 37
s28.666 10 45.999 10c18 0 28.667 -4 32 -12c2.66699 -6.66699 1.5 -12 -3.5 -16s-10.833 -4.66699 -17.5 -2c-8.66699 3.33301 -21.334 1 -38.001 -7s-31.667 -19 -45 -33l-27 -28c26.667 -23.333 44.834 -48.333 54.501 -75s15.167 -70.334 16.5 -131.001
c1.33301 -66 -1 -103.333 -7 -112c-7.33301 -9.33301 -12.333 -12.666 -15 -9.99902c-2 5.33301 -5 42 -9 110s-7.33301 104.667 -10 110c-5.33301 18 -12.833 35.833 -22.5 53.5s-17.167 26.5 -22.5 26.5c-13.333 0 -36 -38 -68 -114
c-16.667 -39.333 -25 -66.666 -25 -81.999s7.66699 -30.666 23 -45.999c22.667 -22.667 29 -34.334 19 -35.001c-2 0 -4.33301 0.333008 -7 1c-24.667 7.33301 -44.167 22.666 -58.5 45.999s-15.166 49.666 -2.49902 78.999c16.667 48 38.334 93.333 65.001 136
c15.333 23.333 23 37.333 23 42z" />
    <glyph glyph-name="y" unicode="y" horiz-adv-x="493" 
d="M436 443c0 5.33301 4.66211 5.33594 13.9951 0.00292969c14 -7.33301 16.333 -17.333 7 -30c-0.666992 -0.666992 -14 -16.334 -40 -47.001c-73.333 -88 -117 -172.667 -131 -254c-7.33301 -42.667 -9 -76.834 -5 -102.501s15 -49.834 33 -72.501
c24 -30.667 26.333 -46 7 -46c-13.333 0 -30.166 18.167 -50.499 54.5s-30.5 66.5 -30.5 90.5c0 14 4.33301 43.167 13 87.5s15.334 70.5 20.001 78.5c16.667 32.667 12.334 74 -12.999 124c-5.33301 11.333 -12.333 20.333 -21 27s-23.667 15 -45 25
c-18 8.66699 -44 19.334 -78 32.001c-6 4 -22 4.66699 -48 2c-17.333 -2 -28 -2.66699 -32 -2s-6 4.33398 -6 11.001c0 8.66699 3.66699 14.5 11 17.5s21.333 4.5 42 4.5c26.667 0 61.834 -8.83301 105.501 -26.5s72.834 -34.834 87.501 -51.501
c10 -13.333 18 -28.333 24 -45c6.66699 -16.667 11.334 -25 14.001 -25c1.33301 -0.666992 3.66602 1 6.99902 5c3.33301 4.66699 14.166 17.667 32.499 39s29.833 35.666 34.5 42.999c2.66699 5.33301 10.834 15.333 24.501 30s21.5 25 23.5 31z" />
    <glyph glyph-name="z" unicode="z" horiz-adv-x="544" 
d="M234 356c18.667 0 31.8359 1.33398 39.5029 4.00098s17.834 9 30.501 19c18 14 36.167 25 54.5 33s31.833 10.667 40.5 8c12 -2 21 -0.666992 27 4c8 5.33301 13.667 6.33301 17 3s2 -8.66602 -4 -15.999c-7.33301 -8.66699 -21.333 -19.5 -42 -32.5
s-38 -21.833 -52 -26.5c-42.667 -16 -85.334 -58.333 -128.001 -127c-36.667 -59.333 -58 -108.333 -64 -147c-4 -22.667 -3.33301 -33.667 2 -33c3.33301 0.666992 8 5.33398 14 14.001c4.66699 7.33301 14.667 16.166 30 26.499s27.666 16.833 36.999 19.5
c12.667 2 30.334 6 53.001 12c31.333 8 65.666 11.833 102.999 11.5s64.666 -4.83301 81.999 -13.5c14.667 -7.33301 24.667 -14 30 -20s8.66602 -14 9.99902 -24c1.33301 -8 -1 -12 -7 -12c-6.66699 -0.666992 -11.334 3.66602 -14.001 12.999
c-2 8.66699 -16.333 17 -43 25c-29.333 8.66699 -62 10 -98 4c-53.333 -8.66699 -93.333 -19.834 -120 -33.501s-45.667 -32.834 -57 -57.501c-14.667 -30.667 -30.667 -34 -48 -10c-19.333 30.667 -16 77.667 10 141c14 34.667 40.667 81 80 139c12.667 20 19 32.333 19 37
s-10.333 7 -31 7c-24 0 -51.5 6.83301 -82.5 20.5s-55.5 29.334 -73.5 47.001s-23 31.5 -15 41.5c6 7.33301 11 10.5 15 9.5s10.667 -7.5 20 -19.5c8 -10 24.333 -22.333 49 -37s44.334 -23.667 59.001 -27c8 -2 27 -3 57 -3z" />
    <glyph glyph-name="uni0093" horiz-adv-x="302" 
d="M87 408c17.333 0 15.9971 -17.333 -4.00293 -52c-6.66699 -12 -12.167 -26 -16.5 -42s-6.16602 -33.167 -5.49902 -51.5s5.33398 -32.5 14.001 -42.5c18 -20.667 23 -30.667 15 -30c-4 0.666992 -10.333 3.66699 -19 9c-23.333 14 -36.833 36.333 -40.5 67
s3.5 63.667 21.5 99c14.667 28.667 26.334 43 35.001 43zM247.997 213c-26.667 -0.666992 -43 13.667 -49 43s-2.33301 56.666 11 81.999c2.66699 6.66699 5.5 16.167 8.5 28.5s7.83301 24.5 14.5 36.5c4.66699 8.66699 9.5 15.334 14.5 20.001s9.83301 6.66699 14.5 6
s8 -4 10 -10c0 -8.66699 -7 -30.5 -21 -65.5s-21.333 -58.5 -22 -70.5c-2 -16.667 -2.5 -27 -1.5 -31s5.83301 -8 14.5 -12c18 -8 25.333 -15.333 22 -22c-2 -3.33301 -7.33301 -5 -16 -5z" />
    <glyph glyph-name="uni0094" horiz-adv-x="276" 
d="M45 443c6.66699 0 20.5029 -15.833 41.5029 -47.5s33.167 -54.5 36.5 -68.5c2.66699 -14.667 1.33398 -30.167 -3.99902 -46.5s-13.333 -28.166 -24 -35.499c-20.667 -12.667 -28.667 -14 -24 -4c1.33301 3.33301 4 8 8 14c8 11.333 13.167 29 15.5 53
s0.166016 38.333 -6.50098 43c-2 1.33301 -10.833 12 -26.5 32s-24.834 31 -27.501 33c-4.66699 4 -5.33398 9.66699 -2.00098 17s7.66602 10.666 12.999 9.99902zM246.003 264c0 -9.33301 -0.831055 -15.6689 -2.49805 -19.002s-4.83398 -4.33301 -9.50098 -3
c-8.66699 0.666992 -14.334 12.334 -17.001 35.001c0 6.66699 -6.5 34 -19.5 82s-18.833 76.333 -17.5 85c6 10.667 14.333 8.66699 25 -6c4 -5.33301 7.33301 -11.666 10 -18.999c6.66699 -20.667 13.5 -48.167 20.5 -82.5s10.5 -58.5 10.5 -72.5z" />
    <glyph glyph-name=".null" horiz-adv-x="0" 
 />
    <glyph glyph-name="nonmarkingreturn" horiz-adv-x="333" 
 />
    </font>
</defs>
</svg>
