<?xml version="1.0" standalone="no"?>
<!DOCTYPE svg PUBLIC "-//W3C//DTD SVG 1.1//EN" "http://www.w3.org/Graphics/SVG/1.1/DTD/svg11.dtd" >
<svg>
<metadata>
Created by FontForge 20090914 at Sat Feb 27 01:01:10 2016
 By www-data
Copyright (c) 2016, root
</metadata>
<defs>
<font id="AnotherOne" horiz-adv-x="300" >
  <font-face 
    font-family="Another One"
    font-weight="400"
    font-stretch="normal"
    units-per-em="1000"
    panose-1="2 0 5 3 0 0 0 0 0 0"
    ascent="800"
    descent="-200"
    x-height="370"
    cap-height="434"
    bbox="28.2483 -162.692 681.581 666"
    underline-thickness="50"
    underline-position="-100"
    unicode-range="U+0020-U+0094"
  />
<missing-glyph horiz-adv-x="364" 
d="M33 0v666h265v-666h-265zM66 33h199v600h-199v-600z" />
    <glyph glyph-name=".notdef" horiz-adv-x="364" 
d="M33 0v666h265v-666h-265zM66 33h199v600h-199v-600z" />
    <glyph glyph-name="space" unicode=" " horiz-adv-x="263" 
 />
    <glyph glyph-name="exclam" unicode="!" horiz-adv-x="128" 
d="M72 61c-5.33301 0 -9.66797 2.49902 -13.001 7.49902s-3.66602 10.5 -0.999023 16.5c2.66699 7.33301 8.66699 10.833 18 10.5s15.333 -4.16602 18 -11.499c2.66699 -5.33301 1.66699 -10.5 -3 -15.5s-11 -7.5 -19 -7.5zM40.998 517.999
c7.33301 0 13.5 -8.49902 18.5 -25.499s9.83301 -48.5 14.5 -94.5c8 -72.667 13.667 -114.667 17 -126c4 -16 6.16699 -33.833 6.5 -53.5s-1.5 -30.834 -5.5 -33.501c-8.66699 -5.33301 -17.334 6 -26.001 34c-13.333 42.667 -24 112.667 -32 210
c-0.666992 8 -1.66699 17.667 -3 29s-2.16602 19.5 -2.49902 24.5s-0.333008 10.5 0 16.5s1.5 10.333 3.5 13s5 4.66699 9 6z" />
    <glyph glyph-name="quotedbl" unicode="&#x22;" horiz-adv-x="224" 
d="M182 293c-17.333 0 -32.332 24.334 -44.999 73.001s-13 82.667 -1 102c6.66699 10 13 10 19 0c2 -5.33301 3.33301 -12.333 4 -21c0.666992 -18 4.66699 -42.333 12 -73s13.666 -49.334 18.999 -56.001c4 -5.33301 5 -10.833 3 -16.5s-5.66699 -8.5 -11 -8.5z
M31.001 518.001c3.33301 5.33301 8.33301 7.5 15 6.5s12 -4.83301 16 -11.5c2 -4 3.66699 -12 5 -24s2.33301 -23.333 3 -34s1.16699 -23.834 1.5 -39.501s0.5 -24.5 0.5 -26.5c0.666992 -8 -0.333008 -14.167 -3 -18.5s-6 -5.66602 -10 -3.99902s-7.33301 6.16699 -10 13.5
c-4.66699 12 -9.5 37 -14.5 75s-6.16699 59 -3.5 63z" />
    <glyph glyph-name="dollar" unicode="$" horiz-adv-x="303" 
d="M202 168c0 -16.667 1.66797 -26.167 5.00098 -28.5s9.66602 1.5 18.999 11.5c8 8.66699 9.66699 19 5 31c-9.33301 24 -17.333 30.667 -24 20c-3.33301 -6 -5 -17.333 -5 -34zM175.001 217c1.33301 6 -6.83301 14.167 -24.5 24.5s-29.5 15.833 -35.5 16.5
c-2 0 -4.66699 -19 -8 -57s-4 -57.667 -2 -59c12 -5.33301 36.333 -9 73 -11c1.33301 33.333 0.333008 62 -3 86zM174.002 314c0 27.333 -2.33105 43.167 -6.99805 47.5s-16.334 1.83301 -35.001 -7.5c-12.667 -6 -19.334 -17.333 -20.001 -34
c-1.33301 -12 -0.5 -20.167 2.5 -24.5s10.833 -9.83301 23.5 -16.5c17.333 -9.33301 28.333 -14 33 -14c2 0 3 16.333 3 49zM167.004 413.001c0 7.33301 1.66895 13.1748 5.00195 17.5078s7.16602 5.5 11.499 3.5s7.5 -6.66699 9.5 -14c2.66699 -9.33301 12 -14 28 -14
c34.667 0 52 -9.66699 52 -29c0 -10 -4 -13.333 -12 -10c-7.33301 2.66699 -28 6.66699 -62 12l3 -66c1.33301 -32.667 3 -52.834 5 -60.501s8.66699 -16.5 20 -26.5c33.333 -34.667 41.666 -64.334 24.999 -89.001c-10 -14 -19.333 -22 -28 -24
c-10.667 -3.33301 -16.334 -11.333 -17.001 -24c-0.666992 -4.66699 -2 -8 -4 -10s-4.16699 -2.33301 -6.5 -1s-4.16602 4.33301 -5.49902 9c-4 12 -18.333 18 -43 18c-7.33301 0 -15.166 0.5 -23.499 1.5s-13.5 1.33301 -15.5 1s-3.83301 -1.83301 -5.5 -4.5
s-2.5 -8.33398 -2.5 -17.001c-0.666992 -10.667 -3 -16 -7 -16c-4.66699 1.33301 -9 9 -13 23c-4 14.667 -14.333 25.667 -31 33c-10 4.66699 -16.333 8.66699 -19 12s-1.66699 5.66602 3 6.99902s12.667 1.66602 24 0.999023l24 -2l2 62
c1.33301 31.333 1.16602 50.5 -0.500977 57.5s-8.16699 15.833 -19.5 26.5c-15.333 15.333 -23 25.166 -23 29.499s8 13.5 24 27.5c11.333 8.66699 18.333 16.167 21 22.5s4 17.5 4 33.5c0 24 1.66699 37.667 5 41s6.66602 0 9.99902 -10
c2.66699 -8.66699 4.33398 -20.334 5.00098 -35.001c0 -9.33301 1.16699 -15.333 3.5 -18s5.33301 -3 9 -1s8.5 4.16699 14.5 6.5s11 3.16602 15 2.49902c10 2.66699 15 10.667 15 24z" />
    <glyph glyph-name="percent" unicode="%" horiz-adv-x="384" 
d="M354 167c0 -8 -2.16797 -14.833 -6.50098 -20.5s-9.16602 -8.5 -14.499 -8.5c-8.66699 0 -14.5 2.66699 -17.5 8s-1.83301 11 3.5 17c3.33301 3.33301 7.83301 6 13.5 8s10.667 2.66699 15 2s6.5 -2.66699 6.5 -6zM29.999 415c0 8.66699 6.33301 12.002 19 10.002
c7.33301 -0.666992 12.5 -2.33398 15.5 -5.00098s4.5 -7.33398 4.5 -14.001c0 -12 -4.66699 -18.667 -14 -20c-7.33301 -1.33301 -13.333 0.666992 -18 6s-7 13 -7 23zM55.999 124.002l57.5 116.002c29 58 50.5 103 64.5 135c18 38.667 32 63 42 73
c10.667 10.667 18.334 13.334 23.001 8.00098c5.33301 -5.33301 5.33301 -12.333 0 -21c-6 -8.66699 -31.833 -57.834 -77.5 -147.501s-71.5 -138.834 -77.5 -147.501c-14.667 -24.667 -22.667 -42 -24 -52c-1.33301 -10.667 -4.66602 -16.667 -9.99902 -18
c-6 -2 -9.66699 1.33301 -11 10c-2 11.333 0 21 6 29c2 2.66699 3.66699 5.16699 5 7.5s2.16602 4.16602 2.49902 5.49902s0.166016 2 -0.500977 2z" />
    <glyph glyph-name="ampersand" unicode="&#x26;" horiz-adv-x="341" 
d="M197 321c8 0 12.5039 -4.16699 13.5039 -12.5s-2.16699 -17.5 -9.5 -27.5c-10 -14 -18.667 -33 -26 -57c-16 -48 -7.66699 -72 25 -72c18.667 0 31.667 3.16699 39 9.5s10.333 17.5 9 33.5c-1.33301 18 2 30.667 10 38s18.333 7 31 -1
c18.667 -12.667 20 -32.334 4 -59.001c-6 -10 -8.5 -20.167 -7.5 -30.5s7.83301 -42.5 20.5 -96.5c5.33301 -22.667 6.66602 -41.167 3.99902 -55.5s-8.66699 -21.5 -18 -21.5c-5.33301 0 -9 2.66699 -11 8s-4 17 -6 35c-4 31.333 -9.33301 58 -16 80
c-5.33301 18.667 -9.5 29.334 -12.5 32.001s-8.83301 2.33398 -17.5 -0.999023c-39.333 -11.333 -68.166 -3.5 -86.499 23.5s-17.5 59.167 2.5 96.5l11 20h-42c-20 -0.666992 -33 0.166016 -39 2.49902s-14 8.83301 -24 19.5c-13.333 14.667 -20.333 30.834 -21 48.501
s5.33301 33.167 18 46.5c38.667 38.667 93 55.334 163 50.001c-7.33301 35.333 -12.333 56 -15 62c-3.33301 8 -2 15.667 4 23c12 14.667 21.667 12.667 29 -6c4.66699 -12 10 -34 16 -66c10 -52.667 10 -79.334 0 -80.001c-5.33301 0 -14.333 6 -27 18
c-26.667 24 -63.334 24.667 -110.001 2c-36.667 -18.667 -47.334 -42.667 -32.001 -72c3.33301 -6 7.66602 -10.5 12.999 -13.5s11.666 -4.16699 18.999 -3.5s13.5 1.66699 18.5 3s12.167 3.66602 21.5 6.99902s15 5.33301 17 6c16 7.33301 26.667 11 32 11z" />
    <glyph glyph-name="quotesingle" unicode="'" horiz-adv-x="131" 
d="M74 462c2.66699 -1.33301 5.00098 -5.66602 7.00098 -12.999s5 -12.333 9 -15c5.33301 -4 8.66602 -8.33301 9.99902 -13s0.666016 -8.33398 -2.00098 -11.001s-7 -3.66699 -13 -3c-13.333 2 -27.166 20.167 -41.499 54.5s-17.5 57.833 -9.5 70.5
c2.66699 4.66699 7.16699 7.16699 13.5 7.5s10.833 -1.5 13.5 -5.5c1.33301 -1.33301 2.5 -8 3.5 -20s2.16699 -23.667 3.5 -35s3.33301 -17 6 -17z" />
    <glyph glyph-name="parenleft" unicode="(" horiz-adv-x="220" 
d="M135 462c-6.66699 0 -15.333 -9.50098 -26 -28.501s-20.334 -42.5 -29.001 -70.5c-8 -28 -12 -71.333 -12 -130c-0.666992 -41.333 -0.166992 -68.166 1.5 -80.499s6.5 -24.833 14.5 -37.5c9.33301 -16 22.833 -30.167 40.5 -42.5s33.167 -19.166 46.5 -20.499
c12.667 -1.33301 19 -4.66602 19 -9.99902c0 -3.33301 -4.66699 -5.33301 -14 -6s-20.166 -0.166992 -32.499 1.5s-22.833 4.16699 -31.5 7.5c-15.333 6.66699 -31 20.667 -47 42s-26 42 -30 62c-9.33301 45.333 -6.83301 103.666 7.5 174.999s34.833 127.333 61.5 168
c6.66699 10 13 16.833 19 20.5s11.333 3.66699 16 0s8 -10.5 10 -20.5c2.66699 -12.667 3 -20.834 1 -24.501s-7 -5.5 -15 -5.5z" />
    <glyph glyph-name="parenright" unicode=")" horiz-adv-x="217" 
d="M57 554c6.66699 0 25.3311 -16.8301 55.998 -50.4971s49.667 -58.167 57 -73.5c10.667 -20.667 16.334 -48.334 17.001 -83.001s-3.66602 -65 -12.999 -91c-10.667 -29.333 -24.5 -61 -41.5 -95s-27.167 -50.333 -30.5 -49c-12.667 4.66699 -8.33398 33.667 12.999 87
c24 59.333 36.5 106.166 37.5 140.499s-8.83301 67.166 -29.5 98.499c-16 24.667 -33 43.667 -51 57c-23.333 17.333 -36.666 28.5 -39.999 33.5s-1 10.167 7 15.5c8 6.66699 14 10 18 10z" />
    <glyph glyph-name="asterisk" unicode="*" horiz-adv-x="258" 
d="M192 420c9.33301 0 14.667 -1.99902 16 -5.99902s-1.66699 -9 -9 -15c-6 -4.66699 -16.833 -6.16699 -32.5 -4.5s-28.834 6.16699 -39.501 13.5c-11.333 8 -19.166 11.333 -23.499 10s-9.16602 -8 -14.499 -20c-3.33301 -7.33301 -5.83301 -12 -7.5 -14
s-3.5 -2.66699 -5.5 -2s-5.33301 3 -10 7c-8 8 -10.333 14.333 -7 19c15.333 18.667 11.666 43.334 -11.001 74.001c-20.667 28 -24.334 44.333 -11.001 49c2 0.666992 4 1 6 1c2 1.33301 6.33301 -0.833984 13 -6.50098l17 -14.5c4.66699 -4 8.33398 -3.66699 11.001 1
c0 0.666992 1.83301 6.16699 5.5 16.5s7.5 18.333 11.5 24s8.66699 7.83398 14 6.50098c6 -2.66699 9.33301 -6.33398 10 -11.001s-0.333008 -11.667 -3 -21s-4 -17.666 -4 -24.999c-2 -16.667 -2.33301 -26.334 -1 -29.001s6 -3 14 -1c1.33301 0 8 1.33301 20 4
s21.333 4.66699 28 6c28.667 6.66699 45 6 49 -2c2 -4.66699 -3 -9.66699 -15 -15c-6 -2.66699 -13.333 -5 -22 -7c-23.333 -6.66699 -36 -11.334 -38 -14.001c-2 -2 -1 -5 3 -9s9.5 -7.5 16.5 -10.5s13.5 -4.5 19.5 -4.5z" />
    <glyph glyph-name="plus" unicode="+" horiz-adv-x="393" 
d="M105 265c0 -4 14 -17.999 42 -41.999s44 -36 48 -36c4.66699 0 5.66699 10 3 30c-2 14.667 -5 23.667 -9 27s-17 8 -39 14c-14 3.33301 -25 5.66602 -33 6.99902s-12 1.33301 -12 0zM228 131.001c-12 0 -49.335 27 -112.002 81c-43.333 37.333 -69 60 -77 68
s-10.667 15.333 -8 22c2.66699 7.33301 10.667 10.833 24 10.5s36 -4.83301 68 -13.5c42 -11.333 63.333 -12.333 64 -3c0 2 -0.333008 4 -1 6c-2 13.333 -6.66699 52 -14 116c-4.66699 28.667 -1.66699 45.667 9 51c10 -0.666992 17 -8.5 21 -23.5
s8.66699 -51.833 14 -110.5c2.66699 -31.333 6 -49 10 -53c3.33301 -5.33301 25 -10 65 -14c32.667 -2.66699 53.5 -5.5 62.5 -8.5s11.833 -8.83301 8.5 -17.5c-2 -5.33301 -6.66699 -8.5 -14 -9.5s-22.333 -0.5 -45 1.5c-34.667 2.66699 -55.667 5 -63 7
c-5.33301 4 -7.33301 -4 -6 -24c4 -31.333 8.33301 -50 13 -56c2.66699 -2 3.33398 -5.16699 2.00098 -9.5s-4.16602 -8.83301 -8.49902 -13.5s-8.5 -7 -12.5 -7z" />
    <glyph glyph-name="comma" unicode="," horiz-adv-x="117" 
d="M51 113c8 2.66699 13.999 1.5 17.999 -3.5s8 -16.833 12 -35.5c4.66699 -20.667 6.33398 -36 5.00098 -46s-6.33301 -25.333 -15 -46c-12 -26 -24 -31.667 -36 -17c-6 7.33301 -5 18.333 3 33c8 18 10.667 40.333 8 67c-2 30 -0.333008 46 5 48z" />
    <glyph glyph-name="hyphen" unicode="-" 
d="M177 247c61.333 10.667 92 12.001 92 4.00098c0 -3.33301 -3.33301 -7.66602 -10 -12.999s-37.667 -12.833 -93 -22.5s-91 -13.834 -107 -12.501c-18 0.666992 -27.333 6.66699 -28 18c-0.666992 7.33301 0.833008 11.666 4.5 12.999s17.167 2.33301 40.5 3
c35.333 0 69 3.33301 101 10z" />
    <glyph glyph-name="period" unicode="." horiz-adv-x="104" 
d="M46 103c10.667 4 16.3311 6 16.998 6s3.33398 -5 8.00098 -15c4 -10.667 3.83301 -20 -0.5 -28s-10.5 -10.667 -18.5 -8c-13.333 5.33301 -20.666 12.833 -21.999 22.5s4 17.167 16 22.5z" />
    <glyph glyph-name="slash" unicode="/" horiz-adv-x="259" 
d="M194 537c0.666992 4 5.99902 5.33301 15.999 4s16.333 -4.33301 19 -9c2.66699 -0.666992 -5.16602 -28.334 -23.499 -83.001l-64.5 -186.5c-24.667 -69.667 -40 -115.5 -46 -137.5c-18.667 -60.667 -34.334 -91 -47.001 -91
c-3.33301 0.666992 -6.66602 2.33398 -9.99902 5.00098c-7.33301 4.66699 -9.33301 14.167 -6 28.5s18.333 57.833 45 130.5c66.667 183.333 105.667 296.333 117 339z" />
    <glyph glyph-name="zero" unicode="0" horiz-adv-x="336" 
d="M182 487c-13.333 6.66699 -27 9.83105 -41 9.49805s-25.667 -4.16602 -35 -11.499c-11.333 -10 -20.5 -31.667 -27.5 -65s-9.16699 -65.333 -6.5 -96c2 -34.667 1 -51 -3 -49c-4 2.66699 -6 -2.33301 -6 -15c-1.33301 -35.333 4.33398 -74 17.001 -116
c2.66699 -8.66699 5.33398 -15.667 8.00098 -21c12 -23.333 25.667 -36.666 41 -39.999s35.666 3 60.999 19c48 30 77.333 90 88 180c4 38 -3.83301 78 -23.5 120s-43.834 70.333 -72.501 85zM78 496.997c17.333 12.667 33.501 19.502 48.501 20.502s33.5 -3.5 55.5 -13.5
c49.333 -22 84.833 -61.667 106.5 -119s23.834 -117.666 6.50098 -180.999c-11.333 -44.667 -30.333 -79.834 -57 -105.501s-57.334 -38.834 -92.001 -39.501c-40.667 -0.666992 -68.834 16.666 -84.501 51.999s-25.5 102 -29.5 200c-2.66699 65.333 -1.5 108.333 3.5 129
s19.167 39.667 42.5 57z" />
    <glyph glyph-name="one" unicode="1" horiz-adv-x="157" 
d="M31 483c16.667 0 27.001 -22.665 31.001 -67.998c15.333 -166.667 34.666 -267.334 57.999 -302.001c5.33301 -8.66699 7.33301 -16 6 -22s-5.66602 -9 -12.999 -9c-8.66699 0 -20.667 21.667 -36 65s-25 83.666 -29 120.999c-0.666992 7.33301 -2.66699 27.5 -6 60.5
s-6.33301 64.5 -9 94.5s-3.33398 50 -2.00098 60z" />
    <glyph glyph-name="two" unicode="2" horiz-adv-x="314" 
d="M284 167c-6 -3.33301 -26.668 -7.33398 -62.001 -12.001s-57 -9 -65 -13c-22 -7.33301 -40 -11 -54 -11c-18.667 0 -27.667 6.66699 -27 20c0.666992 18.667 23 64.667 67 138c38 64.667 52 109.334 42 134.001c-6 16 -21 24.167 -45 24.5s-49.333 -7.16699 -76 -22.5
c-23.333 -12.667 -34.666 -14 -33.999 -4c0 2.66699 1.33301 6.33398 4 11.001c14 22 36.333 36.667 67 44c35.333 9.33301 65.333 1 90 -25c11.333 -12 17.833 -21.333 19.5 -28s1.5 -19.334 -0.5 -38.001c-4 -30 -15 -59.667 -33 -89c-48.667 -81.333 -71 -124 -67 -128
c2 -2 14.333 0.666992 37 8c27.333 9.33301 57 12.833 89 10.5s48 -8.83301 48 -19.5z" />
    <glyph glyph-name="three" unicode="3" horiz-adv-x="310" 
d="M72 96c0 5.33301 1.66797 8.99707 5.00098 10.9971s10 3 20 3c16.667 0 41.667 14.333 75 43c59.333 50 86.333 85.667 81 107c-6.66699 26.667 -37.334 39.334 -92.001 38.001c-40.667 -2 -61 7.33301 -61 28c0 6 14.333 24.667 43 56c20 20.667 31.667 34 35 40
s2.66602 11.667 -2.00098 17c-8 8 -24.167 11.333 -48.5 10s-42.833 -6.66602 -55.5 -15.999c-7.33301 -4.66699 -14.166 -7.83398 -20.499 -9.50098s-11.5 -1.33398 -15.5 0.999023s-6 6.5 -6 12.5c0 6.66699 7.33301 14.167 22 22.5s30.667 13.833 48 16.5
c26.667 4.66699 50.5 3.33398 71.5 -3.99902s33.5 -19 37.5 -35c6 -23.333 -8 -50.333 -42 -81l-28 -24c54 -4.66699 90 -11.667 108 -21c22 -11.333 33 -31.166 33 -59.499s-11 -53.833 -33 -76.5c-38 -39.333 -79.333 -67.666 -124 -84.999c-34 -13.333 -51 -11.333 -51 6
z" />
    <glyph glyph-name="four" unicode="4" horiz-adv-x="313" 
d="M35 437c1.33301 2 3.16895 2.16504 5.50195 0.498047s4.83301 -4.16699 7.5 -7.5c6 -8 8.66699 -28 8 -60c-2 -31.333 0.333008 -48.666 7 -51.999c8 -3.33301 23.667 -4.66602 47 -3.99902s39.666 3 48.999 7c5.33301 2 9.33301 3 12 3s5 -0.833008 7 -2.5
s4.33301 -4.5 7 -8.5c2 -6 3.33301 -10.833 4 -14.5s-2 -6.5 -8 -8.5s-13.833 -3.5 -23.5 -4.5s-23.5 -1.5 -41.5 -1.5c-42.667 -0.666992 -67.834 2.5 -75.501 9.5s-11.167 31.167 -10.5 72.5c1.33301 43.333 3 67 5 71zM269.003 149.998
c-0.666992 13.333 -21.167 66.5 -61.5 159.5s-59.833 143.5 -58.5 151.5c0 10 2.33301 15 7 15c5.33301 -2 10.666 -8.33301 15.999 -19c2 -6 10 -24.333 24 -55c56 -122 85 -204.333 87 -247c0.666992 -11.333 -1.66602 -17 -6.99902 -17c-4.66699 0 -7 4 -7 12z" />
    <glyph glyph-name="five" unicode="5" horiz-adv-x="433" 
d="M158 166c15.333 -2 34.8281 14.668 58.4951 50.001s30.167 64.333 19.5 87c-3.33301 8 -17.5 11.667 -42.5 11s-54.167 -5.66699 -87.5 -15c-42 -11.333 -66.333 -13.5 -73 -6.5s0.333008 28.167 21 63.5c16 28.667 25.333 49.667 28 63c2 9.33301 2.5 15.333 1.5 18
s-4.83301 4 -11.5 4c-9.33301 0 -15.666 3.66699 -18.999 11s-1.66602 14.333 5.00098 21c0.666992 2.66699 10.5 5.33398 29.5 8.00098s38.833 5 59.5 7s32 3.33301 34 4c1.33301 1.33301 37 2.66602 107 3.99902c70.667 0.666992 108.334 -2 113.001 -8
c4.66699 -5.33301 0.666992 -9.33301 -12 -12c-8 -2 -20.667 -4 -38 -6c-52 -6.66699 -89 -10.667 -111 -12c-4 0 -9.66699 -0.333008 -17 -1c-48.667 -3.33301 -77.667 -8 -87 -14c-8 -5.33301 -17.667 -19.666 -29 -42.999c-1.33301 -4 -2.66602 -7 -3.99902 -9
c-18 -37.333 -25.667 -57.333 -23 -60s17 -0.333984 43 6.99902c31.333 9.33301 55.833 13 73.5 11s33.5 -10 47.5 -24c16 -16 24 -31.667 24 -47c-1.33301 -37.333 -18.666 -74.333 -51.999 -111c-14.667 -16 -28 -25.333 -40 -28s-21 1.66602 -27 12.999
c-3.33301 6 -4.5 9.83301 -3.5 11.5s5.16699 2.5 12.5 2.5z" />
    <glyph glyph-name="six" unicode="6" horiz-adv-x="457" 
d="M274 290c0 12.667 -6.33496 13.001 -19.002 1.00098l-3 -3c-4 -4.66699 -7.66699 -10.667 -11 -18s-5.16602 -13.333 -5.49902 -18s0.833984 -7.33398 3.50098 -8.00098c4 0 10.833 6.33301 20.5 19s14.5 21.667 14.5 27zM55.998 273.001
c6.66699 -90.667 44.9961 -119.337 114.996 -86.0039c18.667 8 30.334 15.333 35.001 22s6.33398 17.334 5.00098 32.001c-1.33301 16 2 32.333 10 49s18.333 28.334 31 35.001c7.33301 4 12.5 6.33301 15.5 7s5.33301 0.166992 7 -1.5s3.5 -5.16699 5.5 -10.5
c8 -22.667 4.66699 -49 -10 -79c-6.66699 -14.667 -8.33398 -24 -5.00098 -28c2.66699 -5.33301 22.834 -6.33301 60.501 -3s63.167 8.33301 76.5 15c16.667 8.66699 25 11.667 25 9c0 -1.33301 -2 -5.66602 -6 -12.999c-5.33301 -10.667 -11.166 -17.667 -17.499 -21
s-21.166 -7.66602 -44.499 -12.999c-43.333 -9.33301 -77 -11 -101 -5c-16.667 4.66699 -29.667 3.33398 -39 -3.99902c-12 -10 -28.5 -19.167 -49.5 -27.5s-38.167 -12.5 -51.5 -12.5c-18 0 -35 8 -51 24c-46.667 46.667 -50 122.667 -10 228l11 28.5
c4 10.333 7.16699 18.833 9.5 25.5s3.83301 10.667 4.5 12c6 14 10.667 14 14 0c4 -18 2.66699 -31.333 -4 -40c-4 -4.66699 -11 -26.834 -21 -66.501s-15 -65.167 -15 -76.5z" />
    <glyph glyph-name="seven" unicode="7" horiz-adv-x="461" 
d="M431 332c0 -4 -4.33496 -7.50195 -13.002 -10.502s-18.167 -5.66699 -28.5 -8s-16.166 -4.5 -17.499 -6.5c-2.66699 -2 -13.167 -5.83301 -31.5 -11.5s-29.166 -11.834 -32.499 -18.501c-12 -17.333 -14.667 -40.333 -8 -69c4 -19.333 10.333 -28.333 19 -27
c2.66699 0.666992 5.33398 2.33398 8.00098 5.00098c6.66699 6.66699 11.5 9.33398 14.5 8.00098s3.83301 -6.33301 2.5 -15c-0.666992 -11.333 -9 -17.333 -25 -18c-9.33301 -0.666992 -16.5 -0.666992 -21.5 0s-8.83301 3.16699 -11.5 7.5
s-4.33398 8.16602 -5.00098 11.499s-1.5 10 -2.5 20l-2.5 25c-4 30 -7.33301 46 -10 48c-1.33301 2 -5.33301 3.33301 -12 4c-12 1.33301 -19 7 -21 17c-1.33301 8.66699 3.33398 13.334 14.001 14.001c2 0 5.5 0.333008 10.5 1s8.16699 1 9.5 1c23.333 2 30 39.667 20 113
c-4 28 -8 43.333 -12 46s-19 -1 -45 -11c-32 -12 -67.333 -18.333 -106 -19c-39.333 -1.33301 -59 -4 -59 -8c0 -4.66699 3.66699 -18.667 11 -42c9.33301 -31.333 9.33301 -47 0 -47c-8 0 -14.333 6.66699 -19 20c-4 10 -9.33301 28.167 -16 54.5
s-10.334 42.833 -11.001 49.5c0 5.33301 25.333 8 76 8c79.333 -1.33301 133.666 10 162.999 34c8.66699 6.66699 16 10.667 22 12c8.66699 2.66699 14.334 1.66699 17.001 -3s4 -16.667 4 -36c0 -10 1.83301 -29.333 5.5 -58s4.16699 -51 1.5 -67
c-3.33301 -18 -3.33301 -28.333 0 -31c6 -2 23.667 1.33301 53 10l30.5 7.5c7 1.66699 12.833 2.33398 17.5 2.00098s7.66699 -1.5 9 -3.5s2 -5 2 -9z" />
    <glyph glyph-name="eight" unicode="8" horiz-adv-x="420" 
d="M366 293c0 9.33301 -5.49902 20.332 -16.499 32.999s-21.833 21 -32.5 25c-13.333 5.33301 -33.833 8 -61.5 8s-50.167 -2.66699 -67.5 -8l-15.5 -5c-6.33301 -2 -11.5 -3.83301 -15.5 -5.5s-7 -2.5 -9 -2.5c-6 -2 -6.33301 -6.33301 -1 -13
c6.66699 -8 12.334 -22.333 17.001 -43c5.33301 -22.667 14.666 -38.834 27.999 -48.501s32.333 -14.167 57 -13.5c27.333 0.666992 53.666 8.83398 78.999 24.501s38 31.834 38 48.501zM188.001 448.999c-14.667 12.667 -30.5 16.166 -47.5 10.499
s-32.167 -19.5 -45.5 -41.5c-16 -22.667 -9.33301 -36 20 -40c26.667 -3.33301 52 0.333984 76 11.001c24.667 9.33301 23.667 29.333 -3 60zM81.001 445.998c-1.33301 1.33301 0.166016 4.33398 4.49902 9.00098l12.5 13c4 4 5 6.66699 3 8c-4 0 -11.333 -5.33301 -22 -16
s-16 -18 -16 -22c1.33301 -2.66699 3.33301 -3.83398 6 -3.50098s5.33398 1.83301 8.00098 4.5s4 5 4 7zM112 500.999c0 -6.66699 12 -9.6709 36 -9.00391c16.667 0.666992 28 -0.166016 34 -2.49902s13.667 -9.16602 23 -20.499c13.333 -15.333 23 -33.666 29 -54.999
c1.33301 -5.33301 3 -10.333 5 -15s4 -8 6 -10s3.66699 -2.66699 5 -2c7.33301 2.66699 22.833 1 46.5 -5s41.167 -12.667 52.5 -20c34 -23.333 46.333 -51 37 -83c-6 -20 -15.167 -36 -27.5 -48s-30.5 -22.667 -54.5 -32c-48 -18.667 -88.667 -17 -122 5
c-14 9.33301 -27 22 -39 38s-16.667 27.333 -14 34c2 5.33301 -1.66699 9.33301 -11 12c-6 2 -9.66699 4.5 -11 7.5s-1.33301 9.16699 0 18.5c2.66699 14 0 23 -8 27c-11.333 4 -23 11.167 -35 21.5s-20.667 20.5 -26 30.5c-16 32 -8.33301 63.333 23 94
c21.333 20.667 37 28.334 47 23.001c2.66699 -1.33301 4 -4.33301 4 -9z" />
    <glyph glyph-name="nine" unicode="9" 
d="M127 328c10 0 25.167 6.66699 45.5 20s33.166 25 38.499 35c3.33301 6 7 31.667 11 77c2 31.333 2.33301 50.5 1 57.5s-6.66602 14.167 -15.999 21.5c-12.667 10 -27.834 14.667 -45.501 14s-34.167 -6 -49.5 -16c-22.667 -15.333 -37.667 -42 -45 -80
s-3.66602 -69.333 11.001 -94c8.66699 -14.667 16 -24.167 22 -28.5s15 -6.5 27 -6.5zM258 32c-6.66699 0 -12.3359 6.66992 -17.0029 20.0029c-2.66699 6.66699 -5.66699 42 -9 106s-5.66602 128.333 -6.99902 193c0 2 -2.66699 1.16699 -8 -2.5l-23 -16.5
c-19.333 -16.667 -40 -26.334 -62 -29.001c-15.333 -2.66699 -26.166 -2.83398 -32.499 -0.500977s-15.833 10.166 -28.5 23.499c-33.333 33.333 -46.333 71.333 -39 114c5.33301 30 16.333 58 33 84s34.667 43.333 54 52c6.66699 3.33301 20.667 5 42 5
c38.667 0.666992 69.334 -16.833 92.001 -52.5s24.334 -69.167 5.00098 -100.5c-4.66699 -7.33301 -5.33398 -28.333 -2.00098 -63c4 -64.667 7 -129 9 -193c1.33301 -30.667 2 -55 2 -73s-0.333008 -32 -1 -42s-1.5 -16.667 -2.5 -20s-2.83301 -5 -5.5 -5z" />
    <glyph glyph-name="colon" unicode=":" horiz-adv-x="128" 
d="M72 46c-6 0 -11.334 4.83203 -16.001 14.499s-5.66699 17.834 -3 24.501c4 12 15.333 14.333 34 7c10 -4 12.833 -12.667 8.5 -26s-12.166 -20 -23.499 -20zM62.999 415.999c0 -6.66699 2.33398 -9.99805 7.00098 -9.99805c7.33301 0 7 -6 -1 -18
c-6 -8.66699 -12 -13.667 -18 -15c-8.66699 -0.666992 -15 4.66602 -19 15.999s-2.66699 20.666 4 27.999c3.33301 4 7.16602 6.83301 11.499 8.5s8 1.5 11 -0.5s4.5 -5 4.5 -9z" />
    <glyph glyph-name="semicolon" unicode=";" horiz-adv-x="118" 
d="M40 -98c-3.33301 0 -5.83398 1.16602 -7.50098 3.49902s-2.5 6.5 -2.5 12.5s0.833008 13.833 2.5 23.5s4.16699 22.5 7.5 38.5c6 28.667 9.66699 48 11 58c2 10.667 7 15.334 15 14.001s11.667 -15 11 -41c-0.666992 -22.667 -5.16699 -46.5 -13.5 -71.5
s-16.166 -37.5 -23.499 -37.5zM50.999 414.999c4.66699 5.33301 11.667 6.16797 21 2.50098s14.333 -9.16699 15 -16.5c1.33301 -8.66699 -1.5 -16.334 -8.5 -23.001s-14.167 -8.33398 -21.5 -5.00098c-5.33301 2 -8.83301 8.33301 -10.5 19s-0.166992 18.334 4.5 23.001z
" />
    <glyph glyph-name="equal" unicode="=" horiz-adv-x="454" 
d="M291 279c0 -4.66699 -10 -8.83301 -30 -12.5s-43.833 -6.66699 -71.5 -9s-45.5 -4.5 -53.5 -6.5c-28 -3.33301 -52.667 -5 -74 -5c-12 0.666992 -20 2 -24 4s-6.33301 6.33301 -7 13c-0.666992 7.33301 1.5 11.833 6.5 13.5s22.833 3.16699 53.5 4.5
c133.333 4.66699 200 4 200 -2zM36 406.001c0.666992 0 35.8301 3.33301 105.497 10s112.167 9.66699 127.5 9c30.667 0 63.334 -3.66699 98.001 -11s53.334 -14.666 56.001 -21.999c0.666992 -3.33301 0.166992 -5.33301 -1.5 -6s-5.5 -0.333984 -11.5 0.999023
c-21.333 5.33301 -52.166 8.5 -92.499 9.5s-78.5 -0.5 -114.5 -4.5c-106 -10.667 -162.333 -14.667 -169 -12c-2.66699 1.33301 -4 5 -4 11c0 8.66699 2 13.667 6 15z" />
    <glyph glyph-name="greater" unicode="&#x3e;" horiz-adv-x="343" 
d="M208 223c-4.66699 0 -19.167 -8.99902 -43.5 -26.999s-43.166 -33.667 -56.499 -47c-16 -16 -31 -27 -45 -33s-23.333 -5.33301 -28 2c-4 6 2.5 16.167 19.5 30.5s53.167 40.166 108.5 77.499c64.667 42.667 98 70 100 82c1.33301 4.66699 -1.66699 9 -9 13
c-18.667 10.667 -56.5 22.334 -113.5 35.001s-92.833 22.334 -107.5 29.001c-4.66699 5.33301 -4.83398 11.666 -0.500977 18.999s9.83301 9.66602 16.5 6.99902c25.333 -8.66699 63.333 -19.667 114 -33c94 -26 144 -46 150 -60c-0.666992 -15.333 -15.167 -34 -43.5 -56
s-48.833 -35 -61.5 -39z" />
    <glyph glyph-name="question" unicode="?" horiz-adv-x="257" 
d="M194 162c9.33301 6.66699 17.501 8.66797 24.501 6.00098s9.83301 -9 8.5 -19c-1.33301 -10.667 -8.33301 -16.334 -21 -17.001c-12.667 -1.33301 -20.334 1.5 -23.001 8.5s1 14.167 11 21.5zM212.001 223.001c-7.33301 0 -20.498 8.83105 -39.498 26.498
s-28.5 29.834 -28.5 36.501c0 9.33301 4.66699 25.666 14 48.999c12.667 31.333 17 61.5 13 90.5s-15.333 48.833 -34 59.5c-26.667 16 -51.334 15 -74.001 -3c-11.333 -9.33301 -20.666 -13.333 -27.999 -12c-9.33301 2 -7 11.333 7 28c10.667 12.667 21 20 31 22
c37.333 6.66699 68.166 -0.666016 92.499 -21.999s36.166 -51.666 35.499 -90.999c-0.666992 -44.667 -5.66699 -76 -15 -94c-12 -22.667 -7.33301 -41.667 14 -57c17.333 -12.667 24 -22.667 20 -30c-1.33301 -2 -4 -3 -8 -3z" />
    <glyph glyph-name="at" unicode="@" horiz-adv-x="452" 
d="M229 242c0 14.667 -4.00195 32.334 -12.002 53.001c-5.33301 13.333 -9.83301 21.5 -13.5 24.5s-7.33398 1.5 -11.001 -4.5s-7.5 -17 -11.5 -33c-17.333 -67.333 -17.666 -117.333 -0.999023 -150c12 -24.667 29.333 -26.334 52 -5.00098
c5.33301 5.33301 11 12.333 17 21c10.667 16 15.834 30.833 15.501 44.5s-6.16602 22.167 -17.499 25.5c-12 4 -18 12 -18 24zM306.998 180c-0.666992 6 -3.33105 8.16699 -7.99805 6.5s-6.66699 -5.5 -6 -11.5c0 -9.33301 -6.33301 -23.5 -19 -42.5
s-23.334 -30.5 -32.001 -34.5c-16 -7.33301 -28 -11.333 -36 -12s-18 1.66602 -30 6.99902c-14.667 6.66699 -24 16.334 -28 29.001s-5.66699 39 -5 79c0.666992 62.667 12.667 110 36 142c17.333 24 33 26.333 47 7c5.33301 -6.66699 9.66602 -15.667 12.999 -27
c5.33301 -15.333 8.66602 -22.666 9.99902 -21.999c0.666992 0.666992 1 1.66699 1 3c0.666992 7.33301 4.16699 13.5 10.5 18.5s12.166 5.83301 17.499 2.5c3.33301 -0.666992 8.33301 -16 15 -46c7.33301 -33.333 22 -60 44 -80l24 26c12 12.667 19 22.334 21 29.001
s2.33301 19.667 1 39c-2.66699 38.667 -18.834 80 -48.501 124s-55.834 66 -78.501 66c-39.333 0 -76.666 -18 -111.999 -54s-59.333 -80.333 -72 -133c-38 -152.667 -15 -250.334 69 -293.001c27.333 -14 70.166 -19 128.499 -15s90.166 14.333 95.499 31
c0.666992 2.66699 2.66699 4.16699 6 4.5s6.33301 -0.833984 9 -3.50098s4 -5.66699 4 -9c0 -4.66699 -10.667 -12.834 -32 -24.501s-38.666 -18.834 -51.999 -21.501c-16.667 -3.33301 -39.667 -5 -69 -5s-50.666 1.66699 -63.999 5c-14 2.66699 -31.333 10 -52 22
s-36 23 -46 33c-26 28.667 -39 84.334 -39 167.001c0.666992 55.333 7.33398 101.333 20.001 138c10 30 20.833 54 32.5 72s28.834 38 51.501 60c28.667 28.667 62.667 46.667 102 54c41.333 6.66699 72.666 -3.33301 93.999 -30c50.667 -62 80.334 -125 89.001 -189
c2.66699 -21.333 3.16699 -35 1.5 -41s-9.5 -18 -23.5 -36c-18 -23.333 -32.667 -38.666 -44 -45.999s-21.666 -8.33301 -30.999 -3c-10 5.33301 -15 10 -15 14z" />
    <glyph glyph-name="A" unicode="A" horiz-adv-x="386" 
d="M206 378c-5.33301 7.33301 -12 11.5 -20 12.5s-14.667 -1.83301 -20 -8.5c-9.33301 -12.667 -18.166 -31.334 -26.499 -56.001s-12.833 -48 -13.5 -70c59.333 6.66699 92.666 12.334 99.999 17.001c4 4 3.33301 20 -2 48s-11.333 47 -18 57zM356 75
c0 -4.66699 -4.49609 -7.16211 -13.4961 -7.49512s-19.5 1.16699 -31.5 4.5s-21.667 7.66602 -29 12.999c-12 9.33301 -21.167 22 -27.5 38s-11.5 40.333 -15.5 73l-5 42c-44.667 -8.66699 -81 -14.334 -109 -17.001c-7.33301 -88.667 -14 -135.334 -20 -140.001
c-15.333 -12 -25 -2.66699 -29 28c-0.666992 6 -1 12.667 -1 20c-0.666992 54 -11.334 131.333 -32.001 232c-10.667 53.333 -15 81 -13 83c8 7.33301 16 -0.333984 24 -23.001c7.33301 -22 16.666 -62.333 27.999 -121l9 -46c6 35.333 16.167 70.333 30.5 105
s29.166 53.667 44.499 57c19.333 6 37.333 -0.833008 54 -20.5s28 -47.834 34 -84.501c4 -18.667 9.66699 -30.667 17 -36c7.33301 -6 7.66602 -12.333 0.999023 -19c-8 -10 -8.33301 -36 -1 -78s17 -68.333 29 -79c9.33301 -8.66699 26.333 -14.334 51 -17.001
c3.33301 -1.33301 5 -3.66602 5 -6.99902z" />
    <glyph glyph-name="B" unicode="B" horiz-adv-x="330" 
d="M261 110c13.333 22.667 11.501 39.999 -5.49902 51.999s-37.833 14.667 -62.5 8c-2.66699 -3.33301 -24.334 -8.66602 -65.001 -15.999c-13.333 -2.66699 -18.333 -7.66699 -15 -15c0 -0.666992 4 -15 12 -43c5.33301 -23.333 11 -37.5 17 -42.5s17.333 -6.16699 34 -3.5
c36.667 6 65 26 85 60zM104.001 179.999c13.333 2.66699 30.502 21.8311 51.502 57.498s27.167 64.834 18.5 87.501c-9.33301 18.667 -25.5 23.334 -48.5 14.001s-36.833 -26.333 -41.5 -51c-2.66699 -14 -1.33398 -35.5 3.99902 -64.5s10.666 -43.5 15.999 -43.5z
M300.003 129.996c-1.33301 -31.333 -16.998 -57.834 -46.998 -79.501s-65.333 -30.167 -106 -25.5c-20.667 0.666992 -35 8.83398 -43 24.501s-21.667 62.834 -41 141.501c-26 103.333 -36.667 157.333 -32 162c3.33301 3.33301 10.166 4.33301 20.499 3
s15.5 -3.66602 15.5 -6.99902c0 -4.66699 9 -2.33398 27 6.99902c18.667 10 38.167 14.167 58.5 12.5s34.833 -8.83398 43.5 -21.501c18.667 -24 16 -61.667 -8 -113l-21 -45l22 6c18.667 5.33301 34 7 46 5s24.667 -8.66699 38 -20c11.333 -9.33301 18.666 -17 21.999 -23
s5 -15 5 -27z" />
    <glyph glyph-name="C" unicode="C" horiz-adv-x="297" 
d="M108 335c12.667 0 27.667 -4.00098 45 -12.001s27.333 -15.333 30 -22c2.66699 -8 -1.33301 -12.333 -12 -13c-10 0 -20.333 2.66699 -31 8c-10 5.33301 -17.667 8.16602 -23 8.49902s-12.333 -1.5 -21 -5.5c-17.333 -8.66699 -28 -20.334 -32 -35.001
s-2.66699 -37.334 4 -68.001c4.66699 -21.333 18 -40.5 40 -57.5s45.167 -27.167 69.5 -30.5s46.5 0.333984 66.5 11.001l9 5.5c2.66699 1.66699 4.83398 2.83398 6.50098 3.50098s2.5 0.666992 2.5 0s1.33301 -5 4 -13c3.33301 -7.33301 -4 -15.166 -22 -23.499
s-36.667 -12.166 -56 -11.499c-42 1.33301 -77.5 16.5 -106.5 45.5s-45.5 66.5 -49.5 112.5c-2 20 -2 33 0 39s10 16 24 30c19.333 18.667 36.666 28 51.999 28z" />
    <glyph glyph-name="D" unicode="D" horiz-adv-x="377" 
d="M58 405c1.33301 10 -3.00098 17.8291 -13.001 23.4961s-15 11.834 -15 18.501c0 10 2 15 6 15c11.333 0 42.333 -8.5 93 -25.5s88.334 -31.833 113.001 -44.5c44.667 -22 73.334 -39.833 86.001 -53.5s19 -34.167 19 -61.5c0 -20.667 -4.66699 -41 -14 -61
s-25.666 -45.667 -48.999 -77c-45.333 -59.333 -73.333 -90 -84 -92c-5.33301 -0.666992 -9.33301 2.66602 -12 9.99902c-2 5.33301 0.333008 12.833 7 22.5s26 33.834 58 72.501c17.333 21.333 32.666 45 45.999 71s20 45.667 20 59c0 18.667 -14.667 38.5 -44 59.5
s-69.666 40.167 -120.999 57.5c-30 10 -47.167 11.833 -51.5 5.5s0.833984 -25.166 15.501 -56.499c19.333 -41.333 21.333 -62 6 -62c-14 0 -10 -25.333 12 -76c5.33301 -11.333 9.66602 -22.666 12.999 -33.999s9.66602 -24 18.999 -38c9.33301 -13.333 14.5 -25 15.5 -35
s-2.16699 -16.333 -9.5 -19c-12.667 -4 -34.834 36.333 -66.501 121s-44.5 138.334 -38.5 161.001c3.33301 12.667 2.33301 19 -3 19s-8 6.66699 -8 20z" />
    <glyph glyph-name="E" unicode="E" horiz-adv-x="346" 
d="M202 269c-15.333 0 -31.502 2.16602 -48.502 6.49902s-30.833 9.5 -41.5 15.5s-14.667 11.333 -12 16s6.83398 6.83398 12.501 6.50098s16.834 -3.5 33.501 -9.5c18 -6 38.333 -9.5 61 -10.5s41 1.16699 55 6.5c13.333 4.66699 23.333 5 30 1c10 -6 4 -13 -18 -21
c-22 -7.33301 -46 -11 -72 -11zM286.998 165.999c0 6.66699 3 8.99707 9 6.99707c4 -2.66699 7 -6 9 -10c6 -18.667 -8.33301 -37 -43 -55s-70 -23.333 -106 -16c-16.667 2 -29.167 5.16699 -37.5 9.5s-18.833 12.833 -31.5 25.5c-12 12 -20.167 22.333 -24.5 31
s-9.16602 23 -14.499 43c-2.66699 11.333 -4.33398 39.166 -5.00098 83.499s-3.66699 71.5 -9 81.5c-7.33301 8.66699 -5.33301 17.834 6 27.501s26.333 15.167 45 16.5c6 0 36 3.5 90 10.5s84.333 10.167 91 9.5c4.66699 -2 14.334 -3.66699 29.001 -5
c14.667 -0.666992 22 -3 22 -7c-0.666992 -1.33301 -1.66699 -3 -3 -5c-4.66699 -7.33301 -25 -11.333 -61 -12c-28 -0.666992 -62.5 -4.66699 -103.5 -12s-64.167 -13.666 -69.5 -18.999c-3.33301 -3.33301 -5.66602 -30.666 -6.99902 -81.999
c0 -89.333 17.333 -143 52 -161c11.333 -6 31.666 -9.16699 60.999 -9.5s49 2.16699 59 7.5c9.33301 5.33301 18.666 12.333 27.999 21s14 15.334 14 20.001z" />
    <glyph glyph-name="F" unicode="F" horiz-adv-x="338" 
d="M275 427c0 -5.33301 -3.83301 -9 -11.5 -11s-26.5 -4 -56.5 -6c-52 -4 -87.667 -8 -107 -12c-18.667 -4 -29.5 -7.33301 -32.5 -10s-3.5 -9.33398 -1.5 -20.001c0.666992 -4 3.16699 -19.833 7.5 -47.5s7.5 -44.834 9.5 -51.501
c2.66699 -2.66699 21.5 -3.16699 56.5 -1.5s67.833 4.83398 98.5 9.50098c43.333 6 66.666 5.33301 69.999 -2c0.666992 -2.66699 -2.33301 -5.83398 -9 -9.50098s-16.334 -7 -29.001 -10s-26.667 -6 -42 -9s-31.666 -5.33301 -48.999 -7s-33.666 -2.5 -48.999 -2.5
c-24 0 -37.333 -1.33301 -40 -4c-5.33301 -5.33301 -2.66602 -27.166 8.00098 -65.499s19.667 -57.5 27 -57.5c6 0 9 -3.66699 9 -11c0 -6.66699 -4.33301 -10 -13 -10c-10 0 -19.667 8.5 -29 25.5s-16 38.833 -20 65.5l-6 32c-2.66699 14 -5.66699 30.667 -9 50
s-6 34.333 -8 45c-14 73.333 -20 113 -18 119c1.33301 4.66699 7.66602 6.66699 18.999 6h5c16 0 42 1.66699 78 5s55 6 57 8c6 0.666992 16.5 0.333984 31.5 -0.999023s25.167 -2 30.5 -2c15.333 -0.666992 23 -5.66699 23 -15z" />
    <glyph glyph-name="G" unicode="G" horiz-adv-x="365" 
d="M90 458c12.667 10 23.168 15.5029 31.501 16.5029s22.166 -1.83301 41.499 -8.5c8 -2.66699 15.5 -6.33398 22.5 -11.001s12 -9.5 15 -14.5s3.16699 -8.5 0.5 -10.5c-1.33301 -1.33301 -12.666 1.66699 -33.999 9c-14.667 4.66699 -24.667 6.83398 -30 6.50098
s-13.333 -3.16602 -24 -8.49902c-21.333 -11.333 -37.333 -34.5 -48 -69.5s-12 -68.833 -4 -101.5c12.667 -54 39.667 -91 81 -111c16 -7.33301 27.833 -11.5 35.5 -12.5s20.167 -0.166992 37.5 2.5c4 0.666992 8.83301 1.66699 14.5 3s9.66699 2.16602 12 2.49902
s5.5 1.16602 9.5 2.49902s6.16699 2.33301 6.5 3s1.83301 2.16699 4.5 4.5s3.66699 4.66602 3 6.99902s-0.166992 5.5 1.5 9.5s1.83398 8.5 0.500977 13.5s-1.33301 10.833 0 17.5c-1.33301 28.667 0.333984 44 5.00098 46c11.333 7.33301 7.66602 11.333 -11.001 12
c-8 0.666992 -19.667 0.666992 -35 0c-26.667 -1.33301 -42.167 -1.33301 -46.5 0s-5.83301 6 -4.5 14c0.666992 8 4.33398 13 11.001 15s25 4 55 6c46.667 4 72.667 6.33301 78 7c11.333 2 16.666 0 15.999 -6c0 -4.66699 -5 -9.66699 -15 -15
c-22.667 -11.333 -34.667 -39.333 -36 -84c-0.666992 -8 -0.666992 -14 0 -18s2 -6.5 4 -7.5s3.83301 -1.16699 5.5 -0.5s4.66699 2 9 4s7.83301 3.33301 10.5 4c2.66699 1.33301 3.66699 0.666016 3 -2.00098c-1.33301 -4 -6.33301 -11.333 -15 -22
c-10 -12 -19 -20.333 -27 -25s-20.667 -8.66699 -38 -12c-38 -8 -70.333 -6.5 -97 4.5s-51.334 32.833 -74.001 65.5c-13.333 19.333 -23.333 45.833 -30 79.5s-7.33398 62.167 -2.00098 85.5c8 40 27 73 57 99z" />
    <glyph glyph-name="H" unicode="H" horiz-adv-x="375" 
d="M235 490c8.66699 0 14.999 -4.16797 18.999 -12.501s7.33301 -23.5 10 -45.5c2 -16.667 4.33301 -27.5 7 -32.5s8 -8.5 16 -10.5c11.333 -3.33301 17 -9.33301 17 -18c0 -5.33301 -3.66699 -8 -11 -8c-6.66699 0 -10 -2 -10 -6c0 -8 4.5 -29.333 13.5 -64
s18.5 -66 28.5 -94c15.333 -46.667 21.333 -71.334 18 -74.001l-5 -1c-5.33301 0 -15 16.667 -29 50s-26.667 70.333 -38 111c-14 48 -24.333 73 -31 75c-8.66699 0 -20.5 -1.66699 -35.5 -5s-31.167 -7.5 -48.5 -12.5l-33 -9.5c-17.333 -4 -26.833 -8.5 -28.5 -13.5
s0.166016 -22.167 5.49902 -51.5c4 -22.667 4.83301 -52.334 2.5 -89.001s-6.16602 -55 -11.499 -55s-6.33301 10 -3 30c3.33301 20.667 0 54.834 -10 102.501s-19.667 74.167 -29 79.5c-7.33301 4 -11.5 9.33301 -12.5 16s1.5 11 7.5 13
c4.66699 1.33301 3.33398 15.333 -3.99902 42c-7.33301 24.667 -10.833 40 -10.5 46s4.5 9 12.5 9c12.667 0 23.667 -22.667 33 -68c4 -16 7.33301 -25 10 -27c7.33301 -2 34.333 1 81 9c34.667 5.33301 55.667 9.33301 63 12s10 7.33398 8 14.001l-1 6
c-1.33301 4.66699 -2.33301 9.5 -3 14.5s-1.5 10.833 -2.5 17.5s-1.83301 12.834 -2.5 18.501s-1 11 -1 16s0.666992 9 2 12s3.33301 4.16699 6 3.5z" />
    <glyph glyph-name="I" unicode="I" horiz-adv-x="148" 
d="M61 430c0 -2.66699 6.00195 -24.333 18.002 -65c8 -29.333 16.5 -73 25.5 -131s13.5 -99 13.5 -123c0 -14.667 -3.66699 -22 -11 -22c-6.66699 0 -10.834 3.5 -12.501 10.5s-5.5 34.5 -11.5 82.5c-1.33301 9.33301 -2.33301 16.666 -3 21.999
c-6.66699 60 -17.667 111 -33 153c-14.667 36.667 -19.334 58.667 -14.001 66c6.66699 8.66699 14.667 12.334 24 11.001c2.66699 -0.666992 4 -2 4 -4z" />
    <glyph glyph-name="J" unicode="J" horiz-adv-x="370" 
d="M181 427c0 -4.66699 4.33301 -12.0039 13 -22.0039c8.66699 -11.333 19 -29.666 31 -54.999s19.667 -44.666 23 -57.999c10 -45.333 6.83301 -84 -9.5 -116s-42.5 -50.667 -78.5 -56c-18 -2.66699 -34.667 -2.5 -50 0.5s-26.5 8.5 -33.5 16.5s-7.83301 16.667 -2.5 26
c2.66699 4.66699 5.16699 6.83398 7.5 6.50098s6.16602 -3.83301 11.499 -10.5c8.66699 -10 22.334 -13.333 41.001 -10c32 4.66699 53.667 12.667 65 24s18.333 32.666 21 63.999c4.66699 42.667 -11.333 91 -48 145l-30 45h-51c-21.333 0 -35.666 0.833008 -42.999 2.5
s-12.333 5.16699 -15 10.5c-8 14.667 -0.333008 22.667 23 24c8.66699 0.666992 20 0.333984 34 -0.999023c19.333 -2.66699 61.5 -0.666992 126.5 6s103.167 7.66699 114.5 3c10.667 -4 12 -9.33301 4 -16c-6.66699 -4 -15.334 -6.33301 -26.001 -7
c-20.667 -0.666992 -47.167 -3.66699 -79.5 -9s-48.5 -9.66602 -48.5 -12.999z" />
    <glyph glyph-name="K" unicode="K" horiz-adv-x="461" 
d="M62 506c-2 -14.667 11.335 -91.667 40.002 -231c0.666992 1.33301 4.5 7 11.5 17l16 23c3.66699 5.33301 7.5 12 11.5 20s6 14.333 6 19c0 10.667 4 16 12 16c3.33301 0 9 4 17 12s15.667 17.667 23 29c16 22.667 31.5 41.5 46.5 56.5s25.833 22.5 32.5 22.5
c8 0 13 -4.16699 15 -12.5s0.666992 -17.5 -4 -27.5s-11 -16.667 -19 -20c-6 -2.66699 -13.333 -8.16699 -22 -16.5s-19 -19.833 -31 -34.5s-19 -23 -21 -25c15.333 -13.333 29 -23.833 41 -31.5s27.5 -16.834 46.5 -27.501s37.833 -22 56.5 -34
c46 -27.333 73.667 -44 83 -50c8 -4.66699 10 -9.66699 6 -15c-2.66699 -4.66699 -12.334 -3.16699 -29.001 4.5s-49.334 25.5 -98.001 53.5c-9.33301 5.33301 -25.333 13.5 -48 24.5s-38.667 20.5 -48 28.5c-4 7.33301 -11.5 9.5 -22.5 6.5s-19.167 -9.16699 -24.5 -18.5
c-6.66699 -12 -16.334 -25.667 -29.001 -41c-23.333 -27.333 -23.666 -57.666 -0.999023 -90.999c18 -26 20.667 -39 8 -39c-10.667 2.66699 -20.167 10.167 -28.5 22.5s-17 29.333 -26 51s-15.167 35.834 -18.5 42.501c-7.33301 16 -11.333 26.333 -12 31
s1.66602 9 6.99902 13s8 9.66699 8 17s-2.66699 27.333 -8 60c-5.33301 33.333 -15 86.666 -29 159.999c-1.33301 9.33301 0.333984 17 5.00098 23c12 15.333 20.333 12 25 -10z" />
    <glyph glyph-name="L" unicode="L" horiz-adv-x="299" 
d="M30 299c0 94.667 3.33105 141.999 9.99805 141.999c4.66699 0 10 -3 16 -9c4 -6.66699 6 -53.334 6 -140.001c0 -63.333 0.666992 -102.166 2 -116.499s5.33301 -26.166 12 -35.499c21.333 -28.667 64.333 -35 129 -19c30 7.33301 46 13.333 48 18
c2 3.33301 4.33301 5.33301 7 6s4.83398 0.166992 6.50098 -1.5s2.5 -4.16699 2.5 -7.5c0 -11.333 -19 -27 -57 -47c-12.667 -6 -33.5 -7.83301 -62.5 -5.5s-51.833 7.5 -68.5 15.5c-23.333 12 -37.666 28.5 -42.999 49.5s-8 71.167 -8 150.5z" />
    <glyph glyph-name="M" unicode="M" horiz-adv-x="670" 
d="M251 251c18 0 35.0029 9.99609 51.0029 29.9961s29.667 48 41 84c10 33.333 18.833 54.833 26.5 64.5s15.334 8.5 23.001 -3.5s16.5 -36.333 26.5 -73c9.33301 -37.333 18.666 -65 27.999 -83c18 -34.667 63 -54.667 135 -60c38.667 -2.66699 58 -6.66699 58 -12
c-1.33301 -3.33301 -5.33301 -7 -12 -11c-10 -5.33301 -32.833 -6.83301 -68.5 -4.5s-62.167 7.16602 -79.5 14.499c-42 18 -69.667 56 -83 114c-7.33301 30.667 -14 46 -20 46c-3.33301 0.666992 -7.33301 -5.66602 -12 -18.999
c-3.33301 -11.333 -7.5 -20.666 -12.5 -27.999s-9.5 -15.666 -13.5 -24.999c-7.33301 -17.333 -21 -33.333 -41 -48s-37.667 -22 -53 -22c-16.667 0 -32.167 8.33301 -46.5 25s-33.5 48.667 -57.5 96c-21.333 41.333 -36.666 69 -45.999 83s-20 26 -32 36
c-6.66699 5.33301 -10.334 5.33301 -11.001 0c-0.666992 -4 0.333008 -19.333 3 -46c0 -9.33301 2.5 -31.5 7.5 -66.5s9.5 -68.667 13.5 -101s7 -64 9 -95s0 -46.833 -6 -47.5c-8.66699 -5.33301 -14.667 0.333984 -18 17.001c-2 12.667 -4 36.334 -6 71.001
c-0.666992 52.667 -8 113.667 -22 183c-2 10 -3 32.667 -3 68s1.33301 54.666 4 57.999c6 10.667 19.333 8.33398 40 -6.99902c21.333 -15.333 54.666 -65.333 99.999 -150c21.333 -39.333 36.166 -63.833 44.499 -73.5s19.166 -14.5 32.499 -14.5z" />
    <glyph glyph-name="N" unicode="N" horiz-adv-x="447" 
d="M319 550c0 10.667 2.6709 12.665 8.00391 5.99805c4 -6 7 -15 9 -27c4.66699 -34 22 -94 52 -180c13.333 -38 22.333 -83.5 27 -136.5s2.66699 -91.833 -6 -116.5c-5.33301 -16.667 -10.666 -26.167 -15.999 -28.5s-23.333 -2.5 -54 -0.5
c-8.66699 0.666992 -25.334 11.5 -50.001 32.5s-44.667 41.5 -60 61.5c-6.66699 8 -23.5 33.167 -50.5 75.5s-52.333 80.333 -76 114s-38.834 49.834 -45.501 48.501c-6 0 -7 -58.667 -3 -176c2.66699 -77.333 3.66699 -126.166 3 -146.499s-3.33398 -30.5 -8.00098 -30.5
c-7.33301 0 -12.333 2.66699 -15 8c-2.66699 4 -4 62.833 -4 176.5s1.66699 176.167 5 187.5c2.66699 10.667 7.33398 17 14.001 19c7.33301 2.66699 22.166 -7.5 44.499 -30.5s43.166 -50.167 62.499 -81.5c59.333 -95.333 100.666 -155 123.999 -179
c11.333 -12.667 25.833 -24.167 43.5 -34.5s31.167 -15.5 40.5 -15.5c12.667 0 20 17.333 22 52s-1.5 81 -10.5 139s-22.167 120 -39.5 186c-11.333 44 -17 69.667 -17 77z" />
    <glyph glyph-name="O" unicode="O" horiz-adv-x="399" 
d="M92 419c0 -8.66699 -2.66797 -14.332 -8.00098 -16.999c-4 -2 -5.33301 -37.333 -4 -106c1.33301 -56 0 -84.333 -4 -85c-3.33301 0 -7.66602 22.667 -12.999 68l-6 53l3 -69c2 -46 6.16699 -80.167 12.5 -102.5s17.166 -41.5 32.499 -57.5
c30 -31.333 65.667 -43.833 107 -37.5s74.666 29.5 99.999 69.5l22 35v109c0 47.333 -0.666992 78.666 -2 93.999s-4.66602 28 -9.99902 38c-8.66699 16 -22.167 33.667 -40.5 53s-36.166 35.333 -53.499 48c-17.333 12 -29.666 18.5 -36.999 19.5
s-19.333 -2.83301 -36 -11.5c-16.667 -7.33301 -31.334 -24.333 -44.001 -51c-12.667 -24 -19 -40.667 -19 -50zM146.999 537.002c15.333 9.33301 28.3369 14.334 39.0039 15.001s25 -3.33301 43 -12c23.333 -11.333 46.166 -30 68.499 -56s40.833 -55.667 55.5 -89
c7.33301 -18 11.666 -32 12.999 -42s2.33301 -32.333 3 -67c0.666992 -76.667 -11.666 -133.667 -36.999 -171c-12.667 -16.667 -27.334 -31.834 -44.001 -45.501s-31 -21.167 -43 -22.5c-2 -2 -9.33301 -4.16699 -22 -6.5s-22.334 -3.5 -29.001 -3.5
c-24.667 -0.666992 -43 0.833008 -55 4.5s-25.333 11.5 -40 23.5c-24.667 20.667 -40.834 42.834 -48.501 66.501s-14.167 68.5 -19.5 134.5c-4 57.333 1 107 15 149c8.66699 24.667 16.667 30.667 24 18c4 -6 7.66699 -3.33301 11 8c0.666992 1.33301 1 2.66602 1 3.99902
c4 16.667 12.5 34.167 25.5 52.5s26.167 31.5 39.5 39.5z" />
    <glyph glyph-name="P" unicode="P" horiz-adv-x="297" 
d="M35 464c7.33301 6 13.334 -0.000976562 18.001 -18.001c3.33301 -11.333 6.66602 -33 9.99902 -65c4 -28.667 7 -45.667 9 -51c6.66699 -25.333 14 -56.333 22 -93c20 -88 41 -143.333 63 -166c4.66699 -5.33301 7.5 -10.5 8.5 -15.5s-0.166992 -8.66699 -3.5 -11
s-8 -2.5 -14 -0.5c-27.333 10.667 -58.333 89 -93 235c-26 110.667 -32.667 172.334 -20 185.001zM199.001 344.999l19.001 34.9971c12 22.667 17.333 37.667 16 45c-0.666992 9.33301 -4.66699 20.166 -12 32.499s-13.666 18.5 -18.999 18.5
c-2.66699 0 -7.66699 3.66699 -15 11c-7.33301 6.66699 -18.333 9.83398 -33 9.50098s-28.334 -4.16602 -41.001 -11.499s-22.167 -9 -28.5 -5s-6.16602 12 0.500977 24c2.66699 4.66699 5 7.83398 7 9.50098s3.66699 2.5 5 2.5s4 0.333008 8 1s8.33301 2.33398 13 5.00098
c17.333 9.33301 37.166 10 59.499 2s42.833 -22.667 61.5 -44c21.333 -24.667 30 -47.834 26 -69.501s-24.333 -60.167 -61 -115.5c-22 -32 -35.333 -53.333 -40 -64s-5.33398 -19 -2.00098 -25c6 -8.66699 6.33301 -15.667 1 -21c-6 -6 -10 -5.66699 -12 1
c-2.66699 5.33301 -8 8 -16 8c-22 0 -23 18.667 -3 56c10 18.667 24 39.334 42 62.001c16 20 24 31 24 33z" />
    <glyph glyph-name="Q" unicode="Q" horiz-adv-x="564" 
d="M226 473c12 8.66699 30.6689 12.001 56.002 10.001s49.666 -9 72.999 -21c40 -21.333 71.167 -49.666 93.5 -84.999s33.166 -73.666 32.499 -114.999c-0.666992 -31.333 -4 -46 -10 -44c-4.66699 2 -8 15 -10 39c-4.66699 57.333 -26.334 105.666 -65.001 144.999
s-81.667 56.666 -129 51.999c-34.667 -3.33301 -51 -0.333008 -49 9c0.666992 3.33301 3.33398 6.66602 8.00098 9.99902zM77.002 370.001c-4 0 -8.83398 -11.832 -14.501 -35.499s-8.16699 -42.834 -7.5 -57.501c0.666992 -8 2.33398 -7 5.00098 3l5 25
c8 36.667 12.667 56 14 58c2 4.66699 1.33301 7 -2 7zM224.001 494.002c0 -2 -9 -7.6709 -27 -17.0039c-24.667 -12.667 -46.167 -30.5 -64.5 -53.5s-29.166 -45.167 -32.499 -66.5c-0.666992 -6 -3.66699 -22.833 -9 -50.5s-8.33301 -47.5 -9 -59.5
c-0.666992 -16 3.16602 -37.5 11.499 -64.5s16.166 -43.167 23.499 -48.5c6.66699 -4.66699 8.33398 -10 5.00098 -16c-4.66699 -7.33301 -14.334 -1.33301 -29.001 18c-11.333 14.667 -18 28.334 -20 41.001c-4 16.667 -7.66699 26 -11 28
c-4 2.66699 -4.33301 -1.66602 -1 -12.999c6.66699 -29.333 17.667 -55 33 -77c18 -25.333 41.333 -45.333 70 -60s59.334 -22.334 92.001 -23.001c23.333 0 47.333 3.5 72 10.5s43.667 15.5 57 25.5c8.66699 6 13.167 10.667 13.5 14s-2.16699 12.333 -7.5 27
c-6.66699 16 -10.5 31.5 -11.5 46.5s0.833008 24.167 5.5 27.5c5.33301 4 10.333 1 15 -9s9 -22.833 13 -38.5s7 -25.167 9 -28.5c3.33301 -6 7 -8 11 -6s13 10 27 24c38.667 38 58.667 79.333 60 124c0 15.333 0.666992 23.333 2 24s2.66602 -1 3.99902 -5
c9.33301 -22.667 9.5 -49.667 0.5 -81s-25.167 -59.333 -48.5 -84l-34 -36c24 -32 41.333 -52 52 -60c9.33301 -7.33301 13.833 -14.333 13.5 -21s-5.83301 -10 -16.5 -10c-11.333 2 -37.333 26 -78 72c-6 -2.66699 -17.333 -8.16699 -34 -16.5
s-29.334 -14.166 -38.001 -17.499s-20.667 -6.66602 -36 -9.99902s-30.333 -4.33301 -45 -3c-25.333 0 -43.833 1.33301 -55.5 4s-27.834 9 -48.501 19c-25.333 12.667 -46.166 27.5 -62.499 44.5s-31.833 40.167 -46.5 69.5c-8.66699 17.333 -14 32.333 -16 45
s-3 36.334 -3 71.001c0 50 4.16699 88.833 12.5 116.5s22.5 50.167 42.5 67.5c12.667 11.333 25.667 19.166 39 23.499s25.333 10.5 36 18.5c6.66699 4.66699 15.334 8.83398 26.001 12.501s19.334 5.5 26.001 5.5s10.667 -1.33301 12 -4z" />
    <glyph glyph-name="R" unicode="R" horiz-adv-x="508" 
d="M260 399c0 -8 -10.667 -32.666 -32 -73.999c-34.667 -68.667 -47 -109 -37 -121c11.333 -13.333 45.666 -27 102.999 -41c32.667 -7.33301 65.667 -22 99 -44c28.667 -20.667 50.334 -32.334 65.001 -35.001c13.333 -2.66699 20 -7.33398 20 -14.001
c0 -12 -15.333 -13.333 -46 -4c-19.333 6 -38.333 15.333 -57 28c-28 18 -50 29 -66 33c-28 5.33301 -55.5 12.666 -82.5 21.999s-45.167 17.666 -54.5 24.999c-14.667 12 -20.5 27.333 -17.5 46s16.167 51 39.5 97c34.667 70.667 49.667 115 45 133
c-0.666992 3.33301 -2.33398 5 -5.00098 5c-56 -15.333 -92.833 -43.166 -110.5 -83.499s-18.167 -100.166 -1.5 -179.499c14 -65.333 19 -101 15 -107c-2 -2 -6.33301 -2.66699 -13 -2c-7.33301 0.666992 -12.666 6.16699 -15.999 16.5s-9.66602 38.5 -18.999 84.5
c-18.667 90.667 -32.667 154.667 -42 192c-14.667 62 -19.334 95.667 -14.001 101c7.33301 7.33301 13.333 6 18 -4c5.33301 -12 14 -41.333 26 -88l8 -31c18.667 50.667 54.667 89.334 108 116.001c44 21.333 70 25.333 78 12c3.33301 -5.33301 4.33301 -16.5 3 -33.5
s-4 -27.5 -8 -31.5s-6 -10 -6 -18z" />
    <glyph glyph-name="S" unicode="S" horiz-adv-x="460" 
d="M231 54c-22 -1.33301 -48.834 6.67285 -80.501 24.0059s-46.167 33.333 -43.5 48c0 8 2.33301 12 7 12c5.33301 0 10.333 -5.66699 15 -17c5.33301 -12 18.333 -22.167 39 -30.5s43.334 -12.5 68.001 -12.5c18 0 30.333 1.16699 37 3.5s14 8.16602 22 17.499
c7.33301 9.33301 11.833 17 13.5 23s1.5 15.667 -0.5 29c-4.66699 33.333 -19.167 61.666 -43.5 84.999s-63.166 46.666 -116.499 69.999c-30.667 13.333 -58 28.666 -82 45.999s-36 30.666 -36 39.999c0 13.333 35.333 28.333 106 45c82.667 18.667 147 30 193 34
c19.333 2 37.666 1.33301 54.999 -2s29.333 -8.33301 36 -15c13.333 -10 13.333 -16 0 -18c-10.667 -1.33301 -20 0 -28 4c-6.66699 3.33301 -15 5.66602 -25 6.99902s-21.833 1.5 -35.5 0.5s-25.5 -2 -35.5 -3s-23.833 -3.16699 -41.5 -6.5l-36.5 -7
c-6.66699 -1.33301 -18.667 -4 -36 -8l-27 -6c-42.667 -10.667 -71.334 -19.667 -86.001 -27c24 -22.667 62.667 -47 116 -73c40.667 -20 71.834 -39.833 93.501 -59.5s37.5 -42.5 47.5 -68.5c34 -90 2.33301 -135 -95 -135z" />
    <glyph glyph-name="T" unicode="T" horiz-adv-x="538" 
d="M390 115c0 -8.66699 -4.00098 -12.334 -12.001 -11.001c-6 1.33301 -12.667 12 -20 32s-22 68.667 -44 146c-2.66699 10.667 -11 39.334 -25 86.001s-22.667 80 -26 100c0 8 -1.83301 12.667 -5.5 14s-14.167 1 -31.5 -1c-11.333 -0.666992 -41.333 -5 -90 -13
s-78.334 -12.333 -89.001 -13c-8.66699 0 -14.167 3.16699 -16.5 9.5s-0.166016 11.5 6.50098 15.5c4 2.66699 35.333 8.5 94 17.5s104.334 14.833 137.001 17.5c23.333 2 37.666 4.33301 42.999 7c3.33301 3.33301 33.333 4.33301 90 3s88.334 -3.66602 95.001 -6.99902
c18 -9.33301 15.333 -15.333 -8 -18c-13.333 -1.33301 -34.333 -2 -63 -2c-90 -0.666992 -136 -6.33398 -138 -17.001c0 -1.33301 0.333008 -2.66602 1 -3.99902c8 -19.333 27 -82.333 57 -189s45 -164.334 45 -173.001z" />
    <glyph glyph-name="U" unicode="U" horiz-adv-x="407" 
d="M271 519c0 12.667 7.66699 10.665 23 -6.00195c8 -8.66699 16 -19.334 24 -32.001c39.333 -59.333 59 -122.333 59 -189c0 -62 -16.667 -115.333 -50 -160c-32 -42.667 -65.333 -64 -100 -64c-21.333 0 -39.833 5.5 -55.5 16.5s-36.167 32.5 -61.5 64.5
c-11.333 15.333 -24.333 51.166 -39 107.499s-26.334 115.5 -35.001 177.5c-8 54 -7.33301 81 2 81c2 0 4.33301 -1 7 -3c4 0 7.66699 -11.667 11 -35s6.33301 -47.666 9 -72.999s4.66699 -39.333 6 -42c14 -77.333 33.667 -141.333 59 -192
c9.33301 -15.333 12.333 -24.666 9 -27.999c-1.33301 -1.33301 -2 -2.33301 -2 -3l5 1c2 1.33301 4.16699 2 6.5 2s3.83301 -0.666992 4.5 -2c0.666992 -3.33301 9 -11.666 25 -24.999c30.667 -25.333 62 -26.666 94 -3.99902c10.667 7.33301 22.834 21.666 36.501 42.999
s21.5 38 23.5 50c0.666992 6.66699 4.66699 18 12 34c12.667 25.333 11.167 71.333 -4.5 138s-35.167 109.667 -58.5 129c-6.66699 4.66699 -10 9.33398 -10 14.001z" />
    <glyph glyph-name="V" unicode="V" horiz-adv-x="397" 
d="M321 575c10 19.333 21.3311 29 33.998 29c12 -0.666992 15.667 -10 11 -28c-2 -7.33301 -3.66699 -11.166 -5 -11.499s-4 2.16699 -8 7.5s-6.83301 7.33301 -8.5 6s-4.5 -7.33301 -8.5 -18c-11.333 -30.667 -25.666 -103.334 -42.999 -218.001
c-10 -64 -21.667 -118.5 -35 -163.5s-25.666 -70.833 -36.999 -77.5c-8 -5.33301 -15 -6.33301 -21 -3c-6.66699 2.66699 -21 24.834 -43 66.501s-39 79.834 -51 114.501c-50 137.333 -75.333 212.666 -76 225.999c1.33301 6.66699 5.33301 10.667 12 12h2
c6 0.666992 10.333 -1.16602 13 -5.49902s6 -15.5 10 -33.5c16.667 -72.667 39.334 -140 68.001 -202c38.667 -86 60.667 -130.667 66 -134c2.66699 -2 6.66699 1.66699 12 11s11 22.5 17 39.5s11.333 35.167 16 54.5c2.66699 11.333 9.16699 42.666 19.5 93.999
s20.666 100.166 30.999 146.499s18.5 75.5 24.5 87.5z" />
    <glyph glyph-name="W" unicode="W" horiz-adv-x="712" 
d="M30 513c0 8.66699 3.00293 12.6602 9.00293 11.9932c8 -0.666992 13.333 -7 16 -19c2.66699 -15.333 9.33398 -38.166 20.001 -68.499s21 -58 31 -83l36.5 -90c14.333 -35 23.166 -56.833 26.499 -65.5c8.66699 -26 27.334 -70.667 56.001 -134
c2 4.66699 3.83301 9.33398 5.5 14.001l4.5 13c1.33301 4 2.5 8.83301 3.5 14.5s2 10 3 13s2 8.33301 3 16s1.66699 13 2 16s1 9.5 2 19.5s1.66699 17.167 2 21.5l2 26c1 13 1.83301 22.5 2.5 28.5c3.33301 48 6.5 86.5 9.5 115.5s7 52.333 12 70s10.667 29.5 17 35.5
s14.166 8.33301 23.499 7c12.667 -1.33301 23.667 -9.5 33 -24.5s22 -45.167 38 -90.5c19.333 -55.333 33.166 -91.5 41.499 -108.5s19.166 -32.167 32.499 -45.5c12.667 -13.333 25.834 -22.666 39.501 -27.999s25.167 -5.33301 34.5 0c24 14.667 32.667 93.334 26 236.001
c-1.33301 28 0.666992 45.167 6 51.5s21 11.166 47 14.499c29.333 3.33301 49 4.66602 59 3.99902c8 -0.666992 9.66699 -3 5 -7l-11 -7c-16 -11.333 -41 -18.666 -75 -21.999l5 -97c2.66699 -63.333 2.16699 -106.666 -1.5 -129.999s-13.167 -42.666 -28.5 -57.999
c-33.333 -33.333 -70.833 -33.166 -112.5 0.500977s-73.834 90.834 -96.501 171.501c-8.66699 30.667 -17.834 57.167 -27.501 79.5s-16.5 33.5 -20.5 33.5c-14.667 0 -25 -77 -31 -231c-4 -108.667 -17.333 -173.334 -40 -194.001c-6.66699 -6.66699 -11.167 -10 -13.5 -10
s-6.83301 3.33301 -13.5 10c-12 19.333 -28 56.333 -48 111s-34.333 91.334 -43 110.001c-18.667 44 -38.667 97.333 -60 160s-32 99 -32 109z" />
    <glyph glyph-name="X" unicode="X" horiz-adv-x="424" 
d="M394 522c0 -6 -10.998 -22.999 -32.998 -50.999c-28.667 -35.333 -56 -73.166 -82 -113.499s-37.333 -62.5 -34 -66.5c6.66699 -7.33301 20 -24 40 -50s37.833 -47.833 53.5 -65.5s27.167 -27.834 34.5 -30.501c7.33301 -4 8.33301 -8.66699 3 -14
c-8 -8.66699 -24.833 -2.66699 -50.5 18s-52.834 50.334 -81.501 89.001c-13.333 18 -22 25.667 -26 23s-15.5 -24 -34.5 -64s-32.167 -70.333 -39.5 -91c-21.333 -63.333 -32.333 -113 -33 -149c-0.666992 -15.333 -2 -25.333 -4 -30s-5.66699 -7 -11 -7
c-6 0 -9.5 2.33301 -10.5 7s-0.5 17 1.5 37c3.33301 29.333 10.5 64.166 21.5 104.499s21.833 71.833 32.5 94.5c1.33301 2.66699 8.5 19.167 21.5 49.5s22.167 50.5 27.5 60.5c6.66699 11.333 10.167 18.833 10.5 22.5s-1.83398 7.5 -6.50098 11.5
c-6 4.66699 -19.833 23.167 -41.5 55.5s-33.834 50.166 -36.501 53.499c-42.667 59.333 -68.667 94 -78 104c-8 9.33301 -10.333 17 -7 23c6.66699 19.333 26.667 7 60 -37l17 -23c60 -84.667 97.333 -136.667 112 -156c64.667 94.667 100.334 145.667 107.001 153
c13.333 14 23.333 26.333 30 37c8 12 17.333 17 28 15c6 -0.666992 9 -4 9 -10z" />
    <glyph glyph-name="Y" unicode="Y" horiz-adv-x="498" 
d="M262 286c11.333 0 25.499 4.49902 42.499 13.499s30.5 19.167 40.5 30.5c13.333 16 18.166 34.167 14.499 54.5s-15.167 40.166 -34.5 59.499c-7.33301 8.66699 -7.66602 13.334 -0.999023 14.001s13 -2.66602 19 -9.99902c12.667 -12 19.334 -14.667 20.001 -8
c0 2 -1.66699 15.333 -5 40c-4 28 -3.33301 43.667 2 47c12.667 8.66699 21.334 5.33398 26.001 -9.99902c4 -11.333 8 -33.333 12 -66c13.333 -124.667 33.333 -227 60 -307c11.333 -36 13.333 -54 6 -54c-2 -0.666992 -5.33301 1 -10 5
c-9.33301 8 -21.833 39.833 -37.5 95.5s-26.5 101.5 -32.5 137.5l-31 -30c-40.667 -40.667 -81.334 -52.667 -122.001 -36c-32 13.333 -66 48 -102 104c-19.333 29.333 -41.333 57 -66 83c-17.333 18.667 -27.5 30.667 -30.5 36s-2.16699 10.666 2.5 15.999
c4.66699 4.66699 9 6.33398 13 5.00098s11.667 -7 23 -17c16 -14.667 37.667 -41.334 65 -80.001c57.333 -82 99.333 -123 126 -123z" />
    <glyph glyph-name="Z" unicode="Z" horiz-adv-x="419" 
d="M135 166c12 0 45.667 5.66699 101 17c103.333 21.333 154.333 29 153 23c-4.66699 -4.66699 -44.667 -17.167 -120 -37.5s-119.666 -30.5 -132.999 -30.5c-27.333 0 -51.833 6.83301 -73.5 20.5s-32.5 29.167 -32.5 46.5c0 22 15.833 52.833 47.5 92.5
s68.5 74.5 110.5 104.5c21.333 15.333 42.666 33.666 63.999 54.999s32 35.333 32 42c0 4 -9 4.66699 -27 2c-76 -10 -129.833 -14.667 -161.5 -14s-47.5 6.66699 -47.5 18c0 4 4.33301 6.5 13 7.5s26.667 1.16699 54 0.5c46 -1.33301 77.667 0.333984 95 5.00098
c18 4 40.667 5.33301 68 4s43.333 -4.33301 48 -9c4.66699 -3.33301 5.16699 -7.33301 1.5 -12s-8 -9.83398 -13 -15.501s-6.83301 -9.16699 -5.5 -10.5c2 -2 -9 -14.167 -33 -36.5s-47.667 -42.166 -71 -59.499c-44.667 -34 -80 -68.5 -106 -103.5
s-35.667 -61.167 -29 -78.5c2.66699 -7.33301 11 -14.333 25 -21s27.333 -10 40 -10z" />
    <glyph glyph-name="grave" unicode="`" horiz-adv-x="170" 
d="M134 462c-16.667 0 -39.666 20.333 -68.999 61c-26 34 -37.667 55 -35 63c8 19.333 27.333 6 58 -40c22 -33.333 36 -52.333 42 -57c9.33301 -7.33301 12.666 -15 9.99902 -23c-2 -2 -4 -3.33301 -6 -4z" />
    <glyph glyph-name="a" unicode="a" horiz-adv-x="421" 
d="M319 178c0 24.667 -2.66602 36 -7.99902 34c-4.66699 -3.33301 -13.334 -2.66602 -26.001 2.00098c-24.667 10 -51.667 13.5 -81 10.5s-54 -11.167 -74 -24.5s-33.5 -31.166 -40.5 -53.499s-0.5 -47.833 19.5 -76.5c16.667 -24.667 36 -40.834 58 -48.501
s50.333 -8.83398 85 -3.50098c28.667 4 55 10.333 79 19c14 6 21.833 10 23.5 12s0.166992 6 -4.5 12c-8 9.33301 -15.167 25.833 -21.5 49.5s-9.5 46.167 -9.5 67.5zM83.001 343c-7.33301 -8.66699 -15.166 -15.166 -23.499 -19.499s-14.833 -9.16602 -19.5 -14.499
c-2.66699 -4 -4.66699 -6.5 -6 -7.5s-2.16602 -0.666992 -2.49902 1s-0.833008 5.16699 -1.5 10.5c0 16 15.333 36 46 60s61 39.667 91 47c57.333 13.333 103.333 -3.33398 138 -50.001c25.333 -35.333 40.666 -95 45.999 -179c0.666992 -14 1.66699 -26.5 3 -37.5
s2.33301 -19.667 3 -26s2.66699 -13.5 6 -21.5s5.66602 -13.167 6.99902 -15.5l10 -18c5.33301 -9.66699 9 -16.167 11 -19.5c-17.333 -14.667 -42.833 -28.834 -76.5 -42.501s-62.5 -22.167 -86.5 -25.5c-72 -6 -124.667 28.333 -158 103c-13.333 30 -14 58 -2 84
s35.333 47.333 70 64c28 12.667 61 18.5 99 17.5s62.667 -8.5 74 -22.5c5.33301 -6 8 -3.33301 8 8c-0.666992 26.667 -7.66699 55.667 -21 87c-1.33301 1.33301 -2.33301 3 -3 5c-24 49.333 -58 71 -102 65c-44 -5.33301 -80.667 -23 -110 -53z" />
    <glyph glyph-name="b" unicode="b" horiz-adv-x="358" 
d="M129 130c-4 21.333 -21.334 87.667 -52.001 199s-46.334 173 -47.001 185c0 2.66699 4.33301 4 13 4c6.66699 0 13.167 -5.5 19.5 -16.5s9.5 -22.167 9.5 -33.5c0.666992 -27.333 21.667 -108 63 -242c14 -43.333 21.333 -63.333 22 -60c2.66699 0 7.33398 7 14.001 21
c10 25.333 26.833 42.5 50.5 51.5s43.5 5.83301 59.5 -9.5c15.333 -14.667 27.833 -36 37.5 -64s12.167 -51 7.5 -69c-3.33301 -14.667 -16.666 -27.667 -39.999 -39s-51.666 -18.666 -84.999 -21.999l-58 -5v19c0 11.333 4 17.666 12 18.999c4.66699 0 8 -3 10 -9
c2 -6.66699 19.333 -5.5 52 3.5s54.334 18.5 65.001 28.5c11.333 10 15.666 24.667 12.999 44c-4 42 -17.667 67.333 -41 76c-13.333 4.66699 -24.5 2.66699 -33.5 -6s-20.833 -28.667 -35.5 -60c-16 -32.667 -26.667 -49 -32 -49c-6.66699 0 -12.334 3.33301 -17.001 10
s-7 14.667 -7 24z" />
    <glyph glyph-name="c" unicode="c" horiz-adv-x="331" 
d="M117 406c17.333 0 35.168 -5.49902 53.501 -16.499s27.5 -21.5 27.5 -31.5c0 -9.33301 -7 -11.333 -21 -6c-6 2.66699 -11.667 6.33398 -17 11.001c-14 11.333 -27 17.166 -39 17.499s-22 -3.5 -30 -11.5s-15 -18.667 -21 -32s-10.5 -26.5 -13.5 -39.5
s-5.16699 -25.833 -6.5 -38.5c0 -17.333 4.66699 -38 14 -62s19.333 -41.333 30 -52c22 -22 49.333 -37.5 82 -46.5s63.667 -9.83301 93 -2.5c26 7.33301 36.333 7.66602 31 0.999023l-14 -12c-22 -14.667 -52.5 -19.834 -91.5 -15.501s-71.833 16.833 -98.5 37.5
c-22 16.667 -37.833 35.5 -47.5 56.5s-15.5 48.5 -17.5 82.5c-3.33301 56.667 10 102.334 40 137.001c13.333 15.333 28.666 23 45.999 23z" />
    <glyph glyph-name="d" unicode="d" horiz-adv-x="340" 
d="M219 556c0 8 3.66699 11.999 11 11.999c6.66699 0 11.334 -8.83301 14.001 -26.5s7.33398 -66.5 14.001 -146.5c10 -117.333 24.667 -215.333 44 -294c8.66699 -30.667 11 -48 7 -52c-2 -2 -4.5 -1.83301 -7.5 0.5s-6 6.33301 -9 12s-5.5 12.5 -7.5 20.5
c-7.33301 28 -17.333 36.333 -30 25c-29.333 -26.667 -67.5 -36.667 -114.5 -30s-78.5 26.334 -94.5 59.001c-9.33301 18.667 -14.666 46.5 -15.999 83.5s1.66699 64.167 9 81.5c8.66699 19.333 21.167 36.333 37.5 51s34.666 24 54.999 28s39.833 -4.33301 58.5 -25
c5.33301 -6.66699 10.166 -21.167 14.499 -43.5s5.16602 -36.833 2.49902 -43.5c-1.33301 -4 -2.5 -6.5 -3.5 -7.5s-2.16699 -0.833008 -3.5 0.5s-3.66602 4 -6.99902 8c-6 8.66699 -9 18.667 -9 30c0 25.333 -11.667 42 -35 50c-29.333 10 -54 -0.166992 -74 -30.5
s-27 -68.5 -21 -114.5c2 -16 5 -28.333 9 -37s11.333 -18.667 22 -30c11.333 -12.667 20.666 -20.667 27.999 -24s20.666 -6 39.999 -8c44.667 -4 79.334 3.33301 104.001 22c6 4.66699 9.16699 10.334 9.5 17.001s-2.16699 23.667 -7.5 51
c-5.33301 25.333 -11.5 78.166 -18.5 158.499s-11.833 128.833 -14.5 145.5c-4.66699 30 -7 49 -7 57z" />
    <glyph glyph-name="e" unicode="e" horiz-adv-x="387" 
d="M117 244c12 1.33301 24.667 4 38 8s26.333 9.83301 39 17.5s19.334 16.834 20.001 27.501s-5.33301 23.334 -18 38.001c-12.667 13.333 -22.834 20.166 -30.501 20.499s-17.167 -5.83398 -28.5 -18.501c-16.667 -17.333 -29 -42 -37 -74
c-2 -8.66699 -2.16699 -14 -0.5 -16s7.5 -3 17.5 -3zM252 54c-45.333 -3.33301 -86.501 8.99609 -123.501 36.9961s-54.833 60.333 -53.5 97c0 11.333 -1.5 19.333 -4.5 24s-9.83301 10.334 -20.5 17.001c-13.333 8 -19.833 14.833 -19.5 20.5s7.83301 7.83398 22.5 6.50098
c8.66699 -0.666992 14.334 0.833008 17.001 4.5s6.33398 14.167 11.001 31.5c7.33301 30 22.166 54.167 44.499 72.5s47.166 17.833 74.499 -1.5c11.333 -7.33301 21.5 -18.666 30.5 -33.999s13.5 -29.333 13.5 -42c0 -13.333 -13.833 -27.333 -41.5 -42
s-54.167 -22 -79.5 -22c-12.667 0 -20.5 -4 -23.5 -12s-1.83301 -21.333 3.5 -40c10 -36 38.5 -63.167 85.5 -81.5s93.5 -20.833 139.5 -7.5c16 4.66699 25.333 5.66699 28 3c4.66699 -4 0.333984 -9.33301 -12.999 -16c-9.33301 -4 -17 -5.33301 -23 -4
c-8.66699 2.66699 -13 1.33398 -13 -3.99902c0 -4.66699 -18.333 -7 -55 -7z" />
    <glyph glyph-name="f" unicode="f" horiz-adv-x="344" 
d="M162 539c9.33301 0 18.5 -3.17285 27.5 -9.50586s23.5 -19.833 43.5 -40.5l28 -30c6.66699 -7.33301 11.167 -12.5 13.5 -15.5s6 -8.33301 11 -16l14.5 -21.5c12 -14 16.333 -23.333 13 -28c-0.666992 -2 -8 3.16699 -22 15.5s-31.333 28.833 -52 49.5
c-30 30.667 -49.833 49.834 -59.5 57.501s-17.167 9.83398 -22.5 6.50098c-21.333 -13.333 -31.333 -63.666 -30 -150.999v-95c0 -9.33301 0.833008 -15.166 2.5 -17.499s5.83398 -3.16602 12.501 -2.49902c13.333 2 28.333 3.5 45 4.5s30.667 1.33301 42 1
s17 -1.16602 17 -2.49902c-2 -3.33301 -6 -6.5 -12 -9.5s-13.667 -5.83301 -23 -8.5s-18.166 -5 -26.499 -7s-17.833 -4.16699 -28.5 -6.5s-17.667 -3.83301 -21 -4.5c4.66699 -20.667 11.834 -42.667 21.501 -66s18.834 -38.666 27.501 -45.999
c2.66699 -2.66699 5.66699 -12.334 9 -29.001c3.33301 -16 1.33301 -27.333 -6 -34s-13.333 -7.83398 -18 -3.50098s-10.667 16.166 -18 35.499c-2.66699 8 -9.83398 25.833 -21.501 53.5s-18.834 49.167 -21.501 64.5c-2 12.667 -4.5 20 -7.5 22s-13.167 3 -30.5 3
s-28.833 1.83301 -34.5 5.5s-6.83398 9.83398 -3.50098 18.501c0 2 0.833008 3.83301 2.5 5.5s4.16699 2.83398 7.5 3.50098l10 2c3.33301 0.666992 7.5 1 12.5 1h12.5h13h11l-5 48c-2.66699 28.667 0.166016 71.167 8.49902 127.5s16.833 90.833 25.5 103.5
c7.33301 10.667 18 16 32 16z" />
    <glyph glyph-name="g" unicode="g" horiz-adv-x="290" 
d="M186 -35c1.33301 14 -0.330078 21.667 -4.99707 23c-6 2 -17.667 -4.5 -35 -19.5s-30.333 -29.833 -39 -44.5l-16 -28c2 -1.33301 6.16699 -4.5 12.5 -9.5s11.166 -8.66699 14.499 -11s8.5 -4.66602 15.5 -6.99902s12.5 -1.5 16.5 2.5
c7.33301 2.66699 12.666 6.66699 15.999 12s6.66602 14.666 9.99902 27.999c6 26 9.33301 44 10 54zM150.004 322c0 8.66699 -7.00098 12.998 -21.001 12.998c-12.667 0 -24.667 -5.66699 -36 -17s-20 -24.166 -26 -38.499s-8.5 -28.833 -7.5 -43.5
s6.5 -25.334 16.5 -32.001c8 -5.33301 13.833 -7.83301 17.5 -7.5s11.5 4.16602 23.5 11.499c10 6.66699 16.833 12.5 20.5 17.5s5.83398 12.833 6.50098 23.5c0.666992 12 3 20.167 7 24.5s8 4 12 -1s7 -13.5 9 -25.5c24 -136.667 38.333 -207.334 43 -212.001
c3.33301 -3.33301 10.666 -1 21.999 7c15.333 9.33301 23 12 23 8c0 -1.33301 -0.666992 -3.33301 -2 -6c-0.666992 -4.66699 -8.66699 -11.667 -24 -21c-10 -5.33301 -16 -10.666 -18 -15.999s-3 -17.333 -3 -36c0 -53.333 -11.333 -89.333 -34 -108
c-10 -7.33301 -23.5 -11.833 -40.5 -13.5s-32.167 1.16602 -45.5 8.49902s-19 19.333 -17 36c4 34.667 28.667 68 74 100c14.667 10.667 23.5 18.5 26.5 23.5s3.83301 15.5 2.5 31.5c-0.666992 20.667 -4.66699 48.334 -12 83.001s-13 54 -17 58s-11.333 2.33301 -22 -5
c-11.333 -8 -26 -11.833 -44 -11.5s-31.333 4.83301 -40 13.5c-14 13.333 -18 34.833 -12 64.5s20 56.5 42 80.5c18.667 20.667 29.667 30 33 28c4.66699 -2 8 -1.33301 10 2c2 4.66699 9.66699 5.66699 23 3c10.667 -2 21.334 -13.667 32.001 -35
c9.33301 -21.333 12.333 -35.666 9 -42.999l-3 -6c-0.666992 -1.33301 -1.66699 -1.66602 -3 -0.999023s-2.83301 1.83398 -4.5 3.50098s-4.16699 4.5 -7.5 8.5c-8.66699 11.333 -13 21.333 -13 30z" />
    <glyph glyph-name="h" unicode="h" horiz-adv-x="372" 
d="M59 525c0 -26.667 5.66504 -69.667 16.998 -129c21.333 -106.667 32 -176 32 -208c0 -18.667 1.66699 -28 5 -28c4.66699 0 8.33398 15.667 11.001 47c5.33301 62.667 20.5 108.334 45.5 137.001s53.833 33.667 86.5 15c18 -10.667 31.333 -29.834 40 -57.501
s15.667 -73.5 21 -137.5c2.66699 -36.667 8.33398 -59.334 17.001 -68.001s9.66699 -15.667 3 -21c-6 -5.33301 -13.667 -5.66602 -23 -0.999023s-15 10.334 -17 17.001c-4 11.333 -9.33301 52.666 -16 123.999c-8 75.333 -25.333 119 -52 131
c-14.667 5.33301 -29.667 -0.666992 -45 -18c-18 -20.667 -31.667 -72 -41 -154c-8 -76.667 -21.333 -116.334 -40 -119.001c-7.33301 -1.33301 -11.833 0.166992 -13.5 4.5s-2.5 16.833 -2.5 37.5c0 68 -13 163 -39 285c-20 100 -23.333 158.333 -10 175
c10.667 12.667 17 12.334 19 -0.999023c1.33301 -6.66699 2 -17 2 -31z" />
    <glyph glyph-name="i" unicode="i" horiz-adv-x="141" 
d="M102 61c-10.667 0 -19.501 9.83496 -26.501 29.502s-13.833 54.167 -20.5 103.5c-8 59.333 -15 101.666 -21 126.999c-4.66699 18 -5.66699 29.667 -3 35c4 6.66699 10.167 9 18.5 7s13.5 -7 15.5 -15c6.66699 -26.667 13 -65.334 19 -116.001s11 -85.667 15 -105
c4 -15.333 6.83301 -27 8.5 -35s2.66699 -14.5 3 -19.5s-0.166992 -8.16699 -1.5 -9.5s-3.66602 -2 -6.99902 -2zM33.999 458.002c0 13.333 6.66602 21.333 19.999 24c0.666992 0.666992 4.33398 -2.33301 11.001 -9c7.33301 -7.33301 9.5 -14.5 6.5 -21.5
s-9.83301 -10.5 -20.5 -10.5c-6.66699 0 -11.167 1.16699 -13.5 3.5s-3.5 6.83301 -3.5 13.5z" />
    <glyph glyph-name="j" unicode="j" horiz-adv-x="224" 
d="M112 317c10 7.33301 17.8271 7.99805 23.4941 1.99805s13.5 -23 23.5 -51c19.333 -55.333 30.833 -103.333 34.5 -144s-1.16602 -67.667 -14.499 -81c-7.33301 -8 -11.666 -13.333 -12.999 -16c-3.33301 -7.33301 -16.166 -16.666 -38.499 -27.999
s-40.166 -17.333 -53.499 -18c-12 -0.666992 -20.333 0.166016 -25 2.49902s-9 7.5 -13 15.5c-7.33301 14 -9 36.333 -5 67c2.66699 14 5.66699 20.333 9 19c2.66699 -0.666992 6.16699 -14.667 10.5 -42s8.16602 -41.333 11.499 -42c4.66699 -3.33301 15.667 -0.5 33 8.5
s32.333 19.167 45 30.5c10.667 10 16.834 18.333 18.501 25s1.83398 23.334 0.500977 50.001c-2 28 -8.83301 62.167 -20.5 102.5s-22.167 65.833 -31.5 76.5c-5.33301 5.33301 -7.66602 9.33301 -6.99902 12s4.66699 6.33398 12 11.001zM118.994 447.998
c-4 0 -9.99902 3.33301 -17.999 10c-9.33301 6.66699 -10.666 14 -3.99902 22c5.33301 6.66699 12.166 10 20.499 10s14.166 -3.66699 17.499 -11c2 -5.33301 1 -11.833 -3 -19.5s-8.33301 -11.5 -13 -11.5z" />
    <glyph glyph-name="k" unicode="k" horiz-adv-x="317" 
d="M47 497c5.33301 0 9.16406 -6.16992 11.4971 -18.5029s5.5 -43.5 9.5 -93.5c6 -74.667 9 -120.667 9 -138c0 -16 1.66699 -24 5 -24c4.66699 2.66699 15.334 16 32.001 40c54 75.333 98.333 124.333 133 147c16.667 10 25.334 9.33301 26.001 -2
c0 -6 -9.83301 -19 -29.5 -39s-31.834 -29.333 -36.501 -28c-2 0.666992 -3 0.333984 -3 -0.999023c0 -0.666992 0.333008 -2 1 -4c2.66699 -3.33301 1.83398 -7.16602 -2.49902 -11.499s-5.5 -7.83301 -3.5 -10.5c2.66699 -4 0.333984 -14 -6.99902 -30
c-6.66699 -16.667 -15 -23.667 -25 -21c-9.33301 2 -14 1 -14 -3c0 -6 15.333 -26.667 46 -62s55 -60.333 73 -75c17.333 -14.667 19 -24.334 5 -29.001c-7.33301 -2.66699 -21.333 4 -42 20s-42.667 37.667 -66 65l-40 49l-23 -34c-28 -41.333 -47.333 -55.666 -58 -42.999
c-5.33301 7.33301 -6.33301 22.333 -3 45c2 11.333 -0.166992 59.833 -6.5 145.5s-8.83301 133.834 -7.5 144.501c2.66699 7.33301 8 11 16 11z" />
    <glyph glyph-name="l" unicode="l" horiz-adv-x="158" 
d="M31 488c1.33301 6 3.83301 10.501 7.5 13.501s7.5 3.66699 11.5 2s7 -5.5 9 -11.5c5.33301 -17.333 12.833 -59.333 22.5 -126s16.5 -122.334 20.5 -167.001c2 -32 7.66699 -58 17 -78c12.667 -26 12.334 -39.667 -0.999023 -41c-2.66699 0 -6.33398 0.666992 -11.001 2
c-8.66699 2.66699 -15.5 11.834 -20.5 27.501s-9.16699 41.5 -12.5 77.5c-4 43.333 -10.667 96.166 -20 158.499s-16 98.166 -20 107.499c-5.33301 14.667 -6.33301 26.334 -3 35.001z" />
    <glyph glyph-name="m" unicode="m" horiz-adv-x="603" 
d="M197 370c14.667 0 29.6729 -8.49805 45.0059 -25.498s27.333 -38.167 36 -63.5l16 -46l14 30c19.333 43.333 40.666 74 63.999 92s45.666 21.333 66.999 10c16.667 -8.66699 34.334 -33.834 53.001 -75.501s33.667 -89.167 45 -142.5
c9.33301 -42 17.666 -65.667 24.999 -71c4.66699 -3.33301 7.83398 -7 9.50098 -11s1.83398 -7.16699 0.500977 -9.5s-4.33301 -3.5 -9 -3.5c-10 0 -20.5 7.83301 -31.5 23.5s-19.5 35.5 -25.5 59.5c-14.667 56 -31.167 104.167 -49.5 144.5s-32.833 60.5 -43.5 60.5
c-12.667 0 -30.834 -15.5 -54.501 -46.5s-33.5 -51.833 -29.5 -62.5c2 -6 -0.5 -18 -7.5 -36s-13.833 -29 -20.5 -33c-4 -1.33301 -7.16699 -6.16602 -9.5 -14.499s-7.5 -11.833 -15.5 -10.5c-7.33301 0.666992 -11.833 3.16699 -13.5 7.5s-2.16699 14.5 -1.5 30.5
c2 53.333 -9 98 -33 134c-22 34 -44.667 41.333 -68 22c-10 -8.66699 -19.333 -22 -28 -40c-6.66699 -13.333 -10.834 -39.833 -12.501 -79.5s0.166016 -75.834 5.49902 -108.501l3 -20.5c0.666992 -4.33301 0.666992 -8 0 -11s-1.83398 -4.66699 -3.50098 -5
s-4.16699 -0.5 -7.5 -0.5c-10 0 -16.667 3.33301 -20 10s-7 24.667 -11 54l-9.5 73c-1.66699 13.333 -3.33398 26 -5.00098 38s-3.16699 19.833 -4.5 23.5l-5 13.5c-2 5.33301 -4.83301 13.666 -8.5 24.999s-7.83398 25 -12.501 41c-11.333 39.333 -14 60 -8 62
c8.66699 2.66699 15 1 19 -5s8.33301 -20 13 -42c11.333 -56.667 20.333 -85 27 -85c4 -0.666992 8 6.33301 12 21c5.33301 21.333 16.833 38.833 34.5 52.5s37.167 20.5 58.5 20.5z" />
    <glyph glyph-name="n" unicode="n" horiz-adv-x="393" 
d="M268 366c-23.333 22 -49.8301 29.834 -79.4971 23.501s-52.167 -21.833 -67.5 -46.5c-16 -24.667 -27.333 -28.667 -34 -12c-2.66699 6.66699 1.16602 16.5 11.499 29.5s24.5 26.167 42.5 39.5c13.333 9.33301 23.833 15 31.5 17s22.5 2.33301 44.5 1
c20.667 -1.33301 35.167 -3.33301 43.5 -6s17.166 -8.33398 26.499 -17.001c16.667 -16.667 31 -37.667 43 -63c9.33301 -18 15.166 -32.667 17.499 -44s3.16602 -29.666 2.49902 -54.999c0 -35.333 -2 -65 -6 -89c-3.33301 -18 -3.83301 -40.333 -1.5 -67
s6.83301 -45.667 13.5 -57c7.33301 -13.333 9 -20 5 -20c-2 0 -5.66699 1.33301 -11 4c-17.333 9.33301 -28.333 29.666 -33 60.999s-5.66699 86.333 -3 165c1.33301 34 -1.16699 59.833 -7.5 77.5s-19.166 37.167 -38.499 58.5zM110.003 89.001
c0 -12 -0.833008 -19.6689 -2.5 -23.002s-5.16699 -5 -10.5 -5c-10 0 -16.5 3.83301 -19.5 11.5s-4.83301 26.834 -5.5 57.501c-1.33301 34 -9.33301 90.667 -24 170c-10.667 55.333 -16.5 88.833 -17.5 100.5s1.5 19.834 7.5 24.501c14 9.33301 23.667 1.33301 29 -24
l4 -34c2.66699 -36.667 6 -61.334 10 -74.001c5.33301 -18 11.5 -52.167 18.5 -102.5s10.5 -84.166 10.5 -101.499z" />
    <glyph glyph-name="o" unicode="o" horiz-adv-x="398" 
d="M339 265c0 29.333 -1 47.8359 -3 55.5029s-9 18.167 -21 31.5c-15.333 17.333 -36 32 -62 44c-54 24.667 -97 18 -129 -20c-13.333 -16 -20.333 -34.667 -21 -56c0 -20.667 -3.33301 -34.334 -10 -41.001c-7.33301 -6.66699 -10.833 -21 -10.5 -43
s4.83301 -38.333 13.5 -49c13.333 -17.333 18 -27.666 14 -30.999c-2 -2 -5.66699 -0.666992 -11 4c-7.33301 6.66699 -14.333 16.667 -21 30s-10 24.666 -10 33.999c-0.666992 7.33301 -1.33398 11 -2.00098 11s-2.33398 -1.66699 -5.00098 -5
c-3.33301 -5.33301 -1.66602 -19.333 5.00098 -42s14.334 -41.334 23.001 -56.001c12.667 -19.333 34 -32.333 64 -39s56.333 -4.33398 79 6.99902c12.667 6.66699 30.667 22 54 46s35.333 39.333 36 46c0 6 2.66699 9.66699 8 11c6 2 9 22.667 9 62zM177 61.0029
c-42.667 2 -77.8311 18.6699 -105.498 50.0029s-41.5 69.666 -41.5 114.999c0 22.667 3.16699 42.167 9.5 58.5s18 35.833 35 58.5s27.167 36.667 30.5 42c15.333 21.333 32.333 34.666 51 39.999c42 13.333 84.333 7.16602 127 -18.501s69.667 -60.834 81 -105.501
c4.66699 -21.333 2.66699 -46.666 -6 -75.999c-14.667 -46 -39.334 -84.833 -74.001 -116.5s-70.334 -47.5 -107.001 -47.5z" />
    <glyph glyph-name="p" unicode="p" horiz-adv-x="347" 
d="M67 213c-0.666992 14.667 1.66504 40.3311 6.99805 76.998c3.33301 28 10.333 44.333 21 49s25 2 43 -8l-15 -19c-10.667 -14 -19.5 -33.667 -26.5 -59s-9.5 -48.333 -7.5 -69c2.66699 -34 12.334 -61.5 29.001 -82.5s38.667 -33.833 66 -38.5
c18.667 -3.33301 38 4.33398 58 23.001s33 37.667 39 57c4 12 7 26.667 9 44s2.5 32.333 1.5 45s-3.16699 19 -6.5 19c-4.66699 0 -7 3 -7 9c0 6.66699 -13 22.167 -39 46.5s-47 40.833 -63 49.5c-34 17.333 -60.667 17.333 -80 0c-19.333 -18 -33.166 -40.667 -41.499 -68
s-7.83301 -47.666 1.5 -60.999zM193.999 38.9971c-34 0 -62.667 11.3311 -86 33.998c-12.667 12.667 -20.667 17.334 -24 14.001c-2.66699 -2.66699 3.5 -33 18.5 -91s25.5 -91.333 31.5 -100c12.667 -17.333 13 -26 1 -26c-19.333 0 -33.333 23 -42 69
c-2.66699 15.333 -6.33398 28.5 -11.001 39.5s-7.33398 23.167 -8.00098 36.5c0 16 -2.33301 29.333 -7 40c-11.333 27.333 -20.5 58 -27.5 92s-10.167 62.333 -9.5 85c0.666992 34.667 4.33398 61.667 11.001 81s17.667 36.666 33 51.999
c16.667 16.667 33.167 25.5 49.5 26.5s39.166 -6.16699 68.499 -21.5c38.667 -19.333 69.834 -46.666 93.501 -81.999s34.167 -70.333 31.5 -105c-3.33301 -43.333 -16.166 -78.166 -38.499 -104.499s-50.5 -39.5 -84.5 -39.5z" />
    <glyph glyph-name="q" unicode="q" horiz-adv-x="345" 
d="M210 390c-26.667 21.333 -56.668 16.3311 -90.001 -15.002c-30 -27.333 -49.667 -72.666 -59 -135.999c-4.66699 -31.333 -6.5 -53.666 -5.5 -66.999s6.5 -30.666 16.5 -51.999c10 -22.667 23.5 -40 40.5 -52s34.167 -16.667 51.5 -14
c20.667 3.33301 42.667 34.666 66 93.999s29.333 99.333 18 120c-6 12 -7.33301 25 -4 39c2.66699 14 0.833984 28.833 -5.49902 44.5s-15.833 28.5 -28.5 38.5zM175.999 419.998c15.333 0 26.833 -1.33496 34.5 -4.00195s16.5 -8.66699 26.5 -18
c16 -13.333 26 -25.666 30 -36.999s7.33301 -17.666 10 -18.999c3.33301 -2.66699 6.33301 -63.667 9 -183c2 -94 4.33301 -155 7 -183s8 -48.333 16 -61c5.33301 -7.33301 7.33301 -15.5 6 -24.5s-5 -13.5 -11 -13.5c-10 0 -19.333 15.833 -28 47.5
s-14.667 73.167 -18 124.5c-2.66699 45.333 -5.66699 68 -9 68s-10.333 -10.667 -21 -32c-19.333 -35.333 -48 -53 -86 -53c-13.333 0 -23.333 1.83301 -30 5.5s-17.667 13.5 -33 29.5c-18 18.667 -30.667 38.5 -38 59.5s-11 47.5 -11 79.5c0 40 9.5 80.667 28.5 122
s41.167 69 66.5 83c12 6 29 9 51 9z" />
    <glyph glyph-name="r" unicode="r" horiz-adv-x="283" 
d="M253 385c0 -4 -9.33203 -9 -27.999 -15c-32.667 -10.667 -59.667 -40.834 -81 -90.501s-32 -106.834 -32 -171.501c0 -45.333 -2.66699 -69.666 -8 -72.999c-13.333 -8.66699 -22.333 13.333 -27 66c-0.666992 7.33301 -1.33398 15.333 -2.00098 24
c0 20 -2.83301 47.833 -8.5 83.5s-12.834 75.334 -21.501 119.001s-13.334 68.167 -14.001 73.5c-1.33301 8.66699 -1.16602 13.834 0.500977 15.501s5.83398 2.16699 12.501 1.5s11.167 -3.33398 13.5 -8.00098s4.83301 -14.334 7.5 -29.001
c14.667 -95.333 24.667 -143 30 -143c2 0.666992 4.33301 5 7 13c10 32 25.333 62.167 46 90.5s40 45.833 58 52.5c7.33301 2.66699 17 2.83398 29 0.500977s18 -5.5 18 -9.5z" />
    <glyph glyph-name="s" unicode="s" horiz-adv-x="352" 
d="M217 420c15.333 0 27.001 -1.33398 35.001 -4.00098s12.333 -6.66699 13 -12s-2.33301 -11.666 -9 -18.999l-14 -16c-0.666992 2 -1.66699 5.16699 -3 9.5s-2.33301 7.16602 -3 8.49902s-2.16699 3.5 -4.5 6.5s-5 3.83301 -8 2.5s-7.5 -2 -13.5 -2
c-19.333 -5.33301 -44.833 -16.166 -76.5 -32.499s-50.834 -29.166 -57.501 -38.499c-6.66699 -8.66699 -10 -14.167 -10 -16.5s3 -5.83301 9 -10.5c4.66699 -4.66699 20.834 -11.667 48.501 -21s43.5 -15.333 47.5 -18c7.33301 -4 14.666 -6 21.999 -6
c6.66699 0 24.167 -7.5 52.5 -22.5s47.166 -26.833 56.499 -35.5c18 -16.667 24.333 -37.667 19 -63s-20 -43 -44 -53c-27.333 -11.333 -62.5 -13.166 -105.5 -5.49902s-67.833 20.167 -74.5 37.5c-0.666992 1.33301 -3.5 6.66602 -8.5 15.999s-9 18.166 -12 26.499
s-4.16699 15.166 -3.5 20.499c1.33301 6 6 2 14 -12c1.33301 -2.66699 2.66602 -5.66699 3.99902 -9c20 -41.333 56.667 -62 110 -62c49.333 0 79 12.667 89 38c8 22.667 4 43 -12 61c-5.33301 6.66699 -23.666 16.167 -54.999 28.5s-61.666 22.166 -90.999 29.499
c-50 12.667 -82 31.334 -96 56.001c-4.66699 9.33301 -6.5 15.833 -5.5 19.5s6.5 10.834 16.5 21.501c14 14 40.667 30.833 80 50.5s69.333 28.5 90 26.5z" />
    <glyph glyph-name="t" unicode="t" horiz-adv-x="382" 
d="M333 153c0 8.66699 1.99902 12.999 5.99902 12.999c4 -0.666992 7.66699 -5.33398 11 -14.001c4.66699 -14 -0.5 -28.667 -15.5 -44s-33.167 -24.666 -54.5 -27.999c-61.333 -10 -102.333 18 -123 84c-5.33301 18.667 -6.83301 53 -4.5 103s6.5 89 12.5 117l-58 -2
c-29.333 -1.33301 -49.5 -0.5 -60.5 2.5s-16.5 9.16699 -16.5 18.5c0 6.66699 11.667 10 35 10c7.33301 0 41 3 101 9l-4 66c-2.66699 40 -1.66699 60.667 3 62c1.33301 0.666992 4.33301 0.333984 9 -0.999023c10.667 -2.66699 16.667 -6.5 18 -11.5s2.33301 -23.5 3 -55.5
v-55c58 4.66699 91.333 8 100 10c6.66699 2 12.334 1 17.001 -3c5.33301 -3.33301 1.66602 -7.33301 -11.001 -12l-8 -2c-4 -1.33301 -18.833 -5.83301 -44.5 -13.5s-44.167 -13.5 -55.5 -17.5c-6.66699 -38.667 -10 -86 -10 -142s3.66699 -91.667 11 -107
c8 -12 20.333 -21.667 37 -29s32.334 -9.33301 47.001 -6c12.667 2.66699 25 9.5 37 20.5s18 20.167 18 27.5z" />
    <glyph glyph-name="u" unicode="u" horiz-adv-x="407" 
d="M43 462c11.333 0 18.165 -16.001 20.498 -48.001s1.5 -91.667 -2.5 -179l-6 -103l23 -23c10 -10 18 -16 24 -18s17 -2.33301 33 -1c22 2 42.333 9 61 21s32 26.667 40 44c5.33301 11.333 10.333 26 15 44s8.33398 36.167 11.001 54.5s4.5 35.833 5.5 52.5
s0.666992 30.334 -1 41.001s-4.5 16 -8.5 16c-15.333 0 -14 15 4 45l12 18c1.33301 2.66699 18.333 -4 51 -20c6.66699 -3.33301 11.667 -36.666 15 -99.999c5.33301 -103.333 15.666 -173 30.999 -209c8.66699 -20.667 9 -31.667 1 -33c-4 0 -9.33301 5 -16 15
c-13.333 18 -20.666 27.667 -21.999 29c-11.333 12 -20.333 55 -27 129c-4 34 -7.33301 51.333 -10 52c-0.666992 0 -1.66699 -1.83301 -3 -5.5s-2.5 -8.83398 -3.5 -15.501s-1.83301 -14.334 -2.5 -23.001c-6 -62.667 -21.333 -109 -46 -139s-60 -45 -106 -45
c-46.667 0 -78.667 17.667 -96 53c-6 12.667 -9.33301 25.5 -10 38.5s0.333008 40.833 3 83.5c3.33301 58.667 5 112.334 5 161.001c-1.33301 43.333 0.333984 65 5.00098 65z" />
    <glyph glyph-name="v" unicode="v" horiz-adv-x="406" 
d="M165 103c-12 0 -27.333 25.666 -46 76.999c-25.333 66.667 -46.333 111 -63 133c-6.66699 9.33301 -13.167 24.833 -19.5 46.5s-8.16602 34.834 -5.49902 39.501c6.66699 11.333 13.667 9 21 -7l4 -12c2 -8.66699 19.333 -47.667 52 -117s51 -106.333 55 -111
c6 -6 25.333 24 58 90c35.333 72.667 73.666 132.334 114.999 179.001c19.333 21.333 31 32.666 35 33.999c10 0 7.33301 -11.333 -8 -34l-5 -7c-22 -28.667 -56.667 -90 -104 -184c-43.333 -84.667 -73 -127 -89 -127z" />
    <glyph glyph-name="w" unicode="w" horiz-adv-x="448" 
d="M229 190c0 -8.66699 -6.66699 -23.9951 -20 -45.9951s-25.333 -37.333 -36 -46c-19.333 -16.667 -38.666 -23.167 -57.999 -19.5s-33.666 17.167 -42.999 40.5c-12.667 28.667 -23.667 92.334 -33 191.001c-4.66699 53.333 -7.33398 80.333 -8.00098 81
c-1.33301 11.333 -0.833008 18.666 1.5 21.999s6.83301 3.33301 13.5 0c9.33301 -5.33301 14 -18 14 -38c0 -20.667 3.5 -58.334 10.5 -113.001s12.833 -90.667 17.5 -108c5.33301 -18.667 11.666 -31 18.999 -37s18 -7 32 -3c15.333 5.33301 30 19.333 44 42
c10 16.667 16.333 30.5 19 41.5s4.33398 31.833 5.00098 62.5c1.33301 33.333 2.83301 53 4.5 59s5.83398 8.66699 12.501 8c10 -0.666992 17 -11 21 -31c9.33301 -41.333 16.833 -69 22.5 -83s13.5 -22.667 23.5 -26c12 -4.66699 26.5 -4.83398 43.5 -0.500977
s29.833 11.5 38.5 21.5c9.33301 10 13.5 23.5 12.5 40.5s-7.16699 42.5 -18.5 76.5c-11.333 33.333 -18.833 66.833 -22.5 100.5s-2.16699 54.167 4.5 61.5c9.33301 11.333 17 14.333 23 9c2.66699 -2.66699 3 -7.33398 1 -14.001c-10 -32.667 -2.66699 -85 22 -157
c15.333 -44.667 23.166 -74.334 23.499 -89.001s-6.83398 -29.334 -21.501 -44.001c-25.333 -25.333 -50.833 -39.333 -76.5 -42s-48.167 6.33301 -67.5 27c-15.333 14.667 -23.333 19 -24 13z" />
    <glyph glyph-name="x" unicode="x" horiz-adv-x="341" 
d="M192 180c-1.33301 -0.666992 4.99902 -8.49609 18.999 -23.4961l42 -45c14 -15 20.333 -22.5 19 -22.5s1.83398 -3.66699 9.50098 -11l22 -22c7 -7.33301 9.5 -11.666 7.5 -12.999c-5.33301 -5.33301 -28.333 9.5 -69 44.5s-70.334 65.833 -89.001 92.5
c-7.33301 10 -13.333 14.333 -18 13s-11 -8.66602 -19 -21.999c-16.667 -26.667 -25.334 -40.667 -26.001 -42c-10 -12 -11.333 -18.333 -4 -19s12.666 2.66602 15.999 9.99902c0.666992 1.33301 1 2.66602 1 3.99902c1.33301 5.33301 4.16602 9.16602 8.49902 11.499
s8.33301 2.66602 12 0.999023s5.5 -4.83398 5.5 -9.50098s-2.5 -8 -7.5 -10s-6.83301 -6 -5.5 -12c1.33301 -6.66699 -4 -12 -16 -16s-23.667 -4.66699 -35 -2c-23.333 6 -17.333 37 18 93l32 50c-12.667 17.333 -29.667 45.666 -51 84.999s-32.666 64 -33.999 74
c22 8 36 0.333008 42 -23c4.66699 -14.667 24.334 -51.667 59.001 -111c4.66699 5.33301 8.83398 10.333 12.501 15s7.66699 10.667 12 18l10 17c2.33301 4 6.66602 11.833 12.999 23.5s11.166 20.167 14.499 25.5c20 39.333 34.333 59 43 59
c18.667 0 15.334 -23 -9.99902 -69c-35.333 -63.333 -55 -98 -59 -104c-5.33301 -7.33301 -7.66602 -12.833 -6.99902 -16.5s5.33398 -9.83398 14.001 -18.501c12 -13.333 18 -21.666 18 -24.999z" />
    <glyph glyph-name="y" unicode="y" horiz-adv-x="348" 
d="M33 370c15.333 0 23.0039 -19.6641 23.0039 -58.9971c0 -38 2.66699 -75.167 8 -111.5s11.666 -59.166 18.999 -68.499c13.333 -17.333 29 -23.333 47 -18s34 21.333 48 48c10.667 20.667 16 54 16 100c0.666992 47.333 4.66699 71.666 12 72.999c8 1.33301 13 0 15 -4
c3.33301 -5.33301 14.666 -58 33.999 -158s31.666 -169 36.999 -207c3.33301 -22 9.33301 -47 18 -75c8 -26.667 9 -42.667 3 -48c-14 -8.66699 -24.833 -5.33398 -32.5 9.99902s-12.167 32.333 -13.5 51c0.666992 6 -5.5 48.167 -18.5 126.5s-21.5 125.166 -25.5 140.499
c-0.666992 2 -3.33398 -0.666992 -8.00098 -8c-5.33301 -8 -11.333 -18.333 -18 -31c-12.667 -24 -25.167 -39.667 -37.5 -47s-28.5 -9 -48.5 -5c-27.333 5.33301 -46.5 21.666 -57.5 48.999s-18.167 77 -21.5 149c-3.33301 62 -3 93 1 93z" />
    <glyph glyph-name="z" unicode="z" horiz-adv-x="465" 
d="M435 329c0 -4.66699 -12.166 -10.6699 -36.499 -18.0029s-43.833 -11 -58.5 -11c-18 0 -33.833 -3.33301 -47.5 -10s-33.834 -20.667 -60.501 -42c-64.667 -51.333 -95.334 -85.333 -92.001 -102c0.666992 -6 8.66699 -13.667 24 -23c10 -5.33301 18 -8.33301 24 -9
s17.333 1.33301 34 6c24 6 39.333 11.667 46 17c8.66699 6.66699 30.834 16.667 66.501 30s55.167 19 58.5 17c9.33301 -5.33301 6 -12.666 -10 -21.999l-34 -17c-38.667 -18 -64 -30.667 -76 -38c-19.333 -11.333 -41.666 -19.333 -66.999 -24
c-24 -4.66699 -47 0.333008 -69 15s-33 32.334 -33 53.001c0 10.667 17.667 33.667 53 69c35.333 34 53 52.667 53 56c0 2.66699 -10.667 2.66699 -32 0c-21.333 -3.33301 -33.333 -1.33301 -36 6c-4 10.667 -0.833008 18.667 9.5 24s29.833 8.33301 58.5 9
c30.667 1.33301 52.5 5.83301 65.5 13.5s24.167 22.167 33.5 43.5c5.33301 14 4.66602 24.333 -2.00098 31c-14 14 -46.667 18.5 -98 13.5s-92.666 -16.833 -123.999 -35.5c-30.667 -18.667 -48.667 -21.334 -54 -8.00098c-2.66699 6 -1.5 11 3.5 15s20.5 13 46.5 27
c9.33301 5.33301 21.333 9.83301 36 13.5s33 7.33398 55 11.001s34.667 5.83398 38 6.50098c3.33301 3.33301 20.166 2.83301 50.499 -1.5s51.166 -9.16602 62.499 -14.499c10.667 -5.33301 16.834 -10 18.501 -14s1.5 -13.667 -0.5 -29
c-1.33301 -19.333 -6.33301 -34.333 -15 -45c-6 -6.66699 -9 -10.834 -9 -12.501s2.33301 -3.5 7 -5.5c8 -2.66699 23.667 -1.66699 47 3c22 4.66699 38.167 7.16699 48.5 7.5s15.5 -1.5 15.5 -5.5z" />
    <glyph glyph-name="uni0093" horiz-adv-x="305" 
d="M251 251c16 0 24.001 -3.33398 24.001 -10.001c0 -6 -4.16699 -9.5 -12.5 -10.5s-18.5 0.5 -30.5 4.5s-22.667 9.66699 -32 17c-15.333 11.333 -26 21 -32 29c-5.33301 8.66699 -7 24.667 -5 48s6.66699 42 14 56c7.33301 14.667 12.333 23 15 25s8 1.33301 16 -2
c7.33301 -3.33301 10.833 -8.16602 10.5 -14.499s-5.16602 -18.833 -14.499 -37.5c-6.66699 -13.333 -10.334 -23.333 -11.001 -30s0.666016 -15.667 3.99902 -27c5.33301 -18 12 -30.5 20 -37.5s19.333 -10.5 34 -10.5zM117.001 236.999
c11.333 0 16.999 -3.99902 16.999 -11.999s-7.33301 -10.333 -22 -7c-26.667 5.33301 -47.667 22.333 -63 51s-21.333 61.667 -18 99c1.33301 28.667 5.33301 47 12 55c6.66699 7.33301 14.334 8.66602 23.001 3.99902s10.667 -11.334 6 -20.001
c-8.66699 -17.333 -12.667 -39.166 -12 -65.499s6.5 -51 17.5 -74s24.167 -33.167 39.5 -30.5z" />
    <glyph glyph-name="uni0094" horiz-adv-x="265" 
d="M191 443c0 8.66699 4.66699 8.00391 14 -1.99609c6 -6 11.333 -13.667 16 -23c13.333 -27.333 16.833 -65.333 10.5 -114s-20.166 -87 -41.499 -115c-4 -4.66699 -6.83301 -7.83398 -8.5 -9.50098s-3 -2 -4 -1s-2.16699 3.16699 -3.5 6.5
c-4 7.33301 -3.33301 13.666 2 18.999c3.33301 3.33301 10.666 28.333 21.999 75c8 33.333 12.167 54.666 12.5 63.999s-2.16699 25.666 -7.5 48.999c-8 28.667 -12 45.667 -12 51zM43 439.004c0 14 4.33203 17.999 12.999 11.999c4 -2.66699 9.33301 -7.66699 16 -15
c26.667 -31.333 40.834 -64.333 42.501 -99s-10.833 -69.667 -37.5 -105c-22.667 -31.333 -37.334 -37.666 -44.001 -18.999c-2 4.66699 -2.83301 7.83398 -2.5 9.50098s1.33301 3.16699 3 4.5s6.5 4.33301 14.5 9c12.667 6.66699 23.334 19.667 32.001 39
s11.667 36.666 9 51.999c-7.33301 42 -18 69.333 -32 82c-9.33301 8 -14 18 -14 30z" />
    <glyph glyph-name=".null" horiz-adv-x="0" 
 />
    <glyph glyph-name="nonmarkingreturn" horiz-adv-x="333" 
 />
    </font>
</defs>
</svg>
