<?xml version="1.0" standalone="no"?>
<!DOCTYPE svg PUBLIC "-//W3C//DTD SVG 1.1//EN" "http://www.w3.org/Graphics/SVG/1.1/DTD/svg11.dtd" >
<svg>
<metadata>
Created by FontForge 20090914 at Sat Feb 27 01:28:57 2016
 By www-data
Copyright (c) 2016, root
</metadata>
<defs>
<font id="Again" horiz-adv-x="157" >
  <font-face 
    font-family="Again"
    font-weight="400"
    font-stretch="normal"
    units-per-em="1000"
    panose-1="2 0 5 3 0 0 0 0 0 0"
    ascent="800"
    descent="-200"
    x-height="406.998"
    cap-height="615.999"
    bbox="28.7142 -200.143 764.209 679.6"
    underline-thickness="50"
    underline-position="-100"
    unicode-range="U+0020-U+0094"
  />
<missing-glyph horiz-adv-x="364" 
d="M33 0v666h265v-666h-265zM66 33h199v600h-199v-600z" />
    <glyph glyph-name=".notdef" horiz-adv-x="364" 
d="M33 0v666h265v-666h-265zM66 33h199v600h-199v-600z" />
    <glyph glyph-name="space" unicode=" " horiz-adv-x="329" 
 />
    <glyph glyph-name="exclam" unicode="!" 
d="M51 129c4.66699 9.33301 13.332 13.499 25.999 12.499s24 -6.83301 34 -17.5c18 -19.333 19.333 -38 4 -56c-11.333 -12 -24.166 -15.833 -38.499 -11.5s-23.833 13.333 -28.5 27s-3.66699 28.834 3 45.501zM29.998 428.999c0 78.667 3.66699 121.668 11 129.001
c14 14.667 31 13.667 51 -3c7.33301 -6.66699 11.833 -16.5 13.5 -29.5s3.16699 -52.167 4.5 -117.5l2 -134l-16 -7c-10.667 -4.66699 -22 -4.33398 -34 0.999023s-20.333 14 -25 26s-7 57 -7 135z" />
    <glyph glyph-name="quotedbl" unicode="&#x22;" horiz-adv-x="377" 
d="M340 -172c-7.33301 -0.666992 -11 1.66699 -11 7c0 4 2 6.33301 6 7c5.33301 0.666992 9 -2 11 -8c1.33301 -3.33301 -0.666992 -5.33301 -6 -6zM176 530.001c18 12.667 32.502 14.333 43.502 5s20.5 -31.333 28.5 -66c7.33301 -32 10.5 -52.667 9.5 -62
s-6.5 -17.333 -16.5 -24c-18.667 -12 -35.334 -10 -50.001 6s-23.667 42.667 -27 80c-2 23.333 -2.33301 38 -1 44s5.66602 11.667 12.999 17zM43.002 555c17.333 16 31.9971 18.668 43.9971 8.00098s22.667 -35.667 32 -75c7.33301 -29.333 11.5 -50 12.5 -62
s-0.666992 -20.833 -5 -26.5s-13.166 -10.5 -26.499 -14.5c-12 -4 -23.833 1.16699 -35.5 15.5s-19.167 34.166 -22.5 59.499c-1.33301 8.66699 -3.33301 18.5 -6 29.5l-6 25c-1.33301 5.66699 -1.16602 12.167 0.500977 19.5s5.83398 14.333 12.501 21z" />
    <glyph glyph-name="dollar" unicode="$" horiz-adv-x="381" 
d="M228 150c-3.33301 0.666992 -4.00098 -15.334 -2.00098 -48.001c0.666992 -16 2.33398 -23.333 5.00098 -22c14.667 0 23.667 5.83301 27 17.5s-0.666992 23.834 -12 36.501c-10.667 10.667 -16.667 16 -18 16zM134.999 363.999
c1.33301 0 2.50195 3.83398 3.50195 11.501s1.66699 17.167 2 28.5s0.333008 22.666 0 33.999s-1 20.833 -2 28.5s-2.16699 11.5 -3.5 11.5c-4.66699 0 -10.334 -9.33301 -17.001 -28s-9.33398 -32.667 -8.00098 -42c3.33301 -13.333 7.5 -24.5 12.5 -33.5
s9.16699 -12.5 12.5 -10.5zM214.001 597c3.33301 -6 6 -12.166 8 -18.499s3.66699 -10.833 5 -13.5s4.16602 -5.83398 8.49902 -9.50098s10.833 -7.83398 19.5 -12.501c26 -14 43.5 -30.667 52.5 -50s7.16699 -35.333 -5.5 -48c-7.33301 -8 -14.833 -11.167 -22.5 -9.5
s-14.167 4.83398 -19.5 9.50098s-9.66602 10.334 -12.999 17.001c-4.66699 10.667 -11 16 -19 16c-4.66699 0 -7.5 -4.66699 -8.5 -14s-1.5 -30.666 -1.5 -63.999c0 -43.333 1 -72.833 3 -88.5s6 -28.334 12 -38.001s18.333 -21.834 37 -36.501
c27.333 -22 46.666 -42.667 57.999 -62s18.333 -43.333 21 -72c1.33301 -21.333 1 -35.166 -1 -41.499s-10.333 -17.5 -25 -33.5c-19.333 -21.333 -38.666 -33.333 -57.999 -36c-18 -2.66699 -30.333 -11 -37 -25c-14.667 -28 -35.667 -31.333 -63 -10
c-16 12 -24 21.667 -24 29c0 6.66699 -2 10 -6 10c-2.66699 0 -20 15.333 -52 46c-48.667 48.667 -59.667 80 -33 94c16.667 8.66699 39 1 67 -23l24 -21c0 84 -2 132 -6 144c-2.66699 8.66699 -16.667 21.667 -42 39c-20.667 13.333 -35.667 28.833 -45 46.5
s-15 41.167 -17 70.5c-5.33301 73.333 22.334 126.333 83.001 159c17.333 9.33301 30.666 22.666 39.999 39.999c10 17.333 20.5 26.5 31.5 27.5s20.5 -6.16699 28.5 -21.5z" />
    <glyph glyph-name="percent" unicode="%" horiz-adv-x="654" 
d="M522 178c-18 0 -33.333 -28.667 -46 -86c-3.33301 -14 -4.66602 -24.167 -3.99902 -30.5s3.33398 -13.166 8.00098 -20.499c5.33301 -8.66699 9.16602 -13.334 11.499 -14.001s7.16602 2.33301 14.499 9c15.333 13.333 27 34 35 62s8.66699 50.667 2 68
c-2.66699 8 -9.66699 12 -21 12zM476 265c11.333 6.66699 20.002 10.001 26.002 10.001s11.333 -3 16 -9c4.66699 -6.66699 18 -12.667 40 -18c14.667 -4 24.5 -8.33301 29.5 -13s11.833 -16 20.5 -34c16.667 -38 20 -78.5 10 -121.5s-31 -77.5 -63 -103.5
c-13.333 -10.667 -24 -17.5 -32 -20.5s-20 -4.5 -36 -4.5c-24 -0.666992 -41.333 3.66602 -52 12.999c-18.667 17.333 -30.834 42.833 -36.501 76.5s-3.16699 67.167 7.5 100.5c23.333 70 46.666 111.333 69.999 124zM202.002 410.001c-2 24.667 -6.66699 39.501 -14 44.501
s-20 1.83301 -38 -9.5c-20 -12 -31.333 -25.333 -34 -40c-3.33301 -16.667 -3.5 -29.167 -0.5 -37.5s9.83301 -16.5 20.5 -24.5c20.667 -14.667 37.667 -15.334 51 -2.00098s18.333 36.333 15 69zM130.002 513.002c8 10 32.332 21.667 72.999 35
c21.333 -9.33301 37 -21 47 -35s19.333 -38.333 28 -73c16.667 -66.667 5.66699 -119.334 -33 -158.001c-18 -17.333 -33.333 -26.666 -46 -27.999c-77.333 -4 -128.666 16.333 -153.999 61c-12 21.333 -16.667 44 -14 68c2.66699 28.667 13 57.5 31 86.5
s32.667 40.167 44 33.5c4.66699 -3.33301 12.667 0 24 10zM295.001 -34.998c0 -9.33301 -5.83203 -19.501 -17.499 -30.501s-21.834 -15.833 -30.501 -14.5c-7.33301 1.33301 -15 9 -23 23c-6 10 -9 18.5 -9 25.5s3.33301 22.5 10 46.5c18.667 67.333 55 160 109 278
c50 110 79 179.333 87 208c6 22.667 15 37.334 27 44.001c22 12 38.667 8 50 -12c4.66699 -8.66699 6.66699 -16.5 6 -23.5s-5 -22.5 -13 -46.5c-8.66699 -30.667 -34.667 -93.5 -78 -188.5s-71.333 -162.167 -84 -201.5c-4.66699 -16 -9.66699 -30.667 -15 -44
s-9.33301 -24.333 -12 -33s-5 -19 -7 -31z" />
    <glyph glyph-name="ampersand" unicode="&#x26;" horiz-adv-x="456" 
d="M232 168c-37.333 40.667 -60.0029 61.668 -68.0029 63.001c-7.33301 0.666992 -15.166 -6 -23.499 -20s-15.166 -31.333 -20.499 -52c-5.33301 -22 -5.66602 -43 -0.999023 -63s13 -34 25 -42c10 -6.66699 25.167 -8.5 45.5 -5.5s39.833 9.5 58.5 19.5
c24 13.333 35.333 24.666 34 33.999s-18 31.333 -50 66zM194.997 435.001c-14 14 -27.999 11.666 -41.999 -7.00098c-8 -10 -12 -17.333 -12 -22s5 -12.334 15 -23.001l16 -19l16 16c8.66699 8.66699 13.667 18.334 15 29.001s-1.33398 19.334 -8.00098 26.001zM300.998 401
c0 -28 -17.999 -56.665 -53.999 -85.998c-10 -8 -15 -16.167 -15 -24.5s5 -18.5 15 -30.5c1.33301 -2 6.5 -8.33301 15.5 -19s15.5 -18.667 19.5 -24c17.333 -22.667 27.333 -29 30 -19c0.666992 3.33301 1 8 1 14c1.33301 14.667 5.83301 28.5 13.5 41.5
s17.167 16.833 28.5 11.5c18.667 -4 30.834 -12.333 36.501 -25s7.16699 -35 4.5 -67c-2 -27.333 -2.33301 -43.833 -1 -49.5s6.33301 -10.834 15 -15.501c10.667 -6 15.667 -16.333 15 -31c-1.33301 -14 -8 -24.833 -20 -32.5s-23.333 -8.16699 -34 -1.5
c-6 4 -10.5 5.5 -13.5 4.5s-6.83301 -5.5 -11.5 -13.5c-9.33301 -13.333 -23 -25.666 -41 -36.999c-37.333 -25.333 -79.333 -37.666 -126 -36.999s-83.667 14.334 -111 41.001c-16.667 16 -27.167 31.167 -31.5 45.5s-6.5 39.5 -6.5 75.5c0 36.667 4.83301 66.667 14.5 90
s24.167 47.666 43.5 72.999c6 7.33301 10 12.333 12 15s3.33301 6.16699 4 10.5s0.5 7.16602 -0.5 8.49902s-3.16699 5.66602 -6.5 12.999l-9 20c-23.333 44 -28 79.333 -14 106c6.66699 12.667 17.667 26.334 33 41.001s31.666 27 48.999 37
c13.333 7.33301 21.666 11.166 24.999 11.499s13.333 -1.83398 30 -6.50098c22 -6.66699 42.5 -24.667 61.5 -54s28.5 -58 28.5 -86z" />
    <glyph glyph-name="quotesingle" unicode="'" 
d="M40 452c0 20.667 -2.33496 36.334 -7.00195 47.001c-4.66699 9.33301 -4.5 19.666 0.5 30.999s12.5 18 22.5 20c2.66699 0.666992 5.33398 1.5 8.00098 2.5s4.66699 1.5 6 1.5s2.5 0.166992 3.5 0.5s2.16699 0.166016 3.5 -0.500977l3 -1.5
c0.666992 -0.333008 2.5 -1.5 5.5 -3.5l7.5 -5c16 -10.667 26.833 -36.167 32.5 -76.5s1.83398 -65.5 -11.499 -75.5c-18 -14 -34.833 -14.667 -50.5 -2s-23.5 33.334 -23.5 62.001z" />
    <glyph glyph-name="parenleft" unicode="(" horiz-adv-x="226" 
d="M130 569c8 4 13.3281 5.33398 15.9951 4.00098c22.667 -8.66699 36.334 -17.667 41.001 -27s2 -20.333 -8 -33c-7.33301 -9.33301 -16.333 -25.333 -27 -48c-15.333 -33.333 -25.166 -63.166 -29.499 -89.499s-6.5 -71.166 -6.5 -134.499
c-0.666992 -56 -0.166992 -92.833 1.5 -110.5s5.83398 -35.834 12.501 -54.501c3.33301 -8 11.333 -30.5 24 -67.5s22.667 -60.833 30 -71.5c6.66699 -4.66699 10.5 -15.334 11.5 -32.001s-1.16699 -30 -6.5 -40c-10 -18 -26.167 -24.167 -48.5 -18.5
s-35.833 19.167 -40.5 40.5c-1.33301 6.66699 -13.333 46.334 -36 119.001c-15.333 47.333 -24.5 80.166 -27.5 98.499s-5.16699 53.166 -6.5 104.499c-1.33301 64 0.333984 113 5.00098 147c7.33301 44.667 20.833 89 40.5 133s37.834 70.667 54.501 80z" />
    <glyph glyph-name="parenright" unicode=")" horiz-adv-x="246" 
d="M89 597c8.66699 0 22.001 -9.50098 40.001 -28.501s27 -32.833 27 -41.5s6.66699 -27.667 20 -57c26.667 -58 39.667 -122.833 39 -194.5s-13.334 -140.5 -38.001 -206.5c-14 -38.667 -24.333 -72 -31 -100c-8 -30.667 -20.667 -52 -38 -64s-36.666 -12.667 -57.999 -2
c-14 9.33301 -20.667 22.833 -20 40.5s5.66699 33.167 15 46.5s22.166 40.833 38.499 82.5s27.833 77.167 34.5 106.5c8 34.667 10.667 75.334 8 122.001c-1.33301 32.667 -3.66602 56.667 -6.99902 72s-11 36.333 -23 63c-20.667 49.333 -33 82.333 -37 99
s-2.33301 31 5 43c7.33301 12.667 15.666 19 24.999 19z" />
    <glyph glyph-name="asterisk" unicode="*" horiz-adv-x="302" 
d="M158 583c6.66699 0 15.8301 -5.16699 27.4971 -15.5s17.5 -18.833 17.5 -25.5c0 -8 9.66699 -14.333 29 -19c20.667 -4 33 -12.333 37 -25c2.66699 -8.66699 3.33398 -15.167 2.00098 -19.5s-6 -10.833 -14 -19.5c-11.333 -12 -17.166 -20.333 -17.499 -25
s3.83398 -12.667 12.501 -24c16.667 -21.333 16.334 -40.333 -0.999023 -57c-24 -23.333 -45.667 -26 -65 -8c-17.333 15.333 -33 16.333 -47 3c-14.667 -12.667 -29.834 -11.667 -45.501 3s-23.5 35 -23.5 61c0 11.333 -3.33301 17 -10 17c-14 0 -23.667 13.333 -29 40
c-2.66699 16.667 1 29.5 11 38.5s24 11.833 42 8.5c13.333 -2 21.5 -2 24.5 0s6.5 10.333 10.5 25c7.33301 25.333 20.333 39.333 39 42z" />
    <glyph glyph-name="plus" unicode="+" horiz-adv-x="420" 
d="M390 271c0 -10 -6.66406 -22.332 -19.9971 -36.999c-10 -10.667 -17.167 -16.5 -21.5 -17.5s-11.833 0.833008 -22.5 5.5c-18.667 8 -47 14.667 -85 20c4 -46 10.333 -79.333 19 -100c12.667 -25.333 8.16699 -47 -13.5 -65s-43.167 -15.333 -64.5 8
c-10 9.33301 -16 17.833 -18 25.5s-3.33301 27.5 -4 59.5c-1.33301 44.667 -3 68.667 -5 72c-4 3.33301 -17.333 4.5 -40 3.5s-36.667 -0.166992 -42 2.5c-12.667 4.66699 -23.334 11.667 -32.001 21s-12 17.666 -10 24.999c7.33301 24 17.333 39.167 30 45.5
s31 5.16602 55 -3.50098c19.333 -7.33301 30.333 -9 33 -5s3.33398 22.333 2.00098 55c-0.666992 33.333 2.66602 55.333 9.99902 66c14 20.667 31 23.334 51 8.00098c5.33301 -4 9.16602 -10.5 11.499 -19.5s4.16602 -26.167 5.49902 -51.5l4 -61
c29.333 1.33301 64.333 0.333008 105 -3c7.33301 -0.666992 17.833 -8 31.5 -22s20.5 -24.667 20.5 -32z" />
    <glyph glyph-name="comma" unicode="," horiz-adv-x="188" 
d="M118 96c0 -3.33301 5.66895 -15.6689 17.002 -37.002c21.333 -41.333 27.333 -75 18 -101c-4.66699 -14 -10.834 -23.5 -18.501 -28.5s-20.834 -9.16699 -39.501 -12.5c-11.333 -3.33301 -23.166 -1.5 -35.499 5.5s-18.5 15.5 -18.5 25.5c0 8 4 18 12 30
c12 17.333 8 37.333 -12 60c-8 9.33301 -11.667 20.833 -11 34.5s6 25.834 16 36.501c9.33301 10.667 23.666 14.334 42.999 11.001s29 -11.333 29 -24z" />
    <glyph glyph-name="hyphen" unicode="-" horiz-adv-x="297" 
d="M46 245c8.66699 10 17.499 15.8301 26.499 17.4971s35.833 2.83398 80.5 3.50098l90 3l12 -21c16.667 -28.667 13.334 -49 -9.99902 -61c-14 -5.33301 -28.667 -7.66602 -44 -6.99902s-35.666 -0.333008 -60.999 -3c-58 -6.66699 -92.667 0.666016 -104 21.999
c-5.33301 8.66699 -7.33301 15.834 -6 21.501s6.66602 13.834 15.999 24.501z" />
    <glyph glyph-name="period" unicode="." horiz-adv-x="169" 
d="M55 64c6.66699 7.33301 16.498 12.1699 29.498 14.5029s23.167 0.833008 30.5 -4.5c12.667 -8.66699 20.5 -23.334 23.5 -44.001s-0.5 -36 -10.5 -46c-13.333 -13.333 -29.666 -19.833 -48.999 -19.5s-34.333 7.16602 -45 20.499
c-5.33301 6.66699 -5.66602 18.667 -0.999023 36s12 31.666 22 42.999z" />
    <glyph glyph-name="slash" unicode="/" horiz-adv-x="323" 
d="M199 487c-2 10 3.83203 22.335 17.499 37.002s24.834 22.667 33.501 24c4.66699 0 11.667 -4.33301 21 -13s16.666 -17.667 21.999 -27c-4 -20.667 -21 -73.334 -51 -158.001s-47.667 -139.667 -53 -165c-6 -24 -12.667 -48.667 -20 -74l-18.5 -65.5
c-5 -18.333 -9.83301 -39.166 -14.5 -62.499c-9.33301 -52 -26.666 -78 -51.999 -78c-14.667 -0.666992 -32.667 10.666 -54 33.999c13.333 35.333 31.333 97.333 54 186c33.333 130 66 231.333 98 304c11.333 25.333 17 44.666 17 57.999z" />
    <glyph glyph-name="zero" unicode="0" horiz-adv-x="393" 
d="M180 464c-4 0 -11.834 -11.5 -23.501 -34.5s-20.167 -44.167 -25.5 -63.5c-6.66699 -24 -11 -60.167 -13 -108.5s-0.333008 -84.5 5 -108.5c3.33301 -14.667 8.83301 -23.834 16.5 -27.501s22.167 -3.5 43.5 0.5c16 3.33301 29.333 9.83301 40 19.5
s21.334 25.167 32.001 46.5c10.667 20 17 54 19 102s-1.33301 83.667 -10 107c-8 19.333 -14.667 31.333 -20 36s-18 11.334 -38 20.001c-16 7.33301 -24.667 11 -26 11zM215.999 555c14.667 0 25.6689 -2.33203 33.002 -6.99902s21.333 -17.667 42 -39
c26.667 -28.667 42.834 -47.834 48.501 -57.501s11.167 -27.5 16.5 -53.5c12 -57.333 9.16699 -123.166 -8.5 -197.499s-41.834 -121.833 -72.501 -142.5c-21.333 -14 -40 -23.667 -56 -29c-24.667 -10 -52.334 -12.333 -83.001 -7s-54 16.333 -70 33
c-24 24.667 -36 79.667 -36 165c0 71.333 10.833 134.666 32.5 189.999s51.5 96 89.5 122c23.333 15.333 44.666 23 63.999 23z" />
    <glyph glyph-name="one" unicode="1" horiz-adv-x="278" 
d="M211 17c-12.667 0 -26.168 3.83398 -40.501 11.501s-22.833 15.5 -25.5 23.5c-1.33301 16.667 0.333984 76.334 5.00098 179.001s6.66699 160.667 6 174c-2 -2 -9.33301 -9.83301 -22 -23.5s-23.667 -24.334 -33 -32.001s-17 -11.5 -23 -11.5
c-10.667 0.666992 -21.334 5.5 -32.001 14.5s-16 18.167 -16 27.5c-0.666992 6 18.333 31.667 57 77s58 71 58 77c15.333 36 34 51 56 45c17.333 -4.66699 28 -9.66699 32 -15c8.66699 -12 13.334 -57.667 14.001 -137c0.666992 -20 1 -62.667 1 -128
c0.666992 -154 -2 -241.333 -8 -262c-7.33301 -12.667 -17 -19.334 -29 -20.001z" />
    <glyph glyph-name="two" unicode="2" horiz-adv-x="389" 
d="M284 457c0 20.667 -14.335 37.502 -43.002 50.502s-55.667 15.167 -81 6.5c-38 -13.333 -65.333 -35.333 -82 -66c-10 -17.333 -16 -26 -18 -26c-3.33301 0 -7.66602 7.16699 -12.999 21.5s-8 25.833 -8 34.5c0 12 13.667 31.167 41 57.5s50 41.833 68 46.5
c39.333 11.333 78.833 8.66602 118.5 -8.00098s67.5 -42.334 83.5 -77.001c10 -21.333 12 -49 6 -83s-17.667 -61.667 -35 -83c-41.333 -52 -78.666 -96 -111.999 -132c-47.333 -50.667 -71 -80.334 -71 -89.001c-0.666992 -6.66699 13 -8.66699 41 -6h4
c10.667 1.33301 22.667 2.5 36 3.5s24.166 2 32.499 3s16.5 3.16699 24.5 6.5c6.66699 4.66699 17 5 31 1s24 -10.333 30 -19c12.667 -18 13.334 -39.667 2.00098 -65c-9.33301 -20.667 -34.333 -24 -75 -10c-15.333 5.33301 -40.666 5.33301 -75.999 0s-58 -12.333 -68 -21
c-9.33301 -8.66699 -21.333 -13.167 -36 -13.5s-27.334 3.83398 -38.001 12.501c-16.667 14 -19.667 47.333 -9 100c4 18.667 12.5 37.167 25.5 55.5s35.5 43.833 67.5 76.5c102.667 102.667 154 177 154 223z" />
    <glyph glyph-name="three" unicode="3" horiz-adv-x="443" 
d="M120 325c0 28.667 15.002 49.6641 45.002 62.9971c28 12 46 26.833 54 44.5s4 32.834 -12 45.501c-26 20.667 -57.667 16 -95 -14c-28 -22.667 -51.333 -25.667 -70 -9c-28.667 25.333 -8.33398 56 60.999 92c28 14.667 50.667 21.667 68 21s39 -8.66699 65 -24
c29.333 -17.333 48.333 -30.333 57 -39c16.667 -15.333 26 -34.666 28 -57.999s-4.33301 -43.333 -19 -60c-9.33301 -10.667 -13.5 -17.667 -12.5 -21s8.83301 -9 23.5 -17c17.333 -9.33301 36.333 -25.833 57 -49.5s33 -43.167 37 -58.5
c5.33301 -20 7.16602 -37 5.49902 -51s-8.16699 -32 -19.5 -54c-27.333 -54.667 -58 -86.667 -92 -96c-18 -5.33301 -33.667 -7.83301 -47 -7.5s-39.333 3.83301 -78 10.5c-28.667 5.33301 -47.5 10 -56.5 14s-22.167 14.333 -39.5 31
c-20.667 20.667 -33.334 37.167 -38.001 49.5s-2.66699 23.5 6 33.5c8.66699 9.33301 19.834 13.5 33.501 12.5s27.167 -6.83301 40.5 -17.5c7.33301 -5.33301 13.5 -10.833 18.5 -16.5s9.5 -9.66699 13.5 -12s11.667 -5.16602 23 -8.49902
c29.333 -8.66699 55.5 -9.5 78.5 -2.5s40.5 21.167 52.5 42.5c11.333 21.333 16 37.666 14 48.999s-11.667 24.333 -29 39c-15.333 13.333 -28.5 21 -39.5 23s-37.167 2.33301 -78.5 1c-14.667 -0.666992 -27.5 3.33301 -38.5 12s-16.5 19.334 -16.5 32.001z" />
    <glyph glyph-name="four" unicode="4" horiz-adv-x="468" 
d="M238 373c-4 0 -18.168 -18.833 -42.501 -56.5s-36.5 -59.834 -36.5 -66.501c0 -6 11 -8.66699 33 -8c18.667 0.666992 29.834 4.83398 33.501 12.501s8.16699 33.167 13.5 76.5c3.33301 28 3 42 -1 42zM29.999 201c0 20 6.00098 35.9951 18.001 47.9951
c8.66699 8.66699 24.667 28.834 48 60.501s39 55.167 47 70.5c5.33301 10.667 11.333 19.334 18 26.001c8.66699 10 19.834 27.333 33.501 52s20.5 39.667 20.5 45c0 8 6 19.667 18 35c24.667 32 51.667 33.333 81 4c9.33301 -9.33301 14.833 -17.166 16.5 -23.499
s1.83398 -19.166 0.500977 -38.499c-4 -42 -8 -91.667 -12 -149s-5.33301 -86.666 -4 -87.999c2.66699 -2 10.667 -3.16699 24 -3.5s26 0.833984 38 3.50098c10.667 2.66699 18.5 3.16699 23.5 1.5s11.5 -7.5 19.5 -17.5c11.333 -13.333 17.166 -23.5 17.499 -30.5
s-4.16699 -16.5 -13.5 -28.5c-6.66699 -8.66699 -13.167 -13.834 -19.5 -15.501s-20.5 -2.16699 -42.5 -1.5c-31.333 1.33301 -48.666 0.333008 -51.999 -3c-4 -4 -5.33301 -26.667 -4 -68c0.666992 -29.333 0.166992 -48 -1.5 -56s-6.83398 -16.333 -15.501 -25
c-18.667 -18.667 -39.334 -17.667 -62.001 3c-5.33301 4.66699 -8.83301 11.334 -10.5 20.001s-2.16699 25.667 -1.5 51c0 6 0.333008 14 1 24c1.33301 31.333 -0.333984 49.666 -5.00098 54.999c-5.33301 4.66699 -22.333 6 -51 4l-24 -1
c-47.333 -2 -76.833 -0.5 -88.5 4.5s-17.5 18.833 -17.5 41.5z" />
    <glyph glyph-name="five" unicode="5" horiz-adv-x="427" 
d="M235 478c-34.667 0 -59.1738 -3.50098 -73.5068 -10.501s-23.166 -19.167 -26.499 -36.5c-2.66699 -16.667 -2.83398 -26 -0.500977 -28s11.166 -0.333008 26.499 5c14.667 5.33301 29.667 6.5 45 3.5s36 -11.167 62 -24.5c48 -22.667 82.833 -55.5 104.5 -98.5
s28.5 -92.167 20.5 -147.5c-2 -12.667 -6.16699 -24 -12.5 -34s-18.166 -23.667 -35.499 -41c-18.667 -20 -32.167 -32.667 -40.5 -38s-20.166 -8.66602 -35.499 -9.99902c-19.333 -1.33301 -46 1.5 -80 8.5s-61 15.5 -81 25.5c-23.333 12 -39.5 27.833 -48.5 47.5
s-8.5 38.834 1.5 57.501c5.33301 10 16.166 14.5 32.499 13.5s29.833 -6.83301 40.5 -17.5c11.333 -10 17 -18 17 -24c0 -6.66699 20.667 -12.667 62 -18c17.333 -2.66699 29 -3 35 -1s15 9 27 21s19 21.333 21 28s2.33301 20.667 1 42
c-1.33301 23.333 -5.66602 40.833 -12.999 52.5s-23.666 26.834 -48.999 45.501c-32.667 25.333 -66.667 24.666 -102 -2.00098c-32.667 -25.333 -60.667 -28.333 -84 -9c-8.66699 7.33301 -14.5 18 -17.5 32s-2.16699 27 2.5 39c4.66699 16 10.334 45.333 17.001 88
c5.33301 36.667 11.333 61.5 18 74.5s16.334 19.5 29.001 19.5c4 0.666992 21.667 4.33398 53 11.001s57 10 77 10c34.667 1.33301 56.667 3.66602 66 6.99902c10.667 4.66699 18.334 6.5 23.001 5.5s11.334 -6.5 20.001 -16.5c10 -10.667 15.5 -19.334 16.5 -26.001
s-1.16699 -16 -6.5 -28c-4.66699 -10 -14.667 -16.833 -30 -20.5s-42.666 -5.5 -81.999 -5.5z" />
    <glyph glyph-name="six" unicode="6" horiz-adv-x="400" 
d="M258 224c-20.667 18.667 -43.3359 24 -68.0029 16s-40.667 -23.667 -48 -47c-12 -28 -2.33301 -47 29 -57c18.667 -6 36.834 -6.16699 54.501 -0.5s29.834 15.834 36.501 30.501c7.33301 15.333 10.833 26.666 10.5 33.999s-5.16602 15.333 -14.499 24zM205.998 331
c12.667 0 27.3281 -1.99805 43.9951 -5.99805s26.334 -8 29.001 -12s11.334 -10 26.001 -18c20 -10.667 33 -22.834 39 -36.501s8.66699 -36.167 8 -67.5c-0.666992 -29.333 -4 -51.666 -10 -66.999s-17 -31 -33 -47c-14.667 -13.333 -39 -22.333 -73 -27
c-34.667 -4.66699 -63 -3 -85 5s-46.667 25.667 -74 53c-18.667 18.667 -30.334 32 -35.001 40s-8 21 -10 39c-3.33301 27.333 -3.16602 61.833 0.500977 103.5s9.83398 76.167 18.501 103.5c26 85.333 68.667 143.666 128 174.999c52 28 101.667 18.667 149 -28
c20.667 -20.667 33.834 -41.167 39.501 -61.5s2.16699 -35.833 -10.5 -46.5c-8.66699 -8.66699 -19 -11.334 -31 -8.00098s-23 12.333 -33 27c-16 22 -27.5 35.667 -34.5 41s-16.167 6.66602 -27.5 3.99902c-36 -6 -63 -29.333 -81 -70
c-8.66699 -19.333 -17 -44.5 -25 -75.5s-10.667 -47.833 -8 -50.5c2.66699 0 16.334 5.33301 41.001 16s40.667 15.334 48 14.001z" />
    <glyph glyph-name="seven" unicode="7" horiz-adv-x="442" 
d="M296 305c0 -8.66699 -3.66504 -23.333 -10.998 -44c-8.66699 -26 -15.834 -61 -21.501 -105s-6.83398 -75 -3.50098 -93c4 -21.333 4.5 -36.833 1.5 -46.5s-10.5 -17.834 -22.5 -24.501c-42.667 -22.667 -67.667 -13 -75 29
c-3.33301 19.333 -3.16602 56.333 0.500977 111s8.83398 90 15.501 106c26.667 76 49 131.333 67 166c18 38 26.667 57.333 26 58c-3.33301 3.33301 -63.333 -2 -180 -16c-42 -5.33301 -63 10.667 -63 48c0 20.667 6.83301 33 20.5 37s53.5 6.33301 119.5 7
c58.667 0.666992 95.667 2.33398 111 5.00098s36.666 9.66699 63.999 21c14 4 29.667 -3.16699 47 -21.5s23.666 -34.833 18.999 -49.5c-3.33301 -9.33301 -14.666 -24.333 -33.999 -45c-16.667 -18 -34.334 -43.5 -53.001 -76.5s-28 -55.167 -28 -66.5z" />
    <glyph glyph-name="eight" unicode="8" horiz-adv-x="462" 
d="M277 244c-2.66699 -1.33301 -10.1689 -0.998047 -22.502 1.00195s-25.166 4.5 -38.499 7.5s-20.666 4.5 -21.999 4.5c-8.66699 2 -20 -0.666992 -34 -8s-23 -15.333 -27 -24c-12 -27.333 -8.66699 -55 10 -83c9.33301 -16 25.666 -26.667 48.999 -32
c32.667 -8.66699 58.834 -10.334 78.501 -5.00098s36.167 18.666 49.5 39.999c22 36 17.333 64.667 -14 86c-16 10 -25.667 14.333 -29 13zM316.998 445.002c-1.33301 7.33301 -3.99902 12.332 -7.99902 14.999s-10.667 4 -20 4c-22 -0.666992 -43.667 -10.667 -65 -30
c-12 -10 -17 -17.667 -15 -23s11.667 -11.333 29 -18l31 -11c2 2 6 5.33301 12 10l15 12c4 3.33301 8.66699 7.83301 14 13.5s8.16602 10.334 8.49902 14.001s-0.166992 8.16699 -1.5 13.5zM102.999 447.001c0 7.33301 10.998 20.9941 32.998 40.9941s42 34.333 60 43
c38.667 17.333 78.667 22.666 120 15.999c6 -1.33301 13.333 -2.66602 22 -3.99902s13.334 -2 14.001 -2c6.66699 0 15.5 -5.66699 26.5 -17s18.167 -21.666 21.5 -30.999c4.66699 -14.667 7.16699 -36.167 7.5 -64.5s-1.5 -47.833 -5.5 -58.5
c-7.33301 -16.667 -23.666 -35 -48.999 -55c3.33301 -3.33301 9.16602 -8.66602 17.499 -15.999l19.5 -17.5c4.66699 -4.33301 10 -10 16 -17s10.667 -14.167 14 -21.5s5.66602 -15 6.99902 -23c4 -17.333 5.83301 -29.833 5.5 -37.5s-3.16602 -18.5 -8.49902 -32.5
c-10 -27.333 -21.5 -49.5 -34.5 -66.5s-31.833 -34.5 -56.5 -52.5c-11.333 -8.66699 -21.833 -13.667 -31.5 -15s-33.834 -1.66602 -72.501 -0.999023c-39.333 0.666992 -67 2.33398 -83 5.00098s-31.667 9 -47 19c-46 29.333 -69 86 -69 170
c0.666992 20 10.667 44.667 30 74c13.333 20.667 21.333 34.834 24 42.501s3 18.834 1 33.501c-0.666992 8 -2.16699 17 -4.5 27s-3.16602 17.5 -2.49902 22.5s4.33398 10.833 11.001 17.5c9.33301 8 14 15 14 21z" />
    <glyph glyph-name="nine" unicode="9" horiz-adv-x="416" 
d="M201 464c-12 0 -20.6689 -1.66797 -26.002 -5.00098s-11.666 -11 -18.999 -23c-40.667 -63.333 -43.667 -105.333 -9 -126c30 -18.667 64.333 -18.667 103 0c12.667 6.66699 20.5 12.334 23.5 17.001s4.5 14 4.5 28c0 15.333 -3.66699 32.833 -11 52.5s-16 34.5 -26 44.5
c-9.33301 8 -22.666 12 -39.999 12zM291.998 515.999c0 -5.33301 3.66699 -9.66797 11 -13.001c8 -2.66699 24.333 -30.667 49 -84c14 -27.333 23.333 -48 28 -62s6.66699 -23.833 6 -29.5s-2.5 -16.5 -5.5 -32.5s-4.5 -34 -4.5 -54c-1.33301 -36 -4.33301 -62.333 -9 -79
c-4.66699 -18.667 -17 -42 -37 -70s-38 -47.667 -54 -59c-13.333 -9.33301 -33.833 -16 -61.5 -20s-46.834 -3.33301 -57.501 2c-17.333 8.66699 -34.333 16.334 -51 23.001c-16 6.66699 -27.333 13.167 -34 19.5s-15 18.5 -25 36.5c-12 22.667 -17.833 38.334 -17.5 47.001
s7.16602 17.334 20.499 26.001c12.667 8 26 8.16699 40 0.5s23.333 -16.5 28 -26.5c12.667 -23.333 29.667 -36.833 51 -40.5s40.666 3.83301 57.999 22.5c29.333 32.667 47.333 59.334 54 80.001c2.66699 7.33301 1.33398 11.666 -3.99902 12.999
c-6 1.33301 -27.333 1 -64 -1l-74 -5l-31 26c-58 47.333 -79.333 99.666 -64 156.999c7.33301 28.667 21.333 59.167 42 91.5s40.334 55.166 59.001 68.499c16.667 10.667 31.334 15 44.001 13c15.333 -2.66699 36.333 -10.5 63 -23.5s40 -21.833 40 -26.5z" />
    <glyph glyph-name="colon" unicode=":" horiz-adv-x="192" 
d="M30 100c0 4 6 13.333 18 28c10.667 13.333 19.334 20.166 26.001 20.499s18.334 -5.16699 35.001 -16.5c28 -19.333 32.667 -43.666 14 -72.999c-6.66699 -10.667 -16.834 -18 -30.501 -22s-24.834 -2.66699 -33.501 4c-5.33301 4 -11.5 13.167 -18.5 27.5
s-10.5 24.833 -10.5 31.5zM92 427c16.667 12 33.9971 8.66504 51.9971 -10.002c11.333 -12 17.333 -22 18 -30s-4 -18 -14 -30c-8 -10.667 -18.167 -16 -30.5 -16s-22.166 5.33301 -29.499 16s-10.666 23.334 -9.99902 38.001s5.33398 25.334 14.001 32.001z" />
    <glyph glyph-name="semicolon" unicode=";" horiz-adv-x="206" 
d="M170 45c0 -47.333 -17.001 -93.666 -51.001 -138.999c-13.333 -18 -22.333 -28.5 -27 -31.5s-13 -3.5 -25 -1.5c-20 3.33301 -32 11.833 -36 25.5s1.33301 29.167 16 46.5c18 21.333 26.333 47.666 25 78.999c-0.666992 29.333 -0.5 47.666 0.5 54.999
s4.83301 13.333 11.5 18c20.667 16.667 43.334 15.334 68.001 -3.99902c12 -9.33301 18 -25.333 18 -48zM90.999 405c12 11.333 21.668 16.666 29.001 15.999s18.666 -8 33.999 -22c11.333 -10 18 -17.5 20 -22.5s2 -12.5 0 -22.5c-2.66699 -14.667 -11 -25.667 -25 -33
c-13.333 -6.66699 -22.666 -9.66699 -27.999 -9s-14.333 6.33398 -27 17.001c-14 11.333 -21.333 23.833 -22 37.5s5.66602 26.5 18.999 38.5z" />
    <glyph glyph-name="equal" unicode="=" horiz-adv-x="412" 
d="M64 229c4 20 10.668 33.6689 20.001 41.002s25 7 47 -1c13.333 -4 43.5 -6.33301 90.5 -7s81.167 0.666016 102.5 3.99902c31.333 4.66699 50.333 -10.333 57 -45c2.66699 -14 -2.66602 -27.333 -15.999 -40c-8.66699 -8 -15.834 -12.833 -21.501 -14.5
s-15.834 -1.5 -30.501 0.5c-20.667 3.33301 -62 5.66602 -124 6.99902c-57.333 1.33301 -93.5 5.33301 -108.5 12s-20.5 21 -16.5 43zM377.001 361.002c0 -8 -1.33594 -13.832 -4.00293 -17.499s-10.5 -6.66699 -23.5 -9s-29.5 -3.83301 -49.5 -4.5s-51 -1 -93 -1
c-64 0.666992 -105.333 1.66699 -124 3s-30.667 4.33301 -36 9c-4.66699 3.33301 -8 7 -10 11s-3.33301 9 -4 15s-1.66699 11 -3 15c-2 6 2 14.667 12 26c6.66699 6.66699 12.334 10.667 17.001 12s12.334 0.333008 23.001 -3c11.333 -2 35.333 -3.16699 72 -3.5
s72.334 -0.333008 107.001 0s65.667 0.166016 93 -0.500977c15.333 -24.667 23 -42 23 -52z" />
    <glyph glyph-name="greater" unicode="&#x3e;" horiz-adv-x="441" 
d="M45 462c18.667 20 43.335 19.6689 74.002 -0.998047c32 -21.333 85.333 -41 160 -59c25.333 -6 44.666 -6.66699 57.999 -2c27.333 9.33301 48.333 2 63 -22c8.66699 -13.333 12.667 -28.833 12 -46.5s-5.66699 -31.5 -15 -41.5
c-9.33301 -10.667 -23 -18.334 -41 -23.001c-24 -6.66699 -63.833 -26.334 -119.5 -59.001s-99.5 -61.667 -131.5 -87c-12 -10 -24 -13.5 -36 -10.5s-21.667 11.5 -29 25.5c-14.667 27.333 -3.33398 51.333 33.999 72l107 63c48 28.667 72 45.334 72 50.001
c-1.33301 2.66699 -3.66602 4.66699 -6.99902 6c-14.667 5.33301 -44.834 14.166 -90.501 26.499s-72.167 18.833 -79.5 19.5c-8 0 -18 5.33301 -30 16c-10.667 10 -16 22 -16 36s5 26.333 15 37z" />
    <glyph glyph-name="question" unicode="?" horiz-adv-x="429" 
d="M222 164c-6 0 -12.668 7.83398 -20.001 23.501s-11 29.5 -11 41.5c0 55.333 12.667 101 38 137c46 66.667 61 110.334 45 131.001c-18.667 22.667 -45.334 31.334 -80.001 26.001c-43.333 -6 -67 -28.667 -71 -68c-4 -36 -21.333 -54 -52 -54
c-10.667 0 -20.167 4.83301 -28.5 14.5s-12.5 20.834 -12.5 33.501c0 25.333 12.333 53.333 37 84s51.334 51 80.001 61l33 12c22 8.66699 38.167 12 48.5 10s37.5 -14 81.5 -36l35 -17c6 -2.66699 17 -16 33 -40c15.333 -23.333 21.833 -44.333 19.5 -63
s-16.5 -52.334 -42.5 -101.001c-3.33301 -8.66699 -9.33301 -14.334 -18 -17.001c-28 -8.66699 -43.667 -43 -47 -103c-0.666992 -12.667 -1.33398 -22.667 -2.00098 -30s-2.5 -14 -5.5 -20s-4.83301 -9.83301 -5.5 -11.5s-4.5 -5.33398 -11.5 -11.001
s-11.5 -9.16699 -13.5 -10.5c20.667 -26.667 32.334 -48.334 35.001 -65.001c5.33301 -20 -3.16699 -34 -25.5 -42s-41.166 -5 -56.499 9c-12 10 -17.5 24.333 -16.5 43s8.16699 34 21.5 46c12.667 11.333 16.667 17 12 17z" />
    <glyph glyph-name="at" unicode="@" horiz-adv-x="793" 
d="M423 373c0 16.667 -11.6689 17.668 -35.002 3.00098c-19.333 -12 -35.666 -32.833 -48.999 -62.5s-21.666 -64.834 -24.999 -105.501c-3.33301 -38.667 -2 -58 4 -58c8.66699 0 21.167 9 37.5 27s27.5 34.667 33.5 50c6.66699 18 14 44.167 22 78.5s12 56.833 12 67.5z
M329.998 45.001c-27.333 0 -55.998 17.332 -85.998 51.999c-14.667 16 -23.334 36.833 -26.001 62.5s-0.333984 60.834 6.99902 105.501c14.667 89.333 44 152.333 88 189c14 11.333 26 19.166 36 23.499s24.667 7.16602 44 8.49902c10 0.666992 25 3.16699 45 7.5
s35.667 5.83301 47 4.5s21.666 -7 30.999 -17l20 -19l-4 -118c-6 -124 1 -190.333 21 -199c14.667 -5.33301 29.834 1 45.501 19s27.167 42.667 34.5 74c6 24 11 35 15 33c2.66699 -2 4 -2 4 0c-0.666992 1.33301 -1.66699 3 -3 5c-4 8.66699 -6.66699 30.334 -8 65.001
c-0.666992 46 -8.33398 86.833 -23.001 122.5s-34.334 62.167 -59.001 79.5c-11.333 8 -22.5 13.5 -33.5 16.5s-28.833 5.16699 -53.5 6.5c-10 2.66699 -21.333 3 -34 1s-22.5 -3 -29.5 -3s-15.667 -2.16699 -26 -6.5l-23 -9.5c-5 -2 -12 -5.83301 -21 -11.5
s-15.667 -10.167 -20 -13.5s-11.166 -8.33301 -20.499 -15l-22 -16c-22 -16 -32.333 -25.333 -31 -28c2.66699 0 1.66699 -1.33301 -3 -4c-1.33301 -0.666992 -3 -1.33398 -5 -2.00098c-8.66699 -4 -22 -22 -40 -54s-33 -65 -45 -99
c-9.33301 -25.333 -15 -45.666 -17 -60.999s-2.66699 -44.333 -2 -87c0.666992 -40.667 1.83398 -68.667 3.50098 -84s5.83398 -30 12.501 -44c19.333 -43.333 58 -73.666 116 -90.999c31.333 -9.33301 73 -12.666 125 -9.99902c50 2.66699 78 6 84 10
c8 5.33301 18.667 9.33301 32 12c44 8.66699 95 39.667 153 93c19.333 18 42.666 18.667 69.999 2c33.333 -20 43 -42.333 29 -67c-4.66699 -10 -27.5 -29.333 -68.5 -58s-73.167 -48 -96.5 -58c-42 -18 -99.667 -31.667 -173 -41c-83.333 -10 -156 0.333008 -218 31
c-36 16.667 -55.333 25 -58 25c-5.33301 0 -8 2 -8 6c0 2.66699 -9.33301 14.667 -28 36c-14 15.333 -25.333 30.833 -34 46.5s-18.667 38.5 -30 68.5c-9.33301 26 -14 76.167 -14 150.5s4.66699 129.5 14 165.5c6.66699 23.333 15.334 47.166 26.001 71.499
s18.667 38.5 24 42.5c4.66699 2.66699 8 9.33398 10 20.001c4 13.333 25.5 38.666 64.5 75.999s70.167 62.666 93.5 75.999c6 3.33301 15 8 27 14l23 11.5c3.33301 1.66699 9.66602 4.16699 18.999 7.5s16.666 5.33301 21.999 6l24 3c10.667 1.33301 21.667 1.83301 33 1.5
s25.333 -0.833008 42 -1.5c38.667 -1.33301 64.5 -3 77.5 -5s29.5 -8 49.5 -18c68 -33.333 117.833 -93 149.5 -179s35.834 -173.667 12.501 -263c-11.333 -44.667 -30.333 -83 -57 -115s-56 -51.667 -88 -59c-18 -4 -30.833 -5.66699 -38.5 -5
s-20.167 4.33398 -37.5 11.001c-26 8 -52.333 28.667 -79 62l-28 -23c-32 -26 -59.667 -39 -83 -39z" />
    <glyph glyph-name="A" unicode="A" horiz-adv-x="490" 
d="M252 408c-2.66699 0 -9.16504 -13.667 -19.498 -41s-15.5 -44.333 -15.5 -51c0 -4 10.667 -5.33301 32 -4c14.667 0.666992 23.5 1.66699 26.5 3s3.5 5.33301 1.5 12c-1.33301 2.66699 -3.33301 10.667 -6 24s-5.83398 25.833 -9.50098 37.5
s-6.83398 18.167 -9.50098 19.5zM322.002 546c0 -20 10.1719 -70.5 30.5049 -151.5s40.5 -151.5 60.5 -211.5c24 -68 34.333 -105.333 31 -112c-2 -2.66699 -2.33301 -4 -1 -4l3 1c5.33301 4 9.33301 2 12 -6c3.33301 -8.66699 3.16602 -17.334 -0.500977 -26.001
s-8.83398 -12.334 -15.501 -11.001c-8.66699 1.33301 -15.334 0.333008 -20.001 -3c-6.66699 -4 -16.667 -1.33301 -30 8s-22.333 20 -27 32c-1.33301 2.66699 -12 32 -32 88c-10.667 30.667 -18 49.334 -22 56.001s-9.66699 9.66699 -17 9
c-25.333 -1.33301 -59.333 -2 -102 -2l-19 -50c-20.667 -54 -40 -90 -58 -108s-37 -21 -57 -9c-14.667 8.66699 -23.667 19.334 -27 32.001s-0.666016 25.667 8.00098 39c34 57.333 52.667 98 56 122c3.33301 15.333 6.66602 28 9.99902 38s7.66602 22.333 12.999 37
s10.666 31 15.999 49c15.333 48 34 98.667 56 152s38 86 48 98c6 7.33301 9.83301 11 11.5 11s10.167 -3 25.5 -9c31.333 -12.667 47 -35.667 47 -69z" />
    <glyph glyph-name="B" unicode="B" horiz-adv-x="535" 
d="M377 313c-17.333 11.333 -33.667 12.335 -49 3.00195c-10 -5.33301 -31.833 -12.5 -65.5 -21.5s-56.5 -13.5 -68.5 -13.5c-16 -0.666992 -34 3 -54 11c0 -3.33301 1 -25.5 3 -66.5s4.16699 -74.167 6.5 -99.5s5.16602 -39 8.49902 -41
c12.667 -8.66699 37.334 -8.83398 74.001 -0.500977s69.334 21.5 98.001 39.5c16 10 32.833 27.167 50.5 51.5s28.167 45.166 31.5 62.499c2.66699 13.333 0.666992 27 -6 41s-16.334 25.333 -29.001 34zM153.999 380.002c12 1.33301 67.332 14.3311 165.999 38.998
c12 2.66699 26.167 12.334 42.5 29.001s24.5 29.667 24.5 39c0 8.66699 -6.16699 21 -18.5 37s-22.166 24 -29.499 24c-5.33301 0 -8 2 -8 6c0 4.66699 -9.33301 9.33398 -28 14.001c-26 8 -51.5 9.66699 -76.5 5s-44.167 -14.667 -57.5 -30
c-8.66699 -10 -14.334 -39 -17.001 -87c-3.33301 -50.667 -2.66602 -76 2.00098 -76zM456.998 129c-4.66699 0 -7.00488 -3.33008 -7.00488 -9.99707s-9.66699 -18.5 -29 -35.5s-31.333 -23.833 -36 -20.5s-5.66699 2.33301 -3 -3c2.66699 -4 -2.5 -10.5 -15.5 -19.5
s-29.667 -17.5 -50 -25.5s-38.833 -13.333 -55.5 -16c-30.667 -4.66699 -65.167 -3.83398 -103.5 2.49902s-67.166 16.166 -86.499 29.499c-16.667 14 -28.834 37 -36.501 69s-4.16699 55.667 10.5 71c4 0 6 38 6 114c0 68 2 141.333 6 220
c2.66699 56.667 6.83398 91.834 12.501 105.501s17.834 20.834 36.501 21.501c9.33301 0.666992 25.166 5.16699 47.499 13.5s35.833 13.166 40.5 14.499c30 7.33301 64.333 4.66602 103 -8.00098c32 -11.333 65.167 -31.666 99.5 -60.999s55.833 -56.333 64.5 -81
c10 -26 13.833 -47.333 11.5 -64s-11.5 -34.334 -27.5 -53.001c-4.66699 -4.66699 -6.66699 -9.16699 -6 -13.5s4.66699 -11.5 12 -21.5c5.33301 -8 10.333 -14.833 15 -20.5s8.33398 -10.834 11.001 -15.501s6.66699 -13 12 -25c8.66699 -20 13.834 -42.5 15.501 -67.5
s-1.16602 -39.167 -8.49902 -42.5c-4 -0.666992 -10.667 -10.5 -20 -29.5s-15.666 -28.5 -18.999 -28.5z" />
    <glyph glyph-name="C" unicode="C" horiz-adv-x="565" 
d="M511 110c0.666992 -7.33301 3.66602 -8.66699 8.99902 -4c6.66699 6 7.33398 10.667 2.00098 14l-4 2c-4.66699 0 -7 -4 -7 -12zM469.999 193.999c2.66699 3.33301 4.65625 9.6709 5.98926 19.0039s4 15.666 8 18.999c4.66699 4.66699 11.5 3.66699 20.5 -3
s13.5 -14.334 13.5 -23.001c0 -4.66699 0.333008 -7 1 -7s2.33398 1.66699 5.00098 5c4 6.66699 7.33301 5 10 -5c2.66699 -9.33301 -1.66602 -16.333 -12.999 -21c-11.333 -4 -17 -11.667 -17 -23c0.666992 -7.33301 1.33398 -11 2.00098 -11l4 6l1 2c4 8 8.33301 12 13 12
c2.66699 0 4.16699 -4.83301 4.5 -14.5s-0.5 -19.834 -2.5 -30.501s-4.33301 -17.334 -7 -20.001c-5.33301 -5.33301 -8 -10 -8 -14c0 -4.66699 -9.16699 -15.834 -27.5 -33.501s-32.166 -29.167 -41.499 -34.5s-18 -6.66602 -26 -3.99902
c-4.66699 1.33301 -7.33398 1 -8.00098 -1c0 -0.666992 0.333008 -1.33398 1 -2.00098c2 -3.33301 -2.66699 -6 -14 -8c-34.667 -4 -74.334 -1.66699 -119.001 7l-18 5c-38 12 -77.667 42 -119 90s-71 98 -89 150c-15.333 43.333 -22 87.833 -20 133.5
s12.333 85.834 31 120.501c17.333 32 41.333 60.167 72 84.5s61.334 39.5 92.001 45.5c42.667 8.66699 82.334 7.66699 119.001 -3c38 -10.667 68.833 -33 92.5 -67s25.834 -58.333 6.50098 -73c-26.667 -19.333 -55.667 -6 -87 40c-5.33301 7.33301 -11.166 12 -17.499 14
s-19.166 2.66699 -38.499 2c-26.667 -0.666992 -47.5 -4.5 -62.5 -11.5s-32.167 -20.833 -51.5 -41.5c-20 -21.333 -34.167 -42.166 -42.5 -62.499s-13.5 -46.166 -15.5 -77.499c-1.33301 -32 1.33398 -60.333 8.00098 -85s19.334 -52.334 38.001 -83.001
c26 -42.667 57.333 -72.334 94 -89.001s76.667 -19 120 -7c32.667 8.66699 55.334 31 68.001 67c6.66699 18.667 11.334 29.667 14.001 33z" />
    <glyph glyph-name="D" unicode="D" horiz-adv-x="584" 
d="M212 468c-42.667 12.667 -65.333 12.001 -68 -1.99902c-4 -14.667 -3.16699 -68.5 2.5 -161.5s11.5 -149.833 17.5 -170.5c5.33301 -20.667 37.833 -31.667 97.5 -33s105.5 7.66699 137.5 27s50.833 41.166 56.5 65.499s-0.833008 54.833 -19.5 91.5
c-20.667 41.333 -51.667 78.833 -93 112.5s-85 57.167 -131 70.5zM48.001 564.001c8 9.33301 14.501 14.8301 19.501 16.4971s15.833 1.5 32.5 -0.5c98 -12 187.667 -46.667 269 -104c59.333 -42 107.333 -95.167 144 -159.5s49.334 -118.166 38.001 -161.499
c-7.33301 -29.333 -26.833 -56.166 -58.5 -80.499s-68.834 -42 -111.501 -53s-83.334 -12.5 -122.001 -4.5c-33.333 6.66699 -56.333 13 -69 19c-10.667 6.66699 -24.167 7.5 -40.5 2.5s-29.5 -3.16699 -39.5 5.5c-10.667 6 -17.667 12.167 -21 18.5s-7 21.5 -11 45.5
c-14.667 98.667 -26 207 -34 325c-4 46.667 -7 72.334 -9 77.001c-10 14 -5.66699 32 13 54z" />
    <glyph glyph-name="E" unicode="E" horiz-adv-x="582" 
d="M191 429c0 -24 0.673828 -38.668 2.00684 -44.001s5.33301 -7.66602 12 -6.99902c24.667 1.33301 59.5 6 104.5 14s71.5 14.667 79.5 20c3.33301 3.33301 11.833 0 25.5 -10s23.167 -19.667 28.5 -29c8.66699 -16.667 9.5 -30 2.5 -40s-23.5 -18.333 -49.5 -25
c-111.333 -24 -179 -30.333 -203 -19c5.33301 -116.667 10 -181.667 14 -195c1.33301 -2.66699 24.666 -4.66699 69.999 -6c47.333 -0.666992 85.666 3.66602 114.999 12.999c28.667 9.33301 49 12.833 61 10.5s22.333 -11.833 31 -28.5s10.667 -29.167 6 -37.5
s-20.667 -19.166 -48 -32.499c-20.667 -10 -37.334 -16 -50.001 -18s-43.334 -2.66699 -92.001 -2c-64.667 0 -110.334 2 -137.001 6c-43.333 6.66699 -77.333 17.167 -102 31.5s-34.667 29.166 -30 44.499c7.33301 24.667 24 37.334 50 38.001
c16.667 1.33301 25.667 2.66602 27 3.99902c0 3.33301 -2.33301 36.333 -7 99c-6.66699 72.667 -9.5 150.667 -8.5 234s4.83301 130 11.5 140c4.66699 8 14.334 12.667 29.001 14s61 2.66602 139 3.99902c100.667 1.33301 160 4.33301 178 9
c19.333 6.66699 34.833 8.83398 46.5 6.50098s23.167 -9.16602 34.5 -20.499c18.667 -20.667 24.167 -37 16.5 -49s-29.834 -21.667 -66.501 -29c-54.667 -11.333 -134.334 -18.333 -239.001 -21c-26.667 -0.666992 -41.834 -3.66699 -45.501 -9s-5.5 -27.333 -5.5 -66z" />
    <glyph glyph-name="F" unicode="F" horiz-adv-x="487" 
d="M104 19c0 6 -2.00684 5.33008 -6.00684 -2.00293c-2.66699 -4.66699 -6.66699 -6.33398 -12 -5.00098s-10.666 4.33301 -15.999 9s-7.66602 8 -6.99902 10c0 2 -0.833008 3.33301 -2.5 4s-3.16699 0.333984 -4.5 -0.999023
c-4.66699 -2.66699 -8.33398 1.33301 -11.001 12c-7.33301 24.667 -12 99.334 -14 224.001c-2.66699 110 -0.833984 188.5 5.49902 235.5s17.833 70.5 34.5 70.5c8 0 16.667 4.66699 26 14c13.333 13.333 45 21.666 95 24.999c88.667 7.33301 146.334 16.666 173.001 27.999
c36.667 16.667 65.334 5.66699 86.001 -33c6.66699 -12 7.83398 -22.833 3.50098 -32.5s-13.166 -17.167 -26.499 -22.5c-24.667 -10 -71.834 -20.5 -141.501 -31.5s-113.167 -14.833 -130.5 -11.5c-2 0.666992 -4 -0.166016 -6 -2.49902s-3.83301 -6.66602 -5.5 -12.999
s-3.16699 -14.666 -4.5 -24.999s-2.66602 -23.833 -3.99902 -40.5l-5 -42l203 6c1.33301 -2.66699 5 -7.5 11 -14.5s10.667 -13 14 -18s6.33301 -11.167 9 -18.5s1.66699 -12.666 -3 -15.999c-5.33301 -12 -18.666 -20.5 -39.999 -25.5s-67.666 -10.833 -138.999 -17.5
l-55 -5c2.66699 -160.667 2.66699 -247 0 -259c-2.66699 -4 -6.16699 -7 -10.5 -9s-8.16602 -2.33301 -11.499 -1s-5 4 -5 8z" />
    <glyph glyph-name="G" unicode="G" horiz-adv-x="653" 
d="M438 356c68 0 108.499 -0.669922 121.499 -2.00293s23.5 -6.33301 31.5 -15c12.667 -15.333 19 -31.666 19 -48.999c4 -35.333 8.33301 -98.333 13 -189c1.33301 -34.667 -1.16699 -59.5 -7.5 -74.5s-18.166 -23.833 -35.499 -26.5
c-14.667 -2.66699 -29 2.66602 -43 15.999c-19.333 18 -27 46.333 -23 85c4 48 3.66699 88.333 -1 121c-2.66699 16 -5.5 25.333 -8.5 28s-10.833 4.33398 -23.5 5.00098c-41.333 2.66699 -77.333 2.33398 -108 -0.999023c-31.333 -4.66699 -56 -2.66699 -74 6
c-32 16.667 -41.667 40.334 -29 71.001c6.66699 14 13.334 21.667 20.001 23c9.33301 1.33301 58.666 2 147.999 2zM456.999 411.997c-3.33301 2.66699 -7.33301 5.16406 -12 7.49707s-7.5 4.16602 -8.5 5.49902s-2.5 4 -4.5 8s-4.33301 10.333 -7 19
c-7.33301 25.333 -23.5 48.833 -48.5 70.5s-47.833 32.5 -68.5 32.5c-27.333 0 -58.666 -16.5 -93.999 -49.5s-59 -68.167 -71 -105.5c-11.333 -35.333 -13.333 -87.666 -6 -156.999s20 -118.333 38 -147c11.333 -17.333 25.833 -27 43.5 -29s51.5 2.33301 101.5 13
c24 4.66699 46.667 17.667 68 39l10.5 10c5 4.66699 8 7.5 9 8.5s3.33301 3 7 6s6 4.5 7 4.5s3 0.333008 6 1s5.16699 0.5 6.5 -0.5s3.66602 -2.33301 6.99902 -4s6.5 -3.66699 9.5 -6s6.5 -5.5 10.5 -9.5c14.667 -12.667 22 -27.334 22 -44.001
c0 -13.333 -4 -25.833 -12 -37.5s-15.667 -16.167 -23 -13.5c-5.33301 2 -7 0 -5 -6c1.33301 -3.33301 -0.166992 -6.83301 -4.5 -10.5s-11.333 -7.5 -21 -11.5s-22 -8 -37 -12s-32.167 -8 -51.5 -12c-64 -13.333 -109.167 -16.166 -135.5 -8.49902
s-53.833 30.834 -82.5 69.501c-54.667 74.667 -81.667 181.334 -81 320.001c0.666992 32.667 2.16699 55.167 4.5 67.5s8.83301 29.5 19.5 51.5c20.667 42.667 51.5 81.334 92.5 116.001s80.167 55.334 117.5 62.001c39.333 6.66699 78.333 0.333984 117 -18.999
c31.333 -16 59.333 -39.833 84 -71.5s43.667 -67.5 57 -107.5c3.33301 -10.667 5 -18.834 5 -24.501s-2.33301 -11.834 -7 -18.501c-6.66699 -10 -16.667 -15.833 -30 -17.5s-24.333 1.83301 -33 10.5z" />
    <glyph glyph-name="H" unicode="H" horiz-adv-x="538" 
d="M453 -8c0 -4 -3.49609 -6.50391 -10.4961 -7.50391s-15 -0.333008 -24 2s-16.833 5.83301 -23.5 10.5c-9.33301 6.66699 -14.833 12.5 -16.5 17.5s-1.5 14.833 0.5 29.5c3.33301 26 6 77.333 8 154c3.33301 74 3.33301 112.667 0 116
c-1.33301 1.33301 -4 1.66602 -8 0.999023c-87.333 -28 -166 -42.667 -236 -44c-3.33301 0.666992 -5.66602 -7.33301 -6.99902 -24s-1.33301 -39.167 0 -67.5s4 -58.166 8 -89.499c5.33301 -49.333 6.66602 -76.666 3.99902 -81.999
c-3.33301 -9.33301 -8.66602 -13 -15.999 -11c-4.66699 0.666992 -6.33398 4.33398 -5.00098 11.001c1.33301 10 0.5 15.833 -2.5 17.5s-8.16699 -1.16602 -15.5 -8.49902c-10 -8.66699 -16.833 -13 -20.5 -13s-8.83398 5 -15.501 15c-12.667 20 -22.334 80 -29.001 180
c-1.33301 25.333 -4 58 -8 98s-6 98 -6 174s1.66699 117.667 5 125c5.33301 11.333 13.666 20 24.999 26c20.667 11.333 41.667 6.66602 63 -14.001c8.66699 -8.66699 13.5 -19.834 14.5 -33.501s-0.166992 -52.5 -3.5 -116.5l-4 -87c59.333 4 110.333 13 153 27
c30 10 51 15.333 63 16s22.333 -3 31 -11c8.66699 -7.33301 14 -10 16 -8c1.33301 1.33301 3.66602 36 6.99902 104c2 66.667 8 105.334 18 116.001c22 22.667 45 20 69 -8c12.667 -14 19.667 -30 21 -48s-0.666992 -68.333 -6 -151c-14 -227.333 -22.333 -353 -25 -377
c-3.33301 -30.667 -7.33301 -46 -12 -46c-2 0.666992 -4 2.33398 -6 5.00098c-2.66699 4.66699 -4.66699 5.33398 -6 2.00098z" />
    <glyph glyph-name="I" unicode="I" horiz-adv-x="172" 
d="M102 73c-26.667 0 -45.332 8.99902 -55.999 26.999c-3.33301 5.33301 -7.16602 75 -11.499 209s-5.83301 222 -4.5 264c0.666992 18 7.33398 32.333 20.001 43c23.333 20.667 46.333 19.667 69 -3c12 -12 19.167 -23.667 21.5 -35s1.5 -31.666 -2.5 -60.999
c-2.66699 -23.333 -3.83398 -86.5 -3.50098 -189.5s2.16602 -169.167 5.49902 -198.5c1.33301 -17.333 -1.33398 -31 -8.00098 -41s-16.667 -15 -30 -15z" />
    <glyph glyph-name="J" unicode="J" horiz-adv-x="440" 
d="M263 559c3.33301 18.667 14.998 30.501 34.998 35.501s37.667 -0.166992 53 -15.5c10 -8.66699 15.833 -16.667 17.5 -24s3.16699 -27.666 4.5 -60.999c1.33301 -46 4.33301 -82.667 9 -110c22 -115.333 31 -193.333 27 -234c-4 -62 -26.5 -106.667 -67.5 -134
s-95.833 -34.333 -164.5 -21c-17.333 4.66699 -38.166 14.834 -62.499 30.501s-41.5 29.5 -51.5 41.5c-17.333 21.333 -28 53.666 -32 96.999s1 70.333 15 81c14 10 33.667 8.33301 59 -5c6.66699 -2.66699 12.667 -19.667 18 -51c4.66699 -30 11.667 -51 21 -63
c12 -16.667 33.833 -26.834 65.5 -30.501s55.834 1.16602 72.501 14.499c10.667 7.33301 17.667 20.833 21 40.5s4.16602 37.834 2.49902 54.501s-4.66699 38.5 -9 65.5s-6.83301 43.5 -7.5 49.5c-1.33301 11.333 -3.66602 19.666 -6.99902 24.999
s-7.83301 39.833 -13.5 103.5s-7.5 100.5 -5.5 110.5z" />
    <glyph glyph-name="K" unicode="K" horiz-adv-x="515" 
d="M381 446c0.666992 -2.66699 -6.16797 -11.498 -20.501 -26.498s-21.5 -23.5 -21.5 -25.5c0 -3.33301 10.333 -9.33301 31 -18c20.667 -7.33301 37.667 -17.833 51 -31.5s26.333 -33.834 39 -60.501c14.667 -30.667 23 -67.834 25 -111.501s-2 -82.5 -12 -116.5
s-24 -53.333 -42 -58c-14.667 -3.33301 -26.334 -4.33301 -35.001 -3s-17.334 6.33301 -26.001 15c-10 9.33301 -15.167 17.666 -15.5 24.999s3.83398 20.333 12.501 39c16 34 24.333 68.667 25 104s-6 63.333 -20 84s-32.333 28.667 -55 24
c-13.333 -3.33301 -34 -18.333 -62 -45s-42 -44.667 -42 -54c0 -6.66699 -6 -15.667 -18 -27s-21.333 -17 -28 -17s-10 -20.667 -10 -62c0 -37.333 -2.66699 -61.166 -8 -71.499s-16.333 -14.166 -33 -11.499c-16.667 4 -29 10 -37 18
c-7.33301 6.66699 -11.666 18.334 -12.999 35.001s-2.33301 63 -3 139c-0.666992 78 -3.5 149 -8.5 213s-10.833 99.667 -17.5 107c-5.33301 6.66699 -7.66602 18.667 -6.99902 36s4.33398 30.666 11.001 39.999c13.333 20.667 34 24.334 62 11.001
c14 -6.66699 24 -18.334 30 -35.001s10.667 -44.667 14 -84c5.33301 -80 8.33301 -126 9 -138c1.33301 -14.667 4.33301 -20.667 9 -18c18 24 51.167 71.5 99.5 142.5s83.5 120.5 105.5 148.5c7.33301 5.33301 17.166 6.66602 29.499 3.99902s22.833 -8.66699 31.5 -18
c16 -17.333 23.5 -31.5 22.5 -42.5s-12.167 -29.5 -33.5 -55.5c-26 -30.667 -39 -49 -39 -55z" />
    <glyph glyph-name="L" unicode="L" horiz-adv-x="479" 
d="M174 530c-0.666992 -41.333 -4.16602 -106.499 -10.499 -195.499s-9.83301 -158.167 -10.5 -207.5c24 6 60.5 12.333 109.5 19s86.5 10.667 112.5 12c25.333 0.666992 42.5 -1.83301 51.5 -7.5s15.833 -18.167 20.5 -37.5c4.66699 -20.667 2.5 -34.167 -6.5 -40.5
s-29.5 -9.83301 -61.5 -10.5c-40 -0.666992 -85.167 -6 -135.5 -16s-89.166 -21 -116.499 -33c-13.333 -6 -22.333 -9 -27 -9s-14 3.33301 -28 10c-18.667 8.66699 -31.334 25.834 -38.001 51.501s-5.33398 51.5 3.99902 77.5c4 11.333 6 20.166 6 26.499s1 13.833 3 22.5
c2 1.33301 4 12.166 6 32.499s3.83301 47.833 5.5 82.5s3.16699 67.834 4.5 99.501s2.5 67.334 3.5 107.001s1.83301 66.5 2.5 80.5l20 19c11.333 10.667 22.333 15.5 33 14.5s22.667 -7.16699 36 -18.5c7.33301 -6.66699 11.833 -14.334 13.5 -23.001
s2.5 -27.334 2.5 -56.001z" />
    <glyph glyph-name="M" unicode="M" horiz-adv-x="654" 
d="M435 520c0 14 6.83496 26.0029 20.502 36.0029s27.834 13.333 42.501 10c20 -4 35.5 -20.833 46.5 -50.5s23.5 -87.5 37.5 -173.5c4.66699 -31.333 10.834 -75.5 18.501 -132.5s13.834 -99.833 18.501 -128.5c5.33301 -36 4.66602 -59.333 -2.00098 -70
c-6.66699 -12.667 -17 -19.5 -31 -20.5s-27.667 4.16699 -41 15.5c-9.33301 8.66699 -15.666 19.834 -18.999 33.501s-9.33301 53.167 -18 118.5c-14 110.667 -22.667 167.667 -26 171c-1.33301 1.33301 -4 -3 -8 -13c-1.33301 -4 -4 -11.333 -8 -22
c-10 -26 -16 -39 -18 -39c-1.33301 0 -2.33301 -0.833008 -3 -2.5s-0.333984 -3.16699 0.999023 -4.5c-2 -14 -10 -40.333 -24 -79s-22.667 -64.334 -26 -77.001c-12.667 -36 -23 -57.667 -31 -65c-6.66699 -5.33301 -12 -8.33301 -16 -9s-12.667 1.33301 -26 6
c-14.667 4.66699 -25.5 11.834 -32.5 21.501s-15.833 28.167 -26.5 55.5c-4.66699 12 -18.5 43 -41.5 93s-37.167 82.667 -42.5 98c-8 21.333 -13.667 32 -17 32c-2.66699 1.33301 -5 -15.667 -7 -51c-0.666992 -2.66699 -1 -7 -1 -13
c-0.666992 -16.667 -1.33398 -25.334 -2.00098 -26.001c-2.66699 -5.33301 -5 -18 -7 -38c-4.66699 -38 -11.5 -72.333 -20.5 -103s-17.5 -49 -25.5 -55c-6.66699 -4.66699 -12 -7.16699 -16 -7.5s-10.333 1.5 -19 5.5c-19.333 9.33301 -30.5 23.333 -33.5 42
s-0.166992 56.667 8.5 114c10 68.667 15.333 126.167 16 172.5s-4 97.5 -14 153.5c-5.33301 32 -5.5 56 -0.5 72s16.5 26 34.5 30c25.333 5.33301 53.166 -13.334 83.499 -56.001s61.833 -107.334 94.5 -194.001c39.333 -103.333 62.666 -155.666 69.999 -156.999
c2.66699 0 11.5 16.833 26.5 50.5s23.167 55.5 24.5 65.5c1.33301 13.333 11.166 44.166 29.499 92.499s28.5 81.166 30.5 98.499z" />
    <glyph glyph-name="N" unicode="N" horiz-adv-x="574" 
d="M387 34c0 7.33301 -2.00098 10.999 -6.00098 10.999c-4.66699 0 -11 10 -19 30c-10 20 -33 58.333 -69 115s-58.667 93.334 -68 110.001l-39.5 70l-32.5 56c-4.66699 -20 -9 -71.333 -13 -154c-6.66699 -144.667 -14 -220.334 -22 -227.001
c-8.66699 -6.66699 -23.334 -9.33398 -44.001 -8.00098c-4.66699 0 -13.667 6.66699 -27 20c-5.33301 4 -9.5 10.833 -12.5 20.5s-4.5 21.834 -4.5 36.501s0.333008 27.667 1 39s1.83398 25.333 3.50098 42s2.5 27.334 2.5 32.001c4.66699 37.333 8 87.333 10 150
c6.66699 134 21 212 43 234c8.66699 8.66699 19.5 13.167 32.5 13.5s23.833 -3.83398 32.5 -12.501c18 -18 55.667 -82.333 113 -193l57.5 -106c19.667 -34.667 36.334 -62.5 50.001 -83.5s21.167 -30.5 22.5 -28.5c1.33301 1.33301 5.83301 31.666 13.5 90.999
s13.5 109.666 17.5 150.999c5.33301 61.333 10 99.5 14 114.5s11.667 24.5 23 28.5c12 4 25.833 2.33301 41.5 -5s26.167 -17 31.5 -29c3.33301 -3.33301 4.66602 -12.5 3.99902 -27.5s-2.5 -36.167 -5.5 -63.5s-6.33301 -53.666 -10 -78.999s-7 -50.166 -10 -74.499
s-4.83301 -40.833 -5.5 -49.5c-5.33301 -51.333 -12.666 -102.666 -21.999 -153.999s-16.333 -79.666 -21 -84.999c-8 -10 -23.667 -12.833 -47 -8.5s-35 12.166 -35 23.499z" />
    <glyph glyph-name="O" unicode="O" horiz-adv-x="658" 
d="M294 554c-1.33301 16 -3.33398 24.6689 -6.00098 26.002c-5.33301 3.33301 -18 -1.16699 -38 -13.5s-35 -24.833 -45 -37.5c-26.667 -34 -48.167 -75 -64.5 -123s-21.833 -86.667 -16.5 -116c10.667 -60.667 41.667 -99.5 93 -116.5s111.333 -8.83301 180 24.5
c30 14.667 58.667 35.667 86 63s43.666 51.666 48.999 72.999c8.66699 28.667 8.5 56.667 -0.5 84s-24.833 48.666 -47.5 63.999c-17.333 12 -46 20.333 -86 25c-51.333 6 -81.166 10.833 -89.499 14.5s-13.166 14.5 -14.499 32.5zM443.999 597.002
c23.333 0 52.4951 -13 87.4951 -39s59.167 -52.667 72.5 -80c10.667 -20.667 17.834 -43.167 21.501 -67.5s3.16699 -45.5 -1.5 -63.5c-17.333 -70.667 -41.666 -119 -72.999 -145c-6 -4.66699 -12.667 -10.5 -20 -17.5s-13.666 -12.667 -18.999 -17s-11 -7.83301 -17 -10.5
c-4 0 -10.667 -4.66699 -20 -14c-11.333 -10 -26.333 -19.667 -45 -29s-33.667 -14.333 -45 -15c-13.333 -1.33301 -20 -3.33301 -20 -6s-19.333 -4.66699 -58 -6c-56.667 -0.666992 -102 8.16602 -136 26.499s-66.667 51.5 -98 99.5c-18 28 -30.167 54 -36.5 78
s-8.16602 51 -5.49902 81c5.33301 68 27.333 131.833 66 191.5s81.334 95.5 128.001 107.5c66 18.667 123 4.33398 171 -42.999c22 -20.667 38 -31 48 -31z" />
    <glyph glyph-name="P" unicode="P" horiz-adv-x="494" 
d="M131 303c31.333 -1.33301 67.667 2.66602 109 11.999c82 20 123 46.333 123 79c0 21.333 -12.5 48.5 -37.5 81.5s-50.833 56.167 -77.5 69.5c-11.333 6.66699 -30 11.334 -56 14.001c-27.333 2.66699 -43.5 -1.83301 -48.5 -13.5s-8.16699 -53.167 -9.5 -124.5z
M440.001 458.999c0 -3.33301 2.99512 -10.9961 8.99512 -22.9961c12.667 -25.333 17.334 -50.5 14.001 -75.5s-14.666 -46.167 -33.999 -63.5c-24.667 -22.667 -65 -43.5 -121 -62.5s-104 -28.5 -144 -28.5c-10.667 0 -17 -4.16699 -19 -12.5s-0.333008 -26.5 5 -54.5
c6.66699 -32.667 7.33398 -54.834 2.00098 -66.501s-17.666 -16.834 -36.999 -15.501c-20.667 2 -35.334 8.83301 -44.001 20.5s-14.667 31.167 -18 58.5c-16 158 -23.667 275 -23 351s12 133 34 171h82c37.333 -0.666992 62 -2.33398 74 -5.00098s29.667 -10 53 -22
c30.667 -16.667 58.334 -37.334 83.001 -62.001c18.667 -18 37.334 -39.333 56.001 -64s28 -40 28 -46z" />
    <glyph glyph-name="Q" unicode="Q" horiz-adv-x="624" 
d="M441 251c13.333 29.333 18.167 62.5029 14.5 99.5029s-13.167 71.667 -28.5 104s-30.666 50.833 -45.999 55.5l-17 5c-6.66699 2 -11.5 3.33301 -14.5 4s-6.66699 1.66699 -11 3s-7.5 2.33301 -9.5 3s-4.33301 1.5 -7 2.5s-4.5 2 -5.5 3s-2.33301 2.16699 -4 3.5
s-2.83398 2.66602 -3.50098 3.99902s-1.5 2.83301 -2.5 4.5s-1.83301 3.5 -2.5 5.5c-1.33301 6 -3.33301 11.167 -6 15.5s-4.66699 6.16602 -6 5.49902c-37.333 -4 -72.166 -27 -104.499 -69s-52.5 -90.333 -60.5 -145c-4 -26 -5.5 -43.333 -4.5 -52
s5.83301 -22.334 14.5 -41.001c24.667 -50 58 -84.333 100 -103c13.333 -5.33301 31.666 -8.83301 54.999 -10.5s38.333 -0.5 45 3.5c4 3.33301 0.666992 16.666 -10 39.999c-12.667 26.667 -18 49.334 -16 68.001s10.667 31 26 37c26.667 10.667 50.667 -5 72 -47l16 -34z
M543.001 31.0029c-2 0 0.329102 -2.33203 6.99609 -6.99902c2.66699 -2 5.66699 -4 9 -6c16.667 -10.667 27.167 -19.834 31.5 -27.501s4.83301 -18.167 1.5 -31.5c-1.33301 -6.66699 -3.5 -12 -6.5 -16s-5.83301 -5.66699 -8.5 -5c-3.33301 0 -6.5 -2.16699 -9.5 -6.5
s-8.16699 -6.16602 -15.5 -5.49902c-4 -0.666992 -11 2.5 -21 9.5s-21.667 16.667 -35 29l-38 36.5l-37.5 37.5l-25.5 25.5c-8 -0.666992 -20.333 -1.83398 -37 -3.50098s-29 -2.83398 -37 -3.50098s-18.667 -0.166992 -32 1.5s-26.333 4.5 -39 8.5
c-20.667 6.66699 -33.667 11.167 -39 13.5s-11.666 6.66602 -18.999 12.999s-16.666 13.5 -27.999 21.5c-20.667 14 -41.167 31.667 -61.5 53s-29.166 35.333 -26.499 42s2 10 -2 10c-4.66699 0 -10.667 8.33301 -18 25s-13.333 35 -18 55c-8.66699 37.333 -10 73 -4 107
s21 76.333 45 127c12 25.333 31 50.333 57 75s52.333 42.334 79 53.001c31.333 12.667 63 15.667 95 9s55.667 -21 71 -43c8.66699 -12.667 23.5 -26.834 44.5 -42.501s35.833 -29.167 44.5 -40.5c12.667 -14.667 26.667 -36.334 42 -65.001s23.666 -48.667 24.999 -60
c1.33301 -10.667 3.33301 -18 6 -22c4.66699 -7.33301 7.66699 -26.166 9 -56.499s0.333008 -52.166 -3 -65.499c-0.666992 -3.33301 -2.16699 -9 -4.5 -17s-3.83301 -13.5 -4.5 -16.5s-2 -7.83301 -4 -14.5s-3.66699 -11.667 -5 -15s-3.16602 -7.66602 -5.49902 -12.999
s-4.66602 -10 -6.99902 -14l-8 -13.5c-3 -5 -6.5 -10.167 -10.5 -15.5c-16 -21.333 -23.333 -35.833 -22 -43.5s14 -24.167 38 -49.5l21 -24.5c4.66699 -5.66699 6.66699 -8.5 6 -8.5z" />
    <glyph glyph-name="R" unicode="R" horiz-adv-x="586" 
d="M380 556c-29.333 8.66699 -62.832 9.16699 -100.499 1.5s-71.5 -21.834 -101.5 -42.501l-32 -23c0 -3.33301 0.333008 -12 1 -26c3.33301 -58 7.66602 -86.667 12.999 -86c31.333 8 57.666 16 78.999 24c38 14.667 85.667 13.334 143 -3.99902l51 -15l13 16
c18 22.667 19.333 52 4 88s-38.666 58.333 -69.999 67zM228.001 648c12.667 2.66699 40 3.33398 82 2.00098s74.667 -8.33301 98 -21c36 -18 67 -44.167 93 -78.5s42 -70.166 48 -107.499c4 -24.667 3.66699 -44.667 -1 -60s-14.667 -31 -30 -47l-26 -27
c30 -54 48.333 -108.333 55 -163c2 -22 4.66699 -35.333 8 -40c2.66699 -4 1 -10.5 -5 -19.5s-11 -12.167 -15 -9.5c-2.66699 0.666992 -8.83398 -1.16602 -18.501 -5.49902s-17.167 -4.16602 -22.5 0.500977c-14.667 5.33301 -25.167 13.666 -31.5 24.999
s-10.166 29 -11.499 53c-1.33301 28.667 -7.5 55 -18.5 79s-21.833 35 -32.5 33c-18.667 -2 -100.334 -3 -245.001 -3v-85c0 -49.333 -2.5 -81 -7.5 -95s-16.167 -20.333 -33.5 -19c-15.333 1.33301 -28.333 7.33301 -39 18c-8 7.33301 -13 16.666 -15 27.999
s-3.33301 40.666 -4 87.999c-0.666992 54.667 -3.5 114.667 -8.5 180s-9.83301 107 -14.5 125c-4.66699 17.333 -3.66699 33.166 3 47.499s17.334 24.166 32.001 29.499c14 4.66699 41.333 17.334 82 38.001s66.667 32 78 34z" />
    <glyph glyph-name="S" unicode="S" horiz-adv-x="525" 
d="M317 586c0 2 5.83594 1.00391 17.5029 -2.99609s25.334 -9.83301 41.001 -17.5s28.5 -14.5 38.5 -20.5c19.333 -11.333 30.333 -25.666 33 -42.999c4.66699 -26 -0.666016 -42.5 -15.999 -49.5s-37.666 -3.16699 -66.999 11.5c-36 17.333 -60 27.666 -72 30.999
s-28 3.66602 -48 0.999023c-37.333 -5.33301 -67.333 -19.833 -90 -43.5s-27.334 -45.167 -14.001 -64.5c13.333 -18.667 50 -44.667 110 -78c78.667 -43.333 139.167 -86 181.5 -128s63.5 -80.333 63.5 -115c0 -23.333 -3 -40 -9 -50s-19.667 -22.333 -41 -37
c-24 -16.667 -54.667 -26.667 -92 -30s-73 -1.33301 -107 6s-63.667 17.666 -89 30.999c-6 6 -12 9 -18 9s-20.667 11.667 -44 35c-17.333 16.667 -27.666 28.334 -30.999 35.001s-4.33301 16.667 -3 30c1.33301 20.667 7.16602 31.667 17.499 33
s23.166 -6.66699 38.499 -24c16 -16 30.333 -25.667 43 -29c14 -4 22 -7.33301 24 -10c4.66699 -6.66699 19.667 -12.667 45 -18s49 -7.66602 71 -6.99902c41.333 1.33301 69.166 8.83301 83.499 22.5s13.166 31.5 -3.50098 53.5
c-8.66699 10.667 -27.334 27.167 -56.001 49.5s-49.334 36.166 -62.001 41.499c-14.667 6 -47 24.667 -97 56c-32 19.333 -54.667 34.666 -68 45.999s-25.333 24.666 -36 39.999c-15.333 22.667 -25 46.167 -29 70.5s-1.66699 45.166 7 62.499c32 61.333 83 99.333 153 114
c18 4 40.167 5 66.5 3s42.833 -5.66699 49.5 -11c6 -4.66699 9 -5.66699 9 -3z" />
    <glyph glyph-name="T" unicode="T" horiz-adv-x="562" 
d="M293 94c0 -46.667 -3 -75.999 -9 -87.999c-3.33301 -7.33301 -6.83301 -11.833 -10.5 -13.5s-9.83398 -1.83398 -18.501 -0.500977c-10 2 -15 2.66699 -15 2s1.33301 -2 4 -4c7.33301 -5.33301 7.33301 -8 0 -8c-6.66699 0 -17.667 8.33301 -33 25
c-16 18 -22.667 32 -20 42c3.33301 13.333 8 86 14 218s7.66699 201.667 5 209c-1.33301 6 -18.666 11.333 -51.999 16c-60.667 10 -98.667 24.333 -114 43c-8.66699 11.333 -13.167 23 -13.5 35s3.5 22.333 11.5 31c9.33301 10 19.666 15.333 30.999 16
s30.333 -2.66602 57 -9.99902c26 -8 77 -10.333 153 -7c74 2.66699 117.333 6 130 10c10.667 4 25.834 5.5 45.501 4.5s34.167 -4.16699 43.5 -9.5c16.667 -8 26.5 -22.667 29.5 -44s-1.5 -37.333 -13.5 -48c-121.333 -8.66699 -185 -18 -191 -28
c-5.33301 -8.66699 -13.333 -75.334 -24 -200.001c-6.66699 -73.333 -10 -137 -10 -191z" />
    <glyph glyph-name="U" unicode="U" horiz-adv-x="502" 
d="M389 611c-0.666992 -2 -0.167969 -3.50098 1.49902 -4.50098s4 -1.66699 7 -2s6 -0.833008 9 -1.5s5 -1.66699 6 -3s0.5 -3.33301 -1.5 -6c-1.33301 -6 0 -9 4 -9c3.33301 0.666992 7.5 -5.33301 12.5 -18s10.5 -30.167 16.5 -52.5s11.333 -46.833 16 -73.5
c14.667 -78.667 17 -153.334 7 -224.001c-2.66699 -16.667 -8.83398 -37.167 -18.501 -61.5s-16.834 -37.5 -21.501 -39.5c-4 -1.33301 -6 -4.33301 -6 -9c0 -7.33301 -16.333 -28 -49 -62c-9.33301 -11.333 -37 -24.666 -83 -39.999
c-3.33301 -1.33301 -5.16602 -1.5 -5.49902 -0.5s-0.166016 2.5 0.500977 4.5c1.33301 2 1.83301 3.83301 1.5 5.5s-1.5 2.5 -3.5 2.5c-5.33301 0 -8 -2.33301 -8 -7c0 -2.66699 -3.66699 -4 -11 -4s-16.166 1 -26.499 3s-19.833 4.66699 -28.5 8
c-24 8.66699 -47.667 26.334 -71 53.001s-42.333 57.334 -57 92.001c-26 60.667 -41.667 152 -47 274c-2.66699 50.667 -3.66699 82.5 -3 95.5s4.33398 23.167 11.001 30.5c7.33301 9.33301 18.5 14.666 33.5 15.999s26.833 -1.66699 35.5 -9
c11.333 -9.33301 18.5 -22 21.5 -38s4.16699 -47.667 3.5 -95c-1.33301 -65.333 1 -118 7 -158c4 -30 11.667 -62.333 23 -97s19.666 -52 24.999 -52c3.33301 0 7 -4.66699 11 -14c3.33301 -10.667 12.833 -18 28.5 -22s30.834 -2.66699 45.501 4
c91.333 36.667 117 161.667 77 375c-18.667 82 -21.667 127.667 -9 137c10 7.33301 23 10 39 8c5.33301 -1.33301 7.66602 -3.33301 6.99902 -6z" />
    <glyph glyph-name="V" unicode="V" horiz-adv-x="582" 
d="M492 590c12 0 24.001 -5.16309 36.001 -15.4961s19.333 -22.166 22 -35.499c2.66699 -14 -3.33301 -28 -18 -42c-14 -12 -29.5 -30 -46.5 -54s-36 -53.667 -57 -89s-34.833 -58 -41.5 -68c-34.667 -50.667 -56.334 -98.667 -65.001 -144
c-4 -24.667 -9.66699 -41.167 -17 -49.5s-19.666 -12.5 -36.999 -12.5c-38 0 -60.333 18 -67 54c-0.666992 9.33301 -4.66699 23.666 -12 42.999s-11.333 32 -12 38c0 7.33301 -1.66699 11.666 -5 12.999c-6.66699 2.66699 -25 30.167 -55 82.5s-45 83.166 -45 92.499
c0 5.33301 -3.33301 14.666 -10 27.999c-6.66699 14.667 -13.667 35 -21 61s-11 43.333 -11 52c0 10 4.33301 19 13 27s18.667 12 30 12c13.333 0 27 -6.5 41 -19.5s21 -25.5 21 -37.5c0 -26.667 19.667 -83 59 -169c30 -64 48.333 -93.333 55 -88
c0 0.666992 3.5 5.5 10.5 14.5s13.667 18.167 20 27.5s9.5 14.666 9.5 15.999c37.333 66 85.666 138 144.999 216c15.333 19.333 26.833 32 34.5 38s15.5 9 23.5 9z" />
    <glyph glyph-name="W" unicode="W" horiz-adv-x="710" 
d="M429 155c0.666992 4 -1.50098 7 -6.50098 9s-7.5 4.66699 -7.5 8c-2.66699 9.33301 -12.167 31.833 -28.5 67.5s-26.166 59.167 -29.499 70.5c-10 27.333 -16.333 42.333 -19 45c-2 2 -5 -1 -9 -9c-6.66699 -14 -17.334 -48 -32.001 -102
c-19.333 -67.333 -29 -109.666 -29 -126.999c0 -24 -8.66699 -40.333 -26 -49s-35.666 -7.66699 -54.999 3s-31 28 -35 52c-3.33301 17.333 -11.333 46 -24 86c-46.667 136 -74.667 219.667 -84 251s-14 58.333 -14 81c0 29.333 4 47 12 53c4 3.33301 8 5.33301 12 6
s7.5 0.5 10.5 -0.5l12 -4l10.5 -3.5c16.667 -4.66699 32.667 -38 48 -100c31.333 -120.667 51.666 -189 60.999 -205c4 -7.33301 11.333 4.66699 22 36c4.66699 13.333 9.33398 29 14.001 47c30 110.667 51 173 63 187c7.33301 9.33301 20 12.666 38 9.99902
c16.667 -2 29 -6.33301 37 -13s15.667 -19 23 -37c6 -12.667 21 -56.667 45 -132s44 -124.333 60 -147c2 -1.33301 5.5 4.5 10.5 17.5s11 31.833 18 56.5s13.833 52 20.5 82c10 43.333 17.833 72.5 23.5 87.5s13.834 27.5 24.501 37.5
c18.667 18.667 40.667 14.334 66 -12.999c20 -20.667 22.667 -48 8 -82c-10 -26 -18 -48.5 -24 -67.5s-12.833 -43.833 -20.5 -74.5l-20.5 -79c-14.667 -54 -23.667 -96.667 -27 -128c-2 -18.667 -4.5 -31.834 -7.5 -39.501s-8.16699 -14.5 -15.5 -20.5
c-8.66699 -6 -15.334 -9.33301 -20.001 -10s-12.667 1 -24 5c-29.333 10.667 -48.333 35.667 -57 75c-0.666992 7.33301 -4.66699 19 -12 35s-11.333 27.667 -12 35z" />
    <glyph glyph-name="X" unicode="X" horiz-adv-x="576" 
d="M472 134c1.33301 1.33301 2.33203 0.334961 2.99902 -2.99805c2.66699 -11.333 4.66699 -17.333 6 -18c6.66699 -2.66699 15.5 -12.834 26.5 -30.501s15.5 -28.5 13.5 -32.5c-3.33301 -4 -2.66602 -5 2.00098 -3c2.66699 2 5.83398 0 9.50098 -6s6.83398 -14 9.50098 -24
s4 -19.333 4 -28c0 -12.667 -6 -21.667 -18 -27c-19.333 -9.33301 -38 -5.5 -56 11.5s-47 57.833 -87 122.5c-25.333 40.667 -40 61 -44 61c-2 0 -3.33301 1.83301 -4 5.5s-1.5 7.16699 -2.5 10.5s-2.5 5 -4.5 5c-4.66699 0 -8.66699 4 -12 12c-22.667 43.333 -39 65 -49 65
c-4 0 -11.333 -6.33301 -22 -19l-32.5 -40.5c-11 -14.333 -16.833 -21.833 -17.5 -22.5c-1.33301 -1.33301 -12 -15.333 -32 -42c-35.333 -46 -59.333 -66.667 -72 -62c-22 4.66699 -37.667 11.667 -47 21c-24 22 -21.667 47.333 7 76c8 7.33301 20.833 22.666 38.5 45.999
s26.834 35.333 27.501 36c8.66699 8.66699 23.667 26.167 45 52.5s32 41.166 32 44.499c0 4 -10.5 20.167 -31.5 48.5s-43.5 56.5 -67.5 84.5c-15.333 17.333 -23.833 32.333 -25.5 45s3.16602 25 14.499 37c15.333 16.667 33.166 21.334 53.499 14.001
s38.166 -24.666 53.499 -51.999c12 -21.333 25.5 -42 40.5 -62s24.5 -30.333 28.5 -31c4.66699 0 11.667 5.33301 21 16l119 141c13.333 16.667 25 25 35 25c15.333 -0.666992 30.333 -10 45 -28s19.667 -33.333 15 -46c-10 -15.333 -31.167 -40.5 -63.5 -75.5
s-53.5 -58.833 -63.5 -71.5l-41 -52c2 -2.66699 16.167 -23.834 42.5 -63.501l66 -97c17.667 -25 29.167 -39.5 34.5 -43.5z" />
    <glyph glyph-name="Y" unicode="Y" horiz-adv-x="518" 
d="M30 562c0.666992 12.667 4.84082 23.502 12.5078 32.502s17.167 14.167 28.5 15.5c32.667 -9.33301 54 -26.666 64 -51.999c12.667 -24 20 -36.667 22 -38c11.333 -11.333 32.666 -49 63.999 -113l11 -20c3.33301 -6.66699 5.66602 -11.167 6.99902 -13.5
s3.33301 -4.33301 6 -6s5.16699 -1.16699 7.5 1.5s5.16602 7.33398 8.49902 14.001c7.33301 13.333 19.166 32.166 35.499 56.499s25.833 36.833 28.5 37.5c2.66699 2 5 6.83301 7 14.5s5.66699 13.167 11 16.5c11.333 11.333 21.333 22.666 30 33.999
c13.333 17.333 23.166 28.5 29.499 33.5s14.166 7.5 23.499 7.5c12 0 23.667 -4.16699 35 -12.5s19 -18.5 23 -30.5c4.66699 -12.667 5 -23 1 -31s-14.667 -20.333 -32 -37c-33.333 -30.667 -71 -86.334 -113 -167.001c-6.66699 -14 -13.5 -26.833 -20.5 -38.5l-14 -23
c-2.33301 -3.66699 -4.83301 -10.334 -7.5 -20.001s-4.33398 -20.5 -5.00098 -32.5s-1.33398 -31 -2.00098 -57c-4 -90 -9.33301 -135 -16 -135c-2 1.33301 -3.16699 1.5 -3.5 0.5s-0.166016 -2.83301 0.500977 -5.5c1.33301 -3.33301 0.5 -6.16602 -2.5 -8.49902
s-8.83301 -4.16602 -17.5 -5.49902c-15.333 -2.66699 -30.333 1.66602 -45 12.999s-23.667 24.666 -27 39.999c-2.66699 14.667 -2.66699 58.334 0 131.001c1.33301 50 1.33301 81.667 0 95s-6 27 -14 41l-39 70.5c-20.667 37.667 -33.334 59.5 -38.001 65.5
c-10 13.333 -22.333 35.666 -37 66.999s-22 51 -22 59z" />
    <glyph glyph-name="Z" unicode="Z" horiz-adv-x="597" 
d="M175 -200c-2.66699 -0.666992 -4.66797 1 -6.00098 5c-2 8.66699 -1 13 3 13c0.666992 0 1.66699 -0.333008 3 -1c4 -2 6.33301 -5.16699 7 -9.5s-1.66602 -6.83301 -6.99902 -7.5zM534.999 506c-4 0 -23.6729 -17.335 -59.0059 -52.002s-62.666 -63 -81.999 -85
c-28 -32 -67.667 -80.667 -119 -146s-79.333 -105 -84 -119c2.66699 -2.66699 34 -1 94 5c54 4.66699 97.5 4.83398 130.5 0.500977s64.833 -14.166 95.5 -29.499c31.333 -16.667 49.666 -33 54.999 -49c2 -6.66699 0.333008 -11.334 -5 -14.001
c-4.66699 -3.33301 -6.5 -5.83301 -5.5 -7.5s3.16699 -3.66699 6.5 -6s5 -4.5 5 -6.5c0 -5.33301 -7.33301 -10.5 -22 -15.5s-25.334 -6.16699 -32.001 -3.5c-3.33301 2 -7.66602 3.33301 -12.999 4s-8.66602 2.66699 -9.99902 6c-42.667 23.333 -101.667 32 -177 26
s-138.333 -21 -189 -45c-14.667 -7.33301 -25 -11.333 -31 -12s-12.667 1 -20 5c-12 6 -22.667 16.667 -32 32c-18.667 20 -10.667 62.333 24 127c54.667 82.667 106.334 154.334 155.001 215.001c4.66699 4.66699 12.667 14 24 28l36.5 45.5l26.5 33.5
c6.66699 6 21.334 22.167 44.001 48.5s34 40.5 34 42.5c-1.33301 2 -6.66602 2.66699 -15.999 2s-21.666 -2.5 -36.999 -5.5s-29.333 -6.5 -42 -10.5c-48 -14 -84.167 -21.333 -108.5 -22s-44.833 5 -61.5 17c-10.667 7.33301 -16.167 19 -16.5 35s4.83398 29.333 15.501 40
c6 6 12.667 9.66699 20 11s21 2 41 2c23.333 -1.33301 49.5 3 78.5 13s47.833 15.667 56.5 17c22 4 52 4.33301 90 1s69.667 -9 95 -17c21.333 -6.66699 35.666 -13.334 42.999 -20.001s14 -19 20 -37c2.66699 -7.33301 0.333984 -18.166 -6.99902 -32.499
s-14.333 -21.5 -21 -21.5z" />
    <glyph glyph-name="underscore" unicode="_" horiz-adv-x="571" 
d="M469 -41c19.333 12 37.6631 9.00098 54.9961 -8.99902c23.333 -23.333 23 -47 -1 -71c-12 -12 -24 -16 -36 -12c-15.333 4.66699 -93.333 6.33398 -234 5.00098c-104.667 -0.666992 -166.667 -0.333984 -186 0.999023s-30.666 6 -33.999 14
c-3.33301 10 -4.16602 21 -2.49902 33s5.5 21.333 11.5 28c6.66699 7.33301 26.667 8.66602 60 3.99902c32.667 -4 99.834 -5 201.501 -3s156.834 5.33301 165.501 10z" />
    <glyph glyph-name="grave" unicode="`" horiz-adv-x="165" 
d="M90 535c0 -9.33301 2.00098 -14.6709 6.00098 -16.0039c6.66699 -3.33301 15.167 -12.666 25.5 -27.999s14.833 -25.333 13.5 -30c-2.66699 -8 -11.667 -11.667 -27 -11s-25.333 5.33398 -30 14.001c-14 22.667 -25.833 44.334 -35.5 65.001s-13.834 33 -12.501 37
c2 6.66699 5.5 9.83398 10.5 9.50098s14.167 -4.83301 27.5 -13.5c14.667 -9.33301 22 -18.333 22 -27z" />
    <glyph glyph-name="a" unicode="a" horiz-adv-x="543" 
d="M275 307c-6.66699 33.333 -12.999 53.333 -18.999 60s-17.667 6.33398 -35 -0.999023c-10.667 -4 -25.667 -18.5 -45 -43.5s-34.333 -49.167 -45 -72.5c-10.667 -24 -16.5 -51.833 -17.5 -83.5s3.5 -51.834 13.5 -60.501c26 -22.667 51.833 -28.667 77.5 -18
s48.167 36.667 67.5 78c10 21.333 15.167 40 15.5 56s-3.83398 44.333 -12.501 85zM513.001 62c0 -16.667 -3.99805 -27.002 -11.998 -31.002c-8 -4.66699 -10 -7 -6 -7c8 -0.666992 6.33301 -3.33398 -5 -8.00098c-10.667 -4 -20 -6 -28 -6c-26 0 -56 26.333 -90 79l-26 40
l-25 -33c-18 -24 -31.333 -40.167 -40 -48.5s-20 -15.5 -34 -21.5c-38.667 -16.667 -79.834 -15 -123.501 5s-72.167 50 -85.5 90c-10.667 29.333 -11.667 65.833 -3 109.5s24.334 81.834 47.001 114.501c21.333 32 41.5 55.667 60.5 71s42.167 27.333 69.5 36
c10.667 3.33301 30 1 58 -7s51 -16.333 69 -25c8.66699 -2.66699 16.167 -12.667 22.5 -30s9.83301 -37 10.5 -59c1.33301 -45.333 7 -83.166 17 -113.499s27.333 -62.166 52 -95.499c11.333 -15.333 19.666 -24.833 24.999 -28.5s10.666 -3.16699 15.999 1.5
c7.33301 5.33301 14.333 4.5 21 -2.5s10 -17.167 10 -30.5z" />
    <glyph glyph-name="b" unicode="b" horiz-adv-x="469" 
d="M133 217c0 -26.667 1.00098 -44.333 3.00098 -53s6.66699 -16.667 14 -24c10.667 -11.333 26 -18.666 46 -21.999s38.667 -1.33301 56 6c48.667 21.333 81 49.333 97 84c10 20 13.667 37.167 11 51.5s-12.334 30.5 -29.001 48.5c-12 12 -21.333 19.5 -28 22.5
s-21 4.83301 -43 5.5c-33.333 1.33301 -63 -3.33398 -89 -14.001c-25.333 -9.33301 -38 -44.333 -38 -105zM65.001 603.001c20 7.33301 36.999 3.00391 50.999 -12.9961c7.33301 -8 12.333 -41.333 15 -100c1.33301 -56 3 -85 5 -87
c0.666992 -0.666992 22 2.66602 64 9.99902c39.333 7.33301 69.333 8 90 2c55.333 -16.667 96.833 -48.667 124.5 -96s31.834 -93 12.501 -137c-24 -54.667 -65.5 -95.334 -124.5 -122.001s-113.167 -29.334 -162.5 -8.00098c-22 10 -39.333 12.333 -52 7
c-24 -8.66699 -42 -1.66699 -54 21c-5.33301 9.33301 -5.33301 28.666 0 57.999c8.66699 49.333 13.667 100 15 152s0 126.333 -4 223c-1.33301 34.667 -0.833008 57.5 1.5 68.5s8.5 18.167 18.5 21.5z" />
    <glyph glyph-name="c" unicode="c" horiz-adv-x="447" 
d="M372 359c-22 0 -39.3359 15.3389 -52.0029 46.0059c-7.33301 15.333 -15.333 24.666 -24 27.999c-9.33301 3.33301 -23 2 -41 -4s-34.333 -14.667 -49 -26c-57.333 -42.667 -90.166 -96.834 -98.499 -162.501s10.834 -118.834 57.501 -159.501
c20 -19.333 49.333 -29 88 -29s67 11 85 33c18 16.667 27 28.334 27 35.001c0 5.33301 3.66699 6.66602 11 3.99902c2.66699 -2 4.83398 -2.16699 6.50098 -0.5s3.33398 4.33398 5.00098 8.00098s3.16699 7.5 4.5 11.5s2.66602 7.33301 3.99902 10s2.66602 4 3.99902 4
c7.33301 0 12.333 -5 15 -15s2.16699 -20.5 -1.5 -31.5s-9.16699 -17.833 -16.5 -20.5c-5.33301 -1.33301 -8.5 -2.33301 -9.5 -3s-1 -1.5 0 -2.5s3.83301 -2.5 8.5 -4.5c0.666992 0 1.33398 -0.333008 2.00098 -1c6 -2.66699 8 -5 6 -7
c-0.666992 -0.666992 -2.66699 -2 -6 -4c-0.666992 0 -1.33398 -0.333008 -2.00098 -1c-6.66699 -4 -9.16699 -6.66699 -7.5 -8s0.833984 -5 -2.49902 -11c-6 -6.66699 -11 -8.66699 -15 -6c-2 1.33301 -3 0.666016 -3 -2.00098c0 -2 0.333008 -4 1 -6
c4.66699 -11.333 -5.33301 -23 -30 -35s-51.334 -18 -80.001 -18c-19.333 -0.666992 -39.166 1.66602 -59.499 6.99902s-30.5 10.666 -30.5 15.999c0.666992 1.33301 0 2.5 -2 3.5s-4.5 1.66699 -7.5 2s-5.83301 0.666016 -8.5 0.999023s-5 0.833008 -7 1.5s-3 1.66699 -3 3
c0 4 -5 8 -15 12c-9.33301 4 -23 19 -41 45s-28.333 45.667 -31 59c-2 6.66699 -5.33301 15.167 -10 25.5s-7.66699 18 -9 23s-3 14.667 -5 29s-1.66699 28.166 1 41.499c3.33301 48 15.5 90.333 36.5 127s54.167 73 99.5 109c15.333 10.667 32.833 19.334 52.5 26.001
s41.5 10.167 65.5 10.5s45 -5.16699 63 -16.5c30 -18 49 -45 57 -81c8 -32.667 2.33301 -53.667 -17 -63c-4.66699 -2 -10 -3 -16 -3z" />
    <glyph glyph-name="d" unicode="d" horiz-adv-x="437" 
d="M292 348c-4.66699 8.66699 -14.333 12 -29 10s-32.5 -9.33301 -53.5 -22s-38.833 -27.334 -53.5 -44.001c-34.667 -39.333 -52 -86.666 -52 -141.999c0.666992 -51.333 16.334 -90 47.001 -116c11.333 -9.33301 30.166 -14.666 56.499 -15.999s47.5 1.66699 63.5 9
c15.333 7.33301 24.833 13.666 28.5 18.999s6.33398 19.833 8.00098 43.5s0.166992 59.5 -4.5 107.5c-4.66699 92 -8.33398 142.333 -11.001 151zM345.001 -54c0 -5.33301 -6.33496 -4.66504 -19.002 2.00195c-5.33301 3.33301 -9.33301 7 -12 11
c-4.66699 6.66699 -16.334 6 -35.001 -2c-16.667 -6.66699 -39.5 -9.33398 -68.5 -8.00098s-51.167 6.33301 -66.5 15c-15.333 8 -32.166 21.833 -50.499 41.5s-32.166 38.5 -41.499 56.5c-23.333 48 -27 105.667 -11 173c8.66699 35.333 19.5 63.666 32.5 84.999
s33.5 43.666 61.5 66.999c35.333 27.333 63.666 45 84.999 53s50.333 11.333 87 10l9 60c3.33301 24.667 6.33301 41.834 9 51.501s7.33398 16.834 14.001 21.501c4.66699 4 9.16699 6.66699 13.5 8s7.83301 1.83301 10.5 1.5s7 -1.5 13 -3.5s10.333 -3.33301 13 -4
c21.333 -6.66699 22.666 -56.334 3.99902 -149.001c-6 -33.333 -8.66699 -122 -8 -266c0.666992 -105.333 0.333984 -168.833 -0.999023 -190.5s-5.33301 -34.5 -12 -38.5s-10.167 -5.83301 -10.5 -5.5s0.833984 3.83301 3.50098 10.5c6 8 5.66699 11.667 -1 11
c-8 0 -14 -2.66699 -18 -8z" />
    <glyph glyph-name="e" unicode="e" horiz-adv-x="469" 
d="M233 443c-4.66699 8.66699 -13.998 13.501 -27.998 14.501s-28 -2.16699 -42 -9.5c-14.667 -8 -27.334 -23.833 -38.001 -47.5s-15.667 -47.834 -15 -72.501h33c38 1.33301 66.167 13.833 84.5 37.5s20.166 49.5 5.49902 77.5zM351.002 406.001
c0 -21.333 -6.49414 -45.9971 -19.4941 -73.9971s-24.5 -42 -34.5 -42c-4.66699 0 -8.33398 -4.33301 -11.001 -13c-3.33301 -8.66699 -21.333 -18.334 -54 -29.001c-23.333 -7.33301 -41.833 -11.333 -55.5 -12s-28.167 2 -43.5 8c-8 2.66699 -12 0 -12 -8
c0 -8.66699 3.83301 -23.667 11.5 -45s14.5 -35.333 20.5 -42c3.33301 -4.66699 6.16602 -9.33398 8.49902 -14.001s5 -8.83398 8 -12.501s8.5 -8.83398 16.5 -15.501c19.333 -17.333 43.166 -28.333 71.499 -33s52.166 -2.16699 71.499 7.5s27.333 23.834 24 42.501
c-2 10.667 2 20 12 28c16 11.333 32.333 9.83301 49 -4.5s25 -33.833 25 -58.5c0 -13.333 -1.5 -23.166 -4.5 -29.499s-9.83301 -14.5 -20.5 -24.5c-30.667 -28 -68.834 -44.833 -114.501 -50.5s-85.834 1.5 -120.501 21.5c-35.333 20.667 -65.5 50.834 -90.5 90.501
s-42.167 84.5 -51.5 134.5c-11.333 61.333 -10 118.166 4 170.499s37.333 88.833 70 109.5c28.667 18 54 28.667 76 32c17.333 2 44.333 -2.66699 81 -14c13.333 -4 23.333 -8.83301 30 -14.5s15.667 -17.167 27 -34.5c17.333 -26.667 26 -51.334 26 -74.001z" />
    <glyph glyph-name="f" unicode="f" horiz-adv-x="511" 
d="M408 350c-11.333 12 -19.165 25.3301 -23.498 39.9971s-10.166 28 -17.499 40c-12 18 -21 33.333 -27 46c-5.33301 8.66699 -17.833 20.5 -37.5 35.5s-32.834 22.5 -39.501 22.5s-14.5 -9.33301 -23.5 -28s-15.5 -38.667 -19.5 -60
c-5.33301 -26.667 -6.33301 -74.667 -3 -144c0.666992 -21.333 16 -24.333 46 -9c14 7.33301 24.833 10.333 32.5 9s17.167 -7.66602 28.5 -18.999c20 -20 25.833 -39.833 17.5 -59.5s-27.833 -31.5 -58.5 -35.5c-26.667 -3.33301 -41.834 -8 -45.501 -14
s-3.16699 -23.667 1.5 -53c8.66699 -52.667 13 -83 13 -91s-5 -14.667 -15 -20c-13.333 -6.66699 -26.333 -7.5 -39 -2.5s-22.667 15.167 -30 30.5c-4.66699 10 -9.5 28.833 -14.5 56.5s-7.83301 50.834 -8.5 69.501c0 7.33301 -12.333 12.333 -37 15
c-28.667 4 -48 12.333 -58 25c-4.66699 6 -3.66699 10.333 3 13c8 2.66699 10.333 6.33398 7 11.001s-6.66602 4 -9.99902 -2c-4 -6.66699 -9 -7 -15 -1c-5.33301 4.66699 -6.5 8.66699 -3.5 12s7.16699 7.33301 12.5 12s7.66602 8.33398 6.99902 11.001
c-0.666992 6 3.66602 11 12.999 15s20.5 6.66699 33.5 8s25.167 1.33301 36.5 0c-2.66699 46.667 -0.666992 100.667 6 162s15.334 98 26.001 110c6.66699 6.66699 10 14 10 22c0.666992 7.33301 5.66699 16.166 15 26.499s19 17.5 29 21.5c22 9.33301 50.333 6.5 85 -8.5
s64 -36.5 88 -64.5c19.333 -22.667 47 -73 83 -151c6.66699 -13.333 6.66699 -28 0 -44c-4 -8 -8.33301 -10.667 -13 -8c-4 2.66699 -10.333 -0.333008 -19 -9c-6 -6.66699 -10.833 -9.66699 -14.5 -9s-10.834 7 -21.501 19z" />
    <glyph glyph-name="g" unicode="g" horiz-adv-x="455" 
d="M288 380c-7.33301 6.66699 -18.165 10.1689 -32.498 10.502s-27.833 -2.83398 -40.5 -9.50098c-66.667 -33.333 -99.334 -90.333 -98.001 -171c0.666992 -34 5.33398 -56.333 14.001 -67c15.333 -20.667 40.166 -35 74.499 -43s62.166 -6 83.499 6l20 12l-5 102
c-4.66699 101.333 -10 154.666 -16 159.999zM321.001 464.002c0 -4.66699 3.00195 -6.99414 9.00195 -6.99414c9.33301 0 23.666 -11.5 42.999 -34.5s31.333 -43.167 36 -60.5c8.66699 -27.333 13.834 -62.833 15.501 -106.5s-0.833008 -78.834 -7.5 -105.501
c-8 -32 -13 -66 -15 -102c-3.33301 -46.667 -6.66602 -78.167 -9.99902 -94.5s-10 -34.5 -20 -54.5c-15.333 -32 -30.833 -54.167 -46.5 -66.5s-35.834 -18.5 -60.501 -18.5c-18 0 -27.333 4.33301 -28 13c0 4 -0.666992 6 -2 6s-2.33301 -1 -3 -3
c-2.66699 -6.66699 -6.5 -9.16699 -11.5 -7.5s-13.167 8.5 -24.5 20.5c-14.667 14.667 -24.334 20 -29.001 16c-4 -2 -6.33301 0 -7 6c-2 16 1.33301 31 10 45c1.33301 2 2.66602 3.66699 3.99902 5c8 7.33301 14.667 9.66602 20 6.99902s11.666 -11 18.999 -25
c7.33301 -13.333 15.333 -19.833 24 -19.5s19.667 7.83301 33 22.5c12.667 14 21.167 26.167 25.5 36.5s7.5 27.166 9.5 50.499l3 37l-38 -4c-40 -4.66699 -81.167 3.66602 -123.5 24.999s-72.5 49.333 -90.5 84c-11.333 22 -19.166 47.833 -23.499 77.5
s-3.83301 56.5 1.5 80.5c8.66699 47.333 31.667 90.666 69 129.999c32.667 33.333 65.667 53.666 99 60.999c24.667 5.33301 50.667 6.33301 78 3s41 -9 41 -17z" />
    <glyph glyph-name="h" unicode="h" horiz-adv-x="439" 
d="M409 41c0 -2.66699 -5.33594 -4.00293 -16.0029 -4.00293h-1c-5.33301 -0.666992 -8.16602 -1.16699 -8.49902 -1.5s1.83398 -1.16602 6.50098 -2.49902c8.66699 -2.66699 12.334 -7 11.001 -13s-7 -11.333 -17 -16c-13.333 -6.66699 -23.333 -9.33398 -30 -8.00098
s-14.667 7.66602 -24 18.999c-6.66699 8.66699 -11 16.5 -13 23.5s-2.66699 18.5 -2 34.5c1.33301 38.667 -5 87.334 -19 146.001s-30.667 105.667 -50 141c-8.66699 15.333 -19.834 27.5 -33.501 36.5s-25.834 12.167 -36.501 9.5c-10.667 -2 -20.667 -14.333 -30 -37
c-6 -14 -9.66699 -29.167 -11 -45.5s-1.66602 -47.833 -0.999023 -94.5c1.33301 -71.333 4.33301 -120.666 9 -147.999c7.33301 -45.333 5.33301 -70.333 -6 -75c-2 -0.666992 -4 -0.666992 -6 0c-4 1.33301 -6.33301 1.33301 -7 0l1 -3
c4 -7.33301 0.333008 -11.333 -11 -12l-17 2c-11.333 2 -19.666 8.66699 -24.999 20c-6 17.333 -12.667 72.5 -20 165.5s-11.666 143.833 -12.999 152.5c-7.33301 74 -10.333 147 -9 219c1.33301 18 6.33301 31.333 15 40c9.33301 9.33301 19.5 13.833 30.5 13.5
s20.167 -5.83301 27.5 -16.5c8 -11.333 9.33301 -22 4 -32c-2.66699 -7.33301 -3 -11.333 -1 -12c2.66699 2.66699 5 -2.66602 7 -15.999c0.666992 -6.66699 1.33398 -17 2.00098 -31l3 -23c1.33301 -1.33301 11.333 2.66699 30 12c19.333 10 35.666 13.333 48.999 10
s30 -10.666 50 -21.999s34.333 -21.666 43 -30.999c15.333 -16 32.166 -48.5 50.499 -97.5s33.5 -101.167 45.5 -156.5c3.33301 -14.667 8 -41.334 14 -80.001s9 -61 9 -67z" />
    <glyph glyph-name="i" unicode="i" horiz-adv-x="192" 
d="M121 113c0 -32.667 -2.49805 -54.5 -7.49805 -65.5s-14.833 -16.5 -29.5 -16.5c-15.333 0 -28.666 5.66699 -39.999 17c-7.33301 8.66699 -11.5 18 -12.5 28s-0.833008 36.667 0.5 80c1.33301 39.333 3.5 69.333 6.5 90s4.83301 49 5.5 85
c1.33301 42 4.16602 71.333 8.49902 88s11.833 27 22.5 31c15.333 6 32.666 0.666992 51.999 -16c7.33301 -7.33301 11.666 -15 12.999 -23s1 -28.667 -1 -62c-1.33301 -21.333 -4.5 -59 -9.5 -113s-7.83301 -95 -8.5 -123zM70.002 654
c10.667 8 17.666 12.1689 20.999 12.502s12 -2.83398 26 -9.50098c21.333 -10 35.333 -25.5 42 -46.5s3.33398 -38.833 -9.99902 -53.5c-14 -14.667 -34 -17.667 -60 -9c-14 5.33301 -23.833 12.666 -29.5 21.999s-8.16699 22.666 -7.5 39.999
c0.666992 20.667 6.66699 35.334 18 44.001z" />
    <glyph glyph-name="j" unicode="j" horiz-adv-x="307" 
d="M38 -72c4.66699 -0.666992 7.99609 8.66895 9.99609 28.002c0.666992 6.66699 0.333984 10 -0.999023 10s-3.66602 -5.33301 -6.99902 -16c-1.33301 -4.66699 -2.16602 -9.33398 -2.49902 -14.001s-0.166016 -7.33398 0.500977 -8.00098zM134.996 -108.997
c8.66699 0 17.9971 10.3301 27.9971 30.9971c20 46.667 25 122.667 15 228c-10 104 -15.167 163.833 -15.5 179.5s3.83398 27.834 12.501 36.501s18.667 13.334 30 14.001s21.333 -2.33301 30 -9c14.667 -16.667 25.834 -87.667 33.501 -213s1.5 -210.666 -18.5 -255.999
c-13.333 -33.333 -28.333 -57.333 -45 -72c-11.333 -10.667 -20.333 -17.167 -27 -19.5s-17 -2.83301 -31 -1.5c-27.333 1.33301 -52.333 12.333 -75 33s-36.334 44.667 -41.001 72c-2 14.667 -1.66699 33.667 1 57c2.66699 15.333 4.83398 24 6.50098 26
s6.83398 1.66699 15.501 -1c11.333 -4 17.333 -4.66699 18 -2l16 -38c10 -26.667 18 -44.167 24 -52.5s13.667 -12.5 23 -12.5zM196.993 534c0 5.33301 -2.66504 7.33008 -7.99805 5.99707c-4.66699 -1.33301 -10.334 3.5 -17.001 14.5s-10 21.167 -10 30.5
c0 7.33301 4.66699 16 14 26s16.333 13.667 21 11c3.33301 -2 6.66602 -1 9.99902 3c8.66699 12.667 24 8.66699 46 -12c24 -24 29 -45.333 15 -64c-4 -5.33301 -12 -10.166 -24 -14.499s-22.5 -6.66602 -31.5 -6.99902s-14.167 1.83398 -15.5 6.50098z" />
    <glyph glyph-name="k" unicode="k" horiz-adv-x="436" 
d="M195 410c0 4.66699 10.6758 22.0068 32.0088 52.0068s37.666 50.667 48.999 62s25.666 16.666 42.999 15.999c17.333 -1.33301 25.333 -5 24 -11c-0.666992 -3.33301 -0.5 -5.33301 0.5 -6s2.5 -0.333984 4.5 0.999023c6.66699 4 10.667 1.33301 12 -8s-1 -17 -7 -23
c-8 -9.33301 -12 -16 -12 -20c0 -6 -1.33301 -9.33301 -4 -10c-4.66699 -1.33301 -27.334 -34.333 -68.001 -99c-18 -29.333 -25.667 -44 -23 -44c1.33301 0 3.66602 0.666992 6.99902 2c7.33301 2.66699 21.666 -1.33301 42.999 -12s38.666 -22.334 51.999 -35.001
c38.667 -38.667 58 -93 58 -163c0 -42 -2.33301 -64 -7 -66c-4.66699 -1.33301 -6 -5.33301 -4 -12c2 -6 -3.33301 -11.667 -16 -17s-24.334 -6.66602 -35.001 -3.99902c-12.667 4 -22.5 11.833 -29.5 23.5s-7.16699 25.5 -0.5 41.5c9.33301 24 11.5 49.333 6.5 76
s-14.833 48 -29.5 64c-10.667 11.333 -26.334 16.833 -47.001 16.5s-39.334 -6.83301 -56.001 -19.5c-15.333 -10.667 -25.333 -20 -30 -28c-4 -6.66699 -8.33301 -8.66699 -13 -6c-1.33301 1.33301 -2.66602 -1.33398 -3.99902 -8.00098l-3 -39
c-0.666992 -58 -4.66699 -90.667 -12 -98c-4.66699 -5.33301 -7.33398 -3.33301 -8.00098 6v10.5v9.5c-1.33301 -1.33301 -3.33301 -4 -6 -8s-4.83398 -7 -6.50098 -9s-4.16699 -4.5 -7.5 -7.5s-6.33301 -4.83301 -9 -5.5s-5.66699 -0.666992 -9 0s-7 2.66699 -11 6
c-6.66699 3.33301 -10.334 20 -11.001 50c-1.33301 76 -9 177 -23 303c-4 39.333 -5.5 77.5 -4.5 114.5s4.16699 58.833 9.5 65.5c6.66699 8 17.667 11.833 33 11.5s27.333 -4.83301 36 -13.5c6.66699 -6.66699 10.834 -15.834 12.501 -27.501s2.83398 -40.5 3.50098 -86.5
c2 -76.667 4 -120.334 6 -131.001c0.666992 -3.33301 6 2 16 16c4 5.33301 10.333 14.666 19 27.999c14 21.333 21.667 32 23 32c4 1.33301 6 4.66602 6 9.99902z" />
    <glyph glyph-name="l" unicode="l" 
d="M84 59c-22.667 0 -36.001 7.66699 -40.001 23s-7.66699 68.333 -11 159c-5.33301 210.667 -1.66602 323 11.001 337c6.66699 8 14.667 11.333 24 10c7.33301 -2 11.666 -0.666992 12.999 4c0 5.33301 1.33301 5.33301 4 0c1.33301 -6 4.33301 -7.66699 9 -5
c4 2.66699 11 -1 21 -11c6.66699 -6.66699 10.5 -14.5 11.5 -23.5s0.166992 -33.167 -2.5 -72.5c-6 -90 -6 -193 0 -309c2.66699 -49.333 1.83398 -80.333 -2.49902 -93s-16.833 -19 -37.5 -19z" />
    <glyph glyph-name="m" unicode="m" horiz-adv-x="677" 
d="M40 406c12 17.333 29.002 20.3271 51.002 8.99414s33.667 -25.333 35 -42c0 -5.33301 0.666992 -8 2 -8c3.33301 1.33301 10 7.33301 20 18c25.333 28 56.333 36.833 93 26.5s64.667 -35.5 84 -75.5c8 -15.333 12.667 -23 14 -23c0.666992 0 6 4.33301 16 13
c2.66699 2 5 4 7 6c13.333 12 32.666 21.5 57.999 28.5s47 8.83301 65 5.5c27.333 -5.33301 54 -23 80 -53s45 -65 57 -105c7.33301 -23.333 14 -55.333 20 -96s7.33301 -62.667 4 -66c-3.33301 -4.66699 -5 -1.66699 -5 9v13v10
c-0.666992 -1.33301 -2.33398 -7.66602 -5.00098 -18.999c-3.33301 -9.33301 -6.5 -15.833 -9.5 -19.5s-5.83301 -4.83398 -8.5 -3.50098c-6.66699 2 -10 1 -10 -3c0 -9.33301 -6.66699 -10.333 -20 -3l-16 12c-7.33301 6.66699 -12.5 14.834 -15.5 24.501
s-6.5 29.834 -10.5 60.501c-10 80.667 -28.667 129.334 -56 146.001c-14.667 8 -26 11.333 -34 10s-20 -9 -36 -23c-31.333 -29.333 -52.333 -74.666 -63 -135.999c-6.66699 -35.333 -12 -58 -16 -68s-11 -17.333 -21 -22c-12 -5.33301 -24.333 -6.5 -37 -3.5
s-22.334 9.83301 -29.001 20.5c-4.66699 7.33301 -7.16699 15.833 -7.5 25.5s1.5 29.167 5.5 58.5c6.66699 50.667 7.16699 94 1.5 130s-15.834 54 -30.501 54c-8 0 -15.667 -5.33301 -23 -16c-18 -26.667 -38 -88.667 -60 -186
c-9.33301 -43.333 -18.333 -68.666 -27 -75.999c-7.33301 -5.33301 -17.5 -7.5 -30.5 -6.5s-24.5 5.16699 -34.5 12.5c-7.33301 4.66699 -11.666 14.334 -12.999 29.001s-2.66602 64 -3.99902 148c-1.33301 72 -1.33301 118.833 0 140.5s4.33301 36.167 9 43.5z" />
    <glyph glyph-name="n" unicode="n" horiz-adv-x="428" 
d="M134 324c3.33301 0 8 9.00488 14 27.0049c5.33301 14.667 15.833 30.167 31.5 46.5s28.167 24.5 37.5 24.5c28.667 0 56.334 -11.333 83.001 -34s49.667 -54.334 69 -95.001c12.667 -26 20.5 -45.667 23.5 -59s4.83301 -38.333 5.5 -75
c0.666992 -30.667 -0.166016 -56.834 -2.49902 -78.501s-6.16602 -37.834 -11.499 -48.501s-11.666 -15 -18.999 -13c-2.66699 0.666992 -4.83398 1 -6.50098 1s-2.66699 -0.5 -3 -1.5s-0.166016 -2.16699 0.500977 -3.5c1.33301 -1.33301 0.333008 -2.5 -3 -3.5
s-8.33301 -1.16699 -15 -0.5c-14.667 1.33301 -27.334 8.66602 -38.001 21.999s-12.334 28 -5.00098 44c8 20.667 11.167 47.334 9.5 80.001s-6.83398 60.667 -15.501 84c-8.66699 22 -18.5 40.667 -29.5 56s-19.167 21.333 -24.5 18
c-8.66699 -4.66699 -19.834 -30.5 -33.501 -77.5s-25.5 -99.167 -35.5 -156.5c-9.33301 -60.667 -17.333 -95 -24 -103c-6.66699 -7.33301 -16.667 -10.5 -30 -9.5s-25.666 6.16699 -36.999 15.5c-13.333 11.333 -20.333 28.333 -21 51c-15.333 186 -23.333 312.333 -24 379
l18 15c12 9.33301 21.167 13.666 27.5 12.999s16.833 -7 31.5 -19c11.333 -9.33301 18.166 -16.833 20.499 -22.5s3.5 -17.834 3.5 -36.501c-1.33301 -26.667 -0.333008 -40 3 -40z" />
    <glyph glyph-name="o" unicode="o" horiz-adv-x="516" 
d="M112 177c0 -33.333 10.667 -60.333 32 -81s50.333 -32.334 87 -35.001c18.667 -1.33301 32.167 -1.33301 40.5 0s19.833 6.33301 34.5 15c82 47.333 115.333 103.333 100 168c-8 38 -29.667 69.667 -65 95c-17.333 12.667 -34 19.334 -50 20.001
s-35.333 -4.66602 -58 -15.999c-10.667 -5.33301 -18 -5 -22 1c-4 7.33301 -12.5 7.66602 -25.5 0.999023s-23.5 -16.334 -31.5 -29.001c-10 -15.333 -19.5 -38.166 -28.5 -68.499s-13.5 -53.833 -13.5 -70.5zM486 223c0 -24.667 -1.16699 -42.5029 -3.5 -53.5029
s-7.83301 -25.167 -16.5 -42.5c-14 -27.333 -38 -55.666 -72 -84.999s-56.333 -40.666 -67 -33.999c-4 2.66699 -9 0.333984 -15 -6.99902c-3.33301 -4.66699 -6.66602 -7.16699 -9.99902 -7.5s-9.33301 1.5 -18 5.5c-10.667 6 -16 7.66699 -16 5
c0 -0.666992 0.333008 -2.33398 1 -5.00098c1.33301 -4 1.16602 -6.5 -0.500977 -7.5s-5.5 -0.833008 -11.5 0.5c-58.667 12 -99.334 23.667 -122.001 35s-43.334 30.333 -62.001 57c-20 28.667 -32.667 52.667 -38 72s-6.33301 45.666 -3 78.999
c2.66699 32 7.33398 57.333 14.001 76s20 44 40 76c34.667 55.333 72 90.666 112 105.999c20 7.33301 39 9 57 5c14.667 -3.33301 31.834 -11.166 51.501 -23.499s31.167 -22.166 34.5 -29.499c2.66699 -6 11.667 -12.667 27 -20s34.5 -23.666 57.5 -48.999
s38.833 -47.333 47.5 -66c8.66699 -19.333 13 -48.333 13 -87z" />
    <glyph glyph-name="p" unicode="p" horiz-adv-x="434" 
d="M203 401c-10 0 -20.6641 -5.00098 -31.9971 -15.001s-18.333 -20.333 -21 -31c-4 -12.667 -8.66699 -21.667 -14 -27c-6 -6.66699 -10.333 -33.834 -13 -81.501s-1.66699 -77.5 3 -89.5c5.33301 -14 8.66602 -28 9.99902 -42c1.33301 -20 5.83301 -30.833 13.5 -32.5
s24.167 4.16602 49.5 17.499c26 13.333 51 32.5 75 57.5s39 47.5 45 67.5c10 34.667 2.66699 72.334 -22 113.001c-10.667 16.667 -18.834 27.834 -24.501 33.501s-15.834 11.834 -30.501 18.501c-17.333 7.33301 -30.333 11 -39 11zM159.003 -4.00098l-35 0.00195312v-47
c0 -62 -8 -96.333 -24 -103c-5.33301 -2.66699 -9 -0.5 -11 6.5s-4.33301 10.5 -7 10.5c-4.66699 0 -7 -2.66699 -7 -8c0 -2 -2.33301 -3 -7 -3s-9.66699 0.666992 -15 2s-9.33301 3.33301 -12 6c-10 161.333 -13 323 -9 485c1.33301 53.333 3.16602 86.666 5.49902 99.999
s7.16602 23.666 14.499 30.999c9.33301 9.33301 16.833 14.333 22.5 15s16.834 -2.33301 33.501 -9c17.333 -6.66699 33 -7 47 -1c8 3.33301 15.5 5.16602 22.5 5.49902s14.833 0 23.5 -1s16.667 -1.16699 24 -0.5c12 0.666992 31 -7 57 -23s45.667 -32.333 59 -49
c20 -24 34.5 -47.5 43.5 -70.5s14.833 -51.167 17.5 -84.5c1.33301 -26 1.33301 -43.833 0 -53.5s-6.33301 -23.167 -15 -40.5c-22 -43.333 -56.167 -82.166 -102.5 -116.499s-88.166 -51.5 -125.499 -51.5z" />
    <glyph glyph-name="q" unicode="q" horiz-adv-x="523" 
d="M280 376c-5.33301 2.66699 -10.668 4.00098 -16.001 4.00098s-9.66602 -0.333008 -12.999 -1s-8.16602 -2 -14.499 -4s-10.833 -3.33301 -13.5 -4c-27.333 -4 -53.5 -27.333 -78.5 -70s-34.833 -80.667 -29.5 -114c3.33301 -17.333 14 -34.833 32 -52.5
s36.333 -27.834 55 -30.501c16.667 -2.66699 26.667 -3 30 -1s5.66602 9.66699 6.99902 23c1.33301 6 6 37.667 14 95s15 97 21 119c7.33301 20.667 9.33301 32.667 6 36zM443.998 -73.999c7.33301 0 17.333 -7.66699 30 -23c14.667 -14.667 21 -29.334 19 -44.001
c-4 -24.667 -10.833 -39.667 -20.5 -45s-37.5 -8.66602 -83.5 -9.99902c-35.333 -0.666992 -62.333 1.33301 -81 6s-36.667 13.667 -54 27c-10 8 -16.833 16 -20.5 24s-6.83398 23 -9.50098 45c-5.33301 34.667 -6.66602 62.667 -3.99902 84
c0.666992 14 0.5 23.167 -0.5 27.5s-3.83301 6.5 -8.5 6.5c-14.667 0 -35.334 6.5 -62.001 19.5s-46.667 26.167 -60 39.5c-28 25.333 -46 57 -54 95s-7 74.833 3 110.5s26.667 69 50 100s50 53.167 80 66.5c24 12 55 16.667 93 14c36 -1.33301 62.333 -6.33301 79 -15
c15.333 -8 28.5 -20.333 39.5 -37s15.167 -31.334 12.5 -44.001c-2 -12.667 1 -30.334 9 -53.001c8.66699 -22.667 13 -53.667 13 -93s-4.33301 -70.666 -13 -93.999c-8.66699 -22 -25 -45 -49 -69c-15.333 -15.333 -25.333 -27.166 -30 -35.499
s-7.66699 -20.166 -9 -35.499c-2.66699 -18 -3.16699 -41.5 -1.5 -70.5s8.83398 -44.5 21.501 -46.5c14.667 -4.66699 32.334 -6.33398 53.001 -5.00098c17.333 0.666992 27.666 2.16699 30.999 4.5s4.33301 8.5 3 18.5c-2 21.333 6 32 24 32z" />
    <glyph glyph-name="r" unicode="r" horiz-adv-x="491" 
d="M371 281c0 7.33301 -3.66895 13.0049 -11.002 17.0049s-22 8 -44 12c-20 3.33301 -42.833 2.16602 -68.5 -3.50098s-46.167 -14.5 -61.5 -26.5s-24.833 -30.167 -28.5 -54.5s-2.5 -66.5 3.5 -126.5c4 -42.667 5.83301 -68.834 5.5 -78.501s-3.5 -16.834 -9.5 -21.501
c-9.33301 -6.66699 -20.166 -9.66699 -32.499 -9s-22.5 4.66699 -30.5 12c-14.667 14 -27.667 75 -39 183c-4.66699 52.667 -9.66699 92 -15 118c-6.66699 36.667 -10 59.167 -10 67.5s3.66699 16.166 11 23.499c22 22 44.333 19.667 67 -7c8.66699 -10 15 -15.667 19 -17
s12.333 0 25 4c17.333 6 29 11.333 35 16c7.33301 4 33.333 7.33301 78 10c32 1.33301 53.667 1.16602 65 -0.500977s27.333 -7.16699 48 -16.5c17.333 -7.33301 30.333 -14.5 39 -21.5s17 -16.833 25 -29.5c24 -38.667 25.667 -61 5 -67
c-9.33301 -3.33301 -12.666 -7 -9.99902 -11c2 -2.66699 0.333008 -4.33398 -5 -5.00098c-16 -3.33301 -31.667 -1.66602 -47 5.00098c-2 0.666992 -3.66699 1.66699 -5 3c-6 6 -9 14 -9 24z" />
    <glyph glyph-name="s" unicode="s" horiz-adv-x="441" 
d="M125 295c0 -8.66699 7.17285 -19.6719 21.5059 -33.0049s30.5 -23.666 48.5 -30.999c82 -34.667 131 -59.667 147 -75c32 -30.667 53 -63.167 63 -97.5s7.66699 -65.166 -7 -92.499s-39.667 -46.666 -75 -57.999c-22.667 -6.66699 -42.5 -9.16699 -59.5 -7.5
s-40.5 8.16699 -70.5 19.5c-19.333 7.33301 -42.5 21.5 -69.5 42.5s-40.5 35.5 -40.5 43.5c0 6.66699 -3.33301 12.334 -10 17.001c-5.33301 4.66699 -9.5 15.834 -12.5 33.501s-3.16699 33.167 -0.5 46.5c2 10 7.66699 16.833 17 20.5s17.666 2.5 24.999 -3.5
c6.66699 -6.66699 14.667 -18.667 24 -36c19.333 -39.333 48.666 -66.333 87.999 -81c41.333 -16 71.666 -17 90.999 -3c19.333 13.333 21 33.333 5 60s-42.333 47.334 -79 62.001c-56.667 22 -97.334 40.833 -122.001 56.5s-44 34.167 -58 55.5
c-22 35.333 -26.333 73 -13 113c8 24.667 18.167 44.667 30.5 60s29.5 29.666 51.5 42.999c20.667 12 38.5 18.667 53.5 20s36.833 -1.66699 65.5 -9c44.667 -12.667 79.667 -39 105 -79c11.333 -18 17.166 -31.833 17.499 -41.5s-4.5 -18.167 -14.5 -25.5
c-12.667 -9.33301 -24.334 -12.666 -35.001 -9.99902s-22.334 11.667 -35.001 27c-16.667 20.667 -31.5 34 -44.5 40s-27.833 6.33301 -44.5 1c-13.333 -4.66699 -27.166 -15.834 -41.499 -33.501s-21.5 -32.5 -21.5 -44.5z" />
    <glyph glyph-name="t" unicode="t" horiz-adv-x="417" 
d="M387 381c0 -16.667 -5.16406 -28.168 -15.4971 -34.501s-34.5 -12.833 -72.5 -19.5l-35 -6c-12 -2 -22.167 -3.83301 -30.5 -5.5s-12.833 -2.5 -13.5 -2.5c-4.66699 2.66699 -7.33398 -15 -8.00098 -53s-0.166992 -85.833 1.5 -143.5s2.5 -88.5 2.5 -92.5
c-20 0 -30 -0.666992 -30 -2s2.66699 -3 8 -5c6.66699 -2.66699 9.83398 -4.33398 9.50098 -5.00098s-4.16602 -2 -11.499 -4c-10.667 -2 -17 -0.333008 -19 5c-2.66699 4.66699 -8 7 -16 7s-14.333 2.66699 -19 8c-6.66699 5.33301 -10.667 15 -12 29
s-2.33301 51.333 -3 112c0 21.333 -0.166992 43.166 -0.5 65.499s-0.5 40.5 -0.5 54.5v22c-0.666992 7.33301 -8.33398 11.333 -23.001 12c-22 2.66699 -41 12.5 -57 29.5s-16.667 33.833 -2 50.5c6.66699 6.66699 17 11.834 31 15.501s25.333 4.16699 34 1.5
c11.333 -3.33301 19.166 -0.333008 23.499 9s8.83301 31.666 13.5 66.999c5.33301 44.667 11.666 72 18.999 82c17.333 18.667 38.666 16.334 63.999 -6.99902c21.333 -19.333 27 -45.666 17 -78.999c-8 -26.667 -13 -52.667 -15 -78c3.33301 0.666992 11.333 2 24 4
s23.167 3.83301 31.5 5.5s13.833 3.83398 16.5 6.50098c12 12 29.667 11.5 53 -1.5s35 -28.833 35 -47.5z" />
    <glyph glyph-name="u" unicode="u" horiz-adv-x="446" 
d="M251 145c-0.666992 55.333 4.66602 124.332 15.999 206.999c0.666992 4 5.33398 15.333 14.001 34c5.33301 10 10.166 16.167 14.499 18.5s11.833 3.16602 22.5 2.49902c20 -1.33301 34.167 -9 42.5 -23s12.166 -36.667 11.499 -68c-1.33301 -24 -4.33301 -43.667 -9 -59
s-8 -32 -10 -50c-3.33301 -32 0.333984 -63.5 11.001 -94.5s23.334 -46.5 38.001 -46.5c4 -0.666992 6.66699 -2 8 -4s2.33301 -5 3 -9s1.66699 -7.33301 3 -10c2 -5.33301 -0.666992 -12.333 -8 -21s-13.333 -11.667 -18 -9c-3.33301 2.66699 -6.33301 2 -9 -2
c-4.66699 -8 -17.5 -7.66699 -38.5 1s-33.833 18.667 -38.5 30c-2.66699 8 -13.334 6.66699 -32.001 -4c-32.667 -16 -73.667 -16.333 -123 -1c-50.667 15.333 -85.667 43 -105 83c-9.33301 18.667 -14 50.667 -14 96s4.66699 83.666 14 114.999
c7.33301 26 13.5 43.167 18.5 51.5s12.833 14.5 23.5 18.5c9.33301 4 16 6 20 6s11.333 -2 22 -6c13.333 -5.33301 22 -14.166 26 -26.499s2.33301 -26.166 -5 -41.499c-12 -26.667 -21.167 -60.667 -27.5 -102s-5.83301 -67.333 1.5 -78
c4.66699 -6 13.334 -13.667 26.001 -23c17.333 -13.333 38.333 -18.166 63 -14.499s37.667 13.5 39 29.5z" />
    <glyph glyph-name="v" unicode="v" horiz-adv-x="420" 
d="M202 157c2.66699 0 13.666 21.5 32.999 64.5s29.666 64.5 30.999 64.5c4 4 6 11.333 6 22c0 15.333 6.16699 34.833 18.5 58.5s23.5 37.5 33.5 41.5c11.333 4.66699 23.166 5.5 35.499 2.5s20.5 -8.5 24.5 -16.5c7.33301 -14.667 7.5 -33.167 0.5 -55.5
s-27.833 -71.166 -62.5 -146.499c-14 -30.667 -28.167 -64.834 -42.5 -102.501s-21.5 -59.5 -21.5 -65.5c-0.666992 -7.33301 -5.5 -16 -14.5 -26s-17.833 -16 -26.5 -18c-11.333 -2.66699 -23.666 -1.16699 -36.999 4.5s-21 12.834 -23 21.501
c-1.33301 2.66699 -2.5 11.667 -3.5 27s-3.16699 24 -6.5 26c-4 4 -11.333 21.333 -22 52l-17 49c-9.33301 24 -21.666 60.5 -36.999 109.5s-26.666 83.167 -33.999 102.5c-4.66699 10 -7 17.167 -7 21.5s2.66699 11.5 8 21.5c9.33301 13.333 18 21.666 26 24.999
s19.667 1.66602 35 -5.00098c10 -5.33301 18.5 -16.166 25.5 -32.499s16.5 -49.5 28.5 -99.5c24.667 -97.333 41 -146 49 -146z" />
    <glyph glyph-name="w" unicode="w" horiz-adv-x="594" 
d="M265 85c0 -6.66699 -6.00195 -16 -18.002 -28c-7.33301 -8 -14.5 -13.167 -21.5 -15.5s-18.167 -3.5 -33.5 -3.5c-40.667 0 -74 18.167 -100 54.5s-43 89.166 -51 158.499c-12 102 -12.667 160.667 -2 176c7.33301 12 18 17.667 32 17s27 -7.66699 39 -21
c8.66699 -8.66699 13.667 -15.834 15 -21.501s1.33301 -15.5 0 -29.5c-4.66699 -35.333 -0.833984 -84.166 11.499 -146.499s24.5 -93.5 36.5 -93.5c6 0 14.333 15.833 25 47.5s16.334 56.834 17.001 75.501c0.666992 20.667 10.334 37.5 29.001 50.5
s36.334 10.167 53.001 -8.5c10 -9.33301 16.5 -18.166 19.5 -26.499s5.16699 -24.166 6.5 -47.499c2.66699 -36 6.33398 -56.333 11.001 -61c14.667 -18.667 40.667 -15.334 78 9.99902c25.333 17.333 42.666 37.666 51.999 60.999s14.333 60.666 15 111.999
c0.666992 20 1 42.333 1 67c0 18.667 0.833008 29.834 2.5 33.501s6.83398 6.16699 15.501 7.5c6 0.666992 11 1.66699 15 3c6.66699 0.666992 15 -8.83301 25 -28.5s17 -40.167 21 -61.5c4.66699 -24 6.16699 -53.667 4.5 -89s-5.5 -54 -11.5 -56
c-6 -1.33301 -7.33301 -4.33301 -4 -9c3.33301 -5.33301 1.66602 -15.5 -5.00098 -30.5s-15.334 -28.5 -26.001 -40.5c-12 -13.333 -32 -29.666 -60 -48.999c-19.333 -13.333 -33.666 -21.5 -42.999 -24.5s-24.333 -4.5 -45 -4.5c-30 -0.666992 -52.333 4.33301 -67 15
c-24.667 17.333 -37 19.666 -37 6.99902z" />
    <glyph glyph-name="x" unicode="x" horiz-adv-x="424" 
d="M174 399c0 -8 5.17285 -26 15.5059 -54s16.833 -42 19.5 -42c2 0 18.333 20.333 49 61c29.333 39.333 47.666 62.333 54.999 69s17.666 10 30.999 10c14 0 27 -8.16699 39 -24.5s14.333 -30.833 7 -43.5c-4.66699 -15.333 -9.33398 -23 -14.001 -23
c-2.66699 0 -21.834 -21 -57.501 -63s-55.167 -66.667 -58.5 -74c-2.66699 -6.66699 9.33301 -35.834 36 -87.501s45.667 -83.5 57 -95.5c16 -16 24 -38.667 24 -68c0 -24 -7 -29 -21 -15c-5.33301 5.33301 -9.83301 5 -13.5 -1s-6.83398 -8.66699 -9.50098 -8
c-7.33301 0 -18.5 8.16699 -33.5 24.5s-26.833 33.166 -35.5 50.499c-6.66699 14 -13 25.667 -19 35s-12.333 22 -19 38c-8.66699 22.667 -15.667 34 -21 34c-3.33301 0 -15.333 -17.667 -36 -53s-32 -53.666 -34 -54.999
c-0.666992 -1.33301 -2.83398 -4.66602 -6.50098 -9.99902s-6.16699 -9.33301 -7.5 -12c-6.66699 -12 -19.334 -17.667 -38.001 -17s-28 7 -28 19c0 8.66699 -2.33301 9.33398 -7 2.00098c-5.33301 -8 -9.66602 -7.66699 -12.999 1c-1.33301 3.33301 -2.66602 8 -3.99902 14
c-2.66699 12.667 2.66602 26.667 15.999 42c14 16.667 28.333 36.667 43 60s23 39.666 25 48.999c3.33301 10.667 6.66602 16 9.99902 16c4 0 9.66699 9 17 27c6 14 8.83301 23 8.5 27s-4.5 13 -12.5 27c-55.333 90.667 -70.666 151.667 -45.999 183
c8.66699 11.333 24.5 11 47.5 -1s34.5 -26 34.5 -42z" />
    <glyph glyph-name="y" unicode="y" horiz-adv-x="359" 
d="M69 -49c2.66699 -1.33301 5.49512 -2.33789 8.49512 -3.00488s5.5 -1 7.5 -1s3.66699 -0.666992 5 -2s2.33301 -3.66602 3 -6.99902c0 -6 7.33301 -16.333 22 -31c15.333 -15.333 31 -23 47 -23c11.333 0 19.5 1.66699 24.5 5s11.167 11.666 18.5 24.999
c12.667 22.667 20.334 41.334 23.001 56.001s2.66699 41 0 79l-5 71c-44.667 -2 -77.834 1.5 -99.501 10.5s-40.5 29.5 -56.5 61.5c-8 16 -13.5 28.833 -16.5 38.5s-4.83301 17.334 -5.5 23.001s-1.66699 16 -3 31s-3.33301 31.5 -6 49.5c-4 30 -6 50 -6 60s2.33301 19 7 27
c10.667 19.333 27.334 25.333 50.001 18s34.334 -22.333 35.001 -45c0.666992 -24.667 3.33398 -56.167 8.00098 -94.5s9 -61.166 13 -68.499c8.66699 -20 25.334 -27 50.001 -21c11.333 3.33301 18.333 10.333 21 21s5.33398 44 8.00098 100
c2.66699 62.667 8 98.334 16 107.001c8.66699 10 20.5 14.167 35.5 12.5s27.833 -8.83398 38.5 -21.501c10.667 -12 16.334 -22.667 17.001 -32s-1.33301 -40.666 -6 -93.999c-6 -62.667 -8.33301 -119.667 -7 -171c2.66699 -108 -1.33301 -178 -12 -210
c-12 -38.667 -31.833 -66.667 -59.5 -84s-57.834 -20.666 -90.501 -9.99902c-28 9.33301 -48 18.833 -60 28.5s-24 26.167 -36 49.5c-8 16 -8.33301 29.667 -1 41c3.33301 4.66699 7.33301 6 12 4z" />
    <glyph glyph-name="z" unicode="z" horiz-adv-x="536" 
d="M402 10c-35.333 0 -78.832 -2.33496 -130.499 -7.00195s-94.5 -7 -128.5 -7c-36 0 -58 0.833008 -66 2.5s-17 7.5 -27 17.5c-13.333 13.333 -20 24.333 -20 33c0 6 9.33301 24 28 54s34.667 52.333 48 67c10 11.333 15 18.666 15 21.999c0 4 20.167 26.167 60.5 66.5
s67.166 64.5 80.499 72.5c24.667 16.667 32 27.667 22 33l-12 2c-6 0 -41.667 2.66699 -107 8c-38 2.66699 -63.5 5.5 -76.5 8.5s-22.833 7.83301 -29.5 14.5c-10 8.66699 -14.333 19.834 -13 33.501s8 25.5 20 35.5c10 8.66699 18.667 11.667 26 9
c40.667 -16 114.334 -25 221.001 -27c54.667 -1.33301 87.167 -2.66602 97.5 -3.99902s18.833 -6.33301 25.5 -15c15.333 -18.667 14 -41.167 -4 -67.5s-55 -60.5 -111 -102.5c-27.333 -21.333 -48.333 -39.166 -63 -53.499s-33 -35.833 -55 -64.5l-18.5 -25.5
c-5 -7 -8.66699 -12.833 -11 -17.5s-3.5 -8.16699 -3.5 -10.5s0.666992 -3.83301 2 -4.5c16 -4.66699 50.333 -2.33398 103 6.99902c11.333 2.66699 48.333 4 111 4c51.333 0 84.166 -2.83301 98.499 -8.5s21.5 -19.167 21.5 -40.5c0 -17.333 -3.66699 -27.666 -11 -30.999
c-11.333 -4 -42.333 -5.33301 -93 -4z" />
    <glyph glyph-name="uni0093" horiz-adv-x="313" 
d="M203 171c0 5.33301 -2.33008 6.33398 -6.99707 3.00098c-2 -1.33301 -4.33301 0.5 -7 5.5s-5.33398 12 -8.00098 21s-5.33398 19 -8.00098 30s-4.66699 22.5 -6 34.5s-2 22.667 -2 32c0.666992 26.667 6 53 16 79s20.667 41.333 32 46c8.66699 3.33301 19 4 31 2
s19.667 -5.66699 23 -11c8 -10.667 6.33301 -32 -5 -64c-14 -38.667 -11.667 -75.334 7 -110.001c11.333 -22 14.666 -39.667 9.99902 -53s-12.167 -22.833 -22.5 -28.5s-21.833 -6.16699 -34.5 -1.5c-12.667 5.33301 -19 10.333 -19 15zM68.0029 424.001
c7.33301 8 17.166 11.8301 29.499 11.4971s22.166 -4.16602 29.499 -11.499c18 -20 20 -43.667 6 -71c-19.333 -37.333 -17 -67.666 7 -90.999c16.667 -14.667 23.334 -35.667 20.001 -63s-16.333 -42.333 -39 -45c-37.333 -5.33301 -62.666 14.334 -75.999 59.001
c-18 58.667 -19.333 110.667 -4 156c9.33301 26.667 18.333 45 27 55z" />
    <glyph glyph-name="uni0094" horiz-adv-x="347" 
d="M214 329c-4 3.33301 -6.83203 10.002 -8.49902 20.002s-5.83398 15.667 -12.501 17c-6 0 -9.5 5 -10.5 15s0.666992 20.5 5 31.5s9.5 17.167 15.5 18.5c24.667 6.66699 45.667 5.33398 63 -3.99902c10.667 -4.66699 21.667 -17.334 33 -38.001s17.333 -38.334 18 -53.001
c1.33301 -38.667 -5.66699 -73.334 -21 -104.001s-32 -43 -50 -37c-16.667 5.33301 -29.167 17 -37.5 35s-7.83301 32 1.5 42c6 6.66699 9.5 16.167 10.5 28.5s-1.16699 21.833 -6.5 28.5zM162.001 334.002c0 -25.333 -3.00098 -51.667 -9.00098 -79
s-12.333 -44.666 -19 -51.999c-9.33301 -9.33301 -14 -16 -14 -20c0 -7.33301 -10.333 -6.33301 -31 3c-9.33301 4 -17 8.66699 -23 14c-9.33301 8.66699 -14.5 20.167 -15.5 34.5s2.16699 28.166 9.5 41.499c14.667 26.667 11.334 52 -9.99902 76c-24.667 30 -26 53 -4 69
c20.667 16 45.167 13.5 73.5 -7.5s42.5 -47.5 42.5 -79.5z" />
    <glyph glyph-name=".null" horiz-adv-x="0" 
 />
    <glyph glyph-name="nonmarkingreturn" horiz-adv-x="333" 
 />
    </font>
</defs>
</svg>
