<?xml version="1.0" standalone="no"?>
<!DOCTYPE svg PUBLIC "-//W3C//DTD SVG 1.1//EN" "http://www.w3.org/Graphics/SVG/1.1/DTD/svg11.dtd" >
<svg>
<metadata>
Created by FontForge 20090914 at Fri Feb 26 23:28:26 2016
 By www-data
Copyright (c) 2016, root
</metadata>
<defs>
<font id="Victor" horiz-adv-x="754" >
  <font-face 
    font-family="Victor"
    font-weight="400"
    font-stretch="normal"
    units-per-em="1000"
    panose-1="2 0 5 3 0 0 0 0 0 0"
    ascent="800"
    descent="-200"
    x-height="415"
    cap-height="665.5"
    bbox="28.9897 -202.004 983.001 688.231"
    underline-thickness="50"
    underline-position="-100"
    unicode-range="U+0020-U+0094"
  />
<missing-glyph horiz-adv-x="364" 
d="M33 0v666h265v-666h-265zM66 33h199v600h-199v-600z" />
    <glyph glyph-name=".notdef" horiz-adv-x="364" 
d="M33 0v666h265v-666h-265zM66 33h199v600h-199v-600z" />
    <glyph glyph-name="space" unicode=" " horiz-adv-x="327" 
 />
    <glyph glyph-name="exclam" unicode="!" horiz-adv-x="145" 
d="M115 50c0 -10.667 -4.16895 -19.1689 -12.502 -25.502s-17.833 -8.16602 -28.5 -5.49902c-17.333 4.66699 -26.666 11.834 -27.999 21.501s6.33398 17.167 23.001 22.5c3.33301 0.666992 6.83301 1.66699 10.5 3s6.5 2.33301 8.5 3l4 1c3.33301 1.33301 8 -0.5 14 -5.5
s9 -9.83301 9 -14.5zM29.998 521.998c28.667 0 44.333 -1.66699 47 -5c0.666992 0.666992 1.5 -8.5 2.5 -27.5s2.16699 -42.333 3.5 -70s2.5 -55.334 3.5 -83.001s2 -51.167 3 -70.5s1.83301 -28.666 2.5 -27.999c2.66699 -2.66699 0.666992 -8 -6 -16s-12.667 -12 -18 -12
c-10 0 -17.167 3.66699 -21.5 11s-4.83301 17 -1.5 29c4 7.33301 4.66699 17.5 2 30.5s-4 26.833 -4 41.5c-2.66699 68 -7 134.667 -13 200z" />
    <glyph glyph-name="quotedbl" unicode="&#x22;" horiz-adv-x="259" 
d="M178 512c-1.33301 6 -1.16602 9.99707 0.500977 11.9971s6.5 2.66699 14.5 2s13.333 -2.16699 16 -4.5s4.33398 -7.83301 5.00098 -16.5c1.33301 -13.333 4.33301 -22.333 9 -27c6 -7.33301 8 -12.666 6 -15.999c-1.33301 -1.33301 -3.33301 -1 -6 1
c-4 2.66699 -6.33301 2 -7 -2c-0.666992 -4.66699 -1.33398 -23 -2.00098 -55c0 -14 -0.5 -24.833 -1.5 -32.5s-2.33301 -13.5 -4 -17.5s-3.83398 -5.83301 -6.50098 -5.5s-6.33398 1.5 -11.001 3.5c-5.33301 3.33301 -8.66602 9 -9.99902 17s-1.66602 25 -0.999023 51
c0 12 0.166992 23.167 0.5 33.5s0.666016 17.833 0.999023 22.5s0.333008 9.83398 0 15.501s-1.5 11.834 -3.5 18.501zM31 525.997c2.66699 6.66699 9.66895 9.99902 21.002 9.99902s19.666 -3.66699 24.999 -11c3.33301 -3.33301 6 -12.333 8 -27s3.33301 -35.667 4 -63
s1 -41.666 1 -42.999c-1.33301 0.666992 -4.5 1.5 -9.5 2.5s-9 1.83301 -12 2.5s-5.83301 2 -8.5 4s-4.33398 4 -5.00098 6c-4.66699 53.333 -10 83.333 -16 90c-8 13.333 -10.667 23 -8 29z" />
    <glyph glyph-name="dollar" unicode="$" horiz-adv-x="744" 
d="M431 226c-18 18 -30.1699 26.165 -36.5029 24.498s-11.166 -13.5 -14.499 -35.5c-3.33301 -29.333 -5.16602 -66.166 -5.49902 -110.499s0.833984 -68.5 3.50098 -72.5c4 -4 16.833 -2.83301 38.5 3.5s35.167 12.833 40.5 19.5c6 9.33301 10 25.833 12 49.5
s0.666992 44.5 -4 62.5c-6.66699 22.667 -18 42.334 -34 59.001zM250.997 402.998c0 -12.667 2.16602 -22.666 6.49902 -29.999s14.833 -19.333 31.5 -36c34.667 -34.667 52 -41.667 52 -21c-0.666992 3.33301 -1.33398 7.33301 -2.00098 12c-2 14 -1 21 3 21
c5.33301 0 6.33301 4.66699 3 14c-1.33301 4 -1.83301 10.167 -1.5 18.5s1.33301 19.666 3 33.999s3.33398 27.333 5.00098 39s3.33398 22.667 5.00098 33s2.5 15.833 2.5 16.5c0.666992 12 -12.333 11.333 -39 -2c-29.333 -14.667 -49 -31.334 -59 -50.001
c-6.66699 -13.333 -10 -29.666 -10 -48.999zM347.996 535.999c8.66699 0 13 1.00098 13 3.00098c0.666992 3.33301 -3.66602 5.66602 -12.999 6.99902c-4.66699 0 -8 -1 -10 -3c-0.666992 -1.33301 -0.833984 -2.5 -0.500977 -3.5s1.5 -1.83301 3.5 -2.5s4.33301 -1 7 -1z
M532.996 390c-5.33301 0 -14.3252 7.32812 -26.9922 21.9951s-19 25.334 -19 32.001c0 5.33301 -10.667 17.333 -32 36s-35 28 -41 28c-16.667 0 -25.667 -44 -27 -132c-1.33301 -42 -0.333008 -69.167 3 -81.5s11.666 -21.833 24.999 -28.5l29.5 -14
c7 -3.33301 13 -7.16602 18 -11.499s8.16699 -7.33301 9.5 -9s4.33301 -6 9 -13l11 -16.5c8 -12 15 -47 21 -105c2.66699 -22.667 -0.666016 -39 -9.99902 -49c-10.667 -10.667 -15.334 -18 -14.001 -22c0 -0.666992 -0.666992 -1.5 -2 -2.5s-3.5 -2 -6.5 -3l-10.5 -3.5
c-4 -1.33301 -8.66699 -2.5 -14 -3.5s-10.666 -1.83301 -15.999 -2.5c-39.333 -6.66699 -58 -11.667 -56 -15c0 -1.33301 4 -2 12 -2c6.66699 -0.666992 30.667 -5.5 72 -14.5s69.666 -13.167 84.999 -12.5c39.333 -0.666992 59 -9.33398 59 -26.001
c0 -6.66699 -10.667 -8.66699 -32 -6c-5.33301 0.666992 -21.333 2.16699 -48 4.5s-48.834 4.83301 -66.501 7.5s-32.167 5.66699 -43.5 9c-18.667 6 -31 7.66699 -37 5c-5.33301 -1.33301 -8 -5.33301 -8 -12s2.66699 -10 8 -10s4 -4 -4 -12
c-9.33301 -9.33301 -20 -11.5 -32 -6.5s-17.333 13.833 -16 26.5c1.33301 9.33301 -1.16699 16.333 -7.5 21s-14.5 5.66699 -24.5 3c-1.33301 -2 -37 -0.5 -107 4.5s-106.333 5.83301 -109 2.5c-6.66699 -4.66699 -18 -1.66699 -34 9c-18 12 -20 22 -6 30
c6.66699 0.666992 42.334 -1 107.001 -5s102 -6.66699 112 -8c14.667 -3.33301 22 -2 22 4c0 4.66699 -4 7 -12 7c-7.33301 0 -19.333 7.33301 -36 22s-29 28.667 -37 42c-5.33301 8.66699 -8 14.5 -8 17.5s3 6.16699 9 9.5c10.667 4.66699 18 6.33398 22 5.00098
s8.33301 -7.66602 13 -18.999c16.667 -37.333 47 -58.666 91 -63.999c-1.33301 26.667 -0.5 65.334 2.5 116.001s6.83301 80.667 11.5 90c5.33301 4.66699 0.166016 14.667 -15.501 30s-34.5 31.833 -56.5 49.5s-34.667 28.834 -38 33.501c-10 10 -16.167 18 -18.5 24
s-2.83301 15.333 -1.5 28c0 10.667 2.83301 24.834 8.5 42.501s8.83398 28.167 9.50098 31.5c0 3.33301 10.667 13.833 32 31.5s36 27.834 44 30.501c4 1.33301 -3.33301 2.66602 -22 3.99902l-65 3c-64.667 1.33301 -104 4 -118 8c-23.333 9.33301 -35.333 9 -36 -1
c0 -2 0.333008 -4 1 -6c2.66699 -9.33301 2 -14 -2 -14c-4.66699 0 -10.834 5.66699 -18.501 17s-12.5 22 -14.5 32c-0.666992 4 -1 7.5 -1 10.5s0.666992 5.16699 2 6.5s3.16602 2.33301 5.49902 3s6 0.666992 11 0s10.5 -1.83398 16.5 -3.50098l23 -6.5
c22.667 -8 99 -11.667 229 -11c126.667 0 201.667 -2.33301 225 -7c7.33301 -3.33301 35.666 -5.5 84.999 -6.5s77.666 -2.83301 84.999 -5.5c2.66699 -4.66699 0.833984 -9.33398 -5.49902 -14.001s-13.5 -7.5 -21.5 -8.5s-15.333 -0.166992 -22 2.5
c-4.66699 3.33301 -8.66699 2.66602 -12 -2.00098c-2.66699 -5.33301 -14.834 -7.66602 -36.501 -6.99902s-43.5 3.66699 -65.5 9c-14 3.33301 -32.167 5.33301 -54.5 6s-41.833 0.166992 -58.5 -1.5s-24.334 -4.5 -23.001 -8.5
c1.33301 -5.33301 6.66602 -8.66602 15.999 -9.99902c6 -1.33301 21.667 -12.833 47 -34.5s42.666 -38.834 51.999 -51.501c4.66699 -6 8.16699 -12.833 10.5 -20.5s3 -14.167 2 -19.5s-3.5 -8 -7.5 -8z" />
    <glyph glyph-name="percent" unicode="%" horiz-adv-x="963" 
d="M669 224c-20.667 0 -40.668 -10.998 -60.001 -32.998s-32.333 -46.5 -39 -73.5s-6 -52.5 2 -76.5c5.33301 -12 18.333 -19.333 39 -22c37.333 -5.33301 60.333 -5 69 1s16.334 25.333 23.001 58c6.66699 31.333 9.5 60.666 8.5 87.999s-5.16699 43.666 -12.5 48.999
c-8.66699 6 -18.667 9 -30 9zM379.999 476.002c-6 17.333 -11.4971 27.002 -16.4971 29.002s-20.833 1.33301 -47.5 -2c-23.333 -2.66699 -38.833 -19.334 -46.5 -50.001s-3.83398 -61.667 11.499 -93c11.333 -23.333 21.166 -38 29.499 -44s20.5 -6.66699 36.5 -2
c16.667 5.33301 27 10.833 31 16.5s4.66699 15.5 2 29.5c-2.66699 15.333 -1.66699 24 3 26c5.33301 4 7.66602 15.167 6.99902 33.5s-4 37.166 -10 56.499zM148.002 -66.9961c-0.666992 -2 0.835938 -4.50586 4.50293 -7.50586l11 -9
c3.66699 -3 4.83398 -4.83301 3.50098 -5.5c-4 0 -18 12.333 -42 37s-36.333 39.667 -37 45c-0.666992 2 0.5 4.33301 3.5 7s6.5 4.33398 10.5 5.00098c14.667 3.33301 43 7 85 11s71.333 6 88 6c37.333 -4 65.666 22.667 84.999 80
c3.33301 9.33301 15.833 31.166 37.5 65.499s33.5 56.833 35.5 67.5c4.66699 28 44 101.667 118 221c11.333 21.333 22 37 32 47c12.667 12.667 16.667 22 12 28c-2.66699 2.66699 -7.66699 2.33398 -15 -0.999023c-37.333 -10.667 -85.666 -17.667 -144.999 -21
c-24 -0.666992 -29 -12.667 -15 -36c5.33301 -9.33301 12.666 -19 21.999 -29c6 -6.66699 9.66699 -18.167 11 -34.5s-0.666992 -26.166 -6 -29.499c-4.66699 -3.33301 -7 -11.333 -7 -24c0 -23.333 -22.333 -48 -67 -74c-14.667 -8.66699 -24.5 -13.167 -29.5 -13.5
s-15.833 2.5 -32.5 8.5c-13.333 4.66699 -22.833 9.5 -28.5 14.5s-10.167 12.5 -13.5 22.5l-9 18c-1.33301 -3.33301 -6 1.33398 -14 14.001l-3 4c-10.667 15.333 -17.5 35.5 -20.5 60.5s-1.16699 45.5 5.5 61.5c7.33301 16 10 25 8 27
c-3.33301 2.66699 -31.166 3.5 -83.499 2.5s-81.5 -3.16699 -87.5 -6.5c-8.66699 -4.66699 -16.667 -5.66699 -24 -3s-11 8 -11 16c0 14 47.333 21 142 21c37.333 0 60.666 1 69.999 3s19.666 8 30.999 18c31.333 26 61.333 28 90 6c18 -11.333 57.667 -15.5 119 -12.5
s96.333 7.83301 105 14.5c4.66699 2 10.834 3.66699 18.501 5s13.667 3.33301 18 6s7.83301 8 10.5 16c4.66699 10.667 9.16699 17 13.5 19s11.166 0.333008 20.499 -5c10.667 -4.66699 13 -17.667 7 -39h129c59.333 0.666992 95.666 0.333984 108.999 -0.999023
s20 -4.66602 20 -9.99902v-1c0 -4.66699 -1.16699 -7.83398 -3.5 -9.50098s-13.333 -2.83398 -33 -3.50098s-47.834 -1.33398 -84.501 -2.00098h-25c-97.333 -0.666992 -146 -8.33398 -146 -23.001c-1.33301 -4 -11.333 -17 -30 -39s-28.667 -35.333 -30 -40
c-4.66699 -11.333 -13.5 -29.5 -26.5 -54.5s-22.167 -43.833 -27.5 -56.5c-1.33301 -4.66699 -7 -14.5 -17 -29.5s-15 -26.833 -15 -35.5c0 -11.333 -3 -18 -9 -20c-5.33301 -4 -10.666 -15.167 -15.999 -33.5s-10.666 -30.166 -15.999 -35.499
c-6.66699 -8 -11.5 -16 -14.5 -24s-8.83301 -17 -17.5 -27c-8.66699 -12 -17.334 -28.333 -26.001 -49s-11.667 -32.334 -9 -35.001c1.33301 -1.33301 26.666 -2.66602 75.999 -3.99902c40.667 -0.666992 64 1 70 5s4.66699 16.667 -4 38
c-5.33301 13.333 -2.66602 36.666 8.00098 69.999s20 54.666 28 63.999c8.66699 11.333 15.667 23.333 21 36c3.33301 8.66699 7.83301 13.834 13.5 15.501s22.167 2.5 49.5 2.5c28 -0.666992 45.833 -1.83398 53.5 -3.50098s16.5 -7.16699 26.5 -16.5
c11.333 -9.33301 18.166 -17.666 20.499 -24.999s3.83301 -22.666 4.5 -45.999c1.33301 -31.333 -1.66699 -77.666 -9 -138.999c21.333 4 47.166 7.16699 77.499 9.5s49.833 1.5 58.5 -2.5c2 -10 0.833008 -18.333 -3.5 -25s-12.166 -9 -23.499 -7
c-21.333 0.666992 -45.333 -1.5 -72 -6.5s-46.667 -10.833 -60 -17.5c-30.667 -16 -78.334 -14.667 -143.001 4c-20 6 -59.833 9.83301 -119.5 11.5s-93.167 -0.166016 -100.5 -5.49902c-4.66699 -3.33301 -8.66699 -9 -12 -17
c-3.33301 -9.33301 -11.333 -13.166 -24 -11.499s-21.334 7.83398 -26.001 18.501c-2.66699 7.33301 -6.5 11.5 -11.5 12.5s-16.167 0.5 -33.5 -1.5c-80 -8 -124 -15 -132 -21c-1.33301 -1.33301 3.33398 -7 14.001 -17s15.334 -16.333 14.001 -19z" />
    <glyph glyph-name="ampersand" unicode="&#x26;" horiz-adv-x="948" 
d="M507 88c2 1.33301 5.33789 3.83301 10.0049 7.5l9 7l7 5.5c3.33301 2.66699 5.16602 4.5 5.49902 5.5s1.33301 2.66699 3 5s2.16699 4.16602 1.5 5.49902s-1 3.16602 -1 5.49902s-1 4.66602 -3 6.99902s-4 4.83301 -6 7.5s-4.66699 5.66699 -8 9
c-12.667 13.333 -34 38.5 -64 75.5s-47.667 58.167 -53 63.5c-8 8.66699 -14.5 13.334 -19.5 14.001s-13.5 -2 -25.5 -8c-21.333 -11.333 -39.5 -23.166 -54.5 -35.499s-24.167 -22.833 -27.5 -31.5c-4.66699 -13.333 -5.83398 -32.666 -3.50098 -57.999
s7.16602 -46 14.499 -62c17.333 -40 59.666 -57 126.999 -51c33.333 2 62.666 11.333 87.999 28zM455.005 528c-8.66699 4 -22.333 7.33203 -41 9.99902s-31 2.66699 -37 0c-23.333 -14 -37 -24.333 -41 -31c-9.33301 -16 -1.66602 -48 23.001 -96
c0.666992 -0.666992 1.33398 -1.66699 2.00098 -3l26 -54l24 4c18.667 2.66699 36.167 13.334 52.5 32.001s26.166 38 29.499 58c5.33301 30 -7.33398 56.667 -38.001 80zM426.006 320.999c0 -6 19.6699 -32.8281 59.0029 -80.4951s61.666 -71.834 66.999 -72.501
c2 0 9.66699 14 23 42c19.333 40.667 33 50.667 41 30c2.66699 -18 3.5 -29.5 2.5 -34.5s-3.83301 -12.667 -8.5 -23s-8 -20.833 -10 -31.5c-4.66699 -20 -4.5 -35.5 0.5 -46.5s18.167 -23.5 39.5 -37.5c22.667 -14.667 33.667 -26 33 -34c0 -2.66699 -1.66699 -4 -5 -4
c-6 0 -19 5.66699 -39 17s-35 21.666 -45 30.999l-19 17c-19.333 -19.333 -32 -29.333 -38 -30c-3.33301 0 -11 -4.66699 -23 -14c-6.66699 -8.66699 -8.33398 -13.334 -5.00098 -14.001c86 -10 150.667 -16 194 -18c60.667 -3.33301 91 -9.66602 91 -18.999
c0 -2 -0.333008 -3.66699 -1 -5c-2.66699 -4 -20.834 -6 -54.501 -6s-70.5 2 -110.5 6c-24 2 -68.167 6 -132.5 12s-118.166 10.5 -161.499 13.5s-90.333 5.16699 -141 6.5c-81.333 2.66699 -124 6 -128 10c-8.66699 8.66699 -3 14.667 17 18c18 2.66699 53.667 4 107 4
c71.333 -0.666992 107.333 1 108 5c0 0.666992 -0.666992 1.66699 -2 3c-9.33301 7.33301 -18.333 25.833 -27 55.5s-13 58.167 -13 85.5v50c31.333 28.667 60.666 49.667 87.999 63c16.667 8 26.167 15.667 28.5 23s-1.16699 15.666 -10.5 24.999
s-19.166 25.666 -29.499 48.999s-17.5 45.333 -21.5 66c-2.66699 17.333 -3.33398 28.5 -2.00098 33.5s6.66602 12.167 15.999 21.5c14 14 34 22.333 60 25c33.333 4 59.333 1.66699 78 -7s37.334 -26.334 56.001 -53.001c16 -22 23.167 -45 21.5 -69s-12.167 -44 -31.5 -60
c-18 -18 -34.333 -30 -49 -36c-15.333 -8 -23 -13.667 -23 -17zM30.0088 633.004c0 9.33301 5.33203 14.332 15.999 14.999c71.333 1.33301 109.666 4.66602 114.999 9.99902c3.33301 3.33301 26.166 3.33301 68.499 0s76.5 -7.66602 102.5 -12.999
c22.667 -4.66699 56.834 -8.16699 102.501 -10.5s78.5 -5.16602 98.5 -8.49902c79.333 -12.667 156 -19.334 230 -20.001c94.667 -1.33301 145.334 -11 152.001 -29c3.33301 -10.667 2.83301 -17.167 -1.5 -19.5s-12.833 -0.5 -25.5 5.5
c-16.667 8.66699 -69.667 14.667 -159 18c-86 2 -137.333 5.66699 -154 11c-11.333 6.66699 -57.333 11.834 -138 15.501s-130.667 8.5 -150 14.5c-23.333 5.33301 -58.666 7.66602 -105.999 6.99902s-87.333 -4 -120 -10c-20.667 -3.33301 -31 1.33398 -31 14.001z" />
    <glyph glyph-name="quotesingle" unicode="'" horiz-adv-x="89" 
d="M41 411c-4.66699 0 -7.66797 2.66699 -9.00098 8s-2 19 -2 41c0.666992 10 1 22.667 1 38c0.666992 22 1.83398 34.833 3.50098 38.5s8.16699 6.5 19.5 8.5c2 0.666992 3.33301 1 4 1c0.666992 -0.666992 1 -4 1 -10s-0.333008 -14.5 -1 -25.5l-2 -33.5
c-2.66699 -44 -7.66699 -66 -15 -66z" />
    <glyph glyph-name="parenleft" unicode="(" horiz-adv-x="1013" 
d="M511 497c-0.666992 4.66699 2.5 10.8291 9.5 18.4961s10.5 13.5 10.5 17.5c0 6 3.5 9 10.5 9s11.833 -3 14.5 -9c2.66699 -6.66699 -2.66602 -22 -15.999 -46c-15.333 -28.667 -25.833 -53.167 -31.5 -73.5s-11.167 -54.833 -16.5 -103.5c-14 -110 -4 -216 30 -318
c14 -42 26.333 -72.167 37 -90.5s23 -30.833 37 -37.5c12.667 -6.66699 19 -12 19 -16c0 -4.66699 15.667 -6 47 -4c34 1.33301 62.333 -0.666992 85 -6c30.667 -6.66699 67 -10 109 -10s84.333 2.66699 127 8v-38c-267.333 8.66699 -470.333 10.334 -609 5.00098
c-48 -1.33301 -72 0.333984 -72 5.00098c0 1.33301 -1.66699 1.83301 -5 1.5s-7.66602 -1.16602 -12.999 -2.49902c-11.333 -4.66699 -56.333 -7 -135 -7c-52 0 -84.667 0.666992 -98 2s-20 4.33301 -20 9c0 7.33301 13 10 39 8c25.333 -1.33301 38.666 -0.333008 39.999 3
c2 2 31 5.33301 87 10s84.667 8.33398 86 11.001c8.66699 4 15 4.66699 19 2c5.33301 -3.33301 49.833 -5.16602 133.5 -5.49902s126.5 0.833984 128.5 3.50098c1.33301 4.66699 -1 8 -7 10c-13.333 5.33301 -29.833 27.166 -49.5 65.499s-37.5 84.166 -53.5 137.499
c-4.66699 14.667 -7.5 52.5 -8.5 113.5s0.5 111.5 4.5 151.5c2.66699 36 6.66699 63 12 81s14.666 36.667 27.999 56c14 20.667 21 33.667 21 39zM198 643.995c0 2 3.66406 3.6709 10.9971 5.00391s15.5 1.83301 24.5 1.5s15.833 -1.5 20.5 -3.5
c3.33301 0.666992 13.5 -1.33301 30.5 -6s27.5 -3.66699 31.5 3c12 6 21.667 7 29 3c6 -3.33301 10.667 -4.33301 14 -3s8.66602 -0.666992 15.999 -6c16 -10.667 24 -14 24 -10c0 1.33301 -0.666992 2.66602 -2 3.99902c-0.666992 2 10.833 3 34.5 3
s47.167 0.166992 70.5 0.5s34.333 1.83301 33 4.5c1.33301 4.66699 11 3.33398 29 -3.99902c7.33301 -4 28.166 -7 62.499 -9s54.5 -4.33301 60.5 -7c2.66699 -4 19.667 -5.33301 51 -4c32 0.666992 51 -2 57 -8c6 -6.66699 10.333 -7.66699 13 -3
c2 3.33301 11.333 3.5 28 0.5s29.334 -7.16699 38.001 -12.5c4 -2.66699 23 -3.33398 57 -2.00098c30.667 0.666992 47.334 -1 50.001 -5c0.666992 -0.666992 1.33398 -9.33398 2.00098 -26.001v-3c-43.333 0.666992 -99.5 5.16699 -168.5 13.5s-111.833 15.833 -128.5 22.5
c-8.66699 3.33301 -18.834 4.66602 -30.501 3.99902s-27.5 0.666016 -47.5 3.99902c-34.667 6 -57 8 -67 6c-11.333 -2 -17 0.666992 -17 8c0 5.33301 -1 8 -3 8c-3.33301 0.666992 -5.66602 -1.33301 -6.99902 -6c-0.666992 -2 -0.333984 -3.66699 0.999023 -5
c1.33301 -2 -8 -3.33301 -28 -4c-23.333 -1.33301 -65.666 -1.66602 -126.999 -0.999023c-134.667 0.666992 -244.667 -2.66602 -330 -9.99902c2.66699 17.333 4.33398 30.666 5.00098 39.999c14.667 0.666992 33.834 0.666992 57.501 0s47 -0.333984 70 0.999023
s34.833 3.33301 35.5 6z" />
    <glyph glyph-name="parenright" unicode=")" horiz-adv-x="1011" 
d="M30 -169c0 8 1.66797 12.667 5.00098 14s12.666 1.33301 27.999 0c40 -2 95 -3 165 -3s130.333 -1.33301 181 -4c83.333 -2.66699 152 -3 206 -1c36 2 54 0.666992 54 -4c0 -4 5.66699 -4.66699 17 -2c11.333 3.33301 18 1.66602 20 -5.00098
c2 -5.33301 6 -5.66602 12 -0.999023c4 3.33301 23.833 6.33301 59.5 9s73.167 4.83398 112.5 6.50098s61.333 2.83398 66 3.50098c12 1.33301 19.167 1.16602 21.5 -0.500977s3.5 -7.16699 3.5 -16.5c0 -13.333 -5 -21.333 -15 -24c-23.333 -2 -284.333 0.333008 -783 7
c-92.667 1.33301 -142 3.66602 -148 6.99902c-3.33301 1.33301 -5 6 -5 14zM509.001 456c0 4 -4.83398 11.3379 -14.501 22.0049s-14.167 19 -13.5 25c-0.666992 7.33301 -2 10.666 -4 9.99902c-2.66699 -4 -10.334 -1.66699 -23.001 7
c-7.33301 5.33301 -22.666 8.66602 -45.999 9.99902s-73 1.66602 -149 0.999023c-107.333 -0.666992 -172.333 0.166016 -195 2.49902s-34 8.83301 -34 19.5v16l194 -2c119.333 -0.666992 182 0.666016 188 3.99902c2 1.33301 2.66699 3.66602 2 6.99902
c-2 9.33301 1.66699 13.666 11 12.999c6.66699 0 14.667 -3 24 -9c8.66699 -6.66699 29.334 -13 62.001 -19c29.333 -6 107 -5.33301 233 2c101.333 6 166.166 8.5 194.499 7.5s42.5 -6.16699 42.5 -15.5c0 -5.33301 -6 -9 -18 -11s-42.333 -3.66699 -91 -5
c-28 -1.33301 -81 -4.5 -159 -9.5s-145.667 -7.83301 -203 -8.5c1.33301 -2.66699 3.66602 -7 6.99902 -13s6.33301 -12.5 9 -19.5s5.33398 -14.833 8.00098 -23.5c7.33301 -24.667 14 -42 20 -52c16 -27.333 24.667 -87.666 26 -180.999
c1.33301 -58.667 -4.5 -112.667 -17.5 -162s-37.167 -108.666 -72.5 -177.999c-12 -22.667 -21.167 -36.834 -27.5 -42.501s-13.166 -5.16699 -20.499 1.5c-6.66699 7.33301 -8.16699 17.5 -4.5 30.5s13.834 34.167 30.501 63.5c18 28.667 39 85.334 63 170.001
c9.33301 32 12.666 85.833 9.99902 161.5s-10 125.5 -22 149.5c-6.66699 12 -10 21.333 -10 28z" />
    <glyph glyph-name="asterisk" unicode="*" horiz-adv-x="261" 
d="M231 494c0 -3.33301 -3.99219 -6.99902 -11.9922 -10.999c-12.667 -4.66699 -24.5 -11.834 -35.5 -21.501s-17.833 -18.667 -20.5 -27s-1 -14.833 5 -19.5c4.66699 -2 7 -9.33301 7 -22c0 -12 -4.33301 -17.667 -13 -17c-10.667 1.33301 -20.334 9 -29.001 23
c-7.33301 11.333 -12 17 -14 17c-1.33301 0 -2.66602 -3.33301 -3.99902 -10c-2.66699 -10.667 -9.33398 -19.334 -20.001 -26.001s-18.334 -7.33398 -23.001 -2.00098s-4 14 2 26c8 14 11 24.833 9 32.5s-10 14.834 -24 21.501c-18 9.33301 -27.333 19 -28 29
c-0.666992 6.66699 -0.333984 10.667 0.999023 12s5.66602 1 12.999 -1c10 -3.33301 20.667 -10 32 -20c10 -9.33301 17.667 -11.333 23 -6c2 3.33301 2.83301 7.33301 2.5 12s-2.16602 11.334 -5.49902 20.001s-6.5 16.5 -9.5 23.5s-6.33301 14.333 -10 22
s-5.83398 12.834 -6.50098 15.501c2.66699 -0.666992 6.5 -1.33398 11.5 -2.00098s8.16699 -1.16699 9.5 -1.5s3.66602 -1 6.99902 -2s5.66602 -2.16699 6.99902 -3.5s3.16602 -3.5 5.49902 -6.5s4.16602 -6.33301 5.49902 -10l5 -13.5
c8.66699 -23.333 15.167 -36.833 19.5 -40.5s12.833 -2.16699 25.5 4.5c8 4 17 6.83301 27 8.5s18.667 2.16699 26 1.5s11 -2.66699 11 -6z" />
    <glyph glyph-name="plus" unicode="+" horiz-adv-x="872" 
d="M530 58c0 -4 10.6709 -5.99902 32.0039 -5.99902c22 0 35.667 -3.66699 41 -11c6.66699 -8 16 -11.667 28 -11c7.33301 0 9.33301 2.66699 6 8c-2 3.33301 -2 5 0 5c1.33301 0 3.33301 -0.666992 6 -2c15.333 -6.66699 47.666 -12.834 96.999 -18.501
s80.666 -13.167 93.999 -22.5c5.33301 -5.33301 8 -11 8 -17c0 -7.33301 -7.33301 -9.33301 -22 -6c-26 8 -62.333 14 -109 18s-79.667 8.66699 -99 14c-11.333 3.33301 -37.166 9.83301 -77.499 19.5l-77.5 18.5c-28 6.66699 -78 13.667 -150 21s-129 11.333 -171 12
c-18 0 -30.833 0.166992 -38.5 0.5s-14.167 1.16602 -19.5 2.49902s-8.5 3 -9.5 5s-1.83301 5 -2.5 9c-0.666992 6.66699 0 10.834 2 12.501s8.66699 2.16699 20 1.5c8 -1.33301 16.167 -0.666016 24.5 2.00098s13.833 2.66699 16.5 0c4 -4 14.333 -3.66699 31 1
s26.667 3.66699 30 -3s8 -7 14 -1c2.66699 6 10.667 6.66699 24 2s22.666 -6 27.999 -4c13.333 1.33301 20.333 0.666016 21 -2.00098c6.66699 -4 27.167 -8.5 61.5 -13.5s54.166 -8.16699 59.499 -9.5c22 -5.33301 40 -7.33301 54 -6
c13.333 0.666992 29.666 -1.33301 48.999 -6s29 -9 29 -13zM433.004 314.001c14 0 34.834 -4.33203 62.501 -12.999s41.5 -15.334 41.5 -20.001c0 -7.33301 -7.16699 -11.666 -21.5 -12.999s-29.833 0.666992 -46.5 6c-21.333 7.33301 -34.666 10 -39.999 8
c-4.66699 -2 -6.33398 -20.333 -5.00098 -55c2.66699 -34.667 0.333984 -52 -6.99902 -52c-16 0 -25 18.667 -27 56c-0.666992 17.333 -2.16699 28 -4.5 32s-7.5 6.66699 -15.5 8c-12 1.33301 -31 -1.66699 -57 -9c-40.667 -11.333 -61 -8 -61 10
c0 15.333 15.333 22.333 46 21c15.333 -0.666992 32.833 1.5 52.5 6.5s31.167 10.167 34.5 15.5c4 5.33301 6.16699 13.333 6.5 24s0.166016 35.334 -0.500977 74.001c-0.666992 28 -0.333984 45 0.999023 51s5 8.66699 11 8c6 0.666992 10.667 -6.83301 14 -22.5
s6 -32.5 8 -50.5s4.33301 -28.667 7 -32c4.66699 -12.667 3.66699 -20.334 -3 -23.001c-8 -2.66699 -11.5 -8.33398 -10.5 -17.001s5.83301 -13 14.5 -13zM780.005 605.002c0 -4.66699 -15.665 -6.00586 -46.998 -4.00586s-90 4.66699 -176 8s-163.167 7 -231.5 11
s-120.166 8.66699 -155.499 14c-40 4.66699 -61.333 4.33398 -64 -0.999023c-4.66699 -7.33301 -18.334 -5.66602 -41.001 5.00098s-34.334 21 -35.001 31c0 0.666992 4.5 0.833984 13.5 0.500977s20.167 -1.16602 33.5 -2.49902
c169.333 -21.333 285.666 -32.333 348.999 -33c39.333 -1.33301 75.5 -3.16602 108.5 -5.49902s69.833 -4.16602 110.5 -5.49902c90 -3.33301 135 -9.33301 135 -18z" />
    <glyph glyph-name="comma" unicode="," horiz-adv-x="185" 
d="M155 29c0 -21.333 -9.66504 -43.8301 -28.998 -67.4971s-37.666 -35.834 -54.999 -36.501c-8 0 -16.833 4.66699 -26.5 14s-14.5 17.666 -14.5 24.999c0 8 2.66699 9.33301 8 4c7.33301 -7.33301 16.333 -9.66602 27 -6.99902s20.667 10 30 22
c11.333 15.333 17 25.666 17 30.999s-5.33301 14 -16 26c-18.667 20.667 -21.334 37.667 -8.00098 51c3.33301 3.33301 6.16602 4.66602 8.49902 3.99902s6.16602 -4 11.499 -10c7.33301 -9.33301 12.333 -11.333 15 -6c4 8.66699 10.333 5.66699 19 -9
c8.66699 -14 13 -27.667 13 -41z" />
    <glyph glyph-name="hyphen" unicode="-" horiz-adv-x="333" 
d="M56 233c14.667 2 44.3311 2.16797 88.998 0.500977s82.334 -4.16699 113.001 -7.5c26.667 -2.66699 41.334 -8.66699 44.001 -18s2 -16 -2 -20c-3.33301 -3.33301 -31 -2 -83 4c-40.667 4.66699 -78 6 -112 4s-52.333 -6.66699 -55 -14
c-0.666992 -4 -3.66699 -2.33301 -9 5l-4 6c-6.66699 12.667 -8.66699 22.167 -6 28.5s11 10.166 25 11.499z" />
    <glyph glyph-name="period" unicode="." horiz-adv-x="125" 
d="M32 60c1.33301 8 3.33203 12.832 5.99902 14.499s7.66699 1.83398 15 0.500977c36.667 -14.667 49.334 -31.334 38.001 -50.001c-4.66699 -10.667 -10.167 -16 -16.5 -16s-15.833 5.33301 -28.5 16c-8 6.66699 -12.833 12.334 -14.5 17.001s-1.5 10.667 0.5 18z" />
    <glyph glyph-name="slash" unicode="/" horiz-adv-x="855" 
d="M518 599c0 -1.33301 49.0098 -2.00098 147.01 -2.00098c99.333 -0.666992 151.333 -4 156 -10s6 -10.667 4 -14c-23.333 -4.66699 -131.666 -8.33398 -324.999 -11.001c-30.667 -71.333 -50 -120.333 -58 -147c-9.33301 -33.333 -22.5 -71.333 -39.5 -114
s-29.5 -78 -37.5 -106c-2 -10 -11.5 -37.667 -28.5 -83s-25.833 -73.333 -26.5 -84c8.66699 -3.33301 21.667 -4.5 39 -3.5s38.666 2.66699 63.999 5s38.333 3.5 39 3.5c20.667 4 70.167 8.16699 148.5 12.5s124.833 7.16602 139.5 8.49902
c9.33301 1.33301 15.666 1.33301 18.999 0s5.66602 -5.33301 6.99902 -12c3.33301 -11.333 3.16602 -18.833 -0.500977 -22.5s-11.834 -5.16699 -24.501 -4.5c-20 0 -58.333 -1.5 -115 -4.5s-94.334 -4.5 -113.001 -4.5c-31.333 -0.666992 -53.5 -2.33398 -66.5 -5.00098
s-32.833 -4.33398 -59.5 -5.00098c-29.333 -0.666992 -56 -3.5 -80 -8.5s-36 -10.167 -36 -15.5c0 -3.33301 -4 -9.66602 -12 -18.999c-6.66699 -6.66699 -10.334 -9.33398 -11.001 -8.00098s-1 6.66602 -1 15.999v22c-79.333 3.33301 -136.666 -8 -171.999 -34
c-8 -5.33301 -16.333 -8.66602 -25 -9.99902s-14.334 0.333984 -17.001 5.00098c-4.66699 6.66699 -4.33398 16.167 0.999023 28.5s12.333 20.166 21 23.499c2 0.666992 6 2.5 12 5.5s9.83301 4.83301 11.5 5.5l10.5 4c5.33301 2 9.16602 3.33301 11.499 4l11 3
c5 1.33301 9.5 2.33301 13.5 3s9.16699 1.33398 15.5 2.00098l19.5 2c6.66699 0.666992 14 1 22 1c38 1.33301 62 4.5 72 9.5s17 16.833 21 35.5c4 16.667 14.833 47.167 32.5 91.5s28.5 74.833 32.5 91.5c3.33301 16 14.166 45 32.499 87s29.5 70 33.5 84
c2.66699 8.66699 10 30.334 22 65.001s20.333 60 25 76c-82 -8 -136.333 -13.667 -163 -17c-40 -5.33301 -60 -4.66602 -60 2.00098c-0.666992 2.66699 0.666016 6.33398 3.99902 11.001c5.33301 8 20.333 13.667 45 17c28 4 55.333 8.66699 82 14
c11.333 2.66699 29.833 4.83398 55.5 6.50098s49 2.5 70 2.5s31.5 -1 31.5 -3z" />
    <glyph glyph-name="zero" unicode="0" horiz-adv-x="727" 
d="M458 521c0 -7.33301 -2.17676 -11.4932 -6.50977 -12.4932s-8.5 1.83301 -12.5 8.5c-10 16 -27.167 26.167 -51.5 30.5s-47.166 1.16602 -68.499 -9.50098c-20 -9.33301 -35.833 -20.666 -47.5 -33.999s-22.5 -32.333 -32.5 -57c-4 -11.333 -9 -24.333 -15 -39
s-10.167 -25.334 -12.5 -32.001s-4.83301 -17 -7.5 -31s-5 -31 -7 -51c-2 -28.667 -2.16699 -49.167 -0.5 -61.5s6.83398 -32.833 15.501 -61.5c16.667 -54 33.5 -91.667 50.5 -113s37.167 -29.666 60.5 -24.999c12 2 21.833 5.83301 29.5 11.5
s17.834 9.83398 30.501 12.501c50.667 14 79.667 78.667 87 194c2.66699 45.333 0 81.333 -8 108c-20 67.333 -47.333 116 -82 146c-23.333 21.333 -34 33 -32 35c2.66699 2.66699 11.334 0.333984 26.001 -6.99902s22 -13 22 -17c0 -4.66699 6.33301 -8 19 -10
c10 -3.33301 18.667 -10 26 -20s14.833 -22.667 22.5 -38s13.834 -26.333 18.501 -33c8.66699 -15.333 14.334 -29.333 17.001 -42s5 -38 7 -76c6 -98 -5.66699 -167.667 -35 -209c-13.333 -20.667 -26 -32.334 -38 -35.001c-18 -4.66699 -20.667 -8.33398 -8 -11.001
c10.667 -2.66699 27.667 -3.33398 51 -2.00098c24 1.33301 52.5 -0.333984 85.5 -5.00098l56.5 -8c20 -0.666992 31 -5.66699 33 -15c1.33301 -6.66699 -1.33398 -10.334 -8.00098 -11.001c-5.33301 0 -18.666 1.33301 -39.999 4c-10.667 1.33301 -24 2.66602 -40 3.99902
s-25 2 -27 2c-10.667 0 -18 3.66699 -22 11c-2.66699 6 -5.66699 7 -9 3c-4 -4.66699 -4 -8 0 -10h3c2.66699 0 4.33398 -0.5 5.00098 -1.5s0.333984 -1.83301 -0.999023 -2.5c-5.33301 -2 -31.5 -4.66699 -78.5 -8s-73.5 -6.33301 -79.5 -9
c-17.333 -2.66699 -43.666 -5.33398 -78.999 -8.00098s-68.333 -6.66699 -99 -12c-64.667 -9.33301 -99 -13.333 -103 -12c-2.66699 1.33301 -3.33398 6.66602 -2.00098 15.999c0.666992 10.667 6.83398 17.5 18.501 20.5s43.167 7.5 94.5 13.5
c8 0.666992 18.333 1.33398 31 2.00098c18 0.666992 27 2.66699 27 6c0 2.66699 -4 7.66699 -12 15c-12 11.333 -27.833 41.666 -47.5 90.999s-29.5 84 -29.5 104c0 11.333 5.33301 42.666 16 93.999s19 85 25 101c22 62 42.667 98.667 62 110
c7.33301 4 13.833 8.5 19.5 13.5s11.5 9.16699 17.5 12.5c9.33301 5.33301 30.333 8 63 8s53.334 -2.33301 62.001 -7c26.667 -15.333 40 -29 40 -41zM172.99 626.007c0 -2.66699 4.33496 -3.33496 13.002 -2.00195c14 2.66699 46.667 4 98 4s77 -1.33301 77 -4
c0 -3.33301 3 -3 9 1c6 2 16.167 1.83301 30.5 -0.5s26.166 -2.16602 35.499 0.500977c21.333 2 33.333 0 36 -6c3.33301 -4 11.666 -6.66699 24.999 -8s24.666 -0.666016 33.999 2.00098c6 1.33301 21.833 0 47.5 -4s40.5 -8 44.5 -12c4 -3.33301 10.833 -3.5 20.5 -0.5
s17.167 3.83301 22.5 2.5c8.66699 -0.666992 13 0.666016 13 3.99902c0 0.666992 -0.333008 1.33398 -1 2.00098c-3.33301 4.66699 -1.66602 7 5.00098 7s11 -4.33301 13 -13c1.33301 -5.33301 -1.66699 -8.66602 -9 -9.99902c-13.333 -1.33301 -76.666 -1 -189.999 1
c-236 4.66699 -375.667 4 -419 -2c-14 -2 -24.833 -2.5 -32.5 -1.5s-12.334 3.66699 -14.001 8s-0.5 10.166 3.5 17.499s8.33301 11 13 11s11.667 0.666992 21 2c10.667 4 30.667 6.16699 60 6.5s44 -1.5 44 -5.5z" />
    <glyph glyph-name="one" unicode="1" horiz-adv-x="580" 
d="M109 35c0 -6 1.66504 -6.00195 4.99805 -0.00195312c4.66699 6.66699 77.167 8.5 217.5 5.5s212.5 -7.83301 216.5 -14.5c3.33301 -7.33301 2.33301 -12.666 -3 -15.999c-6 -2.66699 -75.5 -4.66699 -208.5 -6s-202.5 -3 -208.5 -5
c-21.333 -4 -36.666 -4.66699 -45.999 -2c-7.33301 2.66699 -13 8.83398 -17 18.501s-4.33301 17.167 -1 22.5c2.66699 4.66699 10.834 6.5 24.501 5.5s20.5 -3.83301 20.5 -8.5zM511.998 601.998c0 -14.667 -45.668 -27.3311 -137.001 -37.998
c-52.667 -6.66699 -79.667 -11.334 -81 -14.001c0 -2.66699 2.66699 -6.66699 8 -12c6 -6 9.66699 -15.333 11 -28s2 -41.334 2 -86.001c0 -66.667 -4 -115.667 -12 -147c-8 -30 -9.66699 -45 -5 -45c0.666992 0 1.66699 0.333008 3 1c4 1.33301 6.33301 1.33301 7 0
s0.333984 -5 -0.999023 -11c-0.666992 -2.66699 -2.5 -17 -5.5 -43s-6.16699 -51.333 -9.5 -76s-6.33301 -38 -9 -40c-2 -2.66699 -8.33301 -2 -19 2c-9.33301 2 -13.833 13.167 -13.5 33.5s6.16602 78.833 17.499 175.5c4.66699 40 8 70.5 10 91.5s2.83301 38.333 2.5 52
s-1.66602 22.167 -3.99902 25.5s-5.83301 4.66602 -10.5 3.99902c-9.33301 -1.33301 -21.666 -9.66602 -36.999 -24.999c-14 -14 -28.167 -23 -42.5 -27s-25.166 -2.33301 -32.499 5c-3.33301 3.33301 -5.33301 6 -6 8s0.166016 4 2.49902 6s6.83301 4.66699 13.5 8
c22 11.333 43.5 28.333 64.5 51s35.167 44.334 42.5 65.001c2 5.33301 -1 8.33301 -9 9c-6.66699 0.666992 -35.334 0 -86.001 -2c-91.333 -4 -139.333 -5 -144 -3c-1.33301 1.33301 -1.66602 5 -0.999023 11c1.33301 8.66699 3 14 5 16
c1.33301 1.33301 28.666 4.33301 81.999 9c54 6 84 6 90 0c6.66699 -4 12.667 -4.33301 18 -1c6 3.33301 29.333 5.66602 70 6.99902c41.333 0.666992 98 8 170 22c21.333 4 34.333 5.66699 39 5s7 -3.66699 7 -9z" />
    <glyph glyph-name="two" unicode="2" horiz-adv-x="723" 
d="M523 612c-2 4 -0.996094 6.33398 3.00391 7.00098c5.33301 0 8 -2 8 -6s15.167 -7.83301 45.5 -11.5s57.5 -5.16699 81.5 -4.5c21.333 0.666992 32 -2 32 -8c0 -7.33301 -10.333 -11.833 -31 -13.5s-65.667 -1.5 -135 0.5l-129 2
c31.333 -12.667 55.333 -27.334 72 -44.001c16.667 -18.667 27.5 -40.834 32.5 -66.501s2.83301 -45.5 -6.5 -59.5c-6.66699 -10.667 -11.667 -24.667 -15 -42c-2.66699 -18.667 -16 -38.667 -40 -60c-6.66699 -5.33301 -19.834 -17.166 -39.501 -35.499l-55.5 -51
c-17.333 -15.667 -30.666 -25.834 -39.999 -30.501c-6 0 -9 -2.66699 -9 -8c0 -7.33301 -11.333 -21.666 -34 -42.999c-25.333 -25.333 -36.333 -40 -33 -44c2 -2 6.66699 -3 14 -3c5.33301 0 15.166 -0.333008 29.499 -1s27.333 -0.833984 39 -0.500977
s21.834 1.16602 30.501 2.49902c16.667 2.66699 47.334 2 92.001 -2s70 -8.66699 76 -14c5.33301 -4 6.66602 -9 3.99902 -15c-1.33301 -4.66699 -26 -6.66699 -74 -6c-40.667 0.666992 -61 -0.333008 -61 -3c0 -1.33301 1.33301 -2.66602 4 -3.99902
c7.33301 -4 31.833 -6.66699 73.5 -8s80.5 -0.666016 116.5 2.00098c32.667 3.33301 49 -2 49 -16c-4 -4 -38 -7.66699 -102 -11s-102.667 -3.33301 -116 0c-0.666992 2 -76.334 4.33301 -227.001 7c-96 2.66699 -144 6 -144 10c-5.33301 6.66699 -6.33301 11 -3 13
c2 3.33301 35.667 5 101 5c62 0.666992 93 3 93 7c-3.33301 4.66699 -7.33301 5.66699 -12 3c-6 -4 -13.167 -3.83301 -21.5 0.5s-12.5 10.166 -12.5 17.499c7.33301 26 37.833 65.5 91.5 118.5s95.5 90.167 125.5 111.5c16 11.333 36 43.333 60 96
c14 27.333 16.333 50.666 7 69.999c-17.333 33.333 -40.666 55.833 -69.999 67.5s-61.333 11.167 -96 -1.5c-16.667 -6 -32.5 -19 -47.5 -39s-21.833 -36.667 -20.5 -50c2.66699 -17.333 0.666992 -25.333 -6 -24c-8 1.33301 -14.667 9 -20 23
c-2.66699 6 -3.66699 11.333 -3 16c0 10.667 7.66699 26.834 23 48.501s29.333 36.167 42 43.5c6.66699 4 3.66699 7 -9 9c-10.667 1.33301 -36.334 2.66602 -77.001 3.99902c-66.667 2.66699 -100 7.33398 -100 14.001c0 2.66699 1.66699 4.66699 5 6
s10.666 2.33301 21.999 3s26.166 1.33398 44.499 2.00098s44.166 1 77.499 1c120 2 207.333 4.66699 262 8c23.333 0.666992 34.333 3 33 7z" />
    <glyph glyph-name="three" unicode="3" horiz-adv-x="776" 
d="M615 40c1.33301 1.33301 4.83301 2.16602 10.5 2.49902s12.167 0.166016 19.5 -0.500977l21 -2c6.66699 -0.666992 12.334 -1.66699 17.001 -3s7 -2.66602 7 -3.99902c-2 -5.33301 -6 -7.33301 -12 -6c-14 -0.666992 -35.333 -3.66699 -64 -9
s-52.334 -8.66602 -71.001 -9.99902c-41.333 -3.33301 -69.333 -7 -84 -11c-13.333 -3.33301 -59.333 -5.33301 -138 -6s-128.667 0.333008 -150 3c-12.667 1.33301 -21.167 3.33301 -25.5 6s-6.83301 7 -7.5 13c-1.33301 7.33301 0.666992 11.666 6 12.999
c6 1.33301 24.667 1.33301 56 0c48 -2.66699 85.5 -4.5 112.5 -5.5s51.5 -1.33301 73.5 -1s37.667 0.833008 47 1.5s26.833 2.33398 52.5 5.00098s49.167 5 70.5 7c37.333 2.66699 57 5 59 7zM122 626c0 6 8.99609 7.67285 26.9961 5.00586
c30.667 -5.33301 79.334 -9.5 146.001 -12.5s104 -2.83301 112 0.5c8.66699 4.66699 29.667 3.33398 63 -3.99902c36 -6.66699 90.333 -10.667 163 -12c47.333 -0.666992 77.833 -1.5 91.5 -2.5s20.834 -3.83301 21.501 -8.5c0.666992 -2.66699 -0.5 -4.83398 -3.5 -6.50098
s-8.66699 -3.16699 -17 -4.5s-20.166 -2.33301 -35.499 -3c-49.333 -2.66699 -97.5 -3.33398 -144.5 -2.00098s-78.167 4 -93.5 8c-20.667 7.33301 -36.667 7.33301 -48 0c-8.66699 -6 -5.66699 -11 9 -15l6 -2c13.333 -4 27.333 -14 42 -30
c26 -28 42.167 -58.833 48.5 -92.5s0.833008 -61.167 -16.5 -82.5c-13.333 -15.333 -17 -24 -11 -26c9.33301 -3.33301 23.666 -13.833 42.999 -31.5s32 -32.167 38 -43.5c8.66699 -16.667 12.834 -38.334 12.501 -65.001s-5.16602 -49.667 -14.499 -69
c-9.33301 -18.667 -24.666 -35 -45.999 -49s-41.333 -21 -60 -21c-18 0 -28 -2.33301 -30 -7c-3.33301 -4 -11.666 -6.16699 -24.999 -6.5s-24.333 1.5 -33 5.5l-38 19c-18.667 8.66699 -38.167 23.167 -58.5 43.5s-30.5 35.166 -30.5 44.499c0 20.667 15.333 16.667 46 -12
l4 -4c23.333 -23.333 44.333 -39.666 63 -48.999c22 -11.333 47.833 -15.333 77.5 -12s55.834 13.666 78.501 30.999c24.667 18 37 51.667 37 101c0 22 -10.167 43.167 -30.5 63.5s-43.833 32.5 -70.5 36.5c-28.667 4 -42.334 10.667 -41.001 20c0.666992 4 5 7.66699 13 11
c15.333 7.33301 30.666 18.333 45.999 33s22.333 30 21 46c-4 48.667 -24.333 84.334 -61 107.001c-19.333 12 -35.5 19 -48.5 21s-27.5 -1 -43.5 -9c-10.667 -5.33301 -19.667 -17 -27 -35s-9 -32.333 -5 -43c2.66699 -6.66699 0.666992 -9.83398 -6 -9.50098
s-12.667 3.83301 -18 10.5c-6 7.33301 -5 23.5 3 48.5s16.667 38.833 26 41.5c5.33301 1.33301 9.16602 4.5 11.499 9.5s6.16602 7.83301 11.499 8.5c12.667 3.33301 15 7 7 11c-6 2.66699 -14.333 4 -25 4c-22 0 -48.833 1.16699 -80.5 3.5s-55 3.66602 -70 3.99902
s-36.5 -0.833984 -64.5 -3.50098c-27.333 -3.33301 -45.333 -1 -54 7c-9.33301 7.33301 -12 16.666 -8 27.999c4 9.33301 7.83301 14.333 11.5 15s11.834 -2.33301 24.501 -9c12 -7.33301 20.667 -8.33301 26 -3c4.66699 4.66699 10.667 4 18 -2c6.66699 -6 10 -6 10 0z" />
    <glyph glyph-name="four" unicode="4" horiz-adv-x="616" 
d="M295 220c4.66699 -3.33301 6.33301 42.999 5 138.999c-0.666992 49.333 -2.33398 73.666 -5.00098 72.999c-3.33301 0 -10.166 -5.83301 -20.499 -17.5s-15.5 -19.5 -15.5 -23.5c-7.33301 -12 -27 -37.333 -59 -76s-50.333 -63.667 -55 -75l-11 -23l25 -7
c12 -3.33301 35.667 -3.66602 71 -0.999023s57 6.33398 65 11.001zM411.999 187.999c0 -6 -2.33496 -9.66797 -7.00195 -11.001s-16 -2 -34 -2h-42v-62c0 -41.333 3.5 -66.166 10.5 -74.499s26.833 -12.166 59.5 -11.499c30.667 1.33301 57.334 4 80.001 8
c20 5.33301 32.667 4.33301 38 -3c5.33301 -6.66699 3.66602 -11.334 -5.00098 -14.001c-2 -0.666992 -10 -3.83398 -24 -9.50098s-23.667 -8.5 -29 -8.5c-2 0 -13.5 -1.16699 -34.5 -3.5s-39.5 -4.16602 -55.5 -5.49902s-28 -0.333008 -36 3
c-19.333 7.33301 -85.333 13.333 -198 18c-42 1.33301 -70 4 -84 8s-21 11 -21 21c0 6.66699 33 8.66699 99 6c80.667 -2.66699 138 -7 172 -13c0 83.333 -2 130 -6 140c-4 6 -18.667 7.33301 -44 4c-26.667 -4 -58 -6 -94 -6c-8.66699 -2 -17.667 -2 -27 0
s-15.666 2.5 -18.999 1.5s-7.66602 0.333008 -12.999 4s-8.5 5.66699 -9.5 6s-4 3 -9 8l-10.5 10.5c16.667 17.333 38.334 45.333 65.001 84s46 65 58 79c25.333 26.667 54.333 75 87 145c15.333 33.333 28.666 46.666 39.999 39.999c2 -1.33301 3.66699 -3.33301 5 -6
c1.33301 1.33301 3 -25.667 5 -81s4.16699 -110.666 6.5 -165.999s3.83301 -82.333 4.5 -81c0.666992 -2.66699 13 -6 37 -10c23.333 -3.33301 35 -9.33301 35 -18zM88.9971 638.998c8.66699 -2.66699 47.668 -4.5 117.001 -5.5s108.333 -3.5 117 -7.5
c12 -4.66699 26 -7.83398 42 -9.50098s35.667 -3.16699 59 -4.5s42.333 -2.66602 57 -3.99902c42.667 -3.33301 67.667 -4.33301 75 -3c5.33301 0.666992 11.666 -1.5 18.999 -6.5s11 -10.167 11 -15.5c-0.666992 -4 -36 -5 -106 -3s-113.667 5 -131 9
c-3.33301 2 -55.333 4.66699 -156 8s-152 6.66602 -154 9.99902c-6.66699 4.66699 -9.66699 11.334 -9 20.001s4.66699 13.667 12 15c9.33301 1.33301 25 0.333008 47 -3z" />
    <glyph glyph-name="five" unicode="5" horiz-adv-x="676" 
d="M320 564c30.667 0 72.1758 -2.33398 124.509 -7.00098s80.166 -8.66699 83.499 -12c8 -6.66699 -5.33301 -9.66699 -40 -9l-31 2c-38 4 -77.833 5.5 -119.5 4.5s-65.167 -3.5 -70.5 -7.5c-5.33301 -8 -9.33301 -20.5 -12 -37.5s-5 -36.667 -7 -59
s-3.66699 -37.166 -5 -44.499c52 1.33301 93.167 -2 123.5 -10s57.5 -25.333 81.5 -52c13.333 -14 21.833 -25.667 25.5 -35s7.16699 -27.666 10.5 -54.999c4 -27.333 5.66699 -45.333 5 -54s-4.33398 -19.667 -11.001 -33c-10 -19.333 -16.333 -29 -19 -29
c-3.33301 0 -8 -6.66699 -14 -20c-4 -10 -13.167 -19.5 -27.5 -28.5s-27.166 -13.5 -38.499 -13.5c-7.33301 0 -11 -2.66699 -11 -8c2.66699 -4 15.5 -5.83301 38.5 -5.5s83.167 3.16602 180.5 8.49902c17.333 1.33301 27 -0.666992 29 -6
c1.33301 -2 -0.333984 -4 -5.00098 -6l-11 -2c-6.66699 -0.666992 -26 -3.33398 -58 -8.00098s-57 -7 -75 -7c-26 -2 -39 -5 -39 -9c1.33301 -3.33301 1 -5 -1 -5s-5.66699 0.666992 -11 2c-18 4.66699 -55.5 8.5 -112.5 11.5s-109.5 3.83301 -157.5 2.5
c-43.333 -1.33301 -71.5 -1.66602 -84.5 -0.999023s-21.5 3.33398 -25.5 8.00098c-6 7.33301 -7.33301 13 -4 17s11.666 7.33301 24.999 10c18.667 3.33301 30.667 6 36 8c7.33301 2.66699 10.333 2 9 -2c0 -0.666992 -0.333008 -1.33398 -1 -2.00098
c-0.666992 -2 -0.666992 -3.5 0 -4.5s2.5 -1.83301 5.5 -2.5s7.16699 -1 12.5 -1h20c38.667 0.666992 71.667 4 99 10l-36 33c-17.333 16 -27 26 -29 30s0 8.66699 6 14c15.333 14 23 15 23 3c0 -6 6.83301 -15.167 20.5 -27.5s23.834 -18.5 30.501 -18.5
c7.33301 0 11 -2 11 -6s9.16699 -8.66699 27.5 -14s34.166 -8 47.499 -8c20 0 42.167 10.5 66.5 31.5s40.166 43.5 47.499 67.5c5.33301 16.667 5.66602 38.834 0.999023 66.501s-12.334 48.834 -23.001 63.501c-15.333 22 -39 38.667 -71 50s-63.667 14.333 -95 9
c-19.333 -2.66699 -29 -8.66699 -29 -18c0 -8.66699 -3.33301 -14.334 -10 -17.001s-14.334 -1.66699 -23.001 3c-6.66699 3.33301 -10.167 7.16602 -10.5 11.499s2.16699 15.166 7.5 32.499c6 19.333 9.66699 42 11 68c1.33301 44.667 12.666 79 33.999 103
c6 6.66699 13.167 10.834 21.5 12.501s26.166 2.5 53.499 2.5zM563.009 598.999c0 7.33301 -2 8.00195 -6 2.00195c-2.66699 -5.33301 -21.667 -6 -57 -2c-54.667 6 -147 6.66699 -277 2c-67.333 -2.66699 -105.666 -0.333984 -114.999 6.99902c-14 10 -13.333 17 2 21
c9.33301 2.66699 19 2.66699 29 0c20 -3.33301 44.333 -4.33301 73 -3c35.333 1.33301 95 2 179 2s141 -0.666992 171 -2c22 -1.33301 36.667 -1.33301 44 0s12.333 4.33301 15 9c10 16.667 17.333 15 22 -5c2.66699 -11.333 2.66699 -18.5 0 -21.5
s-11.334 -5.16699 -26.001 -6.5c-10 -0.666992 -22.667 -3 -38 -7c-10.667 -2.66699 -16 -1.33398 -16 3.99902z" />
    <glyph glyph-name="six" unicode="6" horiz-adv-x="701" 
d="M250 112c7.33301 0 8.66699 -2.66797 4 -8.00098c-2 -3.33301 -5.33301 -5.66602 -10 -6.99902c-6 -1.33301 -1.33301 -6.33301 14 -15c22 -12 38.667 -18 50 -18s31.5 6.66699 60.5 20s45.833 23.666 50.5 30.999c8 16.667 15.833 43.667 23.5 81
s7.83398 64 0.500977 80c-6 26 -13 42.333 -21 49c-8 7.33301 -23 11.833 -45 13.5s-41.333 0.166992 -58 -4.5c-54 -16 -83 -51.333 -87 -106c-0.666992 -19.333 -5.33398 -29.666 -14.001 -30.999c-7.33301 -1.33301 -9.33301 -9.33301 -6 -24
c2.66699 -12 8.5 -25.167 17.5 -39.5s15.833 -21.5 20.5 -21.5zM173.001 380.999c0 -10 -2.6709 -17.6641 -8.00391 -22.9971c-4 -4 -6.66699 -25.333 -8 -64s-0.333008 -67.667 3 -87c4.66699 -23.333 9.66699 -35.333 15 -36c3.33301 -0.666992 3.66602 7 0.999023 23
c-0.666992 16.667 -0.666992 26.834 0 30.501s3.16699 9.5 7.5 17.5s7.5 16 9.5 24c6 22.667 21.833 43.667 47.5 63s54.834 31.666 87.501 36.999s65.334 0.666016 98.001 -14.001c24.667 -12 40.167 -25.833 46.5 -41.5s9.16602 -47.5 8.49902 -95.5
c-0.666992 -46.667 -4.5 -78.667 -11.5 -96s-21.5 -31.333 -43.5 -42c-20.667 -10 -31 -16.667 -31 -20s41.833 -6.66602 125.5 -9.99902s126.834 -3.66602 129.501 -0.999023s7.33398 0.666992 14.001 -6c12.667 -12.667 10.334 -20.334 -6.99902 -23.001
c-7.33301 -0.666992 -17 -0.333984 -29 0.999023c-36 4.66699 -122.167 7.5 -258.5 8.5s-216.166 -0.5 -239.499 -4.5c-20.667 -4 -34.5 -5.83301 -41.5 -5.5s-13.167 2.83301 -18.5 7.5c-7.33301 7.33301 -15 11.666 -23 12.999c-5.33301 0 -4.33301 1.33301 3 4
c2.66699 1.33301 5.33398 2.33301 8.00098 3c13.333 3.33301 39 6.5 77 9.5s71.333 4.16699 100 3.5l-33 33c-22 22.667 -35.833 38.167 -41.5 46.5s-12.834 24.166 -21.501 47.499c-20 50.667 -19.167 115.667 2.5 195s47.5 133 77.5 161c14 14.667 32.667 25.667 56 33
c61.333 19.333 109.333 14.333 144 -15c9.33301 -8.66699 21.333 -24.667 36 -48s23.667 -40.666 27 -51.999c4 -14 3 -20.333 -3 -19c-11.333 3.33301 -25 20.666 -41 51.999c-16 32 -34.833 52.5 -56.5 61.5s-50.167 8.16699 -85.5 -2.5c-30 -9.33301 -51.333 -22 -64 -38
c-11.333 -14.667 -24 -37.5 -38 -68.5s-21 -51.833 -21 -62.5zM88.9971 592.002c-28 0 -45.834 2.66797 -53.501 8.00098s-7.16699 15 1.5 29c10 15.333 18 21 24 17c3.33301 -2 4 -7.33301 2 -16c-1.33301 -8 -1.16602 -12.667 0.500977 -14s7.16699 -1.33301 16.5 0
c74 10.667 197 16.334 369 17.001c125.333 1.33301 192.333 -0.333984 201 -5.00098c8 -4.66699 8.66699 -8.33398 2 -11.001c-7.33301 -1.33301 -86.5 -4 -237.5 -8s-230.5 -7.33301 -238.5 -10c-36 -4.66699 -65 -7 -87 -7z" />
    <glyph glyph-name="seven" unicode="7" horiz-adv-x="587" 
d="M127 540c0 6.66699 13.1689 9.99707 39.502 9.99707s53.833 -3.33301 82.5 -10c23.333 -6 59.666 -9.66699 108.999 -11c31.333 0 50.5 -0.666992 57.5 -2s10.5 -5.33301 10.5 -12c0 -9.33301 -2 -14 -6 -14c-3.33301 -0.666992 -18 -17.667 -44 -51l-38 -49
c-10.667 -11.333 -23.334 -43.666 -38.001 -96.999s-23.667 -100.666 -27 -141.999c-5.33301 -54 -6 -84.667 -2 -92c8.66699 -6.66699 23.334 -10 44.001 -10c12.667 -1.33301 43.667 2 93 10s78.666 11.667 87.999 11c5.33301 -3.33301 4.33301 -8.33301 -3 -15
c-5.33301 -5.33301 -10.333 -7 -15 -5c-7.33301 2.66699 -17 0.333984 -29 -6.99902c-15.333 -8 -37.5 -13.167 -66.5 -15.5s-55.333 -3.16602 -79 -2.49902s-55.5 2.33398 -95.5 5.00098s-67.333 4.33398 -82 5.00098c-42.667 1.33301 -69.334 3.16602 -80.001 5.49902
s-16 7.83301 -16 16.5c-3.33301 5.33301 10.334 8 41.001 8c21.333 0 58 -1.66699 110 -5c26.667 -1.33301 42.667 -2 48 -2c-2 9.33301 -2.33301 23.166 -1 41.499s2.16602 31.166 2.49902 38.499s2 19.5 5 36.5l6 34.5c1 6 3.16699 17.167 6.5 33.5
s5.66602 27.166 6.99902 32.499c2.66699 15.333 5.33398 26.333 8.00098 33s6.5 14.834 11.5 24.501s10.167 21.5 15.5 35.5c14 33.333 30.667 60.666 50 81.999c20 22.667 30 36 30 40c0 4.66699 -17.333 7 -52 7c-22.667 -1.33301 -47.167 1.83398 -73.5 9.50098
s-48.166 11.5 -65.499 11.5c-25.333 -0.666992 -40.333 -0.5 -45 0.5s-7 4.5 -7 10.5zM356.002 603.997c-188 0 -288.667 3.00098 -302 9.00098c-9.33301 3.33301 -14.5 6 -15.5 8s-0.166992 7.33301 2.5 16c2.66699 7.33301 10.334 9.33301 23.001 6
c9.33301 -2.66699 84.666 -4.66699 225.999 -6c60 -0.666992 106.667 -1.33398 140 -2.00098s60 -2 80 -4s32.833 -4.16699 38.5 -6.5s8.16699 -5.83301 7.5 -10.5c-2 -8 -9.66699 -11.667 -23 -11c-8 0.666992 -67 1 -177 1z" />
    <glyph glyph-name="eight" unicode="8" horiz-adv-x="775" 
d="M509 208c0 15.333 -5.16895 28.666 -15.502 39.999s-22.5 17 -36.5 17c-10.667 0 -17.667 2.33301 -21 7c-6 2.66699 -25.167 6.5 -57.5 11.5s-51.833 9.16699 -58.5 12.5c-15.333 7.33301 -24.166 11 -26.499 11s-6.16602 -3.33301 -11.499 -10
c-17.333 -20 -30.666 -42.833 -39.999 -68.5s-12 -46.834 -8 -63.501c2 -8.66699 14.167 -22.167 36.5 -40.5s42.166 -31.166 59.499 -38.499c40.667 -17.333 80.667 -12.666 120 14.001s59 62.667 59 108zM478.998 521c-8 7.33301 -31.001 12.332 -69.001 14.999
c-24.667 1.33301 -42 1.5 -52 0.5s-21 -4.5 -33 -10.5c-35.333 -18 -54.333 -46.333 -57 -85c-4 -42.667 1.33301 -69.667 16 -81c7.33301 -6 15.666 -4.33301 24.999 5c8 8 28.667 14.333 62 19c38 5.33301 62.333 10.333 73 15s21 14.334 31 29.001
c10.667 15.333 16.334 32.333 17.001 51s-3.66602 32.667 -12.999 42zM522.997 460.999c0 -22 4.3291 -35.9922 12.9961 -41.9922c9.33301 -4.66699 12.666 -10.667 9.99902 -18c-3.33301 -8.66699 -14.833 -18.334 -34.5 -29.001s-40.167 -18.334 -61.5 -23.001
c-35.333 -7.33301 -57.166 -11.333 -65.499 -12s-14.5 1 -18.5 5c-5.33301 4 -13 4.16699 -23 0.5s-15 -8.5 -15 -14.5c0 -4 9.33301 -8 28 -12s39.334 -6.66699 62.001 -8c16.667 -1.33301 27.834 -2.83301 33.501 -4.5s11.834 -4.83398 18.501 -9.50098
s15.667 -9.33398 27 -14.001c20 -8.66699 32.833 -19.167 38.5 -31.5s7.5 -34.166 5.5 -65.499c0 -12.667 -1.66699 -24 -5 -34s-6.33301 -17 -9 -21s-8.5 -10.333 -17.5 -19l-17.5 -17c17.333 -2 66.333 -4 147 -6c18.667 0 32.834 -0.333008 42.501 -1
s17.334 -1.5 23.001 -2.5s9.16699 -2.16699 10.5 -3.5s1.66602 -3.33301 0.999023 -6c-0.666992 -5.33301 -7.33398 -8.66602 -20.001 -9.99902s-45 -2.33301 -97 -3c-42.667 0 -74.667 -0.833008 -96 -2.5s-44.5 -4.83398 -69.5 -9.50098s-50.833 -8.66699 -77.5 -12
c-24.667 -2.66699 -60.834 -4.16699 -108.501 -4.5s-86.834 -3.5 -117.501 -9.5c-5.33301 -1.33301 -10.666 -2.5 -15.999 -3.5l-13 -2.5l-10 -2c-3.33301 -0.666992 -6 -1.16699 -8 -1.5l-6 -1c-2 -0.333008 -3.66699 -0.5 -5 -0.5h-3
c-0.666992 0 -1.33398 0.333008 -2.00098 1s-1.33398 1.16699 -2.00098 1.5s-1.33398 1.16602 -2.00098 2.49902c-6 9.33301 -6 16.333 0 21s22.667 10 50 16c35.333 7.33301 71.333 9.66602 108 6.99902c34 -3.33301 53.333 -3.33301 58 0c1.33301 2 0.333008 5.5 -3 10.5
s-8.5 10.833 -15.5 17.5l-19.5 18.5l-20 19c-7.33301 7 -12 11.167 -14 12.5v55c0 27.333 2.83301 48.333 8.5 63s17.834 33.334 36.501 56.001c4.66699 6 6.83398 11.333 6.50098 16s-4.16602 14 -11.499 28c-8 16 -12 39 -12 69
c-1.33301 63.333 20.334 106.666 65.001 129.999c13.333 7.33301 25.333 11.666 36 12.999s30 1 58 -1c48.667 -2.66699 82.334 -11.834 101.001 -27.501s28 -41.834 28 -78.501zM744.993 602.007c0 -8 -21.3359 -12.665 -64.0029 -13.998s-93 1 -151 7
c-73.333 7.33301 -139 8.66602 -197 3.99902c-80 -6 -167 -5 -261 3c-17.333 1.33301 -29 4.16602 -35 8.49902s-7.66699 10.5 -5 18.5c2.66699 6 6.83398 9.33301 12.501 10s16.834 -1 33.501 -5c15.333 -4.66699 54.833 -7.5 118.5 -8.5s117.834 0.166992 162.501 3.5
c26.667 3.33301 77.167 1.33301 151.5 -6s123.5 -10 147.5 -8c58 4 87 -0.333008 87 -13z" />
    <glyph glyph-name="nine" unicode="9" horiz-adv-x="691" 
d="M387 540c-20 12.667 -45.502 16.8359 -76.502 12.5029s-55.167 -15.5 -72.5 -33.5c-13.333 -14 -23.5 -32.333 -30.5 -55s-8.16699 -42.334 -3.5 -59.001c4 -14.667 13.333 -31.334 28 -50.001s28.334 -31.334 41.001 -38.001c14.667 -7.33301 33.334 -10.333 56.001 -9
s42 6.66602 58 15.999l28.5 16.5c13 7.66699 20.167 11.834 21.5 12.501c8 4 13.333 8 16 12s3.83398 7.5 3.50098 10.5s-1.5 8.16699 -3.5 15.5s-3.33301 14 -4 20c-10.667 66.667 -31.334 109.667 -62.001 129zM660.998 596.002
c0 -11.333 -57.6641 -17.3281 -172.997 -17.9951c-62.667 0 -94.667 -1.33301 -96 -4c1.33301 -2 11.333 -14 30 -36s28.667 -36.667 30 -44c0.666992 -1.33301 5.5 -13 14.5 -35s13.5 -39 13.5 -51s4 -18 12 -18c2.66699 0 4.66699 -0.333008 6 -1
s2.16602 -2.33398 2.49902 -5.00098s0.333008 -5.66699 0 -9s-1.16602 -9 -2.49902 -17c-4 -25.333 -7.66699 -57.333 -11 -96c-4 -54 -11.333 -93 -22 -117s-29 -48.667 -55 -74c20 -8.66699 40.333 -11 61 -7c20.667 4.66699 42.667 7.16699 66 7.5s37 -1.5 41 -5.5
s1.33301 -7 -8 -9c-2 -0.666992 -4.66699 -1.33398 -8 -2.00098c-38.667 -5.33301 -68.334 -8.83301 -89.001 -10.5s-36.834 -2.33398 -48.501 -2.00098s-34.834 1.16602 -69.501 2.49902s-74.667 2 -120 2c-50.667 0.666992 -88.5 1.33398 -113.5 2.00098
s-46.167 1.83398 -63.5 3.50098s-26 4 -26 7v11.5c3.33301 5.33301 37.333 7 102 5c64 -2.66699 96 -2.66699 96 0c0 4.66699 -5.66699 13.667 -17 27c-13.333 18 -18 27.667 -14 29c0.666992 0.666992 2.33398 1 5.00098 1c8.66699 -1.33301 28.667 -20.333 60 -57l114 6
l29 31c22 22 36.5 50.167 43.5 84.5s9.83301 77.833 8.5 130.5l-36 -20c-49.333 -27.333 -96.333 -35 -141 -23c-16 4.66699 -35.5 17.667 -58.5 39s-38.167 41 -45.5 59c-5.33301 13.333 -7.5 31.666 -6.5 54.999s4.83301 39.333 11.5 48c5.33301 5.33301 6 8 2 8
c-0.666992 2 3.83301 9.33301 13.5 22s14.167 21 13.5 25c2.66699 10 17.667 18.667 45 26c14.667 4 31 9 49 15c12.667 4 10 7 -8 9c-16 1.33301 -44 1.66602 -84 0.999023c-62 -0.666992 -96 2.33301 -102 9c-4.66699 7.33301 -5.33398 13.666 -2.00098 18.999
s46.5 6.83301 129.5 4.5s132.167 -6.5 147.5 -12.5c12.667 -6 62 -8.33301 148 -7c84 0 126 -3 126 -9z" />
    <glyph glyph-name="colon" unicode=":" horiz-adv-x="132" 
d="M76 43c-15.333 0 -26.832 2.99805 -34.499 8.99805s-9.83398 13.333 -6.50098 22c6.66699 17.333 10 26.333 10 27c3.33301 7.33301 8.83301 11 16.5 11s15.5 -3.66699 23.5 -11s13 -15.666 15 -24.999c2.66699 -13.333 2.5 -22.166 -0.5 -26.499
s-10.833 -6.5 -23.5 -6.5zM87.001 389.998c0 -7.33301 -1.33398 -12.168 -4.00098 -14.501s-8.66699 -3.83301 -18 -4.5c-15.333 -0.666992 -25.333 3.66602 -30 12.999c-6 8 -6.83301 13.833 -2.5 17.5s9 6 14 7s11.5 1.5 19.5 1.5
c8.66699 -1.33301 14.334 -3.16602 17.001 -5.49902s4 -7.16602 4 -14.499z" />
    <glyph glyph-name="semicolon" unicode=";" horiz-adv-x="157" 
d="M49 108c4 4.66699 14.4971 6.33301 31.4971 5s25.833 -4.33301 26.5 -9c2.66699 -38.667 0.333984 -69.334 -6.99902 -92.001c-6.66699 -18 -13 -30 -19 -36s-15.667 -10.333 -29 -13c-12 -2 -19 -0.666992 -21 4s1.33301 11.667 10 21
c6.66699 6.66699 13.334 21.334 20.001 44.001c4.66699 14.667 6.83398 24.167 6.50098 28.5s-3.5 8.5 -9.5 12.5c-6.66699 4 -11 9.66699 -13 17s-0.666992 13.333 4 18zM126.997 417.999c0 -9.33301 -4.66797 -17.5 -14.001 -24.5s-19 -9.16699 -29 -6.5
c-8.66699 2.66699 -15.667 9.16699 -21 19.5s-6 18.833 -2 25.5c4.66699 8 16.834 10 36.501 6s29.5 -10.667 29.5 -20z" />
    <glyph glyph-name="equal" unicode="=" horiz-adv-x="426" 
d="M349 251c0 -1.33301 1.16797 -2.33301 3.50098 -3s5.16602 -0.333984 8.49902 0.999023c6 2 9 1.66699 9 -1c0.666992 -6 -5.33301 -12.667 -18 -20l-3 -2c-11.333 -6 -22.666 -8 -33.999 -6c-14 3.33301 -43 5 -87 5s-81.667 -1.33301 -113 -4
c-34 -3.33301 -56.667 -3.5 -68 -0.5s-17 10.167 -17 21.5c0 10 3.16699 16.5 9.5 19.5s24.166 6.5 53.499 10.5c41.333 6 94.333 6.33301 159 1s97 -12.666 97 -21.999zM365.001 374c-30 0 -88.332 2 -174.999 6s-131.334 6.66699 -134.001 8c-3.33301 2 -5 8.66699 -5 20
c0 6.66699 1.5 11 4.5 13s10.167 3.66699 21.5 5c24 2 67.833 2 131.5 0s101.5 -4.66699 113.5 -8c16 -4 26 -4 30 0c6 6 13.167 8 21.5 6s14.5 -7.33301 18.5 -16c10 -22.667 1 -34 -27 -34z" />
    <glyph glyph-name="greater" unicode="&#x3e;" horiz-adv-x="407" 
d="M224 411c12 -8.66699 24.0029 -15.1709 36.0029 -19.5039s23.667 -11.166 35 -20.499c4 -4 17.667 -14.333 41 -31s37 -28.667 41 -36c-1.33301 -4 -14.333 -11.167 -39 -21.5s-37.667 -16.833 -39 -19.5c-7.33301 -8 -24.5 -17.667 -51.5 -29
s-47.5 -17.666 -61.5 -18.999c-10 -1.33301 -19.667 -4.5 -29 -9.5s-16.666 -8.16699 -21.999 -9.5c-3.33301 0.666992 -14.333 -6.33301 -33 -21s-30.667 -20.667 -36 -18c-8 2.66699 -14.667 4 -20 4c-18 0 -14.333 8.33301 11 25c28.667 19.333 64.667 36.666 108 51.999
c53.333 17.333 102.666 40 147.999 68c2 0.666992 -1.33301 4.83398 -10 12.501s-19.667 16.334 -33 26.001s-25.333 17.167 -36 22.5c-44 22.667 -100 47 -168 73c-23.333 9.33301 -35.333 16.333 -36 21c-0.666992 3.33301 3.33301 6 12 8
c9.33301 2.66699 22.166 2.33398 38.499 -0.999023s30.166 -8.33301 41.499 -15c10 -5.33301 26.167 -11.333 48.5 -18s40.166 -14.667 53.499 -24z" />
    <glyph glyph-name="question" unicode="?" horiz-adv-x="651" 
d="M319 103c2.66699 3.33301 7.66797 6.50098 15.001 9.50098s16.5 6 27.5 9s16.833 4.5 17.5 4.5c1.33301 1.33301 1.33301 -9 0 -31c-0.666992 -7.33301 -1.16699 -12.666 -1.5 -15.999s-0.333008 -6.33301 0 -9s1.16602 -4.33398 2.49902 -5.00098s3.33301 -1 6 -1
c28 0.666992 72.667 -0.666016 134 -3.99902s93.666 -5.66602 96.999 -6.99902c5.33301 -2.66699 5 -7 -1 -13c-4.66699 -4.66699 -42.334 -7.66699 -113.001 -9c-246.667 -3.33301 -387.334 -7.33301 -422.001 -12c-21.333 -2.66699 -35.666 0.333008 -42.999 9
c-10 11.333 -8.66699 18.666 4 21.999c14.667 4.66699 63.334 8.66699 146.001 12c88.667 2.66699 134 6 136 10c0.666992 1.33301 -0.666016 3.66602 -3.99902 6.99902c-5.33301 6 -8 10.167 -8 12.5s2.33301 6.16602 7 11.499zM387.001 222.001
c0.666992 -10.667 -0.835938 -17.999 -4.50293 -21.999s-8 -5.33301 -13 -4s-10.167 4 -15.5 8c-5.33301 5.33301 -8 18.333 -8 39s3 40 9 58c1.33301 5.33301 3.33301 12.5 6 21.5l5.5 18.5c1 3.33301 2.66699 8 5 14s4.83301 10.833 7.5 14.5s6.16699 8 10.5 13
s9.83301 10.833 16.5 17.5c32.667 32 48.334 58.667 47.001 80s-20 40.333 -56 57c-19.333 8 -31.166 12.833 -35.499 14.5s-11.5 3 -21.5 4s-18 -0.166992 -24 -3.5l-30 -17c-39.333 -24.667 -59 -52 -59 -82c0 -8.66699 -2.66699 -13.167 -8 -13.5s-12.333 3.5 -21 11.5
c-8.66699 7.33301 -12.5 15.5 -11.5 24.5s7.5 23.833 19.5 44.5c14 24 27.667 37.333 41 40c14.667 2.66699 23 7.33398 25 14.001c0 4 6.5 7.83301 19.5 11.5s19.5 6.83398 19.5 9.50098c0 4.66699 -21.333 8.33398 -64 11.001c-54 2.66699 -80.667 8.33398 -80 17.001
c0 1.33301 0.333008 2.66602 1 3.99902c2 2.66699 0.833008 4.83398 -3.5 6.50098s-5.16602 4.16699 -2.49902 7.5c4 7.33301 60.333 4.33301 169 -9c97.333 -12.667 172.666 -11.334 225.999 3.99902c27.333 7.33301 44.333 7.66602 51 0.999023c4 -4 5 -7.33301 3 -10
s-8.66699 -6.33398 -20 -11.001c-14 -6 -31.167 -11 -51.5 -15s-34.5 -7 -42.5 -9c-22.667 -6 -43 -8.33301 -61 -7c-46.667 2 -68.334 1 -65.001 -3c0 -0.666992 0.666992 -1.33398 2 -2.00098c6.66699 -2 20.667 -10.667 42 -26c36.667 -24.667 59.334 -45 68.001 -61
s8.66699 -37.667 0 -65c-3.33301 -16 -13.166 -30.667 -29.499 -44s-26.833 -24.333 -31.5 -33c-8.66699 -12.667 -16.667 -32.834 -24 -60.501s-11 -50.5 -11 -68.5z" />
    <glyph glyph-name="at" unicode="@" horiz-adv-x="910" 
d="M342 -169c-12 -4 -45.998 -6.49902 -101.998 -7.49902s-90 -3.83301 -102 -8.5c-8.66699 -3.33301 -23.5 -5.5 -44.5 -6.5s-35.833 -2.83301 -44.5 -5.5c-8 -1.33301 -13.167 -1.5 -15.5 -0.5s-3.5 4.5 -3.5 10.5c0 10 2 15 6 15c7.33301 0.666992 33 5 77 13
s84.667 11.667 122 11c21.333 0 44.5 1.16699 69.5 3.5s45.167 4.66602 60.5 6.99902s37 5.83301 65 10.5s46.333 7.66699 55 9c22 3.33301 69.333 4.83301 142 4.5s132.667 -2.5 180 -6.5c51.333 -4 75.666 -10 72.999 -18c-2.66699 -4 -12.667 -7.33301 -30 -10
c-22.667 -3.33301 -41.334 -3.33301 -56.001 0c-32.667 7.33301 -105.5 8.33301 -218.5 3s-190.833 -13.333 -233.5 -24zM249.002 224.001c0 -28.667 1.00098 -48.5 3.00098 -59.5s6.33301 -21.833 13 -32.5c14.667 -23.333 38.667 -36.833 72 -40.5
s64.666 3.83301 93.999 22.5l28 19c6.66699 78 8.66699 124.333 6 139c-2 14 -1.33301 21 2 21c4 0 9 16.333 15 49c6 32 5.66699 51.667 -1 59c-7.33301 9.33301 -22.333 11.333 -45 6c-82.667 -18 -138 -46.333 -166 -85c-10 -14 -16 -25.5 -18 -34.5s-3 -30.167 -3 -63.5
zM752.003 51.001c1.33301 -3.33301 -2.99414 -8.16797 -12.9941 -14.501s-20.667 -12.333 -32 -18s-17 -9.5 -17 -11.5c0 -4 -3.33301 -6 -10 -6c-8 0 -27 -7 -57 -21c-65.333 -30 -128 -47.333 -188 -52s-111.667 3.66602 -155 24.999c-98.667 48 -158 92 -178 132
c-8.66699 16.667 -18 31.667 -28 45c-18.667 25.333 -24 74 -16 146c4.66699 59.333 24 118.5 58 177.5s69.667 97.167 107 114.5c53.333 26 111.333 40.667 174 44c4.66699 1.33301 6.66699 3.33301 6 6c-4 5.33301 -63.833 6.5 -179.5 3.5s-178.167 -7.5 -187.5 -13.5
c-2 -1.33301 -3.66699 0 -5 4l-1 10c0 9.33301 4.16699 15.666 12.5 18.999s27.166 6 56.499 8c28 2 86.333 1.66699 175 -1s141.667 -5.66699 159 -9c20.667 -6 58.5 -8.33301 113.5 -7s100.5 0.666016 136.5 -2.00098c36 -3.33301 71 -2.33301 105 3
c40 6.66699 67 5 81 -5c5.33301 -3.33301 5.66602 -7.66602 0.999023 -12.999c-4 -6 -12.667 -7.66699 -26 -5c-10.667 0.666992 -36.334 -0.5 -77.001 -3.5s-69 -2.83301 -85 0.5c-38.667 5.33301 -79 6 -121 2c42.667 -20.667 70.667 -38.334 84 -53.001
c14.667 -16 26.334 -28.333 35.001 -37c10.667 -10.667 22 -28.834 34 -54.501s20 -48.5 24 -68.5c5.33301 -26.667 3.83301 -60.167 -4.5 -100.5s-21.166 -76.166 -38.499 -107.499l-23 -41c-2 -6 -7.5 -11.667 -16.5 -17s-14.5 -11.333 -16.5 -18
c-2 -8.66699 -10.333 -14.667 -25 -18c-14.667 -4 -22 -7 -22 -9c0 -4 -5.83301 -9 -17.5 -15s-22.834 -9.66699 -33.501 -11c-15.333 -2 -41 8 -77 30l-38 -20c-31.333 -16 -62.5 -21.667 -93.5 -17s-57.833 18.667 -80.5 42c-15.333 15.333 -26.666 46 -33.999 92
s-6.33301 79.333 3 100c15.333 34.667 30.833 60.334 46.5 77.001s39.167 32.334 70.5 47.001c43.333 19.333 75.666 30.333 96.999 33s43.666 -3 66.999 -17c0.666992 2.66699 1.16699 6.83398 1.5 12.501s0.666016 10.167 0.999023 13.5s1.16602 6.83301 2.49902 10.5
s3.66602 6.33398 6.99902 8.00098s7.33301 2.16699 12 1.5c9.33301 1.33301 14.666 0.833008 15.999 -1.5s0.666016 -9.83301 -2.00098 -22.5c-4 -19.333 -5.33301 -47.666 -4 -84.999c0.666992 -35.333 -0.333008 -53 -3 -53c-1.33301 0 -3 1 -5 3
c-3.33301 2.66699 -5.66602 4.16699 -6.99902 4.5s-2.66602 -0.166992 -3.99902 -1.5s-2.66602 -4 -3.99902 -8c-5.33301 -18.667 -9 -50.5 -11 -95.5s-1.66699 -82.5 1 -112.5c1.33301 0 5.16602 -0.666992 11.499 -2s10.166 -2 11.499 -2s4.5 -0.333008 9.5 -1
s8.66699 -0.666992 11 0s5.5 1.33398 9.5 2.00098s7.83301 1.66699 11.5 3s7.5 3.33301 11.5 6c12 7.33301 26.5 19.666 43.5 36.999s25.5 29 25.5 35c0 2.66699 5.66699 11.667 17 27c20.667 27.333 33.334 68 38.001 122s-0.666016 97 -15.999 129
c-9.33301 20.667 -23 41.667 -41 63s-34.333 35.666 -49 42.999c-16.667 8.66699 -57.334 14.667 -122.001 18s-114.667 2.33301 -150 -3c-22 -3.33301 -45.833 -10.833 -71.5 -22.5s-45.167 -23.5 -58.5 -35.5c-37.333 -35.333 -67.5 -88.333 -90.5 -159
s-29.5 -129.667 -19.5 -177c4 -20 16.333 -46.833 37 -80.5s38 -55.167 52 -64.5c6.66699 -5.33301 23.334 -14.666 50.001 -27.999s43 -22.333 49 -27c10.667 -9.33301 50 -20.333 118 -33c24 -4.66699 63.667 1.16602 119 17.499s105.666 37.166 150.999 62.499
c42 24 70.667 33.333 86 28c3.33301 -1.33301 5 -3.66602 5 -6.99902z" />
    <glyph glyph-name="A" unicode="A" horiz-adv-x="820" 
d="M261 122c-3.33301 -7.33301 -8 -16.334 -14 -27.001c-10 -20.667 -13 -32.334 -9 -35.001c4.66699 -4 33 -3 85 3h1l1 1h1h1h1h1h1h1h1l1 1h1h1h2c22.667 4 57.334 4.33301 104.001 1s80.667 -4.66602 102 -3.99902l54 3c-2 21.333 -10.833 52 -26.5 92
s-28.167 66.667 -37.5 80c-8 8 -22.333 10.333 -43 7c-16.667 -3.33301 -39 -4.66602 -67 -3.99902s-49 2.66699 -63 6c-16.667 4 -28.834 3.5 -36.501 -1.5s-15.167 -17.167 -22.5 -36.5c-8.66699 -24 -22 -52.667 -40 -86zM339 293.999
c0 -6 12.6709 -11.167 38.0039 -15.5s51.666 -6.16602 78.999 -5.49902c37.333 1.33301 56 3.66602 56 6.99902c-1.33301 3.33301 -12.333 29.5 -33 78.5s-33.334 82.833 -38.001 101.5c-12 38.667 -21.333 62.667 -28 72c-4.66699 6.66699 -8.33398 6.66699 -11.001 0
c-2 -4.66699 -5.33301 -15 -10 -31c-28.667 -88 -46.334 -157 -53.001 -207zM636.004 28.999c-2.66699 -0.666992 -14.667 0.666016 -36 3.99902s-34.333 4 -39 2c-0.666992 -2.66699 -18 -3.5 -52 -2.5s-69.333 3.5 -106 7.5c-22.667 3.33301 -39 3.33301 -49 0
c-12.667 -4.66699 -77.334 -9.66699 -194.001 -15c-47.333 -1.33301 -77.666 -1.66602 -90.999 -0.999023s-23 3.66699 -29 9c-14 12.667 -12.333 20 5 22c11.333 1.33301 30.333 1.33301 57 0c20.667 -0.666992 38.5 -0.833984 53.5 -0.500977s26.333 1.33301 34 3
s11.167 3.83398 10.5 6.50098c1.33301 9.33301 10.833 30.666 28.5 63.999s27.834 55.666 30.501 66.999c0.666992 6.66699 5.66699 19.834 15 39.501s13.666 33.5 12.999 41.5c-2 6.66699 0.333008 11 7 13c4.66699 0 7.83398 7.33301 9.50098 22
s3.83398 22.667 6.50098 24c4 4 9.16699 17.833 15.5 41.5s13.166 51.334 20.499 83.001s13.333 54.5 18 68.5c13.333 36.667 23.5 57.334 30.5 62.001s17.5 -3.66602 31.5 -24.999c9.33301 -14 24.833 -46.667 46.5 -98s32.5 -81 32.5 -89c0 -6 7.5 -23.333 22.5 -52
s25.167 -44.667 30.5 -48c2 -2.66699 7.16699 -4.16699 15.5 -4.5s15.666 -1.33301 21.999 -3s8.83301 -5.83398 7.5 -12.501c0 -6 -1.16699 -9.83301 -3.5 -11.5s-7.16602 -1.83398 -14.499 -0.500977c-11.333 2 -17 2 -17 0c0 -0.666992 7.33301 -17.167 22 -49.5
s21.334 -50.5 20.001 -54.5c-0.666992 -5.33301 3.66602 -15.333 12.999 -30s14 -24 14 -28c0 -12.667 8.66699 -21.5 26 -26.5s33.666 -3.16699 48.999 5.5c8.66699 4.66699 23.834 6 45.501 4s32.5 -5.66699 32.5 -11c0 -4.66699 -2.66699 -7 -8 -7
c-12.667 0.666992 -27.834 -2.5 -45.501 -9.5s-27.5 -13.167 -29.5 -18.5c0 -4 -2.66699 -4.66699 -8 -2c-12 8 -33 11.333 -63 10zM121.004 627.999c32 1.33301 62.333 4.83301 91 10.5s70.334 7.16699 125.001 4.5c25.333 -1.33301 93.333 -1.66602 204 -0.999023
s189.667 0 237 -2c9.33301 -5.33301 7.33301 -11 -6 -17c-6.66699 -2.66699 -15 -4.66699 -25 -6c-12 -2 -50.333 -1.5 -115 1.5s-102.334 2.16699 -113.001 -2.5c-22 -7.33301 -78.667 -6 -170 4c-14 1.33301 -38.5 0 -73.5 -4s-54.5 -7.33301 -58.5 -10
c-7.33301 -4.66699 -36.333 -7.66699 -87 -9c-34 -0.666992 -56 -0.333984 -66 0.999023s-16.667 4.33301 -20 9c-4 8.66699 -5 14 -3 16c3.33301 2 30 3.66699 80 5z" />
    <glyph glyph-name="B" unicode="B" horiz-adv-x="745" 
d="M224 329c0 -4.66699 -3.00098 -78.999 -9.00098 -222.999c70.667 -4.66699 112 -8 124 -10c20 -3.33301 46 -2 78 4s54.667 13.333 68 22c18.667 12 32.167 29.5 40.5 52.5s8.83301 43.167 1.5 60.5c-2 2.66699 -4.16699 6.83398 -6.5 12.501
s-5.16602 12.167 -8.49902 19.5s-5.66602 12.666 -6.99902 15.999c-7.33301 16.667 -15.166 27.667 -23.499 33s-23.5 9.66602 -45.5 12.999c-34.667 5.33301 -68.334 8.5 -101.001 9.5s-51.667 -0.5 -57 -4.5c-4 -3.33301 -13.333 -4.5 -28 -3.5s-23.334 0.5 -26.001 -1.5z
M217.999 535.001c4.66699 -65.333 6.66797 -122.335 6.00098 -171.002c66 16.667 132.667 18.334 200 5.00098c14 -2.66699 23.833 -3.16699 29.5 -1.5s13.167 6.83398 22.5 15.501c11.333 10 20 26 26 48s7 41.667 3 59c-3.33301 21.333 -31.333 38.833 -84 52.5
s-96.334 16.167 -131.001 7.5c-5.33301 -1.33301 -16.333 -3.83301 -33 -7.5s-29.667 -6.16699 -39 -7.5zM547 43.999c10.667 -2.66699 31.332 -5.00098 61.999 -7.00098s51 -7 61 -15l16 -14c-68 2.66699 -158.167 10.167 -270.5 22.5s-195.833 20.166 -250.5 23.499
c-50 3.33301 -77 7.66602 -81 12.999c-8 12 -6.33301 19.333 5 22c8 2 22.667 3 44 3h54c2 114 5.33301 183.333 10 208c2.66699 11.333 2.83398 35.333 0.500977 72s-2.5 60 -0.5 70c3.33301 12 3.33301 18 0 18c-2.66699 0 -4 5.16699 -4 15.5s1.33301 18.833 4 25.5
c1.33301 4.66699 1.66602 14 0.999023 28s-1 29 -1 45s1 24.333 3 25c3.33301 5.33301 7.33301 7.33301 12 6s8 -5.66602 10 -12.999c1.33301 -6 3.83301 -9.66699 7.5 -11s12.167 -0.666016 25.5 2.00098c38.667 6.66699 84 7.33398 136 2.00098
c14.667 -1.33301 35 -9 61 -23s46.667 -28 62 -42c13.333 -12.667 21.833 -26.667 25.5 -42s3.5 -35.666 -0.5 -60.999c-2.66699 -15.333 -5.66699 -26.166 -9 -32.499s-9.66602 -12.5 -18.999 -18.5c-14 -9.33301 -21.667 -15.333 -23 -18c0 -2 5.33301 -9 16 -21
c14 -14 27 -34.333 39 -61s18.667 -50.334 20 -71.001c1.33301 -18.667 1.16602 -31.334 -0.500977 -38.001s-7.5 -16.334 -17.5 -29.001c-10.667 -12.667 -23.167 -22.667 -37.5 -30s-39.166 -15.666 -74.499 -24.999c-12.667 -3.33301 -9 -7.33301 11 -12l26 -5
c47.333 -7.33301 73 -11.333 77 -12zM29.998 648.998c0 6.66699 3.99805 10.334 11.998 11.001s32.333 0 73 -2c123.333 -6.66699 229 -17.334 317 -32.001c26 -4.66699 57.833 -6.83398 95.5 -6.50098s68.834 3.16602 93.501 8.49902c26.667 6 48.667 6.33301 66 1
c12.667 -3.33301 21.167 -6.66602 25.5 -9.99902s4 -6.16602 -1 -8.49902s-14.167 -3.5 -27.5 -3.5c-20.667 -1.33301 -38 -4 -52 -8c-26.667 -6 -69.667 -9.16699 -129 -9.5s-101.666 5.83398 -126.999 18.501c-4 6 -6 6 -6 0c0 -5.33301 -5 -7 -15 -5
c-14 2.66699 -36.333 5.16699 -67 7.5s-66 4.5 -106 6.5s-66.667 3.66699 -80 5c-10.667 0.666992 -18.334 1.16699 -23.001 1.5s-9 0.166016 -13 -0.500977s-6.33301 -1.66699 -7 -3s-1 -3.33301 -1 -6c-0.666992 -6.66699 -3 -8 -7 -4c-1.33301 2 -3.66602 5 -6.99902 9
c-9.33301 10.667 -14 20.667 -14 30z" />
    <glyph glyph-name="C" unicode="C" horiz-adv-x="887" 
d="M857 640c0 -6.66699 -2.8252 -14.835 -8.49219 -24.502s-9.83398 -13.834 -12.501 -12.501c-1.33301 1.33301 -2.83301 1.33301 -4.5 0s-2.5 -3.33301 -2.5 -6c0 -6.66699 -10.167 -11.667 -30.5 -15s-35.166 -2.66602 -44.499 2.00098
c-9.33301 5.33301 -15.333 5.33301 -18 0c-3.33301 -5.33301 -11 -4 -23 4c-13.333 8.66699 -32.333 15.834 -57 21.501s-43.667 6.83398 -57 3.50098c-14.667 -3.33301 -27.667 -4.33301 -39 -3c-8 1.33301 -13 0 -15 -4c-1.33301 -3.33301 0.666992 -5.66602 6 -6.99902
c4.66699 0 20.667 -13.667 48 -41s43.666 -45.666 48.999 -54.999c5.33301 -11.333 7.83301 -22.5 7.5 -33.5s-3.5 -16.5 -9.5 -16.5s-11.667 7.66699 -17 23c-6 17.333 -16.833 34.5 -32.5 51.5s-32.167 29.5 -49.5 37.5c-20 9.33301 -48 12.666 -84 9.99902
c-22 -0.666992 -40.5 -2.5 -55.5 -5.5s-26.833 -6.16699 -35.5 -9.5s-16.334 -8.83301 -23.001 -16.5s-11.667 -14.5 -15 -20.5s-8 -15.667 -14 -29s-12 -25 -18 -35c-18 -32 -29.333 -56 -34 -72s-6.33398 -38.333 -5.00098 -67c1.33301 -34 3.5 -57.833 6.5 -71.5
s9.83301 -29.5 20.5 -47.5c20.667 -34.667 43 -59.167 67 -73.5s56.333 -23.166 97 -26.499c36 -2.66699 62.667 0.666016 80 9.99902c40 20 73.667 58.333 101 115c18.667 38.667 32.334 58 41.001 58c2.66699 0 5.33398 -2 8.00098 -6c4 -6 6 -13.167 6 -21.5
s-2 -12.5 -6 -12.5s-5 -4.33301 -3 -13c1.33301 -5.33301 1.5 -8.66602 0.5 -9.99902s-4.16699 -1.33301 -9.5 0c-6 2 -9 2.33301 -9 1c0 -0.666992 1.33301 -2.33398 4 -5.00098c6 -2.66699 5 -12.667 -3 -30s-13.667 -26 -17 -26
c-2.66699 -0.666992 -3.5 -2.33398 -2.5 -5.00098s1.16699 -5 0.5 -7s-3 -2.66699 -7 -2c-2.66699 0 -4.83398 -0.666992 -6.50098 -2s-1.83398 -2.66602 -0.500977 -3.99902c2.66699 -4 -2.66602 -11.667 -15.999 -23s-27.333 -20 -42 -26
c-6 -2.66699 -10.833 -5.66699 -14.5 -9s-5.16699 -6 -4.5 -8c1.33301 -5.33301 18.666 -10.333 51.999 -15s53.333 -5 60 -1c8 4 29.167 7.16699 63.5 9.5s59.166 2.16602 74.499 -0.500977c11.333 -2 20.166 -6.5 26.499 -13.5s7.16602 -12.833 2.49902 -17.5
c-2.66699 -2.66699 -26.667 -4.66699 -72 -6c-44 -0.666992 -68.667 -4.33398 -74 -11.001c-6.66699 -6.66699 -23.667 -7.16699 -51 -1.5s-44.333 10.167 -51 13.5c-10 4 -31 4.33301 -63 1c-30.667 -3.33301 -93 -4.66602 -187 -3.99902s-144 2.66699 -150 6
c-5.33301 3.33301 -25 3 -59 -1c-51.333 -6 -79.333 -8.33301 -84 -7c-6 1.33301 -9.66699 9.66602 -11 24.999c-0.666992 4.66699 -1 8 -1 10c30 0 66.667 0.666992 110 2s80.333 2 111 2s65 -1.33301 103 -4c66.667 -3.33301 105 -3 115 1c8.66699 4 9.33398 6 2.00098 6
h-21c-30 -2 -60.167 5.16699 -90.5 21.5s-50.833 32.833 -61.5 49.5c-2 8 -8.66699 15.667 -20 23c-13.333 9.33301 -25.5 31.833 -36.5 67.5s-16.833 72.834 -17.5 111.501c-0.666992 31.333 -0.166992 52.333 1.5 63s7.16699 24.334 16.5 41.001
c7.33301 14 17.666 31.333 30.999 52s23 37.667 29 51c5.33301 12 15.666 24.5 30.999 37.5s28.333 19.5 39 19.5c8.66699 0 13 2 13 6c0 9.33301 -18 14 -54 14c-20.667 0 -53.334 4 -98.001 12s-69.667 14 -75 18c-14 10.667 -11.667 17.667 7 21
c32 6.66699 133 -1 303 -23c37.333 -4.66699 67.666 -5 90.999 -1c50.667 8.66699 91.334 4.33398 122.001 -12.999c16.667 -8.66699 38 -14.334 64 -17.001s48 0.666016 66 9.99902c8 6 15.667 10.167 23 12.5s13 3 17 2s6 -3.5 6 -7.5z" />
    <glyph glyph-name="D" unicode="D" horiz-adv-x="804" 
d="M493 533c-30.667 15.333 -52.499 24.667 -65.499 28s-33.5 5.33301 -61.5 6c-44 0.666992 -83.333 -3 -118 -11c0.666992 -32 3.5 -76.833 8.5 -134.5s7.16699 -114.167 6.5 -169.5c0.666992 -58.667 1.66699 -95 3 -109s5 -23.333 11 -28
c9.33301 -7.33301 48.166 -11 116.499 -11s110.833 3.66699 127.5 11c14.667 6 29.334 22.5 44.001 49.5s27 60.167 37 99.5c15.333 60 14.666 113 -2.00098 159c-12 32 -23.833 54 -35.5 66s-35.5 26.667 -71.5 44zM220.001 472.001
c-3.33301 6 -6.00293 19.6699 -8.00293 41.0029s-5.33301 35 -10 41c-6.66699 8.66699 -6.66699 16.667 0 24c4.66699 6 4 10.333 -2 13c-4 1.33301 -11.667 3.66602 -23 6.99902c-22.667 6 -38.334 7.66699 -47.001 5c-6.66699 -2.66699 -13.5 -1 -20.5 5
s-11.167 13.667 -12.5 23c-0.666992 3.33301 0.333008 5.66602 3 6.99902s7.83398 2 15.501 2s17.334 -0.5 29.001 -1.5s27.167 -2.83301 46.5 -5.5c36 -5.33301 77.667 -7.33301 125 -6c102.667 0.666992 162 -2.33301 178 -9c0 -3.33301 22.333 -5.5 67 -6.5l137 -3
c46.667 -1 71 -2.5 73 -4.5c2.66699 -2.66699 3 -7.33398 1 -14.001c-2.66699 -7.33301 -44 -11.166 -124 -11.499s-132.667 2.83398 -158 9.50098c-24 6.66699 -41.333 8 -52 4c-7.33301 -3.33301 -9 -5.66602 -5 -6.99902c2 -0.666992 6 -1.66699 12 -3
c17.333 -4.66699 40.833 -14.5 70.5 -29.5s49.167 -27.167 58.5 -36.5c35.333 -36.667 57.333 -73.334 66 -110.001c18.667 -80 9 -160.333 -29 -241c-9.33301 -20 -14.833 -34 -16.5 -42s-0.666992 -13.833 3 -17.5s11.834 -6.5 24.501 -8.5
c28.667 -3.33301 53.667 -5 75 -5c21.333 -0.666992 33.666 -1.66699 36.999 -3s4.66602 -5.66602 3.99902 -12.999c-0.666992 -10 -6 -14.667 -16 -14c-5.33301 1.33301 -26.333 3.16602 -63 5.49902s-58.667 4.5 -66 6.5c-16.667 2 -52.834 -1.5 -108.501 -10.5
s-92.5 -13.167 -110.5 -12.5c-66 2.66699 -124.667 0.833984 -176 -5.49902s-85.666 -14.5 -102.999 -24.5c-11.333 -6.66699 -18.666 -10 -21.999 -10s-10.666 3 -21.999 9c-6 3.33301 -11.167 7.16602 -15.5 11.499s-6.16602 7.16602 -5.49902 8.49902
c0.666992 5.33301 16.667 11.166 48 17.499s69 10.833 113 13.5l82 6c-0.666992 2 -4 6 -10 12l-21.5 20.5c-8.33301 7.66699 -13.5 12.5 -15.5 14.5c0 12 0.166992 49.333 0.5 112s0 116 -1 160s-2.83301 69.333 -5.5 76z" />
    <glyph glyph-name="E" unicode="E" horiz-adv-x="886" 
d="M718 102c0 -7.33301 -8.16602 -12.332 -24.499 -14.999s-46.833 -3.66699 -91.5 -3c-56 1.33301 -85.667 -0.666992 -89 -6c-1.33301 -2 11.167 -4.16699 37.5 -6.5s58.5 -4.16602 96.5 -5.49902s71.333 -2 100 -2c24.667 0.666992 39.667 0.333984 45 -0.999023
s7.66602 -4.66602 6.99902 -9.99902c-1.33301 -8.66699 -11.666 -14.834 -30.999 -18.501s-43 -4.16699 -71 -1.5c-28 3.33301 -52.333 5 -73 5c-60.667 -0.666992 -102.834 -0.166992 -126.501 1.5s-56.167 6.16699 -97.5 13.5c-52 9.33301 -131.667 16.333 -239 21
c-46 2 -69 11.333 -69 28c0 5.33301 13.833 8.33301 41.5 9s52.834 -1.33301 75.501 -6c20.667 -4.66699 33.667 -4.33398 39 0.999023c4 4 17.333 6 40 6c18.667 0 30.167 3.66699 34.5 11s3.83301 20.666 -1.5 39.999c-4 14 -6.16699 28.5 -6.5 43.5s1.5 23.833 5.5 26.5
c4 1.33301 4.66699 18 2 50c-2.66699 30 -9.33398 49.667 -20.001 59c-6.66699 6 -10.834 13.167 -12.501 21.5s-2.83398 28.166 -3.50098 59.499c-1.33301 72 5.33398 131.333 20.001 178c2 3.33301 12.167 4.66602 30.5 3.99902s36.5 -3 54.5 -7
c22.667 -5.33301 73 -8 151 -8c79.333 0.666992 122 -2.33301 128 -9c5.33301 -7.33301 6.33301 -12.666 3 -15.999c-5.33301 -4.66699 -48.5 -7 -129.5 -7s-129.833 2.33301 -146.5 7c-24.667 6.66699 -40 7.83398 -46 3.50098s-12.333 -20.833 -19 -49.5
c-14.667 -66.667 -11 -112 11 -136c8.66699 -9.33301 16.667 -14.5 24 -15.5s29.333 -0.166992 66 2.5c53.333 4 99.666 6 138.999 6c64.667 0.666992 97 -3.66602 97 -12.999c-0.666992 -4 -7.66699 -9.66699 -21 -17c-14.667 -6.66699 -35 -7.66699 -61 -3
s-69 3.66699 -129 -3c-59.333 -7.33301 -90 -12 -92 -14c-2.66699 -2.66699 -3.83398 -33.334 -3.50098 -92.001s1.83301 -92.667 4.5 -102c2.66699 -12 9.33398 -18.667 20.001 -20c44 -0.666992 110.667 0.333008 200 3c28.667 1.33301 51.334 2.16602 68.001 2.49902
s29.834 -0.166992 39.501 -1.5s16 -3 19 -5s4.5 -5 4.5 -9zM856.001 645.001c0 -10.667 -3.33301 -17.6689 -10 -21.002c-6.66699 -2 -10 -1.33301 -10 2c0 2.66699 -3 4.33398 -9 5.00098s-12.833 0.333984 -20.5 -0.999023s-13.5 -3.33301 -17.5 -6
c-3.33301 -2.66699 -8 -3.33398 -14 -2.00098s-9.33301 0.333008 -10 -3c-0.666992 -4 -12 -3 -34 3c-18.667 5.33301 -48.667 7.33301 -90 6c-70.667 -2 -113.334 -0.333008 -128.001 5c-11.333 3.33301 -17.666 3.33301 -18.999 0
c-0.666992 -4 -30.334 -7.66699 -89.001 -11c-90 -4 -137.667 -7.66699 -143 -11c-9.33301 -3.33301 -29.833 -7 -61.5 -11s-50.167 -6.66699 -55.5 -8c-12.667 -2.66699 -26.667 -4.66699 -42 -6s-26.333 -2.66602 -33 -3.99902
c-6.66699 -2.66699 -15 0.166016 -25 8.49902s-15 16.833 -15 25.5c0 6.66699 14.667 10 44 10c22 0.666992 46.333 3.33398 73 8.00098s50.334 7.66699 71.001 9c26 2 54.667 5.33301 86 10s48 8 50 10c32 1.33301 72.667 1.83301 122 1.5s112 -0.833008 188 -1.5
s116.667 -1 122 -1c36 -0.666992 56.667 -1.5 62 -2.5s8 -5.83301 8 -14.5z" />
    <glyph glyph-name="F" unicode="F" horiz-adv-x="870" 
d="M541 303c-28 -2.66699 -48.001 -4.32715 -60.001 -4.99414s-20.167 -0.833984 -24.5 -0.500977s-7 1 -8 2s-5.66699 2 -14 3s-21.166 1.83301 -38.499 2.5c-34.667 1.33301 -52 0.666016 -52 -2.00098c0 -6 -3.33301 -31.667 -10 -77
c-6.66699 -49.333 -9.16699 -84.5 -7.5 -105.5s7.83398 -33.5 18.501 -37.5c12 -4.66699 63.667 -4.33398 155 0.999023s172 12.666 242 21.999c41.333 5.33301 68.666 5.33301 81.999 0c23.333 -10 20.333 -17.333 -9 -22l-10 -1c-92 -14.667 -184.667 -26 -278 -34
c-27.333 -5.33301 -67.666 -6.33301 -120.999 -3s-90 4.66602 -110 3.99902c-25.333 0 -54.833 -2.5 -88.5 -7.5s-51.834 -9.83301 -54.501 -14.5c-12 -10 -28.667 -9.66699 -50 1c-18 8 -23.333 16.333 -16 25l2 2c12 11.333 75 22 189 32c0 49.333 2 78 6 86
c2.66699 2.66699 3.33398 10.334 2.00098 23.001s-0.666016 19.334 2.00098 20.001c4 0 7.33301 19 10 57c4.66699 82 10.667 123 18 123c4 0 6.16699 8.16699 6.5 24.5s-1.16699 36.166 -4.5 59.499s-7.66602 44.333 -12.999 63c-2 7.33301 3 12.333 15 15
c15.333 3.33301 68.666 6 159.999 8c97.333 3.33301 146.666 5.66602 147.999 6.99902s9.33301 1 24 -1s23 -4 25 -6c3.33301 -3.33301 0.333008 -6.33301 -9 -9l-40 -8c-24 -4.66699 -68.333 -9.5 -133 -14.5s-108 -9.16699 -130 -12.5
c-4.66699 0 -6.33398 -14.667 -5.00098 -44c2 -37.333 -1.33301 -84.666 -10 -141.999c30 -6.66699 107.333 -9.33398 232 -8.00098c12 1.33301 19.667 0.333008 23 -3c11.333 -10.667 -10 -18.334 -64 -23.001zM308.999 596.007c-2.66699 2 -4.66797 0 -6.00098 -6
c-1.33301 -5.33301 -3.66602 -4.66602 -6.99902 2.00098c-3.33301 5.33301 -5.66602 6 -6.99902 2c0.666992 -2.66699 -0.833008 -4.5 -4.5 -5.5s-7.33398 -1.16699 -11.001 -0.5s-5.5 2 -5.5 4c0 1.33301 -8.33301 2 -25 2s-28 -1 -34 -3
c-36.667 -9.33301 -73 -14.333 -109 -15s-54 3.33301 -54 12c0 7.33301 -4.33301 13 -13 17c-4.66699 3.33301 -3 5 5 5c4 0.666992 13 0.666992 27 0c28.667 -1.33301 43 0 43 4c0 3.33301 7.66699 5 23 5c56 1.33301 107.833 4.5 155.5 9.5s99.167 8.16699 154.5 9.5
c74.667 1.33301 135 4.33301 181 9c31.333 3.33301 61.666 3.83301 90.999 1.5s50 -6.5 62 -12.5c10 -5.33301 13 -8.33301 9 -9c-4.66699 -1.33301 -32 -1.66602 -82 -0.999023c-39.333 0 -71.666 -2 -96.999 -6c-22.667 -4 -37 -4 -43 0c-5.33301 5.33301 -9 5 -11 -1
c-2 -6.66699 -40.667 -10.334 -116 -11.001c-77.333 -1.33301 -116.333 -4.33301 -117 -9c-0.666992 -2 -2 -3.33301 -4 -4s-3.66699 -0.333984 -5 0.999023z" />
    <glyph glyph-name="G" unicode="G" horiz-adv-x="891" 
d="M218 474c0 -13.333 -3.33008 -20.998 -9.99707 -22.998c-10.667 -4 -18.667 -26 -24 -66s-3.33301 -62.667 6 -68c4.66699 -4.66699 6 -12.334 4 -23.001c-2.66699 -12.667 -0.333984 -31.834 6.99902 -57.501s16.666 -46.834 27.999 -63.501
c13.333 -19.333 35 -35.666 65 -48.999c20 -9.33301 35.833 -15.333 47.5 -18s29.5 -3.66699 53.5 -3s41.833 2.33398 53.5 5.00098s27.167 8.66699 46.5 18c32 15.333 52.333 27.333 61 36c10.667 9.33301 20.667 26.666 30 51.999s13.333 45 12 59
c-1.33301 11.333 -3.66602 18.5 -6.99902 21.5s-12.333 5.83301 -27 8.5c-28.667 5.33301 -59.334 4.66602 -92.001 -2.00098c-8.66699 -2 -13 -4 -13 -6c0 -0.666992 0.666992 -1.33398 2 -2.00098c6 -3.33301 7.66699 -7 5 -11
c-3.33301 -3.33301 -13 -3.16602 -29 0.500977s-28 8.16699 -36 13.5c-6.66699 5.33301 -8 9 -4 11c2.66699 1.33301 10 3.66602 22 6.99902c76.667 21.333 142 21.666 196 0.999023c8 -3.33301 13.167 -7 15.5 -11s3.5 -11.667 3.5 -23c0 -34.667 -9 -67.667 -27 -99
s-40.667 -53.666 -68 -66.999l-33 -16c34 -0.666992 71.167 -2.33398 111.5 -5.00098s80.5 -4.33398 120.5 -5.00098c81.333 -3.33301 122.333 -10 123 -20c0 -2 -1.66699 -4.66699 -5 -8c-5.33301 -5.33301 -94 -6.66602 -266 -3.99902
c-305.333 3.33301 -476.333 3 -513 -1c-21.333 -2.66699 -34.5 -3.5 -39.5 -2.5s-7.5 4.5 -7.5 10.5c0 10.667 7.5 18.167 22.5 22.5s46.167 7.5 93.5 9.5c50 2 83 4.33301 99 7c6 1.33301 -2.33301 14.333 -25 39c-17.333 18 -29.666 35.333 -36.999 52
s-14.333 42.667 -21 78c-3.33301 18 -9 42 -17 72c-4.66699 19.333 -6.83398 32.333 -6.50098 39s3.83301 16.334 10.5 29.001c8.66699 18.667 13 31 13 37c0 7.33301 9.5 24.833 28.5 52.5s34.833 46.834 47.5 57.501c5.33301 4.66699 12.5 9.33398 21.5 14.001
s16.833 8 23.5 10l28.5 8.5c12.333 3.66699 20.5 6.16699 24.5 7.5c13.333 4 35.333 6 66 6c20 2 37.667 0.5 53 -4.5s31.166 -12.5 47.499 -22.5s28.833 -16.667 37.5 -20c28.667 -12.667 47 -42 55 -88c4 -21.333 1 -32.333 -9 -33c-9.33301 0 -17 9.33301 -23 28
c-0.666992 2.66699 -1.33398 5.66699 -2.00098 9c-7.33301 37.333 -33.333 67.333 -78 90c-19.333 9.33301 -33.833 15 -43.5 17s-23.167 2 -40.5 0c-77.333 -9.33301 -129.666 -29 -156.999 -59c-16 -18 -24 -34 -24 -48zM415.003 660.002
c23.333 3.33301 40.9971 3.33105 52.9971 -0.00195312c47.333 -13.333 124 -20.666 230 -21.999c63.333 -0.666992 98 -4 104 -10c5.33301 -5.33301 7 -9 5 -11c-3.33301 -3.33301 -45.333 -4.66602 -126 -3.99902s-127.667 2.66699 -141 6
c-37.333 5.33301 -69.666 7.33301 -96.999 6s-66.5 -4.16602 -117.5 -8.49902s-88.5 -6.5 -112.5 -6.5c-35.333 -1.33301 -58.666 -1.5 -69.999 -0.5s-17.666 3.5 -18.999 7.5c-4 11.333 -0.5 19 10.5 23s33.5 6.33301 67.5 7c90 1.33301 161 5.66602 213 12.999z" />
    <glyph glyph-name="H" unicode="H" horiz-adv-x="862" 
d="M496 106c8.66699 0.666992 16.332 -1.33301 22.999 -6s13 -7.33398 19 -8.00098c7.33301 0 11.333 2.5 12 7.5s-0.333008 20.5 -3 46.5c-5.33301 53.333 -7.33301 113.333 -6 180c-7.33301 0 -26.833 -0.166992 -58.5 -0.5s-54.5 -0.333008 -68.5 0s-33.167 1 -57.5 2
s-45.166 2.83301 -62.499 5.5s-33 6 -47 10c2.66699 -105.333 5.66699 -167.333 9 -186c2 -7.33301 35.667 -13.666 101 -18.999c11.333 -0.666992 23 -3.16699 35 -7.5s24.667 -6.83301 38 -7.5s25.333 -3.5 36 -8.5s20.667 -7.83301 30 -8.5zM793.998 51
c0 -5.33301 -1.83301 -8.66211 -5.5 -9.99512s-11.5 -1.66602 -23.5 -0.999023c-4.66699 0.666992 -24.834 1.66699 -60.501 3s-69.5 3.16602 -101.5 5.49902s-50.333 5.16602 -55 8.49902c-6.66699 3.33301 -22.667 6.16602 -48 8.49902s-42 5.5 -50 9.5
c-14 5.33301 -36 11 -66 17c-32.667 4.66699 -91.667 7 -177 7s-144.333 -3 -177 -9v17.5c0 5 0.166992 9.33301 0.5 13s1.5 6.66699 3.5 9s5.5 4 10.5 5s12.167 1.83301 21.5 2.5c54.667 5.33301 102 8.66602 142 9.99902c4.66699 0.666992 6 31.667 4 93
c-8 220 -10 336.667 -6 350c2 6 7.33301 8.33301 16 7c5.33301 -1.33301 8.83301 -5 10.5 -11s2.83398 -18 3.50098 -36c0 -14.667 0.166992 -40.334 0.5 -77.001s0.5 -63 0.5 -79c51.333 -21.333 104.666 -34 159.999 -38l33.5 -3.5
c9.66699 -1 18.834 -1.16699 27.501 -0.5s15.167 1 19.5 1s10.5 1 18.5 3s13.167 3.33301 15.5 4s8.33301 2.66699 18 6s16.167 5.66602 19.5 6.99902c8 94.667 12 149 12 163s0.5 25 1.5 33s2.5 14.333 4.5 19s4.5 6.83398 7.5 6.50098s7.16699 -1.5 12.5 -3.5
c15.333 -8 17 -61.667 5 -161c-5.33301 -40.667 -5.33301 -64.334 0 -71.001c5.33301 -6 5.66602 -18 0.999023 -36c-3.33301 -13.333 -5.16602 -55.833 -5.49902 -127.5s1.16699 -109.167 4.5 -112.5c0 -1.33301 16.333 -3 49 -5l97.5 -6c32.333 -2 48.5 -3.66699 48.5 -5
c4.66699 -2 7 -7.33301 7 -16zM29.998 632.004c-1.33301 7.33301 2.00098 12.1709 10.001 14.5039s20.5 3.16602 37.5 2.49902s25.833 -1 26.5 -1c14 -1.33301 22.333 0 25 4c1.33301 2.66699 6 4.5 14 5.5s15.5 1 22.5 0s10.5 -2.5 10.5 -4.5
c0 -3.33301 5.33301 -3.33301 16 0c8.66699 3.33301 23.834 4.66602 45.501 3.99902s39.167 -2.66699 52.5 -6c11.333 -2 18.333 -1.33301 21 2c4 2.66699 14.667 3 32 1s35.833 -4.33301 55.5 -7s29.5 -3.33398 29.5 -2.00098c3.33301 2 23.666 2.83301 60.999 2.5
s63.666 -1.83301 78.999 -4.5c42.667 -6 73.5 -9.33301 92.5 -10s43.167 1 72.5 5c42 6 68.333 10.333 79 13c9.33301 3.33301 15.666 1.5 18.999 -5.5s1.33301 -13.5 -6 -19.5c-4.66699 -2.66699 -6.66699 -6.5 -6 -11.5s-0.666016 -7.83301 -3.99902 -8.5
c-2.66699 0 -5 2.33301 -7 7s-6.33301 5.66699 -13 3c-10 -2.66699 -16 -1.33398 -18 3.99902c-4 6 -7.33301 6 -10 0c-3.33301 -5.33301 -37.833 -9.5 -103.5 -12.5s-113.5 -2.83301 -143.5 0.5c-60.667 6.66699 -224 9 -490 7v17z" />
    <glyph glyph-name="I" unicode="I" horiz-adv-x="648" 
d="M607 658c17.333 -8 15.001 -20.665 -6.99902 -37.998c-16 -12 -27.333 -17 -34 -15c-6 4.66699 -29.333 9 -70 13s-71 5.33301 -91 4c-16 0 -26.167 -1.66699 -30.5 -5s-5.5 -8 -3.5 -14s1.33301 -13.333 -2 -22c-4.66699 -2.66699 -7.83398 -59 -9.50098 -169
s-0.833984 -194 2.49902 -252c1.33301 -25.333 2.83301 -41.833 4.5 -49.5s4.83398 -11.5 9.50098 -11.5c7.33301 0 12.666 -1.66699 15.999 -5c2.66699 -2.66699 28 -4.66699 76 -6c16.667 -0.666992 36 -1.33398 58 -2.00098c22.667 0 36.167 -0.833008 40.5 -2.5
s8.16602 -6.83398 11.499 -15.501c2 -6 4 -11 6 -15c-1.33301 -1.33301 -11 -1.83301 -29 -1.5s-41.333 1.16602 -70 2.49902c-47.333 2.66699 -139.333 4.66699 -276 6c-117.333 0 -177 3 -179 9c-1.33301 6 2 10.667 10 14c10.667 4.66699 48.834 9.16699 114.501 13.5
s119.5 5.83301 161.5 4.5c0 222.667 2.66699 338 8 346c6 6.66699 8.33301 37.667 7 93c-0.666992 39.333 -1.66699 63 -3 71s-5.33301 11.667 -12 11c-8.66699 -1.33301 -36.667 -3.66602 -84 -6.99902s-75.333 -5.33301 -84 -6c-19.333 -2.66699 -30.333 -1.66699 -33 3
c-2 4.66699 -16 7 -42 7c-17.333 0 -28 0.833008 -32 2.5s-5.33301 6.16699 -4 13.5c0.666992 6 2.66699 10 6 12s10 3.33301 20 4c143.333 0 220 3.66699 230 11c5.33301 3.33301 56.333 4.5 153 3.5s150.334 -3.5 161.001 -7.5z" />
    <glyph glyph-name="J" unicode="J" 
d="M520 600c0 -173.333 -1.33398 -266.334 -4.00098 -279.001c-3.33301 -13.333 -8.66602 -47.333 -15.999 -102s-13 -88 -17 -100c-1.33301 -8.66699 -5.33301 -16.5 -12 -23.5s-12.667 -10.5 -18 -10.5c-6.66699 0 -10 -2.33301 -10 -7s11.833 -6.66699 35.5 -6
s49.5 3.66699 77.5 9c45.333 9.33301 68 7 68 -7c0 -16 -37.333 -26.167 -112 -30.5s-136.667 0.166992 -186 13.5c-26.667 6.66699 -51.334 11 -74.001 13s-36.334 0.666992 -41.001 -4c-6.66699 -3.33301 -15.834 -5.66602 -27.501 -6.99902s-25.5 -2.33301 -41.5 -3
s-28.667 -1.66699 -38 -3c-28 -2.66699 -48.667 -0.333984 -62 6.99902c-9.33301 6 -12.666 9.33301 -9.99902 10c0.666992 0.666992 2 1 4 1c7.33301 0 11 2 11 6c0 6.66699 50.667 12.667 152 18c49.333 2.66699 74.666 5 75.999 7c2 2 -5.33301 11 -22 27
c-26 27.333 -39 46 -39 56c0 2.66699 4.33301 4 13 4s28 -15 58 -45c24.667 -24 44.834 -39 60.501 -45s32.167 -4.66699 49.5 4c12 6 21.333 9 28 9c8 0 14.333 8.16699 19 24.5s11.667 51.833 21 106.5c10 57.333 15 178 15 362c-4 0 -29.167 2.83301 -75.5 8.5
s-80.5 6.83398 -102.5 3.50098c-17.333 -4 -46.666 -4.83301 -87.999 -2.5s-64.333 5.83301 -69 10.5c-5.33301 5.33301 -6.33301 11.666 -3 18.999c2.66699 8.66699 18.667 11.667 48 9c16.667 -2 41.834 -1.5 75.501 1.5s58.5 3.5 74.5 1.5
c6 -0.666992 25.333 -2.33398 58 -5.00098s62.5 -5.5 89.5 -8.5s45.167 -5.83301 54.5 -8.5c15.333 -4.66699 40 -7.16699 74 -7.5s57 1.83398 69 6.50098c12.667 5.33301 23.334 4 32.001 -4c6 -6 9 -10.333 9 -13s-3.66699 -7.66699 -11 -15
c-6 -6.66699 -12.833 -10.667 -20.5 -12s-25.5 -1.66602 -53.5 -0.999023c-48.667 2 -88.334 6 -119.001 12z" />
    <glyph glyph-name="K" unicode="K" horiz-adv-x="890" 
d="M818 2c0 -18 -30.667 -21.3311 -92 -9.99805c-30.667 6 -81.667 6.66699 -153 2c-50 -2.66699 -92.667 -3.33398 -128 -2.00098s-95 6.33301 -179 15c-42.667 4 -84 5 -124 3c-32.667 -1.33301 -52.5 -1.5 -59.5 -0.5s-11.167 5.16699 -12.5 12.5
c-2.66699 9.33301 -7 14 -13 14c-11.333 0 -12 9.66699 -2 29c2.66699 6 6.16699 9.5 10.5 10.5s12.5 0.833008 24.5 -0.5c28.667 -2.66699 88.167 -6 178.5 -10s156.5 -8 198.5 -12c54 -4.66699 113 -7.5 177 -8.5s105.667 -1.83301 125 -2.5
c42.667 -4 63.667 -9.33301 63 -16c0 -2 -2 -4.33301 -6 -7c-5.33301 -2.66699 -8 -8.33398 -8 -17.001zM554 594.002c-17.333 2 -66.333 5.16602 -147 9.49902s-131 8.16602 -151 11.499c4 -32.667 10.333 -61.667 19 -87c7.33301 -21.333 8 -35.666 2 -42.999
c-5.33301 -6 -10.166 -36.167 -14.499 -90.5s-4.5 -86.833 -0.5 -97.5c1.33301 -4 2.33301 -6.5 3 -7.5s1.66699 -1.5 3 -1.5s2.66602 0.666992 3.99902 2l8 8c4.66699 4 15.334 16.5 32.001 37.5s27.667 33.167 33 36.5c9.33301 7.33301 30.666 27.333 63.999 60
s54 52.334 62 59.001c12.667 12 29.667 31.167 51 57.5s32 41.5 32 45.5zM860 609.001c0 -4.66699 -2.33301 -7.33496 -7 -8.00195s-14.667 0 -30 2c-26.667 4 -68.334 5.5 -125.001 4.5s-85.667 -3.83301 -87 -8.5c-2.66699 -9.33301 -21.334 -33.5 -56.001 -72.5
s-64.667 -70.167 -90 -93.5c-37.333 -33.333 -55 -53.333 -53 -60c4 -7.33301 8.66699 -11 14 -11c6 0 13.333 -7.33301 22 -22c12 -17.333 29.667 -36.333 53 -57c50.667 -44.667 96.834 -88.667 138.501 -132s61.167 -68.333 58.5 -75c-1.33301 -6 -8 -9.66699 -20 -11
c-12.667 -0.666992 -23.334 4.66602 -32.001 15.999c-19.333 27.333 -62.5 75.333 -129.5 144s-108.5 107.334 -124.5 116.001c-11.333 6 -20.333 6.5 -27 1.5s-19.334 -21.167 -38.001 -48.5c-17.333 -25.333 -33.666 -46.333 -48.999 -63
c-11.333 -12 -17.833 -21.167 -19.5 -27.5s-1.83398 -21.166 -0.500977 -44.499c1.33301 -16.667 2 -29.167 2 -37.5s-1 -14.666 -3 -18.999s-4.66699 -6.33301 -8 -6s-8.66602 2.5 -15.999 6.5l-21 10c8.66699 232 12.334 397.333 11.001 496c-104 0 -163 -2 -177 -6
c-8.66699 -2.66699 -13.667 -3.5 -15 -2.5s-1.33301 5.5 0 13.5c2 11.333 10.333 19.333 25 24c13.333 5.33301 73 7 179 5c84.667 -2 208.334 -3.66699 371.001 -5c110 -0.666992 179.833 -2.66699 209.5 -6s44.5 -11 44.5 -23z" />
    <glyph glyph-name="L" unicode="L" horiz-adv-x="781" 
d="M307 572c0 9.33301 5.32812 13.0029 15.9951 11.0029c10.667 -0.666992 16.334 -8.33398 17.001 -23.001c0.666992 -9.33301 3.33398 -28.666 8.00098 -57.999s8.5 -57.5 11.5 -84.5s4.16699 -49.833 3.5 -68.5c-0.666992 -53.333 0.5 -105.666 3.5 -156.999
s6.16699 -78.666 9.5 -81.999c2.66699 -2.66699 9.16699 -4.83398 19.5 -6.50098s25.833 -2.83398 46.5 -3.50098s38.334 -1.16699 53.001 -1.5s38.167 -0.333008 70.5 0s54.833 0.5 67.5 0.5c8.66699 0 22.334 -2.83301 41.001 -8.5s33.667 -8.83398 45 -9.50098
c21.333 -2.66699 32 -7.33398 32 -14.001c0 -7.33301 -5.16699 -12.833 -15.5 -16.5s-17.166 -2.5 -20.499 3.5s-40.333 9 -111 9c-21.333 -0.666992 -114 -0.833984 -278 -0.500977s-254.333 -0.5 -271 -2.5c-11.333 -3.33301 -18.666 -2 -21.999 4
c-6.66699 10.667 0.333008 17.667 21 21c19.333 2.66699 55.666 4.33398 108.999 5.00098c56 0.666992 90.5 1.5 103.5 2.5s21.5 4.5 25.5 10.5c5.33301 6 11.666 9.16699 18.999 9.5s12.166 3 14.499 8s3.5 17.833 3.5 38.5c0.666992 20 -0.666016 53.833 -3.99902 101.5
s-3.66602 85.167 -0.999023 112.5c2 17.333 1.83301 38.666 -0.5 63.999s-5.5 52.333 -9.5 81s-6.33301 46.667 -7 54zM723.995 638.003c0 -6 -21.334 -7 -64.001 -3c-46 4 -86 3 -120 -3c-42 -6 -136 -8.66699 -282 -8c-150 0.666992 -225 5.33398 -225 14.001
c0 5.33301 3.83301 9 11.5 11s26.834 3.66699 57.501 5c45.333 0.666992 119.333 0.166992 222 -1.5s193 -0.833984 271 2.49902c86 2.66699 129 -3 129 -17z" />
    <glyph glyph-name="M" unicode="M" horiz-adv-x="843" 
d="M213 488c-2.66699 0 -4.33105 -6.83105 -4.99805 -20.498s-1 -49.834 -1 -108.501c-1.33301 -73.333 -3.66602 -136 -6.99902 -188c-0.666992 -5.33301 -1.33398 -12.333 -2.00098 -21c-2.66699 -35.333 -1.33398 -56 3.99902 -62c6 -6 24.667 -10.333 56 -13
c8 -0.666992 14 -1 18 -1c30.667 -2.66699 50.667 -1.66699 60 3s17.666 17.667 24.999 39c4 12 4.16699 25.167 0.5 39.5s-13.5 38.166 -29.5 71.499c-6 12 -23 51.5 -51 118.5s-50.667 114.5 -68 142.5zM612.003 210.002c0.666992 29.333 3.33203 70.999 7.99902 124.999
s7 94.333 7 121c0 46 -3.66699 67.333 -11 64l-5 -8c-3.33301 -7.33301 -8.66602 -11 -15.999 -11c-4.66699 0 -15.667 -15.5 -33 -46.5s-26 -50.833 -26 -59.5c-2.66699 -8.66699 -13.667 -34.167 -33 -76.5s-30.333 -68.166 -33 -77.499
c-8.66699 -24 -19.667 -50.333 -33 -79c-14.667 -30 -19.667 -50.667 -15 -62c2.66699 -8 6 -13 10 -15s11 -2.66699 21 -2c6 0.666992 55.667 0 149 -2c6 25.333 9.33301 68.333 10 129zM608.001 608.001c-11.333 6.66699 -53.333 4.33105 -126 -7.00195
s-116 -16.666 -130 -15.999c-41.333 -1.33301 -72 -3 -92 -5h-3c-18.667 -2 -28.667 -6 -30 -12c-1.33301 -7.33301 9.66699 -36 33 -86v-1l1 -1l1 -2l4 -9c10 -20 30 -66.5 60 -139.5s52 -119.5 66 -139.5c4.66699 -9.33301 13 -1.33301 25 24c10 21.333 15 34.333 15 39
c0 8.66699 4.33301 20.334 13 35.001c9.33301 17.333 28 58.5 56 123.5s48 114.167 60 147.5c5.33301 14 9.66602 23 12.999 27s7.33301 5.33301 12 4c4 -0.666992 8.33301 0 13 2s7.83398 4.5 9.50098 7.5s1.5 5.83301 -0.5 8.5zM804.001 625.998
c-4 -3.33301 -7.5 -9.16895 -10.5 -17.502s-8.16699 -13.833 -15.5 -16.5c-16.667 -6 -21.334 -5 -14.001 3c4 5.33301 12.667 13.333 26 24c-47.333 2 -92.666 -0.666992 -135.999 -8c-10 -2 -14.667 -3.66699 -14 -5c4 -6 7.83301 -29.167 11.5 -69.5
s5.83398 -62.5 6.50098 -66.5c1.33301 -19.333 0 -79.333 -4 -180s-8.33301 -171 -13 -211c72.667 -4 116.334 -4.33301 131.001 -1c23.333 6 35 1.66699 35 -13c0 -8.66699 -13.833 -15.667 -41.5 -21s-45.167 -4.33301 -52.5 3c-4 4 -6.83301 6 -8.5 6
s-3.16699 -2 -4.5 -6c0.666992 -4 -5.33301 -6.5 -18 -7.5s-25.167 -1.16699 -37.5 -0.5s-20.5 -0.333008 -24.5 -3c-6 -3.33301 -16.333 -2.66602 -31 2.00098c-21.333 4.66699 -42.333 6.5 -63 5.5s-48.334 -2.83301 -83.001 -5.5s-60.334 -3.66699 -77.001 -3
c-143.333 2.66699 -234.333 1 -273 -5c-32.667 -4 -51.167 -4.16699 -55.5 -0.5s-6.5 17.5 -6.5 41.5h43c30 0 50.667 2.83301 62 8.5s18.333 16.5 21 32.5c6 50 8.83301 121.5 8.5 214.5s-2.83301 175.5 -7.5 247.5h-49c-23.333 0 -37.166 0.833008 -41.499 2.5
s-5.83301 6.5 -4.5 14.5c1.33301 12 3 19 5 21c2.66699 2.66699 51.667 3.33398 147 2.00098c129.333 -2 227 6.66699 293 26c14.667 3.33301 47.667 4.66602 99 3.99902s85.666 0 102.999 2c84 9.33301 116.667 4 98 -16c-0.666992 -1.33301 -2 -2.66602 -4 -3.99902z" />
    <glyph glyph-name="N" unicode="N" horiz-adv-x="814" 
d="M477 85c4 -0.666992 7.00098 -0.000976562 9.00098 1.99902s2.66699 4.33301 2 7s-2.33398 4.33398 -5.00098 5.00098c-4.66699 0 -10.334 6.33301 -17.001 19l-24 32c-12 16 -21.667 30 -29 42s-15 26.667 -23 44c-12 25.333 -28.667 55.833 -50 91.5
s-36.333 61.834 -45 78.501c-18 34.667 -42.667 72.334 -74 113.001c-16 21.333 -24.667 29 -26 23c-0.666992 -4 1.33301 -25.333 6 -64c4.66699 -30.667 6.83398 -85.334 6.50098 -164.001s-2.83301 -138.334 -7.5 -179.001c-2.66699 -23.333 -3.5 -37.5 -2.5 -42.5
s4.5 -7.5 10.5 -7.5c22 -0.666992 70.667 -1 146 -1s116.333 0.333008 123 1zM342.001 418.999c0 -2 8.33789 -18.6709 25.0049 -50.0039s24.667 -48.666 24 -51.999c0 -6.66699 2 -10 6 -10c6.66699 -6.66699 20.5 -30 41.5 -70s34.167 -63.333 39.5 -70
c15.333 -24.667 26.666 -36 33.999 -34c2.66699 1.33301 3 6.66602 1 15.999c0 12.667 3.16699 42 9.5 88s8.83301 81.333 7.5 106c-0.666992 42.667 0.5 82.5 3.5 119.5s6.5 56.833 10.5 59.5c3.33301 2.66699 2.66602 15 -2.00098 37c-8 27.333 -5.33301 41.333 8 42
c10 0.666992 18.333 -6.33301 25 -21c2 -4.66699 3.33301 -10 4 -16c0 -23.333 -1.66699 -58 -5 -104s-5.33301 -86.667 -6 -122c-0.666992 -23.333 -2 -56.666 -4 -99.999s-3 -70 -3 -80c-1.33301 -42.667 -0.666016 -67.334 2.00098 -74.001
c4.66699 -9.33301 20 -13.666 46 -12.999c2 0 19.333 1 52 3c42 1.33301 69.167 1.66602 81.5 0.999023s22.166 -4 29.499 -10c9.33301 -7.33301 12.666 -12.666 9.99902 -15.999c-3.33301 -4.66699 -8.33301 -3.33398 -15 3.99902l-4 5l-12 16l9 -39
c-10 0.666992 -35.667 1.33398 -77 2.00098s-77.5 1.5 -108.5 2.5s-49.167 2.5 -54.5 4.5c0.666992 0.666992 -4.16602 1.16699 -14.499 1.5s-24.666 0.333008 -42.999 0s-38.5 -0.833008 -60.5 -1.5c-81.333 -2.66699 -122 -0.666992 -122 6s-3 7 -9 1
c-14.667 -3.33301 -30.667 -4.83301 -48 -4.5s-44.166 2 -80.499 5s-60.5 4.5 -72.5 4.5c-13.333 -0.666992 -22.833 -0.333984 -28.5 0.999023s-9.16699 3.66602 -10.5 6.99902s-1.66602 7.83301 -0.999023 13.5s0.666992 12.834 0 21.501l65 -4
c28 -1.33301 46.333 -1.5 55 -0.5s13.667 3.83301 15 8.5c1.33301 6 1.66602 13 0.999023 21s0 16.333 2 25c3.33301 13.333 6.66602 31.5 9.99902 54.5s5.33301 47.667 6 74s-2.33301 45.833 -9 58.5c-4 7.33301 -6.66699 55.666 -8 144.999
c-0.666992 56 -0.5 92.333 0.5 109s3.83301 26.334 8.5 29.001c3.33301 2.66699 -0.5 4.5 -11.5 5.5s-29.833 1.5 -56.5 1.5h-78v25c0 12 0.833008 18.833 2.5 20.5s7.16699 1.83398 16.5 0.500977c13.333 -2.66699 46.333 -4 99 -4c225.333 0 350 -4 374 -12
c4 -1.33301 7.66699 -2.33301 11 -3s6 -1 8 -1s3 0.333008 3 1c0 2 5.66699 3.16699 17 3.5s23.166 0 35.499 -1s20.166 -2.5 23.499 -4.5c6.66699 -4 21.667 -5.33301 45 -4c7.33301 0 15 -0.5 23 -1.5s15.5 -2.66699 22.5 -5s13.167 -4.66602 18.5 -6.99902
s9.16602 -5 11.499 -8s3.16602 -5.83301 2.49902 -8.5c-1.33301 -5.33301 -8.83301 -8.16602 -22.5 -8.49902s-42.834 2.16699 -87.501 7.5c-49.333 5.33301 -123.666 9.16602 -222.999 11.499s-168.666 4.83301 -207.999 7.5c1.33301 -8.66699 3.16602 -16.667 5.49902 -24
s6.5 -15.666 12.5 -24.999l13.5 -20.5c3 -4.33301 9.83301 -13.166 20.5 -26.499l22 -27c15.333 -16 26.333 -31.667 33 -47c6 -12.667 10.667 -19 14 -19c2 0 3.5 -1.83301 4.5 -5.5l3 -11c1 -3.66699 2.83301 -5.16699 5.5 -4.5c4 0 6 -2 6 -6z" />
    <glyph glyph-name="O" unicode="O" horiz-adv-x="766" 
d="M472 539c-30.667 19.333 -60.001 30.998 -88.001 34.998c-12 2.66699 -34.167 1.33398 -66.5 -3.99902s-54.166 -10.666 -65.499 -15.999c-35.333 -18 -66.333 -53.333 -93 -106c-10 -20 -16.167 -35.667 -18.5 -47s-3.16602 -33.333 -2.49902 -66
c0 -48.667 6.66699 -93.334 20 -134.001c6 -19.333 11 -34 15 -44s9.83301 -19.833 17.5 -29.5s14.667 -16.167 21 -19.5s17.5 -6.5 33.5 -9.5s31.833 -4.83301 47.5 -5.5s38.5 -1 68.5 -1h117c23.333 18 44.666 44.667 63.999 80c7.33301 16 12.333 31.333 15 46
s4.66699 43 6 85l4 98l-29 57c-12.667 24.667 -23 41.834 -31 51.501s-19.667 19.5 -35 29.5zM568.999 466.998c8 -11.333 13.5 -23.3379 16.5 -36.0049s6.5 -23 10.5 -31c8 -15.333 11.5 -49.166 10.5 -101.499s-5.83301 -89.833 -14.5 -112.5
c-3.33301 -9.33301 -6.16602 -18 -8.49902 -26s-3.83301 -13.833 -4.5 -17.5s-2.83398 -8 -6.50098 -13s-9.16699 -10.833 -16.5 -17.5c-13.333 -12 -17 -19.5 -11 -22.5s30 -5.16699 72 -6.5c27.333 -0.666992 44.5 -2 51.5 -4s11.167 -6 12.5 -12
c1.33301 -6.66699 -1.16699 -10.667 -7.5 -12s-24.5 -2 -54.5 -2c-43.333 0 -67.333 1.66699 -72 5c-4.66699 2 -15.834 -0.166992 -33.501 -6.5s-29.167 -8.16602 -34.5 -5.49902c-9.33301 2 -32 -1.66699 -68 -11c-25.333 -6.66699 -42.666 -10.167 -51.999 -10.5
s-25 2.16699 -47 7.5c-30.667 7.33301 -50.667 11 -60 11c-6 -0.666992 -10.167 1.5 -12.5 6.5s-6.5 6.5 -12.5 4.5c-4 -3.33301 -11 -1.66602 -21 5.00098s-15.333 9.33398 -16 8.00098c0 -4 -22.667 -6 -68 -6c-46 0.666992 -72.833 1.66699 -80.5 3s-11.5 6 -11.5 14v1.5
v1.5c0 12 2 18 6 18c25.333 6 65.333 8.33301 120 7c-11.333 16 -19.166 30 -23.499 42s-9.83301 33.667 -16.5 65c-20 98.667 -23 164 -9 196c18.667 44.667 29 71.667 31 81c3.33301 12 7 18 11 18c4 2 16.5 12.833 37.5 32.5s34.833 30.5 41.5 32.5
c8.66699 4.66699 12.667 7.33398 12 8.00098c0 2 -17.333 3.33301 -52 4c-37.333 0 -56.333 -2 -57 -6c0 -1.33301 1 -4 3 -8c5.33301 -9.33301 5.66602 -13.666 0.999023 -12.999c-4.66699 0 -12 4 -22 12c-8 6.66699 -12.167 11.667 -12.5 15s2.5 11.333 8.5 24
c5.33301 11.333 9.16602 18 11.499 20s5.83301 1 10.5 -3c8 -6.66699 14 -6 18 2c4 7.33301 10.333 11.333 19 12s16 -2.66602 22 -9.99902c6 -6.66699 11.333 -8 16 -4c6 4.66699 34 8.66699 84 12c50.667 2.66699 77.334 1 80.001 -5c4 -6.66699 7.66699 -6 11 2
c4.66699 12.667 11 15 19 7c3.33301 -1.33301 17.833 -3.5 43.5 -6.5s40.5 -6.16699 44.5 -9.5c5.33301 -3.33301 14.5 -4 27.5 -2s20.167 0.333008 21.5 -5c4 -6 10 -5.66699 18 1c5.33301 7.33301 10.166 8.16602 14.499 2.49902s7.83301 -7.5 10.5 -5.5
c5.33301 2.66699 31.666 4.66699 78.999 6h29c22.667 0 36 -1.16699 40 -3.5s6.33301 -9.5 7 -21.5v-6c-4 -6 -37.5 -10.5 -100.5 -13.5s-102.833 -1.83301 -119.5 3.5c-8.66699 2.66699 -13 0 -13 -8c0.666992 -9.33301 5.66699 -17 15 -23
c8.66699 -6.66699 18.334 -20.834 29.001 -42.501s18.334 -35.5 23.001 -41.5z" />
    <glyph glyph-name="P" unicode="P" horiz-adv-x="747" 
d="M412 564c-13.333 -0.666992 -28.665 0 -45.998 2c-11.333 2.66699 -29.333 1.16699 -54 -4.5s-39.334 -11.5 -44.001 -17.5s-7.33398 -32.5 -8.00098 -79.5s1 -79.833 5 -98.5c2 -10 6 -16.167 12 -18.5s25.333 -5.5 58 -9.5c126 -16 194.667 -1.33301 206 44
c4 16.667 5.5 37.334 4.5 62.001s-3.83301 40 -8.5 46c-13.333 13.333 -30.333 27.666 -51 42.999c-18.667 14 -32.167 22.833 -40.5 26.5s-19.5 5.16699 -33.5 4.5zM276.001 606c0 -4.66699 5.66309 -7.6582 16.9961 -8.99121s36 -2 74 -2h91
c1.33301 -1.33301 7.5 -7 18.5 -17s20.333 -18.167 28 -24.5s13.167 -9.83301 16.5 -10.5c7.33301 -2 26.333 -18.667 57 -50c0 -78.667 -3 -124.334 -9 -137.001c-4 -10.667 -18.333 -22.334 -43 -35.001c-16 -8 -30.167 -13 -42.5 -15s-34.166 -2.66699 -65.499 -2
c-65.333 1.33301 -101.666 2.33301 -108.999 3c-24.667 1.33301 -39 0 -43 -4c-4.66699 -8.66699 -8.33398 -64 -11.001 -166c41.333 -4 105.833 -8.83301 193.5 -14.5s138.834 -9.16699 153.501 -10.5c0 -1.33301 6.16699 -2.16602 18.5 -2.49902s25.333 0 39 1
s21.834 2.5 24.501 4.5c6.66699 6.66699 13.667 5.66699 21 -3s11.333 -16 12 -22c-3.33301 -3.33301 -16.833 -5.5 -40.5 -6.5s-54.667 -0.666992 -93 1s-74 3.33398 -107 5.00098s-70 3.83398 -111 6.50098s-66.167 4.33398 -75.5 5.00098
c-40 1.33301 -81.667 4.66602 -125 9.99902c-24 3.33301 -40.167 4.66602 -48.5 3.99902s-14.833 -3.33398 -19.5 -8.00098c-5.33301 -4.66699 -9.16602 -6.83398 -11.499 -6.50098s-5.83301 3.5 -10.5 9.5c-12 15.333 -12.667 25 -2 29
c9.33301 3.33301 33.666 4.66602 72.999 3.99902c32.667 -0.666992 53.834 -0.333984 63.501 0.999023s14.5 4.33301 14.5 9c0 2 0.666992 38.667 2 110l4 212.5c1.33301 70.333 2.66602 106.166 3.99902 107.499c0.666992 3.33301 1 6.33301 1 9s-1 4.83398 -3 6.50098
s-4.66699 3 -8 4s-8 1.33301 -14 1s-12.833 -0.833008 -20.5 -1.5s-17.167 -2 -28.5 -4c-10 -1.33301 -18.333 -2.66602 -25 -3.99902s-12.167 -2.83301 -16.5 -4.5s-7.33301 -3.16699 -9 -4.5s-2.16699 -3 -1.5 -5c1.33301 -3.33301 -0.666992 -5.33301 -6 -6
s-15.666 -0.333984 -30.999 0.999023l-41 6c-1.33301 1.33301 -0.833008 5.16602 1.5 11.499s5.33301 12.166 9 17.499s6.5 7.66602 8.5 6.99902c4 -2.66699 31.5 -0.833984 82.5 5.49902s79.5 11.5 85.5 15.5c8.66699 4.66699 25.667 8 51 10c52 5.33301 83 5.33301 93 0
c6.66699 -4 51 -8 133 -12c80.667 -2.66699 124.667 -7.33398 132 -14.001c6.66699 -6.66699 6.66699 -12 0 -16c-7.33301 -4 -38.166 -5.16699 -92.499 -3.5s-104.5 5.16699 -150.5 10.5c-38.667 4.66699 -66.334 6.5 -83.001 5.5s-25 -5.16699 -25 -12.5z" />
    <glyph glyph-name="Q" unicode="Q" horiz-adv-x="752" 
d="M164 151c42.667 -24 121 -34.666 235 -31.999l-31 28c-14.667 13.333 -23 21.5 -25 24.5s-0.333008 7.83301 5 14.5c5.33301 6 10.333 8.16699 15 6.5s14.667 -8.5 30 -20.5l33 -28c1.33301 2 5.83301 7.5 13.5 16.5s13.834 17 18.501 24s7 13.167 7 18.5
c0 8.66699 4.66699 16.334 14 23.001c8.66699 6 15.667 24.833 21 56.5s6.33301 60.5 3 86.5c-4.66699 36 -13 65.333 -25 88s-34.333 50.667 -67 84c-20.667 20.667 -37.167 33.167 -49.5 37.5s-32.833 4.16602 -61.5 -0.500977c-88 -9.33301 -154.333 -52.333 -199 -129
c-7.33301 -16.667 -16.833 -47.834 -28.5 -93.501s-17.5 -75.5 -17.5 -89.5c0 -16 4.16699 -33.5 12.5 -52.5s17.833 -33.833 28.5 -44.5s19 -13.334 25 -8.00098c5.33301 4.66699 19.666 1.33398 42.999 -9.99902zM486 106.001c27.333 0 57.3359 -4 90.0029 -12
c20 -5.33301 27.667 -10.666 23 -15.999c-2.66699 -8 -1.33398 -8.66699 3.99902 -2c4 6 19.667 7.66699 47 5c48 -6 72 -19 72 -39c0 -6 -1.5 -9.66699 -4.5 -11s-10.167 -1 -21.5 1c-7.33301 2 -22.833 4.33301 -46.5 7s-39.167 5.33398 -46.5 8.00098
c-6 3.33301 -16.667 5.66602 -32 6.99902c-7.33301 0.666992 -12.333 0.833984 -15 0.500977s-4.33398 -1.33301 -5.00098 -3s-0.333984 -4.5 0.999023 -8.5c4.66699 -12.667 0.333984 -18.667 -12.999 -18c-10 0.666992 -23.667 6 -41 16
c-24 13.333 -46.833 21.833 -68.5 25.5s-61.167 5.16699 -118.5 4.5c-64 -0.666992 -96 1.33301 -96 6c0 5.33301 -26.667 8 -80 8c-36.667 0 -59.834 0.833008 -69.501 2.5s-17.5 5.83398 -23.5 12.501c-9.33301 10.667 -11.5 19.167 -6.5 25.5s15.5 8.16602 31.5 5.49902
l23 -4c-1.33301 2 -5.33301 7.33301 -12 16s-12.167 16.167 -16.5 22.5s-6.5 11.5 -6.5 15.5c0 6 -3 10 -9 12c-12 4.66699 -17.333 28.5 -16 71.5s9 90.833 23 143.5c6 22.667 16.333 46.334 31 71.001s29.667 44 45 58c12 11.333 27.5 22.166 46.5 32.499
s32.833 15.5 41.5 15.5c8 0 12 2 12 6c0 2.66699 5.83301 6 17.5 10s22.5 6.33301 32.5 7c4 2 7.33301 4.33301 10 7c4 4 15 5.66699 33 5s33.667 -3.33398 47 -8.00098c17.333 -6 47 -30.833 89 -74.5s65.667 -74.834 71 -93.501c6.66699 -23.333 9.66699 -58.833 9 -106.5
s-4.66699 -80.167 -12 -97.5c-8 -17.333 -10.667 -34 -8 -50c2 -8.66699 2.16699 -14.5 0.5 -17.5s-6.16699 -5.5 -13.5 -7.5c-12 -3.33301 -21 -12 -27 -26l-4.5 -11.5c-1.66699 -4.33301 -3 -8 -4 -11s-1.83301 -4.83301 -2.5 -5.5c0 -0.666992 0.666992 -1.5 2 -2.5
s3.5 -1.66699 6.5 -2s6.5 -0.5 10.5 -0.5zM632.003 647.001c0 -6 -4.83398 -9.66602 -14.501 -10.999s-36.5 -2.33301 -80.5 -3c-61.333 -2 -148.5 -2 -261.5 0s-189.5 4.66699 -229.5 8c-2.66699 2.66699 -5 9 -7 19c-2.66699 7.33301 -2.5 11.666 0.5 12.999
s13.5 2.33301 31.5 3c8.66699 0 34 1.83301 76 5.5s70.333 3.5 85 -0.5c43.333 -4 67 -5 71 -3c6 1.33301 10 0.666016 12 -2.00098c0.666992 -2.66699 25.667 -2.66699 75 0c19.333 1.33301 70 3 152 5c42.667 0.666992 68.334 -0.666016 77.001 -3.99902
s13 -13.333 13 -30z" />
    <glyph glyph-name="R" unicode="R" horiz-adv-x="914" 
d="M297 115c9.33301 -5.33301 30.5 -8.66992 63.5 -10.0029s54.167 -3.33301 63.5 -6c14 -3.33301 49.5 -6.83301 106.5 -10.5s89.833 -6.16699 98.5 -7.5c14 -2 22.167 -1.5 24.5 1.5s-0.5 9.83301 -8.5 20.5c-6.66699 8.66699 -15 27 -25 55
c-10.667 26.667 -31.334 56.334 -62.001 89.001c-22 23.333 -36.667 37.333 -44 42s-19.333 7.33398 -36 8.00098c-62 2 -109 6 -141 12c-2.66699 1.33301 -11.667 0.5 -27 -2.5s-24.666 -5.83301 -27.999 -8.5c-2.66699 -2.66699 -7 -24.667 -13 -66
s-9.33301 -70.666 -10 -87.999c-0.666992 -12 0.833008 -19.333 4.5 -22s8.66699 -3 15 -1s12.5 0 18.5 -6zM520 548.996c-21.333 8.66699 -45.166 15.002 -71.499 19.002s-46.5 4.66699 -60.5 2c-9.33301 -2.66699 -18.166 -3.33398 -26.499 -2.00098
s-16.833 1.66602 -25.5 0.999023s-14.667 -3.66699 -18 -9c-4.66699 -6 -7.66699 -9.16699 -9 -9.5s-3 2.5 -5 8.5c-7.33301 17.333 -12 13.666 -14 -11.001c-0.666992 -13.333 -1.33398 -34 -2.00098 -62c-2 -72.667 -5 -124.334 -9 -155.001l102 -2
c58 -1.33301 101.833 0.333984 131.5 5.00098s54.167 13.334 73.5 26.001c29.333 18.667 38.666 52 27.999 100c-8.66699 38 -40 67.667 -94 89zM270 605.998c6.66699 0 9.99902 -2.33984 9.99902 -7.00684c0 -6 7.66699 -7.33301 23 -4c112 18 212.333 -2.66699 301 -62
c31.333 -21.333 50 -59.333 56 -114c2 -18 1.83301 -29.5 -0.5 -34.5s-10.833 -14.5 -25.5 -28.5c-19.333 -18 -37 -29.667 -53 -35c-15.333 -6 -23 -10.333 -23 -13c0 -5.33301 7.66699 -17.666 23 -36.999s27 -31.333 35 -36c8.66699 -6 20.167 -24.667 34.5 -56
s23.166 -49.333 26.499 -54c8.66699 -12.667 13 -22 13 -28c0 -15.333 32.333 -22.666 97 -21.999c42 1.33301 64 2.33301 66 3c8 2 15.167 2 21.5 0s9.5 -5.33301 9.5 -10c0 -18 -20.667 -27.667 -62 -29c-183.333 -2.66699 -278 0 -284 8
c-2.66699 4 -12.334 6.66699 -29.001 8c-4.66699 0 -42 2.83301 -112 8.5s-111.333 8.83398 -124 9.50098c-12.667 1.33301 -24.834 3.33301 -36.501 6s-23.5 4.66699 -35.5 6s-30.667 2 -56 2c-21.333 0.666992 -38.666 1.83398 -51.999 3.50098
s-24.166 3.83398 -32.499 6.50098s-13.333 6 -15 10s-1.5 9 0.5 15c2.66699 6 13.334 9 32.001 9s52.667 -3 102 -9c9.33301 -2.66699 16.833 -3.16699 22.5 -1.5s10 2.33398 13 2.00098s5.16699 1.83398 6.5 6.50098s2.16602 8.5 2.49902 11.5s0.833008 8.5 1.5 16.5
s1.66699 15.667 3 23c2.66699 36.667 7 66.667 13 90c10.667 46 16.334 127.333 17.001 244c0.666992 61.333 4.33398 92 11.001 92zM29.999 657.991c0 12 0.998047 18.832 2.99805 20.499s8.66699 1.5 20 -0.5c16 -1.33301 79.333 -3.83301 190 -7.5
s176.334 -8.16699 197.001 -13.5c22.667 -3.33301 112 -3.66602 268 -0.999023c38 0.666992 63 0.333984 75 -0.999023s25.667 -6 41 -14c30 -15.333 39.333 -28 28 -38c-0.666992 -0.666992 -2 -0.5 -4 0.5s-4.33301 2.66699 -7 5s-5 5.16602 -7 8.49902
c-0.666992 0.666992 -1.33398 1.66699 -2.00098 3c-4.66699 8 -7.66699 12 -9 12l-1 -10c0.666992 -10 -1.66602 -15.333 -6.99902 -16c-2.66699 0 -5 1.66699 -7 5c0 6.66699 -29.333 9.66699 -88 9c-42 -1.33301 -64.667 0.666992 -68 6c-2.66699 6 -7.66699 6 -15 0
c-6 -4.66699 -35.5 -7.66699 -88.5 -9s-95.833 0 -128.5 4c-21.333 2.66699 -43.333 5 -66 7s-50.667 3.33301 -84 4s-57.166 1 -71.499 1h-90.5h-78v25z" />
    <glyph glyph-name="S" unicode="S" horiz-adv-x="810" 
d="M754 80c6.66699 2 11.998 2.83984 15.998 2.50684s6.66699 -1.5 8 -3.5s2.16602 -4.83301 2.49902 -8.5s0.166016 -7.66699 -0.500977 -12s-0.666992 -8.83301 0 -13.5c-31.333 -5.33301 -78 -5.66602 -140 -0.999023s-113.667 6.33398 -155 5.00098
c-38.667 -0.666992 -70.167 -0.333984 -94.5 0.999023s-51.166 4 -80.499 8s-53.333 7 -72 9l-72.5 6c-16.333 1.33301 -29.333 3 -39 5s-15.5 4 -17.5 6s-3 4.66699 -3 8c0 14.667 32.333 20 97 16l46 -2l-23 20c-16 13.333 -27.5 24.5 -34.5 33.5
s-7.83301 15.167 -2.5 18.5c6 7.33301 10.667 11 14 11c2 0 16.333 -12 43 -36c26.667 -24.667 50.5 -41.334 71.5 -50.001s48.833 -13 83.5 -13c27.333 -0.666992 45.166 0.166016 53.499 2.49902s19.166 8.83301 32.499 19.5c19.333 15.333 31.333 29.666 36 42.999
c8 16 14 25.333 18 28c11.333 9.33301 12.333 27.5 3 54.5s-22.666 45.167 -39.999 54.5c-9.33301 5.33301 -45.5 16.166 -108.5 32.499s-99.5 24.5 -109.5 24.5c-7.33301 0 -20 7.66699 -38 23c-13.333 11.333 -21.333 20.333 -24 27s-3.66699 21.667 -3 45
c0 20.667 1.16699 35.5 3.5 44.5s8.16602 19.833 17.499 32.5c10 14 25.833 28 47.5 42s42.5 23.667 62.5 29c16 4 41.333 4.33301 76 1s58 -8.33301 70 -15c18 -10 36 -24.833 54 -44.5s31.333 -38.834 40 -57.501c11.333 -25.333 15.333 -39 12 -41s-8 -2.66699 -14 -2
s-11.5 2.66699 -16.5 6s-7.16699 6.66602 -6.5 9.99902c4.66699 13.333 -4.16602 33 -26.499 59s-46.166 44.333 -71.499 55c-15.333 6 -39.666 7.83301 -72.999 5.5s-58.333 -7.83301 -75 -16.5c-30.667 -16.667 -52.334 -38.834 -65.001 -66.501
s-12.334 -52.834 0.999023 -75.501c6.66699 -10.667 18.834 -19.334 36.501 -26.001s62.834 -19.667 135.501 -39c80.667 -22 127.334 -42.667 140.001 -62c5.33301 -7.33301 10 -28 14 -62c2 -21.333 2.33301 -35.166 1 -41.499s-6.33301 -14.166 -15 -23.499
c-7.33301 -6.66699 -16.333 -17.834 -27 -33.501s-19.667 -26.167 -27 -31.5c-9.33301 -4.66699 -12.666 -8.33398 -9.99902 -11.001c3.33301 -3.33301 42 -5.16602 116 -5.49902s118.333 1.5 133 5.5zM38.998 661.007c31.333 -8.66699 70.999 -13.498 118.999 -14.498
s97.667 -0.666992 149 1s87.333 1.83398 108 0.500977c30.667 -1.33301 61.334 0.333984 92.001 5.00098s62.667 4 96 -2c5.33301 -0.666992 22.333 -2.33398 51 -5.00098s51.667 -5.83398 69 -9.50098s26 -8.5 26 -14.5c3.33301 -8.66699 2 -13.334 -4 -14.001
c-5.33301 0 -18.333 2 -39 6c-57.333 6.66699 -99.166 10.5 -125.499 11.5s-72.166 -0.833008 -137.499 -5.5c-48.667 -5.33301 -126.334 -7.5 -233.001 -6.5s-163.667 3.83301 -171 8.5c-6 4 -8.83301 10.667 -8.5 20s3.16602 15.666 8.49902 18.999z" />
    <glyph glyph-name="T" unicode="T" horiz-adv-x="898" 
d="M97 50c-3.33301 -2 -9.82812 -3.66895 -19.4951 -5.00195s-16.5 -3 -20.5 -5c-10.667 -3.33301 -18 0.333984 -22 11.001c-4 11.333 -5.66699 17.333 -5 18c1.33301 1.33301 9.83301 3.5 25.5 6.5s31.167 5.5 46.5 7.5s23 2.66699 23 2
c0 -3.33301 12 -5.66602 36 -6.99902c127.333 -10.667 225.666 -12.334 294.999 -5.00098c22.667 182.667 31.334 311.667 26.001 387l-7 93h-109c-68 -0.666992 -103.667 0.666016 -107 3.99902l-1 5c0 6 9.33301 12.333 28 19s28.667 11 30 13
c3.33301 3.33301 8.66602 3.33301 15.999 0c2 -2.66699 30.5 -4.66699 85.5 -6s83.5 -2.33301 85.5 -3c6 -0.666992 18.667 -0.833984 38 -0.500977s40 0.5 62 0.5s33.667 -1 35 -3c4 -2.66699 5 -8.66699 3 -18c-1.33301 -6.66699 -5.5 -10.667 -12.5 -12
s-24.833 -1.66602 -53.5 -0.999023c-42 1.33301 -63.667 0.666016 -65 -2.00098c-2 -1.33301 -0.666992 -29 4 -83c4 -8.66699 5.33301 -32.167 4 -70.5s-2.83301 -68.166 -4.5 -89.499s-4.5 -54.333 -8.5 -99s-6.66699 -77.334 -8 -98.001v-35l72 -12
c42.667 -7.33301 82.167 -10.333 118.5 -9s55.166 6.66602 56.499 15.999c0.666992 3.33301 1.5 5.5 2.5 6.5s2.33301 1 4 0s4.5 -3.5 8.5 -7.5c10 -8.66699 13 -17.834 9 -27.501s-11.5 -16.167 -22.5 -19.5s-21.833 -3.33301 -32.5 0c-6 2.66699 -23.833 3 -53.5 1
s-47.167 -2 -52.5 0c-6.66699 4.66699 -46.834 7.66699 -120.501 9s-121.834 0 -144.501 -4c-13.333 -2 -21.666 -2.66699 -24.999 -2s-5.33301 3.66699 -6 9c-0.666992 8 -2 8.33301 -4 1c-2 -8.66699 -5.66699 -13 -11 -13c-3.33301 0 -4.33301 3 -3 9
c0.666992 2.66699 -1 4.83398 -5 6.50098s-9.33301 2.83398 -16 3.50098l-20 2c-6.66699 0.666992 -13 1.33398 -19 2.00098s-9.66699 1.33398 -11 2.00098c-4.66699 2 -17.334 3.5 -38.001 4.5s-40.334 1.33301 -59.001 1s-28 -1.16602 -28 -2.49902zM106.005 618.998
c-1.33301 1.33301 -1.99805 15.3369 -1.99805 42.0039c38 -0.666992 117.833 -4.83398 239.5 -12.501s213.167 -10.834 274.5 -9.50098c14 0 50.833 0.5 110.5 1.5s104.834 2.16699 135.501 3.5c0 -4 0.666992 -10 2 -18s2 -14 2 -18
c-7.33301 -0.666992 -25.333 -1.83398 -54 -3.50098s-46.334 -2.66699 -53.001 -3s-21.834 -1 -45.501 -2s-40.167 -1.5 -49.5 -1.5s-24.5 -0.333008 -45.5 -1s-39 -0.666992 -54 0s-33 1.16699 -54 1.5s-42.833 1.16602 -65.5 2.49902
c-200.667 7.33301 -314.334 13.333 -341.001 18z" />
    <glyph glyph-name="U" unicode="U" 
d="M183 203c8 0.666992 9.66699 4.66797 5 12.001c-4 6 -7.33301 7.33301 -10 4c-1.33301 -0.666992 -2 -2.33398 -2 -5.00098c0 -7.33301 2.33301 -11 7 -11zM222 217.001c12 0 11.999 -8.33789 -0.000976562 -25.0049c-4 -5.33301 -7.16699 -8.33301 -9.5 -9
s-6.16602 1 -11.499 5c-9.33301 7.33301 -12.666 7 -9.99902 -1l13 -29c12 -20 26.333 -33.167 43 -39.5s45.334 -9.16602 86.001 -8.49902c42 0.666992 71.333 4.83398 88 12.501s33.667 24.834 51 51.501c12 17.333 21.333 36 28 56s16.667 57.333 30 112
c8.66699 34.667 14.5 72.834 17.5 114.501s2.16699 69.167 -2.5 82.5c-6 7.33301 -7.16699 15.333 -3.5 24s5.16699 15 4.5 19c-0.666992 2 -1 3.66699 -1 5s1 2.33301 3 3s3.83301 1.16699 5.5 1.5s4.33398 0.5 8.00098 0.5h8.5h8h7v-107c0.666992 -46 0 -79.333 -2 -100
s-6.66699 -45.667 -14 -75c-19.333 -75.333 -33.333 -117.333 -42 -126c-2.66699 -2.66699 -7.5 -12 -14.5 -28s-9.83301 -24.667 -8.5 -26s22.666 0 63.999 4c52.667 4.66699 83.667 6.33398 93 5.00098s17.666 -8.66602 24.999 -21.999
c6 -11.333 8.83301 -21.833 8.5 -31.5s-4.16602 -14.5 -11.499 -14.5c-3.33301 0.666992 -5.33301 2.16699 -6 4.5s-1.16699 5.5 -1.5 9.5s-1.5 8 -3.5 12c-6.66699 18 -16.334 20.667 -29.001 8c-3.33301 -4 -18.333 -7.66699 -45 -11s-41.334 -6.66602 -44.001 -9.99902
c-10.667 -4 -34.667 -8.33301 -72 -13s-59 -7.66699 -65 -9c-14.667 -6 -61.667 -7 -141 -3s-130.666 5.66699 -153.999 5h-92v48c100 -2.66699 155.667 -3 167 -1c0 3.33301 -6 12.333 -18 27c-17.333 22 -30.166 54.667 -38.499 98s-7.5 72.333 2.5 87
c8 12.667 12.667 60 14 142c2 76.667 0.333008 118.667 -5 126c-2.66699 4.66699 -9.66699 5 -21 1c-4 -2.66699 -18.167 -2.5 -42.5 0.5s-37.833 2.83301 -40.5 -0.5c-12 -12 -18 -7.33301 -18 14c0 13.333 2 20 6 20c4.66699 0 36.167 3.66699 94.5 11
s91.833 10.666 100.5 9.99902c18 1.33301 40.5 3.5 67.5 6.5s54 5.5 81 7.5s58.5 3.33301 94.5 4c85.333 2.66699 128.666 4.66699 129.999 6c2.66699 2 19.5 1.66699 50.5 -1s49.5 -5.33398 55.5 -8.00098c8 -4.66699 12.667 -10.167 14 -16.5
s-1.33398 -10.833 -8.00098 -13.5c-1.33301 -0.666992 -6.5 -1.16699 -15.5 -1.5s-20.167 -0.333008 -33.5 0s-28 0.5 -44 0.5h-47.5h-42.5c-12.667 0 -23 -0.5 -31 -1.5s-12 -2.16699 -12 -3.5c-10 -5.33301 -18.333 -5.33301 -25 0
c-7.33301 6.66699 -81.666 0.666992 -222.999 -18c-8.66699 -1.33301 -15 -2.5 -19 -3.5l-13.5 -3.5c-5 -1.33301 -8.33301 -4.33301 -10 -9s-3.5 -9.16699 -5.5 -13.5s-3.33301 -12.333 -4 -24s-1.33398 -22.5 -2.00098 -32.5s-1.33398 -25.667 -2.00098 -47
c-4 -100.667 2.33301 -178 19 -232c4.66699 -17.333 10.334 -26 17.001 -26z" />
    <glyph glyph-name="V" unicode="V" horiz-adv-x="802" 
d="M679 81c8 6 17.334 6.33301 28.001 1c24.667 -10 22 -16.667 -8 -20c-18.667 -2 -28.334 0.666992 -29.001 8c1.33301 3.33301 4.33301 7 9 11zM204.001 592c0.666992 -6 4.83105 -16.8311 12.498 -32.498s12.167 -25.834 13.5 -30.501
c16.667 -34 37.334 -82.833 62.001 -146.5s44.334 -118.834 59.001 -165.501c3.33301 -15.333 7.33301 -25.333 12 -30c5.33301 -6 15.666 4 30.999 30c6.66699 12 12.667 25 18 39c10.667 28.667 18.667 46.334 24 53.001c9.33301 14 22.5 44.833 39.5 92.5
s27.167 82.167 30.5 103.5c2.66699 18 10 36.333 22 55c8.66699 12.667 13.167 20.834 13.5 24.501s-2.5 7.5 -8.5 11.5c-8 6.66699 -17 8.66699 -27 6c-17.333 -2.66699 -46.166 -5 -86.499 -7s-70.5 -1.33301 -90.5 2c-12.667 2 -29 3.16699 -49 3.5
s-37.667 -0.333984 -53 -2.00098s-23 -3.83398 -23 -6.50098zM476.998 305.002c-4 -8 -6.99902 -17.6592 -8.99902 -28.9922s-6.33301 -21.333 -13 -30c-12.667 -18 -25.334 -41.833 -38.001 -71.5s-19 -49.834 -19 -60.501c0 -10 1.16699 -16.167 3.5 -18.5
s8.83301 -3.5 19.5 -3.5c98.667 0.666992 153.334 -2.33301 164.001 -9c9.33301 -6 17 -6 23 0s15.167 8.66699 27.5 8s19.833 -4.33398 22.5 -11.001c1.33301 -7.33301 -0.333984 -13 -5.00098 -17s-9.83398 -6.5 -15.501 -7.5s-14.5 -1.83301 -26.5 -2.5
c-9.33301 -1.33301 -19.333 -0.333008 -30 3s-22.667 3.66602 -36 0.999023c-19.333 -3.33301 -30.333 -3 -33 1c-2.66699 3.33301 -8.33398 2.33301 -17.001 -3s-15.667 -4.66602 -21 2.00098c-4.66699 7.33301 -8.33398 8 -11.001 2
c-10.667 -4 -31.334 -5.83301 -62.001 -5.5s-66.667 1.16602 -108 2.49902s-65 1.66602 -71 0.999023c-26 -1.33301 -42.667 1 -50 7c-6.66699 6 -12.667 7 -18 3c-4.66699 -2.66699 -22 -4 -52 -4s-50 1.66699 -60 5c-8 2.66699 -12 10.667 -12 24
c0 14 2.66699 19.333 8 16c10.667 -6.66699 66 -10 166 -10c65.333 0 102 -2 110 -6c10.667 -7.33301 19.667 -1.33301 27 18c5.33301 14 5.66602 21.667 0.999023 23c-3.33301 1.33301 -5.66602 6.66602 -6.99902 15.999s-3 14.666 -5 15.999
c-2.66699 2.66699 -8 19.667 -16 51s-14.333 48.333 -19 51c-6.66699 6.66699 -8.33398 12.667 -5.00098 18c0.666992 4.66699 -5 20 -17 46s-17.667 42.333 -17 49c0.666992 8.66699 -5.33301 24.167 -18 46.5s-19.334 36.166 -20.001 41.499
c-1.33301 10 -5.16602 21.833 -11.499 35.5s-10.5 23.5 -12.5 29.5c-12 29.333 -20.667 47 -26 53s-16 9.66699 -32 11c-12.667 1.33301 -21.167 3.16602 -25.5 5.49902s-7.16602 7.5 -8.49902 15.5c-0.666992 3.33301 -1.5 7 -2.5 11s-1.83301 7 -2.5 9s-1 4.16699 -1 6.5
s0.833008 3.66602 2.5 3.99902s4.33398 0.833008 8.00098 1.5s8.83398 0.333984 15.501 -0.999023c124.667 -11.333 190.334 -14 197.001 -8c5.33301 4 9 5 11 3c4.66699 -4 58.834 -5.33301 162.501 -4s187.834 4.33301 252.501 9c17.333 0.666992 26.333 -4 27 -14
c0.666992 -6 -0.166016 -10.333 -2.49902 -13s-7.5 -4.66699 -15.5 -6c-6 -1.33301 -16 -3.83301 -30 -7.5s-26.833 -6.33398 -38.5 -8.00098s-24.834 -2.16699 -39.501 -1.5c-28 0.666992 -47 -3 -57 -11s-18.667 -27 -26 -57c-4 -17.333 -10.333 -37.666 -19 -60.999
s-14.334 -39.333 -17.001 -48c-5.33301 -25.333 -22 -64.333 -50 -117z" />
    <glyph glyph-name="W" unicode="W" horiz-adv-x="942" 
d="M378 529c-2.66699 -1.33301 -9.16992 -21.667 -19.5029 -61l-35 -139c-13 -53.333 -21.833 -88.333 -26.5 -105c-16.667 -56.667 -19.667 -88.334 -9 -95.001c10 -2.66699 22.667 -4.66699 38 -6s33.833 -2.5 55.5 -3.5s37.834 -1.83301 48.501 -2.5
c11.333 -0.666992 20.833 -1 28.5 -1s14.334 0.333008 20.001 1s10.167 1.5 13.5 2.5s5.66602 2.5 6.99902 4.5s1.83301 4.5 1.5 7.5s-1.5 6.5 -3.5 10.5c-4.66699 12 -9.33398 27.833 -14.001 47.5s-9.66699 36.834 -15 51.501c-5.33301 16.667 -13.666 47 -24.999 91
s-22.166 82.5 -32.499 115.5s-21.166 60.167 -32.499 81.5zM50.9971 603.999c0 -4 3.66602 -5.33301 10.999 -4c10.667 2 28.834 -22.167 54.501 -72.5s50.167 -109.833 73.5 -178.5c27.333 -77.333 45 -125 53 -143c9.33301 18 17.333 38 24 60s13.334 47 20.001 75
s12.667 50.667 18 68c8 22 13.5 43.167 16.5 63.5s6.5 37.833 10.5 52.5c6 20 10.667 38.333 14 55c2.66699 11.333 9.16699 17.666 19.5 18.999s20.166 -3.33398 29.499 -14.001c6.66699 -7.33301 15.5 -25.666 26.5 -54.999s19.5 -56.666 25.5 -81.999
c4.66699 -20 9.33398 -30 14.001 -30c4 -1.33301 6 -6.83301 6 -16.5s1 -15.834 3 -18.501l50 -173c0 -11.333 2.16699 -23.5 6.5 -36.5s8.5 -18.833 12.5 -17.5c6 1.33301 11 11.333 15 30c1.33301 9.33301 8.83301 30.833 22.5 64.5s21.167 54.167 22.5 61.5
c2 12 9.5 35 22.5 69s20.833 56.667 23.5 68c2 10.667 10.167 35.834 24.5 75.501s20.5 65.834 18.5 78.501c-2 2 -49.667 4.16699 -143 6.5s-167.333 3.16602 -222 2.49902c-35.333 -1.33301 -57.666 1 -66.999 7c-5.33301 4.66699 -9.33301 5.66699 -12 3
c-0.666992 -1.33301 -13.334 -2.5 -38.001 -3.5s-49.334 -2.16699 -74.001 -3.5s-37 -3 -37 -5c-2 -2.66699 -8.66699 -2 -20 2c-16 6 -24 3.33301 -24 -8zM911.996 646.999c0 -7.33301 -4.50195 -14 -13.502 -20s-16.167 -7.33301 -21.5 -4
c-3.33301 2.66699 -13.666 1.33398 -30.999 -3.99902c-6.66699 -2.66699 -42.667 -7 -108 -13c-3.33301 -3.33301 -9.83301 -23 -19.5 -59s-15.834 -55.667 -18.501 -59c-3.33301 -8.66699 -7.83301 -27 -13.5 -55s-12.167 -48.333 -19.5 -61
c-8 -17.333 -17.167 -43.333 -27.5 -78s-19.833 -61.667 -28.5 -81c-14 -34 -21.667 -58.333 -23 -73c-2 -15.333 1.66699 -24.833 11 -28.5s37.333 -7.16699 84 -10.5c13.333 0 42.833 -2.5 88.5 -7.5s72.834 -4.83301 81.501 0.5c12.667 4.66699 21 3.66699 25 -3
c6.66699 -10.667 0.666992 -17.667 -18 -21c-6.66699 -1.33301 -16 -2.33301 -28 -3c-27.333 -2.66699 -45 -5 -53 -7c-8.66699 -2.66699 -15 0.333008 -19 9c-4.66699 8 -9 9 -13 3c-4.66699 -6 -32.667 -6.66699 -84 -2c-54 4 -86.667 3.66699 -98 -1
c-9.33301 -4.66699 -24.166 -3.5 -44.499 3.5s-33.5 10.167 -39.5 9.5c-91.333 8 -150.666 7.66699 -177.999 -1c-25.333 -6 -41.333 -9 -48 -9s-17 4 -31 12c-17.333 10 -38.666 15 -63.999 15c-62 -1.33301 -97 -6 -105 -14c-7.33301 -7.33301 -13.333 -9.33301 -18 -6
s-6.66699 11.333 -6 24c1.33301 11.333 3.16602 18.666 5.49902 21.999s7.16602 5.33301 14.499 6c61.333 5.33301 114.666 9 159.999 11c-5.33301 43.333 -17 90.333 -35 141c-16.667 37.333 -26.834 65.666 -30.501 84.999s-10.834 40 -21.501 62
c-3.33301 7.33301 -8.33301 20.833 -15 40.5s-13.667 33.5 -21 41.5c-7.33301 6 -18.833 25.5 -34.5 58.5s-23.5 54.167 -23.5 63.5c0 8.66699 2.16699 14.167 6.5 16.5s16.833 4.16602 37.5 5.49902c30.667 2.66699 118.167 1.5 262.5 -3.5s237.5 -7.16699 279.5 -6.5
c40.667 0.666992 65.834 1.83398 75.501 3.50098s15.167 5.83398 16.5 12.501c2.66699 10.667 12.334 14.334 29.001 11.001s27.667 -8.33301 33 -15c12.667 -12.667 48.334 -11.334 107.001 3.99902c14 3.33301 23.333 4 28 2s7 -7.66699 7 -17z" />
    <glyph glyph-name="X" unicode="X" horiz-adv-x="824" 
d="M458 281c-4.66699 6 -8.00098 10.001 -10.001 12.001s-4.33301 4.66699 -7 8s-4.66699 4.66602 -6 3.99902s-2.83301 -0.333984 -4.5 0.999023s-3.5 0.333008 -5.5 -3s-3.5 -5.5 -4.5 -6.5s-3.5 -4.33301 -7.5 -10s-7 -10.167 -9 -13.5
c-30 -44 -63.667 -84.667 -101 -122c-15.333 -15.333 -23 -24.333 -23 -27s33.667 -3.33398 101 -2.00098c67.333 2.66699 105.333 1.33398 114 -3.99902c1.33301 -3.33301 7 -4.66602 17 -3.99902s18.333 1.66699 25 3s15.5 3.33301 26.5 6l20.5 5
c-10.667 10 -24.667 27.5 -42 52.5s-31.666 42.833 -42.999 53.5c-19.333 19.333 -33 35 -41 47zM767.999 85.001c-5.33301 -4.66699 -48.6719 -7.66602 -130.005 -8.99902s-165.333 -2 -252 -2s-135 -0.666992 -145 -2c-5.33301 0 -9.33301 -5 -12 -15
c-2.66699 -9.33301 -8.33398 -13.5 -17.001 -12.5s-17.667 6.83301 -27 17.5c-8.66699 9.33301 -18 14.666 -28 15.999s-37.333 0.333008 -82 -3c-19.333 -1.33301 -31.666 -0.5 -36.999 2.5s-8 11.167 -8 24.5c0 10.667 1.5 17.334 4.5 20.001s10.833 5 23.5 7
c21.333 3.33301 33.333 2.66602 36 -2.00098c0.666992 -1.33301 -0.333008 -2.33301 -3 -3l-4 -2c-5.33301 -2.66699 -8 -6.33398 -8 -11.001c0 -4 4.33301 -2.33301 13 5c9.33301 8 31 11.667 65 11s57.333 3.66602 70 12.999c12 9.33301 18 16.666 18 21.999
c0 4 3.16699 9.5 9.5 16.5s11.166 10.5 14.499 10.5c4.66699 0 12.167 6.16699 22.5 18.5s16.833 22.5 19.5 30.5c7.33301 24 22 40.333 44 49c5.33301 2 9 4.16699 11 6.5s2.83301 4.33301 2.5 6s0 4.33398 1 8.00098s3.5 7.5 7.5 11.5c9.33301 10 13.5 19.333 12.5 28
s-8.5 23 -22.5 43c-7.33301 10.667 -13.666 20.334 -18.999 29.001s-9 14.5 -11 17.5s-6.16699 8.16699 -12.5 15.5l-29.5 33c-18.667 20 -37.334 43.667 -56.001 71s-28 45 -28 53c10.667 5.33301 20.667 4.16602 30 -3.50098s16.333 -18.5 21 -32.5
c0.666992 -5.33301 9.5 -18.166 26.5 -38.499s25.833 -31.5 26.5 -33.5c0 -4 4 -7 12 -9c8 -3.33301 23.667 -22.333 47 -57c22 -33.333 36.667 -50.333 44 -51c5.33301 1.33301 9.33301 6.33301 12 15c0.666992 5.33301 6.33398 16.333 17.001 33s16.334 26 17.001 28
c0.666992 4.66699 5.33398 14 14.001 28s15.667 23.333 21 28c4 2.66699 12 15.334 24 38.001s21.667 34.667 29 36c8 2.66699 11.667 8.66699 11 18c-1.33301 6.66699 -5.5 11.167 -12.5 13.5s-24.167 4.5 -51.5 6.5c-12.667 0.666992 -35.5 2.5 -68.5 5.5
s-58.5 5.16699 -76.5 6.5s-44 2.5 -78 3.5s-58.333 0.166992 -73 -2.5l-91.5 -7.5l-81.5 -6.5v10v12.5c0 3.66699 0.333008 7.16699 1 10.5s1.83398 5.66602 3.50098 6.99902s4.16699 1.33301 7.5 0c11.333 -1.33301 42.333 0.166992 93 4.5s78.334 7.83301 83.001 10.5
c9.33301 6 28.333 7.66699 57 5c10.667 -0.666992 15.667 -2.33398 15 -5.00098c-0.666992 -1.33301 1 -2.66602 5 -3.99902c4.66699 -1.33301 10.667 -2.33301 18 -3c13.333 -1.33301 80.833 -4.33301 202.5 -9s194.5 -9 218.5 -13c24 -6 39 -9.66699 45 -11
c10 -2 15 -7.33301 15 -16c0 -7.33301 -2.5 -11.5 -7.5 -12.5s-17.5 0.833008 -37.5 5.5c-21.333 4 -47.666 6.66699 -78.999 8c-26.667 0.666992 -43.5 -0.833008 -50.5 -4.5s-12.833 -13.834 -17.5 -30.501c-2.66699 -11.333 -6 -19.666 -10 -24.999
c-23.333 -28 -39 -50.333 -47 -67c-4.66699 -12.667 -9.33398 -19 -14.001 -19c-5.33301 0 -18.666 -17.667 -39.999 -53s-36 -64 -44 -86c26.667 -40 55 -74 85 -102c22 -20.667 33 -34.334 33 -41.001c-0.666992 -3.33301 3.83301 -10.166 13.5 -20.499
s14.167 -17.166 13.5 -20.499c0 -7.33301 9 -15.5 27 -24.5s35.333 -13.833 52 -14.5c22 -1.33301 33 -4 33 -8c0 -3.33301 6.33301 -5 19 -5c8.66699 0 13 0.333008 13 1s-1.66699 2.33398 -5 5.00098c-5.33301 3.33301 -3.33301 5.33301 6 6l17 1
c8 -1.33301 14.333 -1.66602 19 -0.999023s8.16699 0.666992 10.5 0s3.83301 -1.83398 4.5 -3.50098s1.66699 -5.5 3 -11.5c1.33301 -4 0.333008 -7.33301 -3 -10s-10 -5.33398 -20 -8.00098z" />
    <glyph glyph-name="Y" unicode="Y" horiz-adv-x="905" 
d="M683 98c0 22.667 -2.66992 34.3291 -8.00293 34.9961c-1.33301 0 -2.66602 -0.333008 -3.99902 -1c-8 -1.33301 -12.5 -4.83301 -13.5 -10.5s2.16699 -9.5 9.5 -11.5c4.66699 -1.33301 6.83398 -2.16602 6.50098 -2.49902s-3.16602 -0.833008 -8.49902 -1.5h-1
c-16 -2 -30.333 -2.33301 -43 -1c-6 0.666992 -9.16699 5.5 -9.5 14.5s2.5 14.167 8.5 15.5c13.333 3.33301 28.166 4.66602 44.499 3.99902s24.833 -3 25.5 -7c0 -7.33301 1.33301 -7.66602 4 -0.999023c2 4.66699 14.667 6.33398 38 5.00098s38.333 -4.66602 45 -9.99902
c10.667 -8.66699 6.33398 -15 -12.999 -19c-8 -1.33301 -19.333 -2.66602 -34 -3.99902zM833.997 625.995c-12.667 0 -19 -2.33301 -19 -7s-5.33301 -5.33398 -16 -2.00098c-10 3.33301 -30.333 5 -61 5c-22 0.666992 -34.833 1.66699 -38.5 3s-5.5 6.33301 -5.5 15
c0 8 1.33301 12.833 4 14.5s10 2.16699 22 1.5c16.667 -2 25.334 0 26.001 6c0.666992 4 2 3.33301 4 -2c2 -9.33301 7 -11.333 15 -6c9.33301 4 14.666 5.33301 15.999 4c3.33301 -3.33301 12 -5.5 26 -6.5s25.667 -0.166992 35 2.5c11.333 3.33301 21 3 29 -1
c8 -5.33301 5.66699 -11.666 -7 -18.999c-9.33301 -5.33301 -19.333 -8 -30 -8zM251.997 623.995c0 -2.66699 1.99414 -7.66211 5.99414 -14.9951s9.5 -16.166 16.5 -26.499l20 -29l20.5 -28l14 -18.5c2 -4.66699 15.167 -26.334 39.5 -65.001s37.5 -60.667 39.5 -66l8 -20
c14 11.333 25.667 24.5 35 39.5s21.333 30.167 36 45.5c25.333 28 44.666 55.667 57.999 83c11.333 25.333 21 39.333 29 42c6.66699 2 11.667 10.333 15 25c0 12.667 6 19.667 18 21s20 -2 24 -10c2.66699 -7.33301 -2.33301 -23.666 -15 -48.999s-27 -47.333 -43 -66
c-13.333 -16 -26 -34 -38 -54s-23 -37 -33 -51c-41.333 -57.333 -62.666 -98 -63.999 -122c-0.666992 -10.667 1.33301 -30.834 6 -60.501s8 -45.834 10 -48.501c4.66699 -2.66699 26.667 -5 66 -7c34.667 -2.66699 55.167 -5 61.5 -7s10.833 -8 13.5 -18
c2 -8.66699 -0.333008 -13 -7 -13c-8 1.33301 -12.667 5.66602 -14 12.999c-1.33301 6 -3.33301 10 -6 12s-5 2 -7 0s-3 -6 -3 -12s-2.5 -9.5 -7.5 -10.5s-18.5 -0.833008 -40.5 0.5c-9.33301 1.33301 -17.166 1.83301 -23.499 1.5s-11.333 -0.333008 -15 0
s-7.16699 -0.833984 -10.5 -3.50098s-5.5 -4.33398 -6.5 -5.00098s-3.16699 -3.5 -6.5 -8.5l-7 -10.5c-4 2.66699 -9.5 6.66699 -16.5 12l-12.5 9.5c-1.33301 1 -5.16602 2.83301 -11.499 5.5s-11.333 4.16699 -15 4.5l-22 2c-11 1 -22 1.5 -33 1.5h-47.5
c-87.333 0.666992 -146 -2 -176 -8c-8 -2 -13.333 -3 -16 -3s-4.5 1.16699 -5.5 3.5s-0.166992 6.83301 2.5 13.5c3.33301 12 5.66602 18.667 6.99902 20c12.667 7.33301 49.5 11.833 110.5 13.5s113.833 -0.5 158.5 -6.5c26.667 -3.33301 41 -1.66602 43 5.00098
c2 5.33301 1 32.666 -3 81.999c-3.33301 34 -6.83301 58 -10.5 72s-13.167 35.667 -28.5 65c-17.333 34 -38.333 68 -63 102s-40.667 51.333 -48 52c-6 0 -9 5 -9 15c-0.666992 13.333 -16.667 40 -48 80c-72 -2 -120 -4.66699 -144 -8
c-11.333 -2.66699 -18 -3.16699 -20 -1.5s-3 8.83398 -3 21.501c0 13.333 2.33301 21.5 7 24.5s11 0.5 19 -7.5c6 -6 9 -6.66699 9 -2c0 2.66699 10.833 4.5 32.5 5.5s43.834 1.83301 66.501 2.5s34.334 1.66699 35.001 3c12.667 8.66699 19 7.33398 19 -3.99902
c0 -4 0.833008 -6.83301 2.5 -8.5s4.16699 -1.66699 7.5 0s6.66602 4.5 9.99902 8.5c6 6.66699 16.333 8.66699 31 6c14 -3.33301 44.833 -5 92.5 -5s73.167 1.33301 76.5 4c3.33301 4 11.333 5.66699 24 5s19 -3 19 -7c2 -3.33301 13.667 -3.83301 35 -1.5
s34 3.16602 38 2.49902c10 0 35 -0.666992 75 -2c26 -0.666992 41.5 -1.83398 46.5 -3.50098s6.83301 -6.83398 5.5 -15.501c0 -6 -1.16699 -10.5 -3.5 -13.5s-5.66602 -4.66699 -9.99902 -5s-8.66602 -0.333008 -12.999 0s-9.66602 1 -15.999 2s-11.166 1.5 -14.499 1.5
c-248 0 -372 -0.666992 -372 -2z" />
    <glyph glyph-name="Z" unicode="Z" horiz-adv-x="886" 
d="M384 274c0 -6 -1.66895 -8.99902 -5.00195 -8.99902c-4.66699 0 -14 -11.333 -28 -34c-12.667 -19.333 -27 -35.333 -43 -48c-10 -7.33301 -18.5 -18.333 -25.5 -33s-8.16699 -23.334 -3.5 -26.001s20.334 -1.66699 47.001 3c11.333 2.66699 45.666 4.66699 102.999 6
s91.333 4 102 8c9.33301 4 28 3.16699 56 -2.5s45 -8.16699 51 -7.5c12.667 -0.666992 20.334 -2 23.001 -4s3.33398 -6.66699 2.00098 -14c-0.666992 -6.66699 -0.5 -10.667 0.5 -12s3.83301 -1.33301 8.5 0c7.33301 2.66699 18 5.5 32 8.5s23.667 5.16699 29 6.5
c12.667 3.33301 19 1.33301 19 -6c0 -6 12.333 -8.66699 37 -8c23.333 0 36.333 -3 39 -9c0.666992 -1.33301 -0.666016 -2.66602 -3.99902 -3.99902c-2.66699 -0.666992 -6.66699 -1 -12 -1c-12.667 -0.666992 -22.167 -2.66699 -28.5 -6s-8.5 -7.66602 -6.5 -12.999
c2 -6.66699 0 -12.667 -6 -18c-7.33301 -5.33301 -14.333 -2.33301 -21 9c-5.33301 7.33301 -9.83301 11.5 -13.5 12.5s-11.5 0.166992 -23.5 -2.5c-20.667 -5.33301 -123.334 -8.66602 -308.001 -9.99902c-190 -2 -296 -6 -318 -12c-24.667 -7.33301 -38 -8 -40 -2
c-2.66699 6.66699 -2.66699 16.5 0 29.5s5.66699 19.167 9 18.5c4 0 21.833 3.5 53.5 10.5s51.5 9.5 59.5 7.5c15.333 -0.666992 28.333 0.666016 39 3.99902s16 7.66602 16 12.999c0 8.66699 6.16699 22.834 18.5 42.501s25.5 35.834 39.5 48.501
c11.333 11.333 29.5 33.666 54.5 66.999s44.167 56 57.5 68c16.667 15.333 38.167 39.166 64.5 71.499s44.166 53.5 53.499 63.5c36.667 42 53.334 66 50.001 72c-4 6.66699 -46.333 10 -127 10s-124.334 -3.33301 -131.001 -10c-6.66699 -4 -17.667 -1.33301 -33 8
s-21 20.333 -17 33c1.33301 1.33301 26 4 74 8s73.667 5.33301 77 4c9.33301 -1.33301 29.333 -3.16602 60 -5.49902s58.834 -4.83301 84.501 -7.5s43.5 -5.33398 53.5 -8.00098v-32c-0.666992 -30.667 -24 -68.334 -70 -113.001c-11.333 -11.333 -27 -30 -47 -56
s-39 -47.667 -57 -65c-30 -30 -45 -48 -45 -54zM751.998 633.001c-0.666992 2 0.999023 3.66797 4.99902 5.00098c9.33301 3.33301 16 3 20 -1c0.666992 -0.666992 0.666992 -2 0 -4c-1.33301 -4 -5.66602 -6.33301 -12.999 -7s-11.333 1.66602 -12 6.99902z
M833.997 645.002c6.66699 6.66699 12 6.99805 16 0.998047c5.33301 -8.66699 6.5 -14.167 3.5 -16.5s-12.833 -3.16602 -29.5 -2.49902c-14 0.666992 -21 1.66699 -21 3c0 0.666992 1.33301 1 4 1c11.333 2.66699 20.333 7.33398 27 14.001zM348.997 665
c-0.666992 -7.33301 1.99902 -10.6641 7.99902 -9.99707c3.33301 0.666992 5.33301 2.66699 6 6c-1.33301 2.66699 5 4.33398 19 5.00098h44c35.333 -0.666992 53 0.333008 53 3c2 3.33301 9.33301 5.16602 22 5.49902s20.667 -1.16699 24 -4.5
c2 -2 15.667 -4.16699 41 -6.5s39 -4.83301 41 -7.5c4.66699 -4.66699 27.667 -5.66699 69 -3c40 2 60.333 -0.333008 61 -7c0 -2.66699 -2 -7 -6 -13c-2.66699 -4.66699 -5 -6.83398 -7 -6.50098s-5 3.16602 -9 8.49902c-7.33301 8 -12 10.333 -14 7
c-2.66699 -4 -19.667 -5.33301 -51 -4c-49.333 2.66699 -105.833 3.16699 -169.5 1.5s-102.167 -4.5 -115.5 -8.5c-12 -4 -21 -3 -27 3c-6.66699 6 -11.667 6.66699 -15 2c-3.33301 -4 -20 -6.66699 -50 -8c-22.667 -0.666992 -55.667 -5 -99 -13s-74.333 -12.667 -93 -14
c-25.333 -1.33301 -40.166 -1.5 -44.499 -0.5s-6.5 5.83301 -6.5 14.5c0 10 6.33301 19.167 19 27.5s22.667 9.83301 30 4.5c6.66699 -2.66699 14.167 -2 22.5 2s15.833 5.66699 22.5 5c4 0 15.5 0.333008 34.5 1s37.167 1 54.5 1s28.333 -1 33 -3
c4 -2.66699 15 -0.833984 33 5.49902s28.667 8.5 32 6.5c4.66699 -0.666992 10.667 0.666016 18 3.99902c13.333 8.66699 20 7.33398 20 -3.99902z" />
    <glyph glyph-name="underscore" unicode="_" horiz-adv-x="488" 
d="M84 -38c48.667 3.33301 86.667 4.66699 114 4s61.333 -3.66699 102 -9c18 -3.33301 38.167 -6 60.5 -8s40.166 -4.33301 53.499 -7s26 -7 38 -13c6.66699 -5.33301 7.33398 -8 2.00098 -8c-4 -0.666992 -14.333 0 -31 2c-44.667 5.33301 -115 10.333 -211 15
c-79.333 2.66699 -121.666 1 -126.999 -5c-2.66699 -4.66699 1 -12.334 11 -23.001c7.33301 -8 8.66602 -12 3.99902 -12c-5.33301 0.666992 -13.333 4.66699 -24 12c-18 12 -28.333 18.667 -31 20c-26 14 -20.333 24 17 30c6 0.666992 13.333 1.33398 22 2.00098z" />
    <glyph glyph-name="grave" unicode="`" horiz-adv-x="183" 
d="M136 443c-9.33301 0 -19.999 5.66797 -31.999 17.001s-22.333 25 -31 41c-1.33301 5.33301 -9 14.666 -23 27.999s-20.333 23.333 -19 30c7.33301 20 23.666 16.333 48.999 -11c9.33301 -10.667 19.333 -24 30 -40c16 -25.333 27.333 -40 34 -44
c16 -14 13.333 -21 -8 -21z" />
    <glyph glyph-name="a" unicode="a" horiz-adv-x="366" 
d="M285 155l-0.000976562 37.0049h-52c-36.667 -0.666992 -60.667 -3 -72 -7s-28.333 -16.333 -51 -37c-16.667 -14.667 -27.167 -25.334 -31.5 -32.001s-5.5 -13.334 -3.5 -20.001c2.66699 -10.667 13 -17.334 31 -20.001c19.333 -2.66699 41 -7.33398 65 -14.001
c27.333 -6.66699 47.833 -9.83398 61.5 -9.50098s24.834 4.83301 33.501 13.5c8 8 13 16.833 15 26.5s3.33301 30.5 4 62.5zM29.999 109.005c0 10.667 6.83398 23.998 20.501 39.998s31.5 31.333 53.5 46c18 12.667 32.167 20.5 42.5 23.5s30.833 5.16699 61.5 6.5
c41.333 2 66.5 5.5 75.5 10.5s12.5 17.167 10.5 36.5c-2.66699 20.667 -8 39.667 -16 57c-8.66699 17.333 -21 27.833 -37 31.5s-41.333 1.5 -76 -6.5c-33.333 -7.33301 -53.666 -17.333 -60.999 -30c-7.33301 -12 -8.33301 -20.667 -3 -26s6 -8 2 -8s-12 3.33301 -24 10
c-14 6.66699 -21 13.334 -21 20.001s9.33301 18.334 28 35.001s33 26 43 28c12 2.66699 22 5 30 7c22.667 5.33301 50.667 3.83301 84 -4.5s55 -19.166 65 -32.499c22.667 -30.667 31.667 -90.334 27 -179.001c-2.66699 -60.667 -5.83398 -97.667 -9.50098 -111
s-12.834 -23 -27.501 -29c-30 -12.667 -72.667 -12.667 -128 0c-26.667 6.66699 -51 11.334 -73 14.001c-15.333 2.66699 -30.333 10.667 -45 24s-22 25.666 -22 36.999z" />
    <glyph glyph-name="b" unicode="b" horiz-adv-x="419" 
d="M59 569c8.66699 0 15.168 -7.66992 19.501 -23.0029s7.5 -43.333 9.5 -84c3.33301 -54.667 6.66602 -82 9.99902 -82c2.66699 0 10 6 22 18c17.333 17.333 46.333 26.166 87 26.499s73.667 -8.16699 99 -25.5c27.333 -18.667 45.5 -35.167 54.5 -49.5
s16.167 -38.166 21.5 -71.499c5.33301 -29.333 7.66602 -48.333 6.99902 -57s-4.66699 -20.667 -12 -36c-3.33301 -7.33301 -7.5 -15.666 -12.5 -24.999s-8.5 -17.333 -10.5 -24s-3.33301 -15.334 -4 -26.001c0.666992 -10 -9.5 -26.167 -30.5 -48.5
s-32.167 -34.833 -33.5 -37.5c-4.66699 -8 -10.667 -12.833 -18 -14.5s-25.333 -2.16699 -54 -1.5c-31.333 0.666992 -53.833 3.16699 -67.5 7.5s-25.834 12.833 -36.501 25.5c-16 18.667 -14.667 30.334 4 35.001c9.33301 2.66699 21 -3 35 -17
c9.33301 -10 19.333 -16.5 30 -19.5s26.334 -3.83301 47.001 -2.5c18 1.33301 35.5 13.333 52.5 36s31.5 53.334 43.5 92.001c15.333 48.667 21.666 87.5 18.999 116.5s-14.334 54.5 -35.001 76.5c-46 49.333 -105.667 45.333 -179 -12
c-15.333 -12.667 -25.166 -29.167 -29.499 -49.5s-6.5 -61.5 -6.5 -123.5c0 -70 -2 -107 -6 -111c-3.33301 -1.33301 -21.666 5 -54.999 19c-0.666992 25.333 -0.5 64.833 0.5 118.5s2.16699 84.834 3.5 93.501c0.666992 0 2.16699 14.5 4.5 43.5s4.5 62.5 6.5 100.5
s3 68.667 3 92c0.666992 26.667 4.33398 40 11.001 40z" />
    <glyph glyph-name="c" unicode="c" horiz-adv-x="360" 
d="M312 126c1.33301 -7.33301 -3.99707 -17.3301 -15.9971 -29.9971s-18.333 -19.667 -19 -21c-5.33301 -7.33301 -15.333 -16.333 -30 -27s-25.667 -19.334 -33 -26.001c-15.333 -13.333 -26.5 -21 -33.5 -23s-20.5 -1.66699 -40.5 1
c-25.333 3.33301 -44.833 11.5 -58.5 24.5s-25.834 35.167 -36.501 66.5c-10.667 29.333 -15.667 69.5 -15 120.5s6.66699 87.833 18 110.5c8.66699 17.333 25.334 37.333 50.001 60s44.334 36 59.001 40c31.333 8 66.666 -1.33301 105.999 -28
c27.333 -18 45.666 -34.5 54.999 -49.5s12.666 -32.833 9.99902 -53.5c-2.66699 -22.667 -7 -37 -13 -43c-4.66699 -5.33301 -7 -7 -7 -5c-0.666992 2 0.333008 6 3 12c4 11.333 1.66699 29 -7 53c-8 24 -23.333 43 -46 57c-27.333 18 -50.5 27.167 -69.5 27.5
s-38.833 -7.83398 -59.5 -24.501c-26 -21.333 -43.333 -42 -52 -62s-15.334 -54 -20.001 -102c-2.66699 -32 1 -62.333 11 -91c11.333 -34 21.333 -55.333 30 -64s25.667 -16.334 51 -23.001c4.66699 -1.33301 8 -2.33301 10 -3l60 60c58.667 52.667 89.667 67 93 43z" />
    <glyph glyph-name="d" unicode="d" horiz-adv-x="388" 
d="M165 45c18 0 37.834 4.66992 59.501 14.0029s36.5 19.666 44.5 30.999c5.33301 8.66699 9.66602 21 12.999 37s5.16602 30.833 5.49902 44.5s0.833008 31.667 1.5 54s1.33398 39.166 2.00098 50.499l4 67l-17 8.5c-8.66699 4.33301 -14 6.66602 -16 6.99902
s-6.5 1.66602 -13.5 3.99902s-13.333 3.16602 -19 2.49902s-13.334 -1.16699 -23.001 -1.5s-21.167 -1.5 -34.5 -3.5c-26 -2.66699 -44.833 -9.16699 -56.5 -19.5s-22.834 -29.833 -33.501 -58.5c-10.667 -28 -16.667 -58.667 -18 -92s2 -59.666 10 -78.999
c6.66699 -15.333 19.834 -30.166 39.501 -44.499s36.834 -21.5 51.501 -21.5zM358.001 559.003c-10.667 -20 -16.999 -36.668 -18.999 -50.001s-2.66699 -48 -2 -104c0 -79.333 -3.33301 -142 -10 -188c-4.66699 -34 -7.16699 -55.667 -7.5 -65s1.83398 -17 6.50098 -23
c6.66699 -8 8 -15 4 -21c-3.33301 -5.33301 -4.33301 -24.666 -3 -57.999c2 -30.667 0.666992 -46 -4 -46c-4 -0.666992 -12 6.33301 -24 21c-8 10.667 -13.5 16.5 -16.5 17.5s-7.5 -1.16699 -13.5 -6.5c-8.66699 -7.33301 -26 -13.833 -52 -19.5s-46.667 -7.16699 -62 -4.5
c-18.667 2.66699 -37.667 10.5 -57 23.5s-32.666 27.167 -39.999 42.5c-8.66699 18.667 -16 41.167 -22 67.5s-7.66699 45.5 -5 57.5l11 61c10 55.333 30 94.333 60 117c16.667 12.667 42.167 20.5 76.5 23.5s61.5 -0.166992 81.5 -9.5
c11.333 -4.66699 19.166 -7.5 23.499 -8.5s8.16602 -0.166992 11.499 2.5s4.66602 8 3.99902 16s-0.666992 18.333 0 31c-2.66699 48.667 1.66602 88 12.999 118c0.666992 2 4.83398 4 12.501 6s15.167 2.83301 22.5 2.5s11 -1.5 11 -3.5z" />
    <glyph glyph-name="e" unicode="e" horiz-adv-x="455" 
d="M378 268c0 16 -8.16406 32.833 -24.4971 50.5s-34.833 29.5 -55.5 35.5c-18 4.66699 -40.333 7.33398 -67 8.00098s-49.334 -1 -68.001 -5c-24.667 -6.66699 -45.834 -19.834 -63.501 -39.501s-26.834 -42.167 -27.501 -67.5c2 -2 17.667 2.66699 47 14
c36 13.333 64.667 20.833 86 22.5s48.333 -1.83301 81 -10.5c61.333 -15.333 92 -18 92 -8zM63.0029 186c0 -29.333 19.998 -63.0029 59.998 -101.003c22 -21.333 57 -31 105 -29s84.667 14.667 110 38c6 6 15.5 11.167 28.5 15.5s21.167 4.83301 24.5 1.5
c-11.333 -27.333 -36 -50.5 -74 -69.5s-75 -26.167 -111 -21.5c-59.333 6 -101 27.667 -125 65c-17.333 28 -28.333 47.833 -33 59.5s-9 29.167 -13 52.5c-5.33301 31.333 -5.33301 52 0 62c7.33301 11.333 9 18.333 5 21c-3.33301 3.33301 -1 13.833 7 31.5
s16.333 29.834 25 36.501c24 18 46.333 30 67 36s51.334 9.33301 92.001 10c46 0.666992 83.333 -7.5 112 -24.5s52.334 -45.167 71.001 -84.5c11.333 -22.667 14.5 -36.667 9.5 -42s-22.833 -7.33301 -53.5 -6c-25.333 0.666992 -57.333 4.33398 -96 11.001
c-52 8.66699 -102.667 2.33398 -152 -18.999c-17.333 -7.33301 -29.333 -9.33301 -36 -6c-7.33301 2.66699 -13 0.666992 -17 -6s-6 -17 -6 -31z" />
    <glyph glyph-name="f" unicode="f" horiz-adv-x="296" 
d="M261 562c0.666992 -3.33301 1.66406 -7.32812 2.99707 -11.9951s1.83301 -7.33398 1.5 -8.00098s-1.33301 -2.33398 -3 -5.00098s-5.5 -3.33398 -11.5 -2.00098s-14 1.66602 -24 0.999023c-47.333 2 -71 -7 -71 -27c0 -6.66699 -2 -10 -6 -10
c-4.66699 0 -9.33398 -11 -14.001 -33c-4.66699 -17.333 -5.83398 -28.333 -3.50098 -33s8.83301 -6.66699 19.5 -6c4 2.66699 9.33301 -0.333008 16 -9c6 -8 11 -9 15 -3s9.83301 7.83301 17.5 5.5s11.5 -7.16602 11.5 -14.499s-5.16699 -13.5 -15.5 -18.5
s-24.5 -7.5 -42.5 -7.5h-32c0 -5.33301 -0.666992 -39 -2 -101s-0.666016 -99.333 2.00098 -112c1.33301 -37.333 1.33301 -59.5 0 -66.5s-5.66602 -11.167 -12.999 -12.5c-10.667 -1.33301 -18 2.66699 -22 12c-4.66699 8.66699 -7.66699 35.667 -9 81s0 87 4 125
c2.66699 28 2.33398 47.333 -0.999023 58s-10.666 16 -21.999 16c-5.33301 0 -11.333 3.83301 -18 11.5s-10.334 15.167 -11.001 22.5c0 5.33301 9 8 27 8c18.667 0 29.334 4.33301 32.001 13c10 37.333 13.333 57 10 59c-3.33301 2.66699 2 13.5 16 32.5
s24.667 30.167 32 33.5c6.66699 2.66699 19.334 4.66699 38.001 6s36 1.66602 52 0.999023s24 -2.33398 24 -5.00098z" />
    <glyph glyph-name="g" unicode="g" horiz-adv-x="349" 
d="M72 203c0 -12.667 8.33301 -29.168 25 -49.501s32 -32.5 46 -36.5c12 -3.33301 32.5 -2.5 61.5 2.5s44.833 10.833 47.5 17.5c1.33301 4 5.33301 6 12 6c11.333 0 18.333 6 21 18s2 35.333 -2 70c-5.33301 46 -14.666 77 -27.999 93c-12 15.333 -26.667 26.333 -44 33
c-13.333 4.66699 -29.833 7.16699 -49.5 7.5s-34.5 -1.5 -44.5 -5.5c-9.33301 -3.33301 -19 -10.666 -29 -21.999c-9.33301 -10 -16.833 -27.333 -22.5 -52s-5.83398 -41.667 -0.500977 -51c4.66699 -8 7 -18.333 7 -31zM268 -64.001
c0 -4.66699 -9.66504 -15.001 -28.998 -31.001s-34.333 -26.333 -45 -31c-25.333 -10.667 -59 -13.334 -101 -8.00098c-42 6.66699 -63 16.334 -63 29.001c0 7.33301 6.33301 13 19 17s22.334 3.33301 29.001 -2c7.33301 -6 25 -11.333 53 -16
c26 -5.33301 44.333 -5.66602 55 -0.999023s25 18.667 43 42c17.333 23.333 28 50.666 32 81.999c3.33301 31.333 7 53.333 11 66c1.33301 5.33301 2 9.5 2 12.5s-0.333008 4.83301 -1 5.5c-0.666992 0 -12.334 -2 -35.001 -6s-44.667 -7.5 -66 -10.5s-34.333 -3.5 -39 -1.5
c-25.333 4.66699 -47.5 21 -66.5 49s-30.333 58.833 -34 92.5s0.166016 66.5 11.499 98.5c16 38.667 46.667 63 92 73c16 3.33301 38.833 3.83301 68.5 1.5s47.834 -6.16602 54.501 -11.499c5.33301 -4 12.666 -1.33301 21.999 8c14 14 23.333 18 28 12
c0.666992 -0.666992 1 -1.66699 1 -3c2 -22 4.16699 -52.167 6.5 -90.5s3.16602 -82.333 2.49902 -132s-4.33398 -82.167 -11.001 -97.5c-4 -10 -8.66699 -32.333 -14 -67s-10.666 -56.667 -15.999 -66c-6.66699 -5.33301 -10 -10 -10 -14z" />
    <glyph glyph-name="h" unicode="h" horiz-adv-x="393" 
d="M81 394c4 0 8.3291 2.33496 12.9961 7.00195s9 6.66699 13 6c4.66699 -0.666992 16.334 2 35.001 8c12 4 21.667 5.5 29 4.5s21.333 -6.16699 42 -15.5c30.667 -12 46 -20.333 46 -25c0 -5.33301 7.66699 -14.333 23 -27c18.667 -14.667 35.667 -46.167 51 -94.5
s22.333 -93.5 21 -135.5c-2 -3.33301 -0.666992 -18.333 4 -45c5.33301 -26.667 5.33301 -42.667 0 -48s-8 -4.33301 -8 3c0 6 -5.33301 13 -16 21c-7.33301 5.33301 -12 12.666 -14 21.999s-4 32 -6 68c-7.33301 132 -45.666 212.667 -114.999 242
c-17.333 6.66699 -31.166 9.5 -41.499 8.5s-26.833 -6.5 -49.5 -16.5l-39 -18c1.33301 -132 -0.333984 -246 -5.00098 -342c-0.666992 -6 -4.66699 -6 -12 0c-6.66699 4.66699 -10 28 -10 70c0 41.333 -2.66699 63.666 -8 66.999c-6 2.66699 -6 5.66699 0 9s8.33301 26 7 68
c-0.666992 29.333 -0.666992 58.333 0 87s0.333984 59.167 -0.999023 91.5s-3.33301 58.166 -6 77.499c-4 26.667 -3.33301 43.667 2 51c7.33301 9.33301 13.5 12.333 18.5 9s7.16699 -11.666 6.5 -24.999c-0.666992 -26.667 1.33301 -54.667 6 -84s9.33398 -44 14.001 -44z
" />
    <glyph glyph-name="i" unicode="i" horiz-adv-x="130" 
d="M48 307c0.666992 8.66699 1.16797 18.501 1.50098 29.501s0.5 19.5 0.5 25.5s0.5 12 1.5 18s3.16699 10.667 6.5 14s7.66602 5.66602 12.999 6.99902c16.667 0 20.334 -52.333 11.001 -157c-10.667 -117.333 -19.334 -181 -26.001 -191c-2.66699 -4.66699 -7 -6 -13 -4
c-15.333 6 -17.333 46.667 -6 122c7.33301 44 11 89.333 11 136zM59.001 522.001c7.33301 12.667 12.3301 19.001 14.9971 19.001c11.333 -0.666992 19.333 -10.667 24 -30s2.66699 -32.666 -6 -39.999c-5.33301 -4.66699 -9.66602 -6.33398 -12.999 -5.00098
s-8.66602 6.66602 -15.999 15.999c-7.33301 10 -11.166 16.833 -11.499 20.5s2.16699 10.167 7.5 19.5z" />
    <glyph glyph-name="j" unicode="j" horiz-adv-x="214" 
d="M99 8c6.66699 12 11.3301 29.167 13.9971 51.5s5.66699 38.833 9 49.5c5.33301 12 10 36.667 14 74s6.66699 59 8 65c4.66699 16 7.33398 42.667 8.00098 80s-1 58.333 -5 63c-4.66699 7.33301 -5.66699 13 -3 17c4 7.33301 9.16699 9.33301 15.5 6
s11.833 -10.333 16.5 -21c13.333 -44 7 -140.333 -19 -289c-19.333 -117.333 -38.666 -187.333 -57.999 -210c-10 -10.667 -20.833 -18.167 -32.5 -22.5s-20.834 -3.83301 -27.501 1.5c-8.66699 6.66699 -10 15.334 -4 26.001c6.66699 12 13.334 21.5 20.001 28.5
s11.667 9.83301 15 8.5c0.666992 -0.666992 1.66699 -0.166992 3 1.5s2.83301 4.5 4.5 8.5s2.83398 8.33301 3.50098 13c2.66699 17.333 8.66699 33.666 18 48.999zM174.996 508c0 -10.667 -0.998047 -17.1689 -2.99805 -19.502s-7.33301 -2.16602 -16 0.500977
c-8.66699 2 -16.834 6.33301 -24.501 13s-11.834 13.334 -12.501 20.001c0 0.666992 2.33301 7.33398 7 20.001c8 14 18.333 16.333 31 7c12 -8.66699 18 -22.334 18 -41.001z" />
    <glyph glyph-name="k" unicode="k" horiz-adv-x="433" 
d="M113 241c2 0 9.32227 4.83887 21.9893 14.5059s20.334 14.167 23.001 13.5c2 0 3.33301 0.5 4 1.5s0.333984 1.83301 -0.999023 2.5c2.66699 5.33301 13.167 16.333 31.5 33l60 52c21.667 18 33.5 28 35.5 30c14 12 23.167 18.5 27.5 19.5s10.833 -2.16699 19.5 -9.5
c4 -2.66699 6.5 -4.5 7.5 -5.5s1.5 -2.33301 1.5 -4s-0.5 -2.83398 -1.5 -3.50098l-7.5 -5c-8 -4.66699 -28.167 -21.167 -60.5 -49.5s-49.5 -43.5 -51.5 -45.5c-12 -10.667 -18 -18.334 -18 -23.001c0 -2.66699 13.833 -21 41.5 -55s45.167 -54.333 52.5 -61
c8.66699 -7.33301 28 -31.666 58 -72.999s45.333 -64.333 46 -69c0.666992 -6.66699 -1.66602 -10.834 -6.99902 -12.501s-10.666 0.166016 -15.999 5.49902c-6 7.33301 -16.167 20.833 -30.5 40.5l-35.5 47.5l-34 42c-13.333 16 -25.666 29.667 -36.999 41
c-7.33301 7.33301 -30 32 -68 74c-35.333 -33.333 -54.666 -52.333 -57.999 -57c-5.33301 -8 -10.166 -28.833 -14.499 -62.5s-4.5 -52.5 -0.5 -56.5c2.66699 -4.66699 2.5 -14.834 -0.5 -30.501s-3.83301 -25.5 -2.5 -29.5
c0.666992 -8.66699 -2.66602 -14.834 -9.99902 -18.501s-15.333 -3.16699 -24 1.5c-7.33301 4 -12.666 10.667 -15.999 20s-2.66602 15.666 2.00098 18.999s7 16 7 38c0 23.333 -3.66699 35 -11 35c-4 0 -6.33301 1 -7 3s-0.5 4.16699 0.5 6.5s-0.166992 3.83301 -3.5 4.5
c-4.66699 0 -7 4.33301 -7 13s2.33301 14.667 7 18c3.33301 2.66699 9 12.667 17 30c8 18.667 12 76.834 12 174.501s-3.66699 154.167 -11 169.5s-10 24.666 -8 27.999c4 6.66699 9.16699 8.5 15.5 5.5s12.5 -9.83301 18.5 -20.5c7.33301 -14 12.333 -56.667 15 -128
c4.66699 -109.333 10.334 -164 17.001 -164z" />
    <glyph glyph-name="l" unicode="l" horiz-adv-x="120" 
d="M40 590c5.33301 0 10.332 -3.66895 14.999 -11.002s7 -15.666 7 -24.999c0 -12.667 4 -21.334 12 -26.001c5.33301 -3.33301 8 -5.33301 8 -6s-3 -1.33398 -9 -2.00098c-4.66699 0 -7.66699 -1 -9 -3s-2 -10.167 -2 -24.5s0.666992 -33.166 2 -56.499
c0.666992 -6.66699 1 -11.667 1 -15c0.666992 -14.667 1.83398 -50.167 3.50098 -106.5s3.66699 -107.166 6 -152.499s5.16602 -77 8.49902 -95c4.66699 -1.33301 7 -11.333 7 -30c0 -18 -4 -27 -12 -27c-20.667 0.666992 -33.5 16.334 -38.5 47.001
s-8.16699 112.334 -9.5 245.001c-1.33301 151.333 -0.666016 237.666 2.00098 258.999c1.33301 19.333 4 29 8 29z" />
    <glyph glyph-name="m" unicode="m" horiz-adv-x="588" 
d="M467 436c6.66699 0 16.6621 -5.33789 29.9951 -16.0049s20 -18.667 20 -24s2.33301 -8.66602 7 -9.99902s11.667 -14.666 21 -39.999s12.666 -40 9.99902 -44c-2.66699 -4.66699 -4 -37.5 -4 -98.5s1.66699 -102.167 5 -123.5c2.66699 -23.333 1 -35 -5 -35
c-14.667 0.666992 -23.667 10 -27 28s-6.66602 68.333 -9.99902 151c-2 60 -5.16699 100.667 -9.5 122s-12.833 37.333 -25.5 48c-6 4.66699 -22.333 6.33398 -49 5.00098s-41.667 -4.66602 -45 -9.99902c-0.666992 -2 -6.66699 -6.66699 -18 -14s-17 -13 -17 -17
c0 -3.33301 -5.66699 -13.333 -17 -30c-8.66699 -10.667 -13.667 -23 -15 -37s-2.33301 -54 -3 -120c0 -90.667 2.33301 -138.667 7 -144c6 -7.33301 4.33301 -11.666 -5 -12.999c-6.66699 -1.33301 -13.334 0.666992 -20.001 6c-5.33301 4 -9 13 -11 27s-3.33301 45 -4 93
c-2 97.333 -10.667 164.333 -26 201c-4 9.33301 -9 16.333 -15 21s-17.333 9.66699 -34 15l-39 13c-7.33301 -7.33301 -17 -17.833 -29 -31.5s-18.667 -22.834 -20 -27.501c0 -4 -3.33301 -7.66699 -10 -11c-5.33301 -3.33301 -9.16602 -12.5 -11.499 -27.5
s-5.83301 -54.5 -10.5 -118.5c-2 -28.667 -7.33301 -62 -16 -100s-15 -57 -19 -57c-2.66699 0 -8 2 -16 6c-6.66699 4.66699 -5.66699 40.334 3 107.001c8.66699 65.333 12.334 127 11.001 185c-0.666992 57.333 3 87.666 11 90.999c4.66699 1.33301 13 -2.66699 25 -12
c11.333 -8.66699 19.5 -12.834 24.5 -12.501s10.167 5.83301 15.5 16.5c4.66699 10 12.334 15.667 23.001 17s27.334 -1 50.001 -7c18.667 -5.33301 37.834 -12.666 57.501 -21.999s30.167 -16.333 31.5 -21c0.666992 -4 10.334 2 29.001 18
c36.667 36.667 79.667 55.334 129 56.001c12 -2 19 -3 21 -3z" />
    <glyph glyph-name="n" unicode="n" horiz-adv-x="377" 
d="M207 380c-0.666992 -2 0.167969 -3.49707 2.50098 -4.49707s4.83301 -1.66699 7.5 -2s5.16699 -1 7.5 -2s3.5 -2.16699 3.5 -3.5c0 -3.33301 7.66699 -9.66602 23 -18.999c13.333 -6 25.833 -16.167 37.5 -30.5s19.667 -26 24 -35l22.5 -46.5
c5.33301 -12 9 -48.667 11 -110c1.33301 -42.667 1.66602 -69.334 0.999023 -80.001s-3.66699 -16 -9 -16c-7.33301 0 -13.333 4.5 -18 13.5s-7 20.833 -7 35.5c0.666992 38 -1.5 75.5 -6.5 112.5s-10.167 55.5 -15.5 55.5c-4.66699 0 -7 4.66699 -7 14
c0 20.667 -12 42 -36 64s-46.667 33 -68 33c-36 0 -63 -20 -81 -60c-12 -24 -18.667 -41.667 -20 -53c-4 -16 -6.66699 -46.333 -8 -91s-0.333008 -72 3 -82c3.33301 -12 4.33301 -18.5 3 -19.5s-8 1.16699 -20 6.5c-7.33301 2.66699 -12 6.5 -14 11.5
s-3.33301 14.5 -4 28.5c-1.33301 20.667 -1 33.667 1 39c2.66699 11.333 3.33398 43.666 2.00098 96.999s-3.66602 89.666 -6.99902 108.999c-4.66699 28.667 -6.33398 47 -5.00098 55c4.66699 11.333 11.667 11.666 21 0.999023c5.33301 -6 9.33301 -13.667 12 -23
c3.33301 -12 6.16602 -18.833 8.49902 -20.5s6.83301 -0.166992 13.5 4.5c11.333 8 26.833 14.667 46.5 20s37.167 8 52.5 8s23 -3.33301 23 -10z" />
    <glyph glyph-name="o" unicode="o" horiz-adv-x="394" 
d="M242 359c-19.333 9.33301 -39.668 13.334 -61.001 12.001s-50 -8.33301 -86 -21c-16.667 -5.33301 -27 -13.833 -31 -25.5s-6.33301 -38.5 -7 -80.5s1 -71.5 5 -88.5s13.333 -32.833 28 -47.5c17.333 -18 37.666 -28.667 60.999 -32
c26.667 -2.66699 50 -2.33398 70 0.999023c14.667 2 26.334 5.5 35.001 10.5s20.334 15.167 35.001 30.5c20.667 20.667 33.5 39.5 38.5 56.5s3.83301 34.833 -3.5 53.5c-6.66699 14.667 -8.66699 27.667 -6 39c2.66699 10 -5 25.667 -23 47s-36.333 36.333 -55 45z
M363.998 179.001c0 -13.333 -2.49805 -24.3311 -7.49805 -32.998s-18.167 -25 -39.5 -49c-23.333 -25.333 -38.833 -40.333 -46.5 -45s-20.834 -7.33398 -39.501 -8.00098c-46.667 -2 -80.5 -0.666992 -101.5 4s-39.5 14.667 -55.5 30c-18.667 18.667 -29.334 32 -32.001 40
c-6 15.333 -9.83301 42.5 -11.5 81.5s-0.5 70.5 3.5 94.5c7.33301 42.667 13.833 67.5 19.5 74.5s25.167 14.833 58.5 23.5c44 10.667 74.667 16 92 16c22.667 1.33301 35 3.66602 37 6.99902c2.66699 2.66699 7.5 3 14.5 1s15.167 -6.66699 24.5 -14s17 -15 23 -23
c16 -22.667 30.167 -54 42.5 -94s18.5 -75.333 18.5 -106z" />
    <glyph glyph-name="p" unicode="p" horiz-adv-x="375" 
d="M227 418c-17.333 2.66699 -33.667 4.00195 -49 4.00195c-15.333 -0.666992 -36.833 -5 -64.5 -13s-41.834 -14 -42.501 -18c-0.666992 -26.667 1.5 -76.5 6.5 -149.5s8.83301 -112.5 11.5 -118.5c6 -12 20.667 -25.833 44 -41.5s41.333 -23.834 54 -24.501
c18 -0.666992 35.5 5 52.5 17s28.167 26.667 33.5 44c2.66699 9.33301 8.66699 24.333 18 45c15.333 34 18.333 79.667 9 137c-5.33301 33.333 -14.666 60.666 -27.999 81.999s-28.333 33.333 -45 36zM344.999 247.002c0 -17.333 -4.66992 -44.001 -14.0029 -80.001
s-18.666 -63.333 -27.999 -82c-7.33301 -14.667 -22 -28.5 -44 -41.5s-41 -19.5 -57 -19.5c-23.333 0 -53.666 13.667 -90.999 41c-21.333 16 -33 18.667 -35 8s-1 -33 3 -67c2 -34.667 2.5 -55.5 1.5 -62.5s-5.5 -10.5 -13.5 -10.5c-12 0 -19.833 15.833 -23.5 47.5
s-5.16699 93.834 -4.5 186.501v71.5v63.5c0 10.667 -0.166992 25.334 -0.5 44.001s-1.16602 34 -2.49902 46s-3.33301 24.333 -6 37c13.333 -0.666992 44 4 92 14c28 6.66699 48.167 9.66699 60.5 9s32.5 -5.33398 60.5 -14.001c13.333 -4 23 -8.33301 29 -13
s11.667 -12.667 17 -24c8.66699 -16.667 15.667 -26.667 21 -30s12.5 -21 21.5 -53s13.5 -55.667 13.5 -71z" />
    <glyph glyph-name="q" unicode="q" horiz-adv-x="381" 
d="M301 94c6.66699 0 10.333 3.49707 11 10.4971s0 28.5 -2 64.5c-2 26.667 -3.16699 55.5 -3.5 86.5s-1.83301 57.5 -4.5 79.5c-2 17.333 -5.16699 28.833 -9.5 34.5s-17.5 14.834 -39.5 27.501c-30.667 18 -50.667 26.333 -60 25c-11.333 -0.666992 -25.5 -4 -42.5 -10
s-29.167 -11.667 -36.5 -17c-19.333 -16 -33.5 -38.833 -42.5 -68.5s-10.5 -58.167 -4.5 -85.5c0.666992 -4.66699 2.66699 -14.167 6 -28.5s5.33301 -24.166 6 -29.499c3.33301 -17.333 13.833 -36.166 31.5 -56.499s37.834 -36.5 60.501 -48.5
c16.667 -8 28 -12.167 34 -12.5s18 2.16699 36 7.5c12 2.66699 22.667 6.5 32 11.5s18.666 8.16699 27.999 9.5zM291.999 407.997c2.66699 -6.66699 6.00098 -8.49609 10.001 -5.49609s4 9.5 0 19.5c-2.66699 11.333 -2 19.166 2 23.499s11 5.16602 21 2.49902
c8 -3.33301 15 -10 21 -20s6.66699 -16.333 2 -19c-4 -2.66699 -4.66699 -51.667 -2 -147c8 -242.667 6 -367.667 -6 -375c-4 -2.66699 -11 -1 -21 5c-1.33301 0.666992 -2.5 1.33398 -3.5 2.00098s-2 1.5 -3 2.5s-1.66699 2.16699 -2 3.5s-0.833008 2.66602 -1.5 3.99902
s-1 3.5 -1 6.5v8.5c0 2.66699 0.166992 6.33398 0.5 11.001s0.5 9.5 0.5 14.5v19v22.5c0 13.333 0.333008 29.666 1 48.999c1.33301 24 0 36 -4 36c-4.66699 -0.666992 -13 -6 -25 -16c-14.667 -12 -32.334 -19.167 -53.001 -21.5s-41.667 2.5 -63 14.5
c-11.333 7.33301 -21.833 12.666 -31.5 15.999s-17.667 7.16602 -24 11.499s-15.166 12.833 -26.499 25.5c-30 34 -44.667 76.667 -44 128c0 13.333 -2.33301 24.666 -7 33.999c-4.66699 8.66699 -3.16699 30.334 4.5 65.001s15.167 53.667 22.5 57c5.33301 2 12 10 20 24
c12 22 35 35.667 69 41c43.333 6 72.666 3 87.999 -9c2.66699 -3.33301 12 -9 28 -17s25.333 -13.333 28 -16z" />
    <glyph glyph-name="r" unicode="r" horiz-adv-x="266" 
d="M109 254c0 -11.333 -0.831055 -19.6699 -2.49805 -25.0029s-3.66699 -8.33301 -6 -9s-5.5 -2.5 -9.5 -5.5s-7.66699 -7.5 -11 -13.5c-8 -13.333 -10.667 -52.666 -8 -117.999c1.33301 -26.667 1.83301 -46.667 1.5 -60s-1.16602 -24.333 -2.49902 -33
s-3.66602 -12.834 -6.99902 -12.501s-7.66602 0.833008 -12.999 1.5c-6.66699 2.66699 -10.334 32.334 -11.001 89.001c-0.666992 40 -2.33398 85.333 -5.00098 136s-4.33398 91.667 -5.00098 123c-0.666992 32.667 -0.333984 53.167 0.999023 61.5s4.33301 12.5 9 12.5
c4 0 8.5 -3.16699 13.5 -9.5s8.16699 -12.5 9.5 -18.5s0.666016 -10 -2.00098 -12c-4.66699 -1.33301 -7 -12.833 -7 -34.5s2.33301 -36.167 7 -43.5c8 -11.333 16 -4.66602 24 20.001c4.66699 11.333 15 27.333 31 48s26.333 35 31 43c7.33301 14 19.5 23.833 36.5 29.5
s30.5 1.83398 40.5 -11.499c8.66699 -15.333 11.834 -25.5 9.50098 -30.5s-11.5 -7.16699 -27.5 -6.5c-14 0.666992 -23.833 -0.833008 -29.5 -4.5s-16.834 -16.5 -33.501 -38.5c-14.667 -20 -24 -34.5 -28 -43.5s-6 -20.5 -6 -34.5z" />
    <glyph glyph-name="s" unicode="s" horiz-adv-x="374" 
d="M208 415c-7.33301 0 -15.0059 2.33301 -23.0059 7c-6.66699 4 -22.167 3.5 -46.5 -1.5s-40.166 -10.833 -47.499 -17.5c-16.667 -14.667 -25.667 -35.5 -27 -62.5s5.66699 -46.5 21 -58.5c8.66699 -6.66699 24.5 -12.834 47.5 -18.501s44.5 -8.5 64.5 -8.5
c30.667 0 53.334 -6.5 68.001 -19.5s23.667 -34.5 27 -64.5c2.66699 -26 1.83398 -44.5 -2.49902 -55.5s-15.166 -21.5 -32.499 -31.5c-18.667 -12 -48 -18.333 -88 -19c-38 -0.666992 -63.833 1.16602 -77.5 5.49902s-24.834 13.833 -33.501 28.5
c-12.667 22.667 -14.667 35 -6 37s21 -6.66699 37 -26c10 -11.333 18.333 -18.333 25 -21s22.334 -4.66699 47.001 -6c24 -1.33301 39.5 -1.16602 46.5 0.500977s15.833 7.16699 26.5 16.5s17.334 17 20.001 23s3.66699 16.667 3 32
c-0.666992 19.333 -4.83398 36 -12.501 50s-17.167 22.333 -28.5 25c-4.66699 0.666992 -16.167 1.83398 -34.5 3.50098s-35.666 3.5 -51.999 5.5s-27.5 4 -33.5 6c-20.667 5.33301 -36.834 16.5 -48.501 33.5s-17.5 38.5 -17.5 64.5c0 20 7.33301 38.5 22 55.5
s30 28.5 46 34.5c4 1.33301 9.16699 2.83301 15.5 4.5s9.83301 2.5 10.5 2.5c15.333 5.33301 38.833 4.5 70.5 -2.5s59.5 -17.5 83.5 -31.5c12.667 -6.66699 26.667 -20.167 42 -40.5s23.333 -35.5 24 -45.5c0.666992 -2.66699 -0.666016 -5 -3.99902 -7s-7 -3 -11 -3
c-11.333 1.33301 -24.666 14 -39.999 38c-12.667 19.333 -26.5 35.333 -41.5 48s-28.167 19 -39.5 19z" />
    <glyph glyph-name="t" unicode="t" horiz-adv-x="274" 
d="M113 520c6.66699 2.66699 11.668 -3.00195 15.001 -17.002c4.66699 -19.333 5.66699 -38.666 3 -57.999c-2.66699 -10.667 0 -17.834 8 -21.501s20.667 -3.16699 38 1.5s28.666 4.33398 33.999 -0.999023c11.333 -11.333 3.66602 -19.333 -23.001 -24
c-5.33301 -1.33301 -11.666 -2.33301 -18.999 -3l-41 -5c2.66699 -186 6 -289 10 -309c4 -10.667 12 -22 24 -34s21.667 -18 29 -18c4 -1.33301 13 1.66699 27 9s22.333 10.666 25 9.99902c3.33301 -3.33301 1.83301 -9.83301 -4.5 -19.5s-13.166 -16.5 -20.499 -20.5
c-12.667 -6.66699 -30.667 -4 -54 8s-40 27.333 -50 46c-1.33301 -0.666992 -2.83301 10.333 -4.5 33s-3.16699 50.5 -4.5 83.5s-2.5 66.167 -3.5 99.5s-2 61.833 -3 85.5s-2.16699 35.834 -3.5 36.501c-3.33301 4.66699 -10.833 5.66699 -22.5 3s-19.5 -7 -23.5 -13
s-8.33301 -5.33301 -13 2c-8 12 -8.33301 20.833 -1 26.5s23 8.5 47 8.5h22c-0.666992 2.66699 -1.83398 8.83398 -3.50098 18.501l-4 23.5c-1 6 -1.5 13 -1.5 21s1.5 14.333 4.5 19s7.5 7.66699 13.5 9z" />
    <glyph glyph-name="u" unicode="u" horiz-adv-x="383" 
d="M296 415c12.667 1.33301 22.4951 -6 29.4951 -22s12.667 -39.667 17 -71s6.83301 -49 7.5 -53c4.66699 -22.667 3.83398 -58.667 -2.49902 -108s-9.5 -77 -9.5 -83c-1.33301 -19.333 -3 -32 -5 -38s-5.33301 -9 -10 -9c-6 0.666992 -12 2.66699 -18 6
s-10.833 5.16602 -14.5 5.49902s-12.167 -1.83398 -25.5 -6.50098s-24.166 -7.16699 -32.499 -7.5s-22.833 1.5 -43.5 5.5c-60.667 12.667 -102.667 35.334 -126 68.001c-10.667 14 -17.5 31.667 -20.5 53s-6.5 76.333 -10.5 165
c-1.33301 42 -1.66602 67.167 -0.999023 75.5s4.33398 12.5 11.001 12.5c8.66699 0 14.334 -7 17.001 -21c2.66699 -16 3 -25.333 1 -28c-2.66699 -4.66699 -1.16699 -37 4.5 -97s11.167 -99 16.5 -117c6.66699 -22 16.667 -39.667 30 -53
c10.667 -10 27.5 -19.167 50.5 -27.5s42.5 -12.5 58.5 -12.5c12 0 25 5.33301 39 16s23.333 22.334 28 35.001c5.33301 16 10 49.833 14 101.5s4.33301 86.167 1 103.5l-11 71c-2.66699 24 -1 36 5 36z" />
    <glyph glyph-name="v" unicode="v" horiz-adv-x="399" 
d="M226 108c6.66699 0 13.3311 5.16602 19.998 15.499s11.667 22.5 15 36.5c2 8.66699 11.333 39.167 28 91.5s26 82.833 28 91.5c1.33301 9.33301 4.33301 17.333 9 24s7.33398 13.667 8.00098 21c0 8.66699 6 13 18 13c7.33301 2 12.333 0.333008 15 -5
s3.33398 -11.5 2.00098 -18.5s-3.33301 -11.833 -6 -14.5c-5.33301 -10 -12.833 -34.667 -22.5 -74s-17.5 -65.333 -23.5 -78c-6.66699 -16 -16 -41 -28 -75c-12 -41.333 -23.5 -69.333 -34.5 -84s-23.167 -17.667 -36.5 -9
c-8.66699 5.33301 -29.334 43.666 -62.001 114.999s-51.667 119.666 -57 144.999c-3.33301 9.33301 -7.5 17.833 -12.5 25.5s-9.5 16.834 -13.5 27.501c-12 22.667 -22 38.334 -30 47.001c-12 14 -16 23 -12 27c8.66699 14.667 23.667 8.33398 45 -18.999
c15.333 -19.333 29 -45 41 -77c16.667 -44 43.334 -106 80.001 -186c12 -26.667 21.667 -40 29 -40z" />
    <glyph glyph-name="w" unicode="w" horiz-adv-x="607" 
d="M554 315c1.33301 -7.33301 -3.66992 -26.832 -15.0029 -58.499s-17.666 -52.834 -18.999 -63.501c0 -10 -2 -15.667 -6 -17c-4.66699 -1.33301 -14.167 -13.666 -28.5 -36.999s-21.5 -37.666 -21.5 -42.999c0 -6 -6.33301 -8.66699 -19 -8
c-14.667 1.33301 -31.167 16.5 -49.5 45.5s-34.833 66.167 -49.5 111.5c-12.667 36 -26 63.333 -40 82c-2 -12.667 -4.66699 -36.5 -8 -71.5s-8 -63.167 -14 -84.5c-9.33301 -32 -14.666 -64 -15.999 -96c-0.666992 -10 -2.16699 -16.333 -4.5 -19s-7.83301 -4 -16.5 -4
c-13.333 0 -28.333 11 -45 33c-16.667 20 -25 32.667 -25 38c0 3.33301 -13.167 36.333 -39.5 99s-44.833 105 -55.5 127c-2 5.33301 -6.66699 12.833 -14 22.5l-23 29.5c-8 10 -13 16.333 -15 19c0 1.33301 4.33301 2 13 2c14 0 33.833 -17 59.5 -51
s38.834 -60.667 39.501 -80c0 -6 1.66699 -13 5 -21c24 -48.667 41 -85.334 51 -110.001c7.33301 -18 12.666 -29.5 15.999 -34.5s7.33301 -7.5 12 -7.5c10.667 -0.666992 20.834 32.666 30.501 99.999s14.167 124 13.5 170c1.33301 0 5.16602 -0.166992 11.499 -0.5
s10.833 -0.833008 13.5 -1.5s6 -1.66699 10 -3s6.83301 -3.16602 8.5 -5.49902s2.83398 -5.5 3.50098 -9.5c2.66699 -10.667 9.33398 -19 20.001 -25c10.667 -5.33301 23 -26.666 37 -63.999c13.333 -41.333 20 -64.666 20 -69.999c0 -8.66699 4.66699 -20.834 14 -36.501
s17.333 -24.834 24 -27.501c6.66699 -3.33301 15 0.666992 25 12c8 10 20.167 35.167 36.5 75.5s25.833 69.5 28.5 87.5c3.33301 19.333 9.66602 38.833 18.999 58.5s17 29.5 23 29.5c7.33301 0 11.5 -7.33301 12.5 -22s-2.16699 -27.334 -9.5 -38.001
c-8.66699 -13.333 -13 -24.333 -13 -33z" />
    <glyph glyph-name="x" unicode="x" horiz-adv-x="378" 
d="M325 415c1.33301 -2.66699 -11.333 -19.8311 -38 -51.498s-39.667 -48.5 -39 -50.5c0 -2.66699 -6.33301 -11 -19 -25c-8 -8 -12.5 -14.167 -13.5 -18.5s0.5 -10.5 4.5 -18.5c4.66699 -8.66699 18.667 -23.667 42 -45s37.333 -37.666 42 -48.999
c14.667 -28 25 -46 31 -54c12 -17.333 16 -28 12 -32c-5.33301 -5.33301 -14.166 -3 -26.499 7s-25.166 26 -38.499 48c-13.333 22.667 -30.833 46.167 -52.5 70.5s-34.5 35.166 -38.5 32.499c-4.66699 -2.66699 -15.667 -18 -33 -46s-34 -57 -50 -87
c-19.333 -38.667 -31 -58 -35 -58s-9.66699 4.33301 -17 13c-6 6.66699 -8.5 12.5 -7.5 17.5s6.5 17.5 16.5 37.5c4 7.33301 12.833 25 26.5 53s25.167 46.667 34.5 56c5.33301 3.33301 9.16602 9 11.499 17s6.5 14.333 12.5 19c9.33301 8 12 15 8 21
c-10 16.667 -39 51.334 -87 104.001c-12 13.333 -18 18 -18 14c0 -1.33301 0.333008 -3.66602 1 -6.99902c2.66699 -11.333 2 -17 -2 -17c-4.66699 0 -9.66699 9.16699 -15 27.5s-7.33301 33.166 -6 44.499c1.33301 9.33301 10 6.66602 26 -8.00098
c8.66699 -8 16.667 -17.667 24 -29c22.667 -35.333 49.667 -64 81 -86c20 -14.667 30 -16.667 30 -6c4 7.33301 10.833 16.666 20.5 27.999l33.5 38l26 29c10.667 13.333 18.667 21.666 24 24.999s10.666 3.33301 15.999 0c8.66699 -4 13 -8.66699 13 -14z" />
    <glyph glyph-name="y" unicode="y" horiz-adv-x="407" 
d="M30 444c0 12.667 3.33008 18.998 9.99707 18.998c8 0 15 -9 21 -27c3.33301 -8.66699 10.833 -26.667 22.5 -54s19.5 -47.666 23.5 -60.999c28.667 -88 54.667 -152 78 -192c14.667 -25.333 23.667 -38 27 -38c2 0 4.66699 3.33301 8 10c6 11.333 19.167 44 39.5 98
s32.166 87.667 35.499 101c2 7.33301 8.5 25 19.5 53s17.5 48.667 19.5 62c2.66699 15.333 7.66699 24.666 15 27.999s15.333 0 24 -10c4.66699 -5.33301 4.83398 -14.833 0.500977 -28.5l-15 -47.5c-5.66699 -18 -7.83398 -28.667 -6.50098 -32
c-2.66699 -14.667 -6.83398 -29.5 -12.501 -44.5s-12.5 -32.167 -20.5 -51.5s-14.667 -36.333 -20 -51c-39.333 -104.667 -64.333 -158 -75 -160c-5.33301 -2.66699 -13.666 -11.667 -24.999 -27s-21 -24.333 -29 -27c-17.333 -10 -27.333 -16.333 -30 -19
c-20 -21.333 -37 -22.666 -51 -3.99902c-5.33301 7.33301 -7.66602 12.333 -6.99902 15s5.33398 5.33398 14.001 8.00098c12 4.66699 18 8.66699 18 12c0 4 2.33301 6 7 6c6.66699 0 18.834 9.16699 36.501 27.5s26.5 30.833 26.5 37.5c0 10 -4.33301 20.333 -13 31
c-8.66699 12.667 -20.334 34.667 -35.001 66s-22 50.333 -22 57c-1.33301 4.66699 -4.16602 11 -8.49902 19s-7.5 17.333 -9.5 28c-4 22 -11 45 -21 69c-21.333 49.333 -34.166 80 -38.499 92s-6.5 23.667 -6.5 35z" />
    <glyph glyph-name="z" unicode="z" horiz-adv-x="352" 
d="M121 87c0 -2.66699 1 -4.50781 3 -5.50781s6.33301 -1.66699 13 -2s15.667 -0.166016 27 0.500977s27.333 1.66699 48 3c74 4.66699 110.667 2.66699 110 -6c0 -1.33301 -0.333008 -2.66602 -1 -3.99902c-2 -2.66699 -8.16699 -5.66699 -18.5 -9
s-28.5 -6.66602 -54.5 -9.99902s-55.667 -5 -89 -5c-5.33301 0 -22.833 -5.5 -52.5 -16.5s-49.5 -13.5 -59.5 -7.5c-9.33301 4 -14.833 9.16699 -16.5 15.5s1.16602 11.833 8.49902 16.5c9.33301 10 19.333 22.833 30 38.5l38 58l31 48.5c40 62.667 60 96.334 60 101.001
c0 5.33301 7.5 20.333 22.5 45s25.167 38.667 30.5 42c6.66699 4 10 8.33301 10 13c0 3.33301 -9.33301 5 -28 5s-39.167 -1.33301 -61.5 -4s-38.166 -6 -47.499 -10c-16.667 -5.33301 -30.667 -7.66602 -42 -6.99902c-18 0.666992 -30 6.33398 -36 17.001
c-2.66699 4 -2.33398 7.33301 0.999023 10c4.66699 4 23.834 8.83301 57.501 14.5s66.834 9.5 99.501 11.5c35.333 2.66699 53.666 5 54.999 7c3.33301 3.33301 11.5 4.33301 24.5 3s22.5 -4.33301 28.5 -9c7.33301 -5.33301 9.33301 -12.666 6 -21.999
s-14.333 -25.666 -33 -48.999c-15.333 -20.667 -36.833 -55.5 -64.5 -104.5s-47.5 -82.833 -59.5 -101.5c-26.667 -43.333 -40 -69 -40 -77z" />
    <glyph glyph-name="uni0093" horiz-adv-x="232" 
d="M174 380c12 0 18.667 -2.50195 20 -7.50195s-1.66699 -14.167 -9 -27.5s-10.666 -30.166 -9.99902 -50.499s5 -35.833 13 -46.5c13.333 -17.333 18 -28.666 14 -33.999l-3 -1c-8.66699 0 -18.834 4.83301 -30.501 14.5s-19.167 19.834 -22.5 30.501
c-4 12 -5.16699 28.167 -3.5 48.5s5.16699 32.166 10.5 35.499c4 1.33301 4.66699 8.33301 2 21c-1.33301 7.33301 -1 12 1 14s8 3 18 3zM70 393.998c12 0 18.1699 -1.33301 18.5029 -4s-3.83398 -11.334 -12.501 -26.001s-14 -36.5 -16 -65.5s0.333008 -47.833 7 -56.5
c8 -10.667 11.167 -18.5 9.5 -23.5s-7.83398 -5.83301 -18.501 -2.5c-12.667 2.66699 -21.334 7 -26.001 13c-3.33301 4.66699 -3.5 25.834 -0.5 63.501s6.83301 64.167 11.5 79.5c3.33301 9.33301 6.5 15.333 9.5 18s8.83301 4 17.5 4z" />
    <glyph glyph-name="uni0094" horiz-adv-x="248" 
d="M30 377c22 7.33301 36.001 0.00292969 42.001 -21.9971c4 -18.667 5.83301 -36.334 5.5 -53.001s-3.33301 -30.5 -9 -41.5s-12.834 -15.833 -21.501 -14.5c-10 1.33301 -15.333 3.66602 -16 6.99902s2.33301 11.666 9 24.999c6.66699 14.667 10 26 10 34
s-3.33301 20 -10 36c-6.66699 15.333 -10 25 -10 29zM152.001 380.003c-6.66699 0 -10.002 2.33398 -10.002 7.00098c0 5.33301 4 8.66602 12 9.99902c12 3.33301 20.5 3.33301 25.5 0s11.833 -13.333 20.5 -30c24 -43.333 23.667 -78.333 -1 -105
c-18 -19.333 -31 -26 -39 -20c-7.33301 5.33301 -4.66602 18 8.00098 38c8.66699 13.333 10.834 33.333 6.50098 60s-11.833 40 -22.5 40z" />
    <glyph glyph-name=".null" horiz-adv-x="0" 
 />
    <glyph glyph-name="nonmarkingreturn" horiz-adv-x="333" 
 />
    </font>
</defs>
</svg>
