<?xml version="1.0" standalone="no"?>
<!DOCTYPE svg PUBLIC "-//W3C//DTD SVG 1.1//EN" "http://www.w3.org/Graphics/SVG/1.1/DTD/svg11.dtd" >
<svg>
<metadata>
Created by FontForge 20090914 at Fri Feb 26 22:24:43 2016
 By www-data
Copyright (c) 2016, root
</metadata>
<defs>
<font id="LuisOrnamental" horiz-adv-x="636" >
  <font-face 
    font-family="Luis Ornamental"
    font-weight="400"
    font-stretch="normal"
    units-per-em="1000"
    panose-1="2 0 5 3 0 0 0 0 0 0"
    ascent="800"
    descent="-200"
    x-height="429"
    cap-height="615.004"
    bbox="28.6549 -201.236 987.996 800.07"
    underline-thickness="50"
    underline-position="-100"
    unicode-range="U+0020-U+0094"
  />
<missing-glyph horiz-adv-x="364" 
d="M33 0v666h265v-666h-265zM66 33h199v600h-199v-600z" />
    <glyph glyph-name=".notdef" horiz-adv-x="364" 
d="M33 0v666h265v-666h-265zM66 33h199v600h-199v-600z" />
    <glyph glyph-name="space" unicode=" " 
 />
    <glyph glyph-name="exclam" unicode="!" horiz-adv-x="374" 
d="M344 711c0 -5.33301 -2.32812 -8.5 -6.99512 -9.5s-8.33398 1.16699 -11.001 6.5c-6 10 -22.167 11.333 -48.5 4s-55.166 -21 -86.499 -41c-19.333 -12.667 -30.666 -19 -33.999 -19c-2 0 -13.167 -10.833 -33.5 -32.5s-33.5 -37.167 -39.5 -46.5
c-8 -11.333 -13.333 -29.333 -16 -54s-1.66699 -45 3 -61c6.66699 -22 17 -42.333 31 -61s26.667 -29.334 38 -32.001c5.33301 -1.33301 10 -3 14 -5s5.66699 -4 5 -6c-1.33301 -4.66699 9.66699 -15 33 -31c14 -9.33301 30.667 -22.333 50 -39s35.166 -31.667 47.499 -45
s17.166 -20.333 14.499 -21c-6 -1.33301 -17.667 6.66699 -35 24c-32.667 32 -64.667 58.333 -96 79c-17.333 12.667 -26 20.334 -26 23.001c0 7.33301 -12 -1.33398 -36 -26.001c-11.333 -11.333 -20 -21.333 -26 -30c-18 -26 -29.833 -59 -35.5 -99
s-2.83398 -70.667 8.49902 -92c6.66699 -14 22 -28.667 46 -44c24 -14.667 36 -24 36 -28c0 -4.66699 2.33301 -7 7 -7c15.333 0 29.666 -19 42.999 -57c12 -32 15 -64.333 9 -97c-3.33301 -16 -6.66602 -23.333 -9.99902 -22c-4.66699 1.33301 -5.66699 12.333 -3 33
c3.33301 23.333 0.666016 48 -8.00098 74c-5.33301 18.667 -11.333 32.334 -18 41.001s-22 22 -46 40c-32.667 24.667 -53.334 42.667 -62.001 54c-20.667 30 -26.334 69 -17.001 117c5.33301 30 11.833 52.5 19.5 67.5s21.167 32.833 40.5 53.5l33 34l-23 23
c-25.333 26 -41.5 57.667 -48.5 95s-2.83301 70.333 12.5 99c12.667 24.667 38.167 52.5 76.5 83.5s73.833 52.167 106.5 63.5c21.333 8 42 11 62 9s30 -8 30 -18z" />
    <glyph glyph-name="quotedbl" unicode="&#x22;" horiz-adv-x="297" 
d="M163 322c0 -18.667 -2.66699 -27.9971 -8 -27.9971c-3.33301 -0.666992 -6.66602 5.66602 -9.99902 18.999c-3.33301 17.333 -11.5 36.333 -24.5 57s-26 39 -39 55s-24.667 36.167 -35 60.5s-15.5 49.166 -15.5 74.499c0 38.667 22.333 81 67 127
c12 9.33301 20.333 12.333 25 9c1.33301 -2 1.66602 -3.5 0.999023 -4.5s-3.33398 -2.5 -8.00098 -4.5c-19.333 -6.66699 -41 -35 -65 -85c-16.667 -38 -16 -76.5 2 -115.5s42 -72.833 72 -101.5c8.66699 -8.66699 14.334 -16.667 17.001 -24
c2.66699 -8 5.33398 -10 8.00098 -6c2 2 5 7 9 15c4.66699 10.667 19.5 31.167 44.5 61.5s40.167 52.166 45.5 65.499c7.33301 15.333 12.333 23 15 23c1.33301 0 2.33301 -1.33301 3 -4c2.66699 -9.33301 -1.83301 -24.5 -13.5 -45.5s-24.834 -38.5 -39.501 -52.5
c-34 -31.333 -51 -63.333 -51 -96z" />
    <glyph glyph-name="dollar" unicode="$" 
d="M113 -35c0 -1.33301 10.999 -5.66602 32.999 -12.999c63.333 -21.333 112.666 -10.333 147.999 33c16 19.333 29 40.666 39 63.999s13.833 47.5 11.5 72.5s-14.166 43.833 -35.499 56.5c-17.333 8.66699 -29.166 12 -35.499 10s-15.166 -12 -26.499 -30
c-5.33301 -9.33301 -27.833 -41.833 -67.5 -97.5s-61.834 -87.5 -66.501 -95.5zM102.999 420c0 -24 1.16406 -40.5 3.49707 -49.5s8.5 -20.833 18.5 -35.5c20.667 -30 47.5 -58.167 80.5 -84.5s54.167 -36.5 63.5 -30.5c2.66699 2.66699 26.334 38.667 71.001 108l-34 37
c-22 24 -40.667 51.833 -56 83.5s-24.666 60.5 -27.999 86.5c-3.33301 26.667 -7.66602 40 -12.999 40c-8 -2 -21.667 -8.33301 -41 -19c-23.333 -12 -40 -28.5 -50 -49.5s-15 -49.833 -15 -86.5zM605.996 688c0 -6.66699 -1.8252 -13.167 -5.49219 -19.5
s-7.5 -9.5 -11.5 -9.5c-4.66699 0 -11.334 -6.66699 -20.001 -20c-1.33301 -2.66699 -14.666 -21.667 -39.999 -57c-38 -52.667 -74.5 -106.5 -109.5 -161.5s-51.5 -84.833 -49.5 -89.5c2 -6.66699 11.667 -10 29 -10c8.66699 0 14.667 -0.666992 18 -2
s4.66602 -3.33301 3.99902 -6c-2.66699 -8.66699 -20 -9.33398 -52 -2.00098c-9.33301 2 -15.833 2.5 -19.5 1.5s-6.5 -4.16699 -8.5 -9.5c-3.33301 -8.66699 -11.333 -22.167 -24 -40.5s-20.334 -29.833 -23.001 -34.5c-6 -8.66699 -8.83301 -14.5 -8.5 -17.5
s5.5 -6.83301 15.5 -11.5c16 -8.66699 29.333 -18.334 40 -29.001c29.333 -27.333 27.666 -74.666 -5.00098 -141.999c-24.667 -52 -57 -83.667 -97 -95c-12.667 -4 -26.834 -5.33301 -42.501 -4s-41.5 6.33301 -77.5 15c-8 2 -14.5 2 -19.5 0s-11.5 -8 -19.5 -18
c-29.333 -34 -46 -49 -50 -45c-1.33301 0.666992 3.5 7.5 14.5 20.5l33 39.5c11 13.333 15.833 20.666 14.5 21.999c0 4 -5 15.333 -15 34c-6.66699 12.667 -10.334 22.5 -11.001 29.5s0.666016 17.5 3.99902 31.5c8.66699 32.667 21.667 61.334 39 86.001
s33.333 36.667 48 36c4.66699 0 4.66699 -1.66699 0 -5c-1.33301 -1.33301 -3 -2.33301 -5 -3c-18.667 -6 -36.667 -30.167 -54 -72.5s-20.333 -73.5 -9 -93.5c2.66699 -6 5.66699 -11.167 9 -15.5s6 -6.16602 8 -5.49902c7.33301 2.66699 34.166 38.334 80.499 107.001
s67.833 105 64.5 109c-2.66699 5.33301 -12.667 11.666 -30 18.999c-15.333 8 -35 23.5 -59 46.5s-42 44.167 -54 63.5c-14 22 -21.667 49.833 -23 83.5s4 63.167 16 88.5c11.333 25.333 28.333 46.166 51 62.499s45.667 24.5 69 24.5c7.33301 0 12.166 -2.33301 14.499 -7
s4.5 -16.667 6.5 -36c2 -26 10.833 -56.167 26.5 -90.5s33.5 -62.5 53.5 -84.5l27 -30c90 138.667 157.667 238.334 203 299.001c36 48.667 54 64.667 54 48z" />
    <glyph glyph-name="percent" unicode="%" horiz-adv-x="706" 
d="M634 163c0 38 -15.167 69.668 -45.5 95.001s-71.5 40.666 -123.5 45.999c-12 0.666992 -30.5 2.5 -55.5 5.5s-41.167 4.83301 -48.5 5.5l-10 -30c-9.33301 -25.333 -14.333 -44.5 -15 -57.5s2.66602 -31.167 9.99902 -54.5c8.66699 -30 19.5 -52.667 32.5 -68
s34.167 -31.666 63.5 -48.999c38.667 -23.333 65.334 -34.833 80.001 -34.5s35 12.166 61 35.499c34 30.667 51 66 51 106zM666 610.001c-7.33301 0 -11 5.65918 -11 16.9922c0 8.66699 -2.33301 14.334 -7 17.001s-19.334 6.66699 -44.001 12c-8 1.33301 -12 0 -12 -4
c0 -2 -4 -4.16699 -12 -6.5s-15.5 -5 -22.5 -8s-8.83301 -6.5 -5.5 -10.5c1.33301 -4.66699 1.33301 -7.33398 0 -8.00098l-3 1c-7.33301 4.66699 -19.833 -6.66602 -37.5 -33.999s-35.834 -59.166 -54.501 -95.499s-30.667 -57.833 -36 -64.5
c-8.66699 -13.333 -17 -28.666 -25 -45.999s-14 -29.333 -18 -36c-5.33301 -6.66699 -6.33301 -10.667 -3 -12c2.66699 -2.66699 17.167 -6.33398 43.5 -11.001s46.5 -7 60.5 -7c31.333 0 62.166 -8.83301 92.499 -26.5s52.833 -40.167 67.5 -67.5
c7.33301 -13.333 10.333 -33.666 9 -60.999s-6.33301 -49 -15 -65c-18 -32.667 -40.5 -56.834 -67.5 -72.501s-51.5 -18.834 -73.5 -9.50098c-20 8 -44.833 22 -74.5 42s-48.5 35.667 -56.5 47c-9.33301 13.333 -19 34.833 -29 64.5s-15 51.834 -15 66.501
c0 11.333 -0.666992 17 -2 17s-3.66602 -3.33301 -6.99902 -10c-0.666992 -1.33301 -5.83398 -9.83301 -15.501 -25.5s-18.167 -31 -25.5 -46s-10.666 -24.833 -9.99902 -29.5c2 -4 -0.5 -8.16699 -7.5 -12.5s-10.167 -8.5 -9.5 -12.5c0 -6 -16 -25 -48 -57
c-24.667 -24.667 -48.667 -44 -72 -58s-43 -21 -59 -21s-26 7.66699 -30 23c-3.33301 12.667 -0.833008 31.667 7.5 57s17.833 43 28.5 53c15.333 14 22.666 16.333 21.999 7c-0.666992 -5.33301 -4.66699 -15.333 -12 -30c-12 -24 -19.333 -38 -22 -42
c-4.66699 -9.33301 -6.5 -19.833 -5.5 -31.5s4.16699 -18.5 9.5 -20.5c6.66699 -2.66699 22.667 2.5 48 15.5s44.333 25.833 57 38.5c10.667 10.667 28.334 38.667 53.001 84s37 72.333 37 81c0 7.33301 3 11 9 11c3.33301 0 11.5 10.333 24.5 31s22.5 38.667 28.5 54
c1.33301 3.33301 -5.66699 4.33301 -21 3c-52 -3.33301 -98.667 9.83398 -140 39.501s-60.666 64.834 -57.999 105.501c0.666992 26.667 15.667 55.334 45 86.001s58.666 48 87.999 52c12 2 21 1.83301 27 -0.5s13 -7.83301 21 -16.5c21.333 -23.333 33 -41.666 35 -54.999
c0 -2.66699 -1 -4 -3 -4c-4 0 -12.333 9.33301 -25 28c-7.33301 12 -13.833 19.833 -19.5 23.5s-13.5 5.5 -23.5 5.5c-32 0 -62 -17 -90 -51c-14 -16 -24.333 -33.833 -31 -53.5s-8.33398 -36.167 -5.00098 -49.5c2.66699 -9.33301 12.334 -23.166 29.001 -41.499
s30.667 -30.166 42 -35.499c9.33301 -4.66699 28.333 -9.5 57 -14.5s48.334 -7.16699 59.001 -6.5s21 8 31 22s26.333 44 49 90c10 22.667 26.333 51.334 49 86.001s37.334 59 44.001 73c3.33301 10.667 7 16 11 16c3.33301 0 13 8 29 24c14 16 30 25 48 27
c15.333 1.33301 34.333 1.66602 57 0.999023s34.667 -2 36 -4c17.333 -29.333 22 -45 14 -47c-1.33301 -0.666992 -3 -1 -5 -1z" />
    <glyph glyph-name="ampersand" unicode="&#x26;" horiz-adv-x="455" 
d="M268 272c1.33301 0 0.332031 4.32715 -3.00098 12.9941s-8.66602 20.334 -15.999 35.001c-17.333 33.333 -29 52 -35 56s-14.333 -2 -25 -18c-7.33301 -11.333 -19.833 -28.666 -37.5 -51.999s-31.167 -43 -40.5 -59c-25.333 -39.333 -37.333 -60.666 -36 -63.999
s20.333 4.33398 57 23.001c34 16.667 67.333 26.334 100 29.001c32 2.66699 48.333 7.33398 49 14.001c0 3.33301 -3 8 -9 14s-7.33301 9 -4 9zM392.999 588.994c9.33301 0 13.9971 -2.33398 13.9971 -7.00098c0 -3.33301 -2.66699 -5.5 -8 -6.5
s-12.166 -0.333008 -20.499 2s-17.166 5.83301 -26.499 10.5c-17.333 9.33301 -36.833 25.5 -58.5 48.5s-36.834 43.833 -45.501 62.5c-8.66699 20 -17.334 30.167 -26.001 30.5s-23.667 -4.83398 -45 -15.501c-16 -6.66699 -27.5 -13.167 -34.5 -19.5
s-14.833 -17.833 -23.5 -34.5c-24 -46.667 -36 -98.667 -36 -156c0 -12 1.5 -19.667 4.5 -23s11.833 -7 26.5 -11c24 -6 56 -25 96 -57c35.333 49.333 54 77 56 83c6.66699 13.333 14.334 12 23.001 -4c2 -3.33301 4.66699 -9.66602 8 -18.999l2 -3
c10.667 -26.667 21.5 -44 32.5 -52s29.5 -12 55.5 -12c27.333 0 40 -2.33301 38 -7c-3.33301 -4.66699 -15.333 -7 -36 -7s-36.667 2.33301 -48 7c-13.333 6 -34.666 32.333 -63.999 79c-6 -12 -25.667 -37.667 -59 -77c16 -22.667 32.833 -52.5 50.5 -89.5
s26.167 -63.5 25.5 -79.5c0 -7.33301 -1 -11.833 -3 -13.5s-5.66699 -1.83398 -11 -0.500977c-20.667 5.33301 -52.667 1.33301 -96 -12s-84.333 -31.666 -123 -54.999c-18 -12 -28.333 -16 -31 -12c-1.33301 4.66699 16.5 35.667 53.5 93s55.5 86.333 55.5 87
c4.66699 10 11.5 20.333 20.5 31s15.833 19.334 20.5 26.001c10 14 12.667 25.667 8 35c-5.33301 8.66699 -17.833 18.5 -37.5 29.5s-37.5 17.833 -53.5 20.5c-12 2 -19.167 4.83301 -21.5 8.5s-4.16602 13.5 -5.49902 29.5c-1.33301 22 2.66699 51.5 12 88.5
s19.666 63.833 30.999 80.5c13.333 20.667 20.333 31.667 21 33c0.666992 2 14.334 10 41.001 24c20.667 9.33301 36.167 15 46.5 17s18.5 0.666992 24.5 -4s11.667 -13.667 17 -27c11.333 -28 31 -55.333 59 -82s51.667 -40 71 -40z" />
    <glyph glyph-name="quotesingle" unicode="'" horiz-adv-x="186" 
d="M45 652c10 4 18.001 6.00098 24.001 6.00098s16.667 -2 32 -6c23.333 -6.66699 39.666 -20.5 48.999 -41.5s8.33301 -41.5 -3 -61.5c-17.333 -30 -28.666 -51.5 -33.999 -64.5s-9 -27.167 -11 -42.5c-3.33301 -23.333 -7 -34 -11 -32c-6 4 -6.33301 17.167 -1 39.5
s14.666 46.833 27.999 73.5c17.333 34 24.333 58.667 21 74c-6 30 -31.333 44.667 -76 44c-20.667 -0.666992 -31.667 0 -33 2c-0.666992 1.33301 1.33301 3 6 5c2 1.33301 5 2.66602 9 3.99902z" />
    <glyph glyph-name="parenleft" unicode="(" horiz-adv-x="340" 
d="M220 232c2.66699 -5.33301 -17.167 -9.66895 -59.5 -13.002s-78.5 -4.33301 -108.5 -3c-0.666992 -7.33301 -1.66699 -24.833 -3 -52.5l-3 -63c-0.666992 -14.333 -1.16699 -32.833 -1.5 -55.5s0.166992 -42.334 1.5 -59.001s3.33301 -31.667 6 -45
c33.333 -1.33301 60.333 2 81 10c9.33301 4 18.5 7 27.5 9s16.333 2.5 22 1.5s8.5 -3.16699 8.5 -6.5c0 -2.66699 -4 -4.83398 -12 -6.50098s-13.667 -1.5 -17 0.5c-0.666992 0.666992 -11 -4 -31 -14c-18.667 -10 -40 -14.333 -64 -13
c-16.667 0.666992 -26.334 2.33398 -29.001 5.00098c-5.33301 6 -7.66602 36 -6.99902 90v51c0.666992 92.667 2.33398 144 5.00098 154c3.33301 10.667 11.666 15.667 24.999 15c34 -2.66699 55.333 -3.66699 64 -3c10.667 0.666992 21.334 2.33398 32.001 5.00098
c-26.667 27.333 -50.334 59.333 -71.001 96c-6.66699 8 -10 61.667 -10 161l38 77c42 84.667 85.333 137 130 157c35.333 16.667 56.666 18.334 63.999 5.00098c3.33301 -4 2.66602 -5 -2.00098 -3c-6 3.33301 -19.667 1.33301 -41 -6s-37.333 -15.666 -48 -24.999
c-23.333 -19.333 -51 -58 -83 -116c-31.333 -59.333 -47.666 -110.333 -48.999 -153s11.667 -85.334 39 -128.001c24.667 -37.333 50.334 -58 77.001 -62c12.667 -1.33301 19 -4.66602 19 -9.99902z" />
    <glyph glyph-name="parenright" unicode=")" horiz-adv-x="285" 
d="M156 323c0 -9.33301 0.667969 -15.0029 2.00098 -17.0029s4.66602 -1.66699 9.99902 1c9.33301 4.66699 37 10 83 16c2.66699 -36.667 4 -63 4 -79s-1.5 -42.333 -4.5 -79s-4.83301 -63.334 -5.5 -80.001c-1.33301 -38 -4 -59.667 -8 -65
c-7.33301 -9.33301 -34.5 -21.5 -81.5 -36.5s-72.167 -19.833 -75.5 -14.5c-0.666992 2 0.333008 4 3 6s7 3.66699 13 5c14.667 2.66699 36.834 9 66.501 19s46.167 16.333 49.5 19c9.33301 9.33301 16.666 94.666 21.999 255.999
c0.666992 18.667 -3.16602 29.334 -11.499 32.001s-26.5 -1.66602 -54.5 -12.999c-29.333 -10.667 -52.666 -15.334 -69.999 -14.001l17 27c27.333 41.333 47.5 90.5 60.5 147.5s13.167 96.833 0.5 119.5c-6 10.667 -6.33301 16 -1 16c10.667 0 9 14.667 -5 44
c-6.66699 12.667 -14.334 25 -23.001 37c-25.333 34.667 -41 51.334 -47 50.001c-1.33301 0 -2 -1 -2 -3c0 -5.33301 3.33301 -10.666 10 -15.999s18.5 -23.166 35.5 -53.499s24.5 -46.5 22.5 -48.5c-0.666992 -0.666992 -2.66699 1.33301 -6 6l-12 17.5
c-4.66699 7 -9.16699 14.333 -13.5 22s-8 14.667 -11 21s-4.5 10.166 -4.5 11.499c0 2.66699 -11.833 15.334 -35.5 38.001s-37.5 35 -41.5 37c-4 1.33301 -7.33301 7.33301 -10 18c-4 10.667 -2 15.667 6 15c6.66699 0 14 -4.66699 22 -14
c10.667 -12.667 25 -24.667 43 -36c77.333 -53.333 112 -129.666 104 -228.999c-4 -44 -15 -92.667 -33 -146c-6.66699 -17.333 -11.334 -25.333 -14.001 -24c-1.33301 4.66699 -2.33301 3.66699 -3 -3z" />
    <glyph glyph-name="asterisk" unicode="*" horiz-adv-x="319" 
d="M219 391l0.000976562 9v10c0 2.66699 -0.166992 6 -0.5 10s-0.833008 7.33301 -1.5 10l-2 8c-0.666992 2.66699 -1.83398 4.5 -3.50098 5.5s-3.5 1.83301 -5.5 2.5s-4.33301 0.5 -7 -0.5s-6 -2.83301 -10 -5.5c-17.333 -10.667 -14.333 -22.667 9 -36zM187.001 470
c-7.33301 7.33301 -12.668 11.332 -16.001 11.999s-7.66602 -1.66602 -12.999 -6.99902c-6 -6 -6.33301 -12.667 -1 -20c4.66699 -8.66699 13 -10.334 25 -5.00098c8 3.33301 12.167 5.83301 12.5 7.5s-2.16699 5.83398 -7.5 12.501zM274.999 511.999
c-2 4 -8.49805 5.66797 -19.498 5.00098s-24 -3.33398 -39 -8.00098s-25.167 -9.66699 -30.5 -15c-2 -2 -1.33301 -5 2 -9s8.16602 -7.66699 14.499 -11s12.166 -5 17.499 -5c6.66699 0 17.5 5.83301 32.5 17.5s22.5 20.167 22.5 25.5zM127.001 478
c-38.667 26.667 -62.668 37.3301 -72.001 31.9971c-10.667 -5.33301 -14.667 -16.666 -12 -33.999s11 -35.666 25 -54.999c7.33301 0 16.5 4 27.5 12s19.833 16.833 26.5 26.5s8.33398 15.834 5.00098 18.501zM154 595.996c6 0 5.33008 -3.66504 -2.00293 -10.998
c-10 -10 -8 -30 6 -60c4.66699 -9.33301 10.167 -14.166 16.5 -14.499s23.5 3.5 51.5 11.5c42 12 63 10.667 63 -4c0 -7.33301 -5.16699 -17 -15.5 -29s-20.833 -20.333 -31.5 -25c-10 -4 -16 -7.33301 -18 -10s-1.33301 -7 2 -13c5.33301 -10 7.66602 -22 6.99902 -36
s-4.33398 -22.333 -11.001 -25c-4 -3.33301 -16.5 2.5 -37.5 17.5s-31.833 22.5 -32.5 22.5c-0.666992 0.666992 -7.16699 -4.5 -19.5 -15.5l-37.5 -33c-12.667 -11 -19.667 -15.5 -21 -13.5c-1.33301 2.66699 -1.66602 6.5 -0.999023 11.5s2.33398 9.66699 5.00098 14
s5 5.83301 7 4.5c6 1.33301 14.667 7.33301 26 18s20 17 26 19c9.33301 5.33301 14.333 8.83301 15 10.5s-1.33301 5.16699 -6 10.5c-5.33301 5.33301 -9.16602 7.83301 -11.499 7.5s-6.16602 -3.5 -11.499 -9.5c-8 -9.33301 -19 -18.333 -33 -27
c-10 -6 -16.5 -8.83301 -19.5 -8.5s-8.5 4.16602 -16.5 11.499c-8.66699 8 -15.5 22.167 -20.5 42.5s-5.5 36.5 -1.5 48.5c4.66699 15.333 17 20.666 37 15.999s42.333 -18 67 -40c4.66699 -4.66699 8.16699 -7 10.5 -7s5.5 2.33301 9.5 7c6 6.66699 6 13 0 19
c-7.33301 10.667 -13.166 22.167 -17.499 34.5s-5.5 24.166 -3.5 35.499s8.33301 18 19 20z" />
    <glyph glyph-name="plus" unicode="+" horiz-adv-x="274" 
d="M147 532c-12.667 0 -31.665 -16.6611 -56.998 -49.9941c-4 -6 -5.5 -11 -4.5 -15s4.83301 -11.667 11.5 -23c7.33301 -12.667 13.166 -19.834 17.499 -21.501s14.5 -1.5 30.5 0.5l55.5 7.5c12.333 1.66699 22.166 2.5 29.499 2.5s11.666 -0.5 12.999 -1.5
s1.33301 -2.83301 0 -5.5c-2 -6.66699 -6.33301 -9.33398 -13 -8.00098c-8 1.33301 -43 -3.33398 -105 -14.001c26 -29.333 45 -61.666 57 -96.999c13.333 -44 17.333 -76.333 12 -97c-1.33301 -5.33301 -3.66602 -7.33301 -6.99902 -6
c-6.66699 1.33301 -9.33398 6.66602 -8.00098 15.999c2 14.667 -1.83301 37.167 -11.5 67.5s-20.5 54.166 -32.5 71.499l-26 34l-21 -20c-12.667 -12 -23.834 -26.833 -33.501 -44.5s-14.5 -31.834 -14.5 -42.501c0 -4 -0.5 -7 -1.5 -9s-2.5 -2.66699 -4.5 -2
c-7.33301 5.33301 -4.66602 21.333 8.00098 48s28 48 46 64l14 13c-21.333 30.667 -32.666 50 -33.999 58c0 7.33301 6.33301 19.166 19 35.499s25 28.5 37 36.5c22 15.333 35.333 20.333 40 15c1.33301 -1.33301 1 -3.33301 -1 -6c-2 -4.66699 -7.33301 -7 -16 -7z" />
    <glyph glyph-name="comma" unicode="," horiz-adv-x="222" 
d="M160 374c-21.333 0 -39.002 -5.99707 -53.002 -17.9971c-22.667 -20.667 -40 -46.334 -52 -77.001s-15.667 -59.667 -11 -87c3.33301 -18.667 18.333 -41.334 45 -68.001c26 -25.333 43.167 -46.333 51.5 -63s12.833 -38.334 13.5 -65.001
c0.666992 -30 -4.66602 -53.667 -15.999 -71c-10.667 -17.333 -21 -26 -31 -26c-6 0 -7.66699 2 -5 6c1.33301 2 6.33301 8 15 18c10 11.333 16 20.666 18 27.999s3 22.333 3 45c0 23.333 -1.33301 39.166 -4 47.499s-10.667 20.833 -24 37.5c-18 24 -29.333 36 -34 36
s-12.167 9 -22.5 27s-17.166 33.333 -20.499 46c-5.33301 26.667 -3.16602 55.334 6.50098 86.001s26 57.334 49 80.001s48.833 34 77.5 34c16 0 24.667 -2.33301 26 -7c-2.66699 -5.33301 -13.334 -8.33301 -32.001 -9z" />
    <glyph glyph-name="hyphen" unicode="-" horiz-adv-x="411" 
d="M365 237c-12 23.333 -30.665 31.333 -55.998 24c-38.667 -6.66699 -66.334 -7.33398 -83.001 -2.00098s-31.667 19 -45 41c-14.667 24.667 -23.334 36.334 -26.001 35.001c-8 -0.666992 -16.167 -5.16699 -24.5 -13.5s-22.166 -25.5 -41.499 -51.5
c-25.333 -34 -37 -53.333 -35 -58c1.33301 -2 4.66602 -4 9.99902 -6c16 -6 70.167 -4.16699 162.5 5.5s138.5 18.167 138.5 25.5zM110.002 321c14.667 14.667 25.5 23.834 32.5 27.501s13.667 3.16699 20 -1.5s14.833 -15.667 25.5 -33
c12.667 -20.667 26.5 -33.334 41.5 -38.001s37.833 -3.66699 68.5 3c19.333 4 31.833 5.5 37.5 4.5s12.167 -5.5 19.5 -13.5c12.667 -11.333 21.334 -31.333 26.001 -60c-5.33301 -0.666992 -22.833 -2.5 -52.5 -5.5s-58.334 -5.5 -86.001 -7.5s-57.334 -4 -89.001 -6
s-58.667 -2.16699 -81 -0.5s-36.166 5.16699 -41.499 10.5c-2.66699 4.66699 4.83301 20.667 22.5 48s36.5 51.333 56.5 72z" />
    <glyph glyph-name="period" unicode="." horiz-adv-x="395" 
d="M362 39c4.66699 -14.667 3.33301 -21.667 -4 -21c-6 0 -9.33301 4.33301 -10 13v4c0 14 -8 30.167 -24 48.5s-34.667 32.833 -56 43.5c-53.333 26 -98.666 22.667 -135.999 -10c-23.333 -21.333 -38.333 -37.833 -45 -49.5s-10 -28.5 -10 -50.5
c0 -25.333 -2.66699 -38 -8 -38c-3.33301 0 -6 8.66699 -8 26c-4 40 13 76.667 51 110c26 22 39 35 39 39c0 2.66699 -7.66699 8 -23 16c-42.667 21.333 -72.167 53.333 -88.5 96s-13.166 79 9.50098 109c12.667 16 21.334 23.667 26.001 23
c5.33301 0 5.33301 -1.33301 0 -4c-11.333 -4.66699 -20.333 -20.167 -27 -46.5s-7.33398 -49.833 -2.00098 -70.5c4 -16 14.5 -34 31.5 -54s33.167 -33.333 48.5 -40c9.33301 -4 16 -5.83301 20 -5.5s8.66699 3.16602 14 8.49902c8 7.33301 16.333 8.33301 25 3
c9.33301 -6 18.666 -3.66699 27.999 7c18.667 21.333 30.334 47.166 35.001 77.499s1.66699 59.166 -9 86.499c-8 18.667 -10.667 28.5 -8 29.5s8.66699 -7.83301 18 -26.5c13.333 -30.667 17.166 -62.167 11.499 -94.5s-19.834 -59.166 -42.501 -80.499
c-12 -11.333 -17.667 -18.666 -17 -21.999s8 -6.66602 22 -9.99902c33.333 -6.66699 62.333 -20.667 87 -42s42 -46.333 52 -75z" />
    <glyph glyph-name="slash" unicode="/" horiz-adv-x="462" 
d="M179 164c-1.33301 16.667 -3.66699 25.666 -7 26.999c-3.33301 2.66699 -22 -8.5 -56 -33.5s-54 -42.167 -60 -51.5c-12.667 -18.667 -15.667 -41 -9 -67s20.334 -44 41.001 -54c11.333 -6 20.166 -6.66699 26.499 -2s15.833 19.334 28.5 44.001
c27.333 53.333 39.333 99 36 137zM29.999 59.999c0 20.667 5.83203 38.999 17.499 54.999s33.167 34.667 64.5 56l57 38v118c0.666992 60 1.83398 96.833 3.50098 110.5s8.16699 31.834 19.5 54.501c30 64 75.667 110.333 137 139c22 10.667 43.667 17.167 65 19.5
s33.666 -0.5 36.999 -8.5c0 -1.33301 -1.16699 -2.5 -3.5 -3.5s-5.83301 -1.5 -10.5 -1.5h-18c-22.667 1.33301 -46.334 -4.33398 -71.001 -17.001c-23.333 -12.667 -47.166 -32 -71.499 -58s-42.166 -51.667 -53.499 -77c-13.333 -30.667 -20.666 -72.334 -21.999 -125.001
c-0.666992 -67.333 2.66602 -112.333 9.99902 -135c63.333 36 100.666 65.333 111.999 88c9.33301 16 18.5 30 27.5 42s16.167 20.833 21.5 26.5s8.66602 7.83398 9.99902 6.50098c3.33301 -16.667 1.33301 -47.667 -6 -93s-10 -80.666 -8 -105.999
c0.666992 -46.667 -1.66602 -72 -6.99902 -76c-8 -10 -8 49 0 177l4 42l5 21c-39.333 -55.333 -77.333 -94.333 -114 -117l-45 -28v-32.5c0 -15 -0.166992 -24.833 -0.5 -29.5s-0.833008 -12.334 -1.5 -23.001s-1.66699 -18.5 -3 -23.5l-5.5 -21
c-2.33301 -9 -5.16602 -17.5 -8.49902 -25.5s-7.66602 -17 -12.999 -27c-18 -34.667 -29.5 -53.667 -34.5 -57s-19.5 -0.666016 -43.5 8.00098c-12.667 4.66699 -24.334 15.667 -35.001 33s-16 34 -16 50z" />
    <glyph glyph-name="zero" unicode="0" horiz-adv-x="705" 
d="M550 687c-2.66699 0 -4.66699 1.17285 -6 3.50586s-1.33301 4.66602 0 6.99902s3.33301 3.5 6 3.5c4.66699 0 7 -1.66699 7 -5c0 -4 5.66699 -9 17 -15c6 -2 13.333 -9 22 -21s15.334 -18.667 20.001 -20c4 1.33301 6.66699 -0.333984 8 -5.00098
c0 -4.66699 6.66699 -17.334 20 -38.001c14 -18 23.333 -56 28 -114s5.66699 -113.667 3 -167s-6.33398 -93.333 -11.001 -120c-2 -6.66699 -3.16699 -12.167 -3.5 -16.5s-0.5 -7.33301 -0.5 -9s-0.5 -4.16699 -1.5 -7.5s-3.16699 -8.33301 -6.5 -15
c-6.66699 -12 -10 -21.667 -10 -29c0 -6 -3 -9 -9 -9c-2 0 -3.33301 -0.5 -4 -1.5s-0.333984 -1.83301 0.999023 -2.5c2.66699 -2.66699 1.66699 -7 -3 -13c-2.66699 -2.66699 -9.33398 -10.834 -20.001 -24.501s-21.334 -26.167 -32.001 -37.5s-18.667 -18.333 -24 -21
c-22 -15.333 -41.667 -17.333 -59 -6s-27.333 32.666 -30 63.999c-2 22 -5.66699 44.333 -11 67s-10 36.334 -14 41.001c-8 8.66699 -21.333 -4.66602 -40 -39.999c-11.333 -20.667 -23.333 -47.334 -36 -80.001c-10 -25.333 -29.333 -44.166 -58 -56.499
s-51.334 -11.166 -68.001 3.50098c-12.667 10.667 -24.334 28.167 -35.001 52.5s-16 45.166 -16 62.499c0 12 -8.33301 31.667 -25 59c-65.333 106.667 -106.166 203.834 -122.499 291.501s-5.16602 150.167 33.501 187.5c28.667 28.667 60.667 35.667 96 21
c27.333 -12 48.333 -41.333 63 -88c7.33301 -24.667 14.333 -43.334 21 -56.001c6 -12 7 -24.333 3 -37c-5.33301 -14.667 -3.66602 -38.334 5.00098 -71.001s18.667 -52.667 30 -60c10 -6.66699 21.167 -8.33398 33.5 -5.00098s21.5 10.333 27.5 21
c1.33301 4 6.33301 13.5 15 28.5s13.667 25.5 15 31.5c2.66699 17.333 7.83398 41.833 15.501 73.5s12.834 49.834 15.501 54.501c4 7.33301 6 16.333 6 27c0 10 3.66699 21.5 11 34.5s14.333 21.167 21 24.5c5.33301 2 7.66602 1.66699 6.99902 -1
c0 -2.66699 -2 -7.66699 -6 -15c-6.66699 -12.667 -13.667 -34 -21 -64s-9.66602 -47 -6.99902 -51c2 -2.66699 -0.333008 -6 -7 -10s-9.66699 -7 -9 -9c1.33301 -4.66699 1 -12.334 -1 -23.001s-4.5 -21.834 -7.5 -33.501l-5.5 -21.5
c-1.33301 -7.33301 -5.66602 -16.166 -12.999 -26.499s-12 -17.833 -14 -22.5c-2.66699 -10.667 -10.5 -19.5 -23.5 -26.5s-24.833 -8.83301 -35.5 -5.5c-42 10 -64.667 57 -68 141c-0.666992 14 -2 26.167 -4 36.5s-3.83301 18.166 -5.5 23.499s-4.66699 13.5 -9 24.5
s-7.83301 20.833 -10.5 29.5c-8 23.333 -16.667 39.166 -26 47.499s-24.333 13.5 -45 15.5c-14.667 1.33301 -25 1 -31 -1s-14.333 -7.33301 -25 -16c-37.333 -32.667 -48.333 -90.334 -33 -173.001s54.333 -176.667 117 -282c18 -31.333 30.333 -62.333 37 -93
c6.66699 -38.667 18.667 -64.667 36 -78s36 -14.166 56 -2.49902s37.333 32.167 52 61.5c4 8.66699 8 16 12 22s7 11 9 15s4 10 6 18c2 12.667 9.16699 25.667 21.5 39s23.166 20 32.499 20c12.667 0 22.334 -7.16699 29.001 -21.5s13.334 -41.166 20.001 -80.499
c6.66699 -44 11.667 -69 15 -75c2.66699 -4 12 -6 28 -6c9.33301 0 17.166 2 23.499 6s14.833 12 25.5 24c33.333 38.667 56.333 78.5 69 119.5s20 98.167 22 171.5c4 131.333 -6.33301 220.333 -31 267c-8.66699 17.333 -22.334 36.333 -41.001 57s-31 31 -37 31z
M508 700.006c-0.666992 -2.66699 -2.00195 -4.00293 -4.00195 -4.00293c-2.66699 2 -10.167 -2.66699 -22.5 -14s-20.166 -16.666 -23.499 -15.999c-5.33301 0 -3.33301 3.66699 6 11l2 1c10.667 6.66699 18.334 13.667 23.001 21c2 3.33301 4.5 5.83301 7.5 7.5
s5.66699 1.83398 8 0.500977s3.5 -3.66602 3.5 -6.99902z" />
    <glyph glyph-name="one" unicode="1" horiz-adv-x="467" 
d="M282 460c-28 9.33301 -53.667 21.333 -77 36c-18.667 12.667 -29 18 -31 16c-0.666992 -1.33301 -2 -4.66602 -4 -9.99902c-2.66699 -8 -12.834 -23.5 -30.501 -46.5s-34.167 -42.833 -49.5 -59.5c22 -11.333 46.5 -30.5 73.5 -57.5s46.5 -51.167 58.5 -72.5
c10 -20 16.667 -40.333 20 -61c2.66699 -20 5.33398 -29.333 8.00098 -28c2 -4.66699 6.5 26.666 13.5 93.999s13.167 130.333 18.5 189zM275 771c5.33301 -14 10.334 -55.998 15.001 -125.998s6.66699 -128.333 6 -175c34 2 66 8.66699 96 20c31.333 12 46 16 44 12
c-0.666992 -2.66699 -8.33398 -7.66699 -23.001 -15c-23.333 -12.667 -57 -22 -101 -28c-6.66699 -0.666992 -10.667 -2.33398 -12 -5.00098c-2.66699 -6.66699 -8.33398 -66.334 -17.001 -179.001c-4 -46 -10.333 -83.833 -19 -113.5s-17.667 -44.5 -27 -44.5
c-3.33301 0 -6.33301 15 -9 45c-2 26 -7.33301 51 -16 75c-7.33301 19.333 -18.166 39.5 -32.499 60.5s-25.166 32.833 -32.499 35.5s-12.333 5.66699 -15 9c-8 9.33301 -20.333 19.166 -37 29.499s-30.667 17.166 -42 20.499
c-10.667 2.66699 -17.834 5.83398 -21.501 9.50098s-3 6 2 7s12.833 0.833008 23.5 -0.5c10 -1.33301 17.667 -0.833008 23 1.5s13 9.5 23 21.5c12.667 14.667 26.334 37.334 41.001 68.001c10 22 18.333 34.667 25 38s16 -0.666992 28 -12
c11.333 -10.667 27 -21.5 47 -32.5s31.667 -15.5 35 -13.5c3.33301 1.33301 4.33301 18.333 3 51c0 4 -1.33301 42 -4 114s-5.33398 115.667 -8.00098 131l-2 13z" />
    <glyph glyph-name="two" unicode="2" horiz-adv-x="505" 
d="M127 32c9.33301 -3.33301 27.8359 -11.498 55.5029 -24.498l77 -36c23.667 -11 37.167 -16.5 40.5 -16.5c3.33301 8.66699 7.16602 27.5 11.499 56.5s8.16602 48.833 11.499 59.5c6.66699 30.667 10 52.667 10 66c0 4 -0.166992 7.66699 -0.5 11s-1 5.83301 -2 7.5
s-1.83301 2.5 -2.5 2.5c-4 0 -19 -7.16699 -45 -21.5s-41 -23.5 -45 -27.5c-2.66699 -3.33301 -8.5 -5.33301 -17.5 -6s-14.167 -2.33398 -15.5 -5.00098c-2 -4 -17.833 -12.833 -47.5 -26.5s-47.834 -20.5 -54.501 -20.5c-4.66699 0 -7.16699 -0.333008 -7.5 -1
s2.83398 -3.33398 9.50098 -8.00098c9.33301 -6.66699 16.666 -10 21.999 -10zM345.003 194.002c7.33301 0 27.998 9.66602 61.998 28.999c39.333 22 61.666 30.667 66.999 26c2.66699 -2.66699 -4.66602 -10 -21.999 -22c-2 -2 -4.33301 -3.66699 -7 -5
c-36.667 -22.667 -70 -40 -100 -52c3.33301 -29.333 4.5 -50.5 3.5 -63.5s-4.16699 -33 -9.5 -60s-8.66602 -47.167 -9.99902 -60.5c-4 -30.667 -8.33301 -46 -13 -46c-10 -1.33301 -25 2 -45 10s-59.333 26.333 -118 55c-38.667 18.667 -68.334 30.334 -89.001 35.001
c-22.667 4.66699 -34 9 -34 13s14.333 8.33301 43 13c64 15.333 132.333 45.666 205 90.999c20 11.333 32.167 19.833 36.5 25.5s3.83301 12 -1.5 19s-19 17.833 -41 32.5c-49.333 32.667 -84.666 58.667 -105.999 78s-38.333 41.333 -51 66c-10 18.667 -15.5 32 -16.5 40
s0.5 23 4.5 45c6 30 12.667 53 20 69c6.66699 14.667 22.834 35.667 48.501 63s44.5 43.666 56.5 48.999c12.667 6 31.667 14 57 24c48 20 92.333 21.667 133 5c12.667 -5.33301 18.334 -9.66602 17.001 -12.999c-1.33301 -4.66699 -11.666 -3.66699 -30.999 3
c-38.667 13.333 -85.5 5.83301 -140.5 -22.5s-93.5 -64.833 -115.5 -109.5c-10.667 -20.667 -19.334 -47 -26.001 -79c-4 -18.667 -5.66699 -31.834 -5 -39.501s4.66699 -18.5 12 -32.5c10 -21.333 31.667 -45.666 65 -72.999s59.666 -46.666 78.999 -57.999
c7.33301 -2.66699 19.5 -12 36.5 -28s28.833 -25 35.5 -27z" />
    <glyph glyph-name="three" unicode="3" horiz-adv-x="617" 
d="M549 404c1.33301 2.66699 -18.502 25.9971 -59.502 69.9971s-60.833 67.667 -59.5 71c0 4.66699 -4.5 14 -13.5 28s-17.5 25.333 -25.5 34c-1.33301 1.33301 -11.166 13.5 -29.499 36.5l-58 76.5c-20.333 28 -33.166 47 -38.499 57c-7.33301 14.667 -8 22.334 -2 23.001
c6.66699 0 21 -16.333 43 -49c14 -21.333 37.333 -52.5 70 -93.5s56 -72.167 70 -93.5c29.333 -44 70.666 -92.667 123.999 -146c-19.333 -54 -45.666 -99.333 -78.999 -136c-14 -14.667 -21 -25.167 -21 -31.5s7 -13.166 21 -20.499c12 -6 26.333 -16.5 43 -31.5
s30.5 -29.333 41.5 -43s14.5 -21.5 10.5 -23.5c-5.33301 -4 -24.333 10.333 -57 43c-21.333 20.667 -37.5 34.334 -48.5 41.001s-21.5 9 -31.5 7c-3.33301 0 -5 2.33301 -5 7c0 4 3.83301 12.333 11.5 25s13.5 20.667 17.5 24c5.33301 4 19.333 24.667 42 62
s34 58.333 34 63zM161.998 743.997c2 0 5.49707 4.66602 10.4971 13.999l15.5 28.5c5.33301 9.66699 9 14.167 11 13.5c4 -0.666992 5.66699 -2.5 5 -5.5s-4 -11.167 -10 -24.5c-2.66699 -6 -10.5 -27.667 -23.5 -65s-24.5 -66.333 -34.5 -87
c-14.667 -31.333 -24 -58.666 -28 -81.999c-2 -14.667 -1.83301 -24.334 0.5 -29.001s10.833 -12 25.5 -22c16.667 -11.333 35.334 -26 56.001 -44c88 -83.333 141 -130.333 159 -141c11.333 -7.33301 17 -13.666 17 -18.999c0 -6.66699 -9.5 -20 -28.5 -40
s-37.5 -36 -55.5 -48c-5.33301 -3.33301 -10.833 -7 -16.5 -11s-10.167 -7.33301 -13.5 -10s-5.33301 -4 -6 -4c-4 -2.66699 -0.666992 -6 10 -10c11.333 -4 24 -6 38 -6c20 0 31 -2.33301 33 -7c4 -5.33301 8 -6.33301 12 -3c7.33301 0 28.833 -7.5 64.5 -22.5
s57.834 -22.5 66.501 -22.5c20 0 29.667 -3 29 -9c0 -4.66699 -6 -9.33398 -18 -14.001c-73.333 -27.333 -204.666 -85.666 -393.999 -174.999c-0.666992 0.666992 -9.66699 -5.33301 -27 -18s-27 -18 -29 -16c-2.66699 2.66699 -1.66699 17.667 3 45
c5.33301 31.333 10.333 73.333 15 126c14 146.667 27.333 238.334 40 275.001c6.66699 18.667 11.334 27.334 14.001 26.001c4 -1.33301 1.66699 -15.333 -7 -42c-8 -24.667 -20 -115.667 -36 -273c-7.33301 -70.667 -12.666 -111.667 -15.999 -123
c-2.66699 -9.33301 -3 -14 -1 -14c1.33301 -0.666992 6 2 14 8c12 8 54 29.667 126 65s110.667 53 116 53c0.666992 0 22.5 9.66699 65.5 29s65.5 28.666 67.5 27.999c7.33301 -1.33301 12.333 1 15 7c1.33301 3.33301 -0.333984 5.66602 -5.00098 6.99902h-3
c-10 0 -28.333 7 -55 21c-23.333 11.333 -41.333 18.833 -54 22.5s-32.334 6.83398 -59.001 9.50098c-12.667 2 -22.167 3.83301 -28.5 5.5s-11.833 4.16699 -16.5 7.5s-5.16699 7.66602 -1.5 12.999s11.167 12 22.5 20c32.667 27.333 66.667 57.333 102 90l-95 86
c-57.333 52 -95 84 -113 96c-26 18.667 -42.333 34 -49 46c-6 10 -6.83301 24 -2.5 42s16.833 50.667 37.5 98c12.667 28.667 21 53.667 25 75c4 20 7.33301 30 10 30z" />
    <glyph glyph-name="four" unicode="4" horiz-adv-x="492" 
d="M206 37c0 -16 10 -27.668 30 -35.001s41 -6.66602 63 2.00098c16 6 37.167 25 63.5 57s49.166 66.667 68.499 104c6.66699 12 10.834 34 12.501 66s0.166992 56.333 -4.5 73c-6.66699 24.667 -15.667 40 -27 46c-5.33301 1.33301 -9 0 -11 -4l-74.5 -111.5l-86.5 -130.5
c-22.667 -32 -34 -54.333 -34 -67zM382 543.999c0 -6.66699 -0.333008 -9.99805 -1 -9.99805s-3 2.66699 -7 8c-8.66699 10.667 -26.834 16.834 -54.501 18.501s-57.167 -1.83301 -88.5 -10.5c-42.667 -11.333 -74.5 -25.5 -95.5 -42.5s-40.5 -43.833 -58.5 -80.5
c-12.667 -26 -20.667 -45.667 -24 -59s-5.66602 -32.333 -6.99902 -57c-1.33301 -27.333 -1.16602 -44.833 0.500977 -52.5s7.16699 -16.834 16.5 -27.501c10 -12 26.833 -22.333 50.5 -31s47.167 -13 70.5 -13c12.667 0 30.5 5.5 53.5 16.5s43.167 23.5 60.5 37.5
c11.333 9.33301 29.333 31.666 54 66.999s37 56.333 37 63c0 8 6.66699 9 20 3c6 -3.33301 11.333 -7.33301 16 -12c15.333 -18.667 25.5 -35.5 30.5 -50.5s7.16699 -36.833 6.5 -65.5c-0.666992 -27.333 -2.33398 -46.333 -5.00098 -57s-10 -26.667 -22 -48
c-31.333 -56.667 -59.166 -96.334 -83.499 -119.001s-52.166 -35 -83.499 -37c-17.333 -1.33301 -29.333 -1.16602 -36 0.500977s-14 6.16699 -22 13.5c-14.667 14.667 -20.334 30.667 -17.001 48s17 45.333 41 84c28 44.667 41.333 67.667 40 69c-2 2 -12 -2 -30 -12
c-16 -8.66699 -32.5 -13.334 -49.5 -14.001s-38.833 2.33301 -65.5 9s-43.834 12.334 -51.501 17.001s-16.834 14.667 -27.501 30c-13.333 19.333 -20 44.333 -20 75c-0.666992 25.333 0.666016 45.5 3.99902 60.5s11.333 36.5 24 64.5c17.333 38.667 37.833 67.667 61.5 87
s58.5 35.333 104.5 48c28.667 7.33301 52.334 11.166 71.001 11.499s40.334 -3.16699 65.001 -10.5c14.667 -4.66699 22 -12 22 -22z" />
    <glyph glyph-name="five" unicode="5" horiz-adv-x="787" 
d="M312 -196c0 3.33301 9.16797 13 27.501 29s29.5 23.667 33.5 23c8 -1.33301 17.333 -13 28 -35c6.66699 -13.333 8 -20 4 -20c-3.33301 0 -9.66602 5 -18.999 15l-16 20c-8.66699 -8.66699 -20.334 -18.167 -35.001 -28.5s-22.334 -11.5 -23.001 -3.5zM345.001 89
c-28 2.66699 -57.6641 -1.33008 -88.9971 -11.9971s-58 -24.667 -80 -42c-44.667 -34.667 -77 -91.334 -97 -170.001c-11.333 -46.667 -19.666 -68.334 -24.999 -65.001c-2 0.666992 -3 6 -3 16c0 14 5.5 38.333 16.5 73s21.167 59.667 30.5 75c36 57.333 79 95 129 113
c60 22 91.667 31.333 95 28c2 -2 3.66699 -0.666992 5 4c0.666992 4 5 26.667 13 68c6 33.333 11.167 74 15.5 122s5.16602 73.333 2.49902 76s-26 -1.33301 -70 -12c-44.667 -11.333 -91.334 -17 -140.001 -17c-51.333 1.33301 -79.333 4.33301 -84 9
c-10 10 -6.33301 14.333 11 13c7.33301 -0.666992 17.666 -2.33398 30.999 -5.00098c22 -4.66699 50.5 -5.16699 85.5 -1.5s65.167 10.167 90.5 19.5c13.333 5.33301 45.666 8 96.999 8c-2.66699 -84 -9 -143 -19 -177c-11.333 -50 -16.333 -91 -15 -123zM30.0039 554.003
c15.333 4 62.998 8.00293 142.998 12.0029s132 5.33301 156 4c46.667 -1.33301 94.334 -2 143.001 -2c38.667 -0.666992 62.334 -1.83398 71.001 -3.50098s17.334 -6.83398 26.001 -15.501c5.33301 -4 20 -25.5 44 -64.5s38.667 -60.5 44 -64.5c4 0 7.33301 -4.33301 10 -13
c4.66699 -9.33301 15.667 -24.166 33 -44.499s28 -33.5 32 -39.5c14.667 -18.667 23 -28.667 25 -30c-2 -6.66699 -23 -31.834 -63 -75.501s-61.667 -68.5 -65 -74.5c-4.66699 -8.66699 -23.667 -29 -57 -61s-52 -50.667 -56 -56
c2.66699 -2.66699 11.5 -7.83398 26.5 -15.501l55.5 -27.5l37 -18c-8 -14.667 -17.333 -30.834 -28 -48.501l-36.5 -58c-13.667 -21 -23.167 -36.167 -28.5 -45.5c-2.66699 -8.66699 -8 -13 -16 -13c-6.66699 0 -8.66699 2.66699 -6 8l21 31
c10 13.333 23.5 35.666 40.5 66.999s25.5 49 25.5 53c1.33301 2 -7.66699 8.16699 -27 18.5l-58 31c-19.333 10.333 -28.333 16.5 -27 18.5c0 4.66699 13.333 19 40 43c34 30.667 62 58.834 84 84.501s43.667 49.167 65 70.5c33.333 37.333 50 58 50 62
c-8 12.667 -30 42.5 -66 89.5s-60.333 81.167 -73 102.5l-42 71c-22 0 -77.333 -0.166992 -166 -0.5s-166.834 -0.166016 -234.501 0.500977s-108.5 2 -122.5 4z" />
    <glyph glyph-name="six" unicode="6" horiz-adv-x="544" 
d="M480 356c-11.333 11.333 -23.666 18.167 -36.999 20.5s-25 -0.5 -35 -8.5c-7.33301 -5.33301 -15.833 -18.5 -25.5 -39.5s-14.834 -36.833 -15.501 -47.5c0.666992 -11.333 10.334 -35.666 29.001 -72.999c61.333 39.333 94.666 75.333 99.999 108
c3.33301 13.333 -2 26.666 -16 39.999zM402 625.001c0 -7.33301 -2.99512 -8.00195 -8.99512 -2.00195c-3.33301 3.33301 -9.33301 5.66602 -18 6.99902s-16.834 1.5 -24.501 0.5s-11.5 -3.16699 -11.5 -6.5c0 -4.66699 -3.33301 -7 -10 -7s-21.5 -7.66699 -44.5 -23
s-39.833 -28.666 -50.5 -39.999c-70 -76 -124.667 -171.333 -164 -286c-13.333 -38 -20.666 -86.333 -21.999 -145l-2 -88l24 -28c69.333 -78.667 149 -75 239 11c23.333 22 35.833 39.833 37.5 53.5s-6.83301 28.5 -25.5 44.5c-12.667 10.667 -23.167 17 -31.5 19
s-28.5 3 -60.5 3c-44 0 -66 3.66699 -66 11c0 6.66699 21.667 10 65 10c45.333 0 78.166 3.16699 98.499 9.5s38.833 18.833 55.5 37.5l-15 27c-12.667 24.667 -16.334 50.334 -11.001 77.001s18.666 49 39.999 67c14 12.667 29.667 18 47 16s33.666 -10.667 48.999 -26
c12.667 -13.333 19.667 -25.333 21 -36s-2 -24.667 -10 -42c-5.33301 -12 -18.333 -28.5 -39 -49.5s-34.334 -31.5 -41.001 -31.5c-10 0 -11 -4 -3 -12c5.33301 -4.66699 12.333 -9 21 -13c16.667 -6.66699 25 -13.334 25 -20.001c0 -2.66699 -2.33301 -4 -7 -4
c-6.66699 0 -17.667 3.83301 -33 11.5s-23.666 13.167 -24.999 16.5c-4 3.33301 -16.5 -2 -37.5 -16s-32.5 -21 -34.5 -21c-6 -2 -8.33301 -4.5 -7 -7.5s7 -9.5 17 -19.5c8.66699 -9.33301 14.167 -17 16.5 -23s3.16602 -16 2.49902 -30s-2.83398 -24.167 -6.50098 -30.5
s-12.5 -15.166 -26.5 -26.499c-24 -20 -38.667 -32.667 -44 -38c-23.333 -20 -49 -32.5 -77 -37.5s-54.667 -1.83301 -80 9.5c-18.667 8.66699 -37.834 23.5 -57.501 44.5s-31.167 38.167 -34.5 51.5c-3.33301 18 -2.33301 57.333 3 118s11 97.667 17 111
c40 92.667 70.5 156.5 91.5 191.5s50.5 71.5 88.5 109.5c26.667 26.667 51.334 46 74.001 58c22.667 10 44.334 14.333 65.001 13s31 -7.66602 31 -18.999z" />
    <glyph glyph-name="seven" unicode="7" horiz-adv-x="853" 
d="M526 370c42.667 0 71.668 -16.3389 87.001 -49.0059s12 -69.334 -10 -110.001c-14 -26 -41.333 -60.333 -82 -103c-42 -43.333 -63 -66.666 -63 -69.999c0 -4 6.66699 -6 20 -6c12.667 0 35.334 -6 68.001 -18c39.333 -14 62.666 -21.167 69.999 -21.5
s15.666 5.83398 24.999 18.501c14 20 33.667 54.333 59 103c14.667 28 31.5 57 50.5 87s35.5 53.833 49.5 71.5s21.667 24.5 23 20.5c2 -4.66699 -11.333 -27.667 -40 -69c-12.667 -16.667 -38.667 -60.5 -78 -131.5s-65.666 -110.833 -78.999 -119.5
c-11.333 0.666992 -37.5 8 -78.5 22s-68.167 21.667 -81.5 23l-47 4l46 49c68.667 72.667 111.5 123.167 128.5 151.5s21.167 55.166 12.5 80.499c-6.66699 18.667 -15.334 31.334 -26.001 38.001s-28.667 10.334 -54 11.001c-18.667 0.666992 -33.834 -0.5 -45.501 -3.5
s-28.834 -10.167 -51.501 -21.5c-23.333 -12 -40.833 -22 -52.5 -30s-25 -18.5 -40 -31.5s-30.833 -25.5 -47.5 -37.5c-31.333 -22.667 -52.666 -39.667 -63.999 -51c-6.66699 -8 -23.334 -21.167 -50.001 -39.5s-42.667 -27.5 -48 -27.5s-7 2 -5 6l31 43l66 88l110.5 146.5
c33 43.667 55.833 72.5 68.5 86.5c15.333 18 37 45.333 65 82s46 61.334 54 74.001c2.66699 4.66699 -1.66602 5.33398 -12.999 2.00098c-14.667 -4 -31.334 -11.667 -50.001 -23c-14.667 -8 -32.667 -12 -54 -12c-34.667 0 -73 -9.33301 -115 -28
c-42 -19.333 -87.333 -28.666 -136 -27.999c-32 0.666992 -59.333 3.5 -82 8.5s-35 10.833 -37 17.5c-0.666992 2.66699 0 4 2 4c2.66699 -0.666992 10 -3 22 -7c14 -4.66699 42.667 -7.66699 86 -9c24.667 0 45.334 1.66699 62.001 5s43 11 79 23
c57.333 18.667 95.333 28 114 28c22 1.33301 52.333 11.666 91 30.999c39.333 20.667 61 31.334 65 32.001c7.33301 0.666992 7.33301 -6 0 -20l-9 -14c-1.33301 -1.33301 -16.833 -23.333 -46.5 -66s-50.167 -70.667 -61.5 -84c-50.667 -56 -104 -122 -160 -198
c-46 -64 -75 -103 -87 -117c-9.33301 -11.333 -11 -15.666 -5 -12.999c8 4 24 15.667 48 35c136.667 111.333 235.334 167 296.001 167z" />
    <glyph glyph-name="eight" unicode="8" horiz-adv-x="713" 
d="M435 -1c0 4.66699 3.83203 9.50293 11.499 14.5029s11.167 10.167 10.5 15.5c0 6.66699 1.66699 10 5 10c4 0 8.33301 9.33301 13 28s6.66699 34.667 6 48c0 3.33301 -0.333008 10.166 -1 20.499s-1.33398 17.166 -2.00098 20.499c0 3.33301 -0.166992 6.33301 -0.5 9
s-1 4.66699 -2 6s-1.83301 2 -2.5 2c-9.33301 -6 -33.666 -29.167 -72.999 -69.5l-95 -99.5c16.667 -27.333 32 -42 46 -44c11.333 -2 24.833 0 40.5 6s24.834 12.667 27.501 20c0.666992 5.33301 3.5 7.66602 8.5 6.99902s7.5 1.33301 7.5 6zM244.999 82.0029
c2 2.66699 -9.66895 18.834 -35.002 48.501s-39 43.834 -41 42.501c-2 0 -15.667 -7 -41 -21c-21.333 -12.667 -37.666 -26.334 -48.999 -41.001s-20.333 -34 -27 -58c-4.66699 -16.667 -6.66699 -27.5 -6 -32.5s4.33398 -11.5 11.001 -19.5
c8 -10.667 24.667 -19.334 50 -26.001c9.33301 -2.66699 19.5 -4.16699 30.5 -4.5s21 0.333984 30 2.00098s20 4.5 33 8.5s22.667 7.16699 29 9.5s15.833 6.16602 28.5 11.499s20 8.33301 22 9c-23.333 46 -35 69.667 -35 71zM580.997 385.003
c-18 0 -36.832 -17.666 -56.499 -52.999s-30.834 -70 -33.501 -104l20 19c22 21.333 46.167 34.666 72.5 39.999s47.5 1.33301 63.5 -12c10.667 -9.33301 16 -8 16 4c0 5.33301 -1 13.666 -3 24.999c-4 22 -8.83301 37.333 -14.5 46s-15.5 16.334 -29.5 23.001
c-17.333 8 -29 12 -35 12zM239.998 208.004c11.333 -1.33301 25.3311 2.99902 41.998 12.999s26.667 15.333 30 16c6.66699 0.666992 16 6.83398 28 18.501s20 22.5 24 32.5c10.667 32.667 11.334 60.334 2.00098 83.001s-30.666 40.667 -63.999 54
c-24 10.667 -46.333 17.334 -67 20.001c-13.333 2 -23.333 1.5 -30 -1.5s-19.667 -13.167 -39 -30.5c-46 -40.667 -69 -81.334 -69 -122.001c0 -14.667 12 -34.334 36 -59.001c16.667 -16.667 28 -26.667 34 -30s14.333 -3.33301 25 0c12 4 28 6 48 6zM331.996 691.003
c-18 15.333 -31.167 25.498 -39.5 30.498s-19.166 6.5 -32.499 4.5s-30 -9.66699 -50 -23c-42 -30.667 -71.667 -62.167 -89 -94.5s-20 -61.166 -8 -86.499c5.33301 -11.333 20.666 -23 45.999 -35s44.333 -16.667 57 -14c14.667 3.33301 36.5 17.333 65.5 42
s49.5 46.334 61.5 65.001c16 25.333 23.333 45.833 22 61.5s-12.333 32.167 -33 49.5zM272.996 737.001c18.667 0 31.3174 -1.66016 37.9844 -4.99316s19.334 -14.333 38.001 -33c17.333 -17.333 27.833 -29.5 31.5 -36.5s4.83398 -16.167 3.50098 -27.5
c-2.66699 -18 -10.834 -37.833 -24.501 -59.5s-30.167 -40.5 -49.5 -56.5c-45.333 -40 -68 -61 -68 -63c8.66699 2 26.334 -2.33301 53.001 -13s46 -21 58 -31c17.333 -14 28.5 -27.333 33.5 -40s5.83301 -31 2.5 -55c-2 -16 -5 -28.167 -9 -36.5
s-11.667 -18.166 -23 -29.499c-18 -18 -32.333 -29 -43 -33c-5.33301 -2 -12.166 -5.33301 -20.499 -10s-16.666 -8.33398 -24.999 -11.001s-18.833 -4 -31.5 -4c-28 -2.66699 -43 -5.33398 -45 -8.00098c0 -4.66699 14 -25.834 42 -63.501s42.333 -59.5 43 -65.5
c6 -14.667 11.667 -23.334 17 -26.001c3.33301 -2.66699 14.833 4.66602 34.5 21.999s29.5 28.666 29.5 33.999c0 4.66699 5.5 12.167 16.5 22.5s18.833 15.5 23.5 15.5c2.66699 0 4.83398 0.666992 6.50098 2s1.83398 2.66602 0.500977 3.99902
c-2 2.66699 -0.333008 5.83398 5 9.50098s11 7.33398 17 11.001s8.66699 6.5 8 8.5c0 2.66699 6 10.667 18 24s19 30.666 21 51.999c3.33301 34 12.333 66.833 27 98.5s30 51.167 46 58.5c22.667 10 45.834 10.167 69.501 0.5s40.834 -26.834 51.501 -51.501
c6 -13.333 10.333 -31.333 13 -54s3.16699 -42.667 1.5 -60s-5.16699 -26 -10.5 -26c-6 1.33301 -11.667 10.833 -17 28.5s-10 27.834 -14 30.501c-11.333 13.333 -30.166 16 -56.499 8s-50.5 -23.667 -72.5 -47c-9.33301 -10 -14.666 -18 -15.999 -24
s-0.666016 -20.333 2.00098 -43c8 -66 -6.33301 -120 -43 -162c-32 -34 -64 -51 -96 -51c-11.333 0 -19.833 2 -25.5 6s-14.834 14 -27.501 30c-9.33301 12 -15.666 19 -18.999 21s-8.66602 1.33301 -15.999 -2c-6.66699 -4 -11.667 -6.66699 -15 -8
s-7.16602 -2.66602 -11.499 -3.99902s-9.83301 -3.66602 -16.5 -6.99902c-35.333 -14.667 -70.166 -20.834 -104.499 -18.501s-60.166 12.5 -77.499 30.5c-12 12.667 -17 28.667 -15 48c0 29.333 12 57.666 36 84.999s53.333 49.666 88 66.999c-40 36 -64 63 -72 81
c-10 26.667 -3.33301 59 20 97c10 16 24.333 33.5 43 52.5s30.667 28.5 36 28.5c11.333 0 12.333 3.33301 3 10c-5.33301 3.33301 -13 6.66602 -23 9.99902c-19.333 5.33301 -36.166 16.833 -50.499 34.5s-21.5 35.5 -21.5 53.5c0 50.667 33.667 100.667 101 150
c19.333 14 33.5 22.667 42.5 26s22.167 5 39.5 5z" />
    <glyph glyph-name="nine" unicode="9" horiz-adv-x="645" 
d="M403 -17c7.33301 0 12.498 0.49707 15.498 1.49707s4.66699 3.5 5 7.5s-1 9.33301 -4 16s-7.83301 16 -14.5 28c-10.667 18 -25.167 48.667 -43.5 92s-27.5 67.666 -27.5 72.999c0 4.66699 5.33301 8.66699 16 12c11.333 4 24.333 14 39 30l95.5 98
c52.333 53.333 84.833 86 97.5 98c5.33301 5.33301 8.66602 9.5 9.99902 12.5s1.16602 5.5 -0.500977 7.5s-5.16699 4 -10.5 6c-9.33301 2.66699 -23.166 15.834 -41.499 39.501s-32.166 44.834 -41.499 63.501c-62 -98.667 -94.667 -151 -98 -157
c-20 -35.333 -32.333 -53 -37 -53c-4.66699 0.666992 -8.33398 15.334 -11.001 44.001c-5.33301 57.333 -21.666 106.333 -48.999 147c-7.33301 11.333 -14.833 20.833 -22.5 28.5s-13.167 11.167 -16.5 10.5c-71.333 -5.33301 -128.833 -37.166 -172.5 -95.499
s-58.167 -122.833 -43.5 -193.5c9.33301 -42 26 -71.333 50 -88c10.667 -7.33301 28.834 -9.5 54.501 -6.5s44.834 9.5 57.501 19.5c22 17.333 31 13 27 -13c-3.33301 -27.333 -7.33301 -52.333 -12 -75s-8.66699 -40.334 -12 -53.001s-8.83301 -31.167 -16.5 -55.5
s-13.5 -43.833 -17.5 -58.5c-9.33301 -34 -16.666 -56.333 -21.999 -67c-10.667 -25.333 -12.334 -38 -5.00098 -38c6.66699 0 23.667 8.66699 51 26c32.667 20.667 71.167 41.334 115.5 62.001s72.5 31 84.5 31zM396.998 447.997
c-0.666992 4.66699 3.83691 11.1631 13.5039 19.4961s14.5 14.833 14.5 19.5c0 5.33301 2.66699 9.16602 8 11.499s8.66602 6.5 9.99902 12.5c2.66699 8.66699 8 18.167 16 28.5s13.667 18.5 17 24.5c6 10.667 10.833 17.334 14.5 20.001s7.5 2.5 11.5 -0.5
s8.66699 -10.167 14 -21.5c10.667 -20 29.334 -43.333 56.001 -70c28.667 -27.333 43 -43.333 43 -48c-1.33301 -6.66699 -12 -17 -32 -31c-16 -12.667 -52.833 -49.834 -110.5 -111.501s-91.167 -94.167 -100.5 -97.5c-11.333 -7.33301 -15.5 -17.833 -12.5 -31.5
s16.833 -45.5 41.5 -95.5c24 -51.333 38 -83 42 -95c2 -8 1.5 -12.667 -1.5 -14s-12.833 -2.33301 -29.5 -3c-18.667 0 -47.834 -8.83301 -87.501 -26.5s-74.834 -37.167 -105.501 -58.5c-18.667 -13.333 -39.334 -25.666 -62.001 -36.999s-35.667 -15.666 -39 -12.999
c-2 2 -0.666992 8.66699 4 20c5.33301 18 16.333 53.333 33 106s30.667 99.334 42 140.001s19.333 76.334 24 107.001c0 4 -8.33301 2 -25 -6c-15.333 -6.66699 -32.833 -10 -52.5 -10s-35.834 3.33301 -48.501 10c-24 12.667 -43 43.334 -57 92.001
c-12.667 44.667 -11.167 92.167 4.5 142.5s41.167 89.5 76.5 117.5c18 14.667 33.167 25 45.5 31s31.166 12.333 56.499 19c5.33301 1.33301 10.833 2.83301 16.5 4.5s9.83398 3.16699 12.501 4.5l5 1c4 1.33301 13.333 -2.16699 28 -10.5s22 -14.166 22 -17.499
c0 -4.66699 6.33301 -15.334 19 -32.001c16.667 -18 32 -69 46 -153c17.333 22.667 26.333 40 27 52z" />
    <glyph glyph-name="colon" unicode=":" horiz-adv-x="203" 
d="M112 199c0 6 2.33496 8.99805 7.00195 8.99805c2.66699 0 4.5 -0.666992 5.5 -2s1.33301 -3.66602 1 -6.99902s-1.33301 -7.5 -3 -12.5s-4.16699 -11.833 -7.5 -20.5c-11.333 -28 -28.333 -42 -51 -42c-7.33301 0 -12 -2.66699 -14 -8s-0.333008 -12 5 -20
c4.66699 -7.33301 10 -5.33301 16 6c4 6 7.83301 10.167 11.5 12.5s7.16699 2.5 10.5 0.5s5.66602 -6 6.99902 -12c2 -7.33301 -1.16699 -16.166 -9.5 -26.499s-16.833 -15.5 -25.5 -15.5c-5.33301 0 -12.333 6 -21 18c-12 18.667 -16.333 36.667 -13 54
s12.666 26 27.999 26c10 0 21.333 4.83301 34 14.5s19 18.167 19 25.5zM96.002 447.998c-2 1.33301 -2.99902 5.33203 -2.99902 11.999s1.33301 14.167 4 22.5s5.66699 13.5 9 15.5c12 6.66699 25.5 3 40.5 -11s23.5 -31 25.5 -51
c1.33301 -13.333 1.16602 -21.166 -0.500977 -23.499s-6.16699 -2.83301 -13.5 -1.5c-6.66699 1.33301 -11.667 0.333008 -15 -3s-7.66602 -12 -12.999 -26c-8.66699 -22 -16 -33 -22 -33c-2.66699 0 -2.33398 5.33301 0.999023 16c10 34 22.667 54 38 60
c6 2 9.16699 4.66699 9.5 8s-1.5 10.333 -5.5 21c-4 8.66699 -7.5 14.5 -10.5 17.5s-6.33301 3.83301 -10 2.5s-8.5 -5.33301 -14.5 -12c-8 -9.33301 -14.667 -14 -20 -14z" />
    <glyph glyph-name="semicolon" unicode=";" horiz-adv-x="256" 
d="M195 -123c5.33301 0 7.99805 -2.33398 7.99805 -7.00098c0 -2.66699 -2.33301 -4.66699 -7 -6s-9.5 -1.5 -14.5 -0.5s-7.5 2.83301 -7.5 5.5c0 4 -7 10 -21 18c-10 6 -15.833 11.333 -17.5 16s-1.5 13.667 0.5 27c6 28.667 7.66699 62 5 100
c-2.66699 31.333 -9.66699 43 -21 35c-2 -1.33301 -3.66699 -2.66602 -5 -3.99902c-6.66699 -5.33301 -16 -7 -28 -5s-18 6.33301 -18 13c0 5.33301 5 13.666 15 24.999c19.333 20.667 32.333 22 39 4c2.66699 -9.33301 9 -17.666 19 -24.999
c6.66699 -5.33301 10.834 -11.666 12.501 -18.999s2.16699 -22 1.5 -44c-1.33301 -39.333 -3.33301 -65 -6 -77c-2 -11.333 -2.16699 -19.333 -0.5 -24s7.16699 -10.334 16.5 -17.001c14.667 -10 24.334 -15 29.001 -15zM223.998 524.999
c8.66699 0 0.999023 -18.666 -23.001 -55.999c-16 -24 -29.667 -40.667 -41 -50c-12 -10 -19 -17 -21 -21s-1 -8.33301 3 -13c9.33301 -10.667 17.333 -24.667 24 -42s9.83398 -31.833 9.50098 -43.5s-3.83301 -18.5 -10.5 -20.5c-6 0 -8 8 -6 24
c2 15.333 -3.33301 34 -16 56c-8.66699 16 -14.834 25 -18.501 27s-10.167 0.333008 -19.5 -5c-10.667 -5.33301 -24 -16.5 -40 -33.5s-24 -28.167 -24 -33.5c0 -4.66699 -2.33301 -7 -7 -7c-9.33301 0 -4.33301 12.333 15 37c9.33301 12 19.333 22.667 30 32l33 28l-19 20
c-26 28 -38.333 56.5 -37 85.5s16 56.167 44 81.5c10.667 10 15.834 13.667 15.501 11s-6.16602 -10.334 -17.499 -23.001c-21.333 -22.667 -30.833 -47.5 -28.5 -74.5s13.5 -50.833 33.5 -71.5l26 -27c26 18 48.333 44 67 78c13.333 27.333 22.666 41 27.999 41z" />
    <glyph glyph-name="less" unicode="&#x3c;" horiz-adv-x="60" 
 />
    <glyph glyph-name="equal" unicode="=" horiz-adv-x="536" 
d="M475 441c-3.33301 -10 -10.4971 -24.832 -21.4971 -44.499s-18.833 -34.834 -23.5 -45.501l-14 -36c3.33301 -4.66699 9.16602 -14.5 17.499 -29.5s15.666 -27.333 21.999 -37s12.833 -18.167 19.5 -25.5c0 13.333 0.166992 53 0.5 119s0.166016 99 -0.500977 99z
M500.003 191.001c8 -32.667 7.99902 -48.0068 -0.000976562 -46.0068c-5.33301 0.666992 -11.333 9.33398 -18 26.001c-9.33301 20.667 -34.666 62.334 -75.999 125.001c-8 -33.333 -15.333 -57.5 -22 -72.5s-21 -36.5 -43 -64.5c-52 -68 -98.333 -108 -139 -120
c-12.667 -3.33301 -22.5 -4.66602 -29.5 -3.99902s-18.5 4.66699 -34.5 12c-23.333 11.333 -44.333 27.333 -63 48c-12.667 15.333 -20.167 26.333 -22.5 33s-2.83301 19 -1.5 37c2 23.333 7.66699 41.666 17 54.999s26 26 50 38c13.333 6.66699 23.333 10.334 30 11.001
s15.667 -0.666016 27 -3.99902c19.333 -5.33301 33.166 -7.33301 41.499 -6s21.5 7.33301 39.5 18c15.333 10 24.666 18.333 27.999 25s7 24.334 11 53.001c4.66699 28.667 6.66699 46.5 6 53.5s-5 14.833 -13 23.5c-25.333 27.333 -61 40 -107 38s-82.333 -17.333 -109 -46
c-18.667 -21.333 -29 -34.666 -31 -39.999c-2.66699 -7.33301 -5.66699 -8.66602 -9 -3.99902c-5.33301 4.66699 0.333984 17 17.001 37s33 34.667 49 44c22.667 12 49.667 19 81 21c24.667 1.33301 41.334 1 50.001 -1s22.334 -9.33301 41.001 -22
c29.333 -19.333 45.5 -33.333 48.5 -42s1.16699 -31.667 -5.5 -69l-12 -66l-36 -17c-43.333 -21.333 -67.333 -28.333 -72 -21c-2.66699 5.33301 -12.834 7.5 -30.501 6.5s-31.834 -4.5 -42.501 -10.5c-16.667 -8.66699 -30.334 -20.5 -41.001 -35.5s-16 -29.833 -16 -44.5
c0 -26 11.667 -50.167 35 -72.5s48.333 -33.5 75 -33.5c17.333 0 40 9 68 27s48.667 37 62 57c14.667 21.333 28 39.333 40 54c15.333 20.667 28 46.334 38 77.001s12.667 51.667 8 63c-4.66699 10.667 -5 17.667 -1 21c3.33301 2.66699 7.33301 0 12 -8
c4 -6.66699 6.66699 -7.33398 8 -2.00098l3 11c2.66699 9.33301 7.66699 21.333 15 36s15.833 30.167 25.5 46.5s15.834 27.5 18.501 33.5c10.667 22.667 18.334 27 23.001 13c2.66699 -7.33301 3.66699 -18.333 3 -33c-2.66699 -42 -3.5 -92.5 -2.5 -151.5
s3.16699 -94.833 6.5 -107.5z" />
    <glyph glyph-name="greater" unicode="&#x3e;" horiz-adv-x="418" 
d="M257 290c18 0 37.335 2.50293 58.002 7.50293s33.667 7.83301 39 8.5c7.33301 -0.666992 6 -3.33398 -4 -8.00098l-7 -4c-18.667 -8 -54.334 -13 -107.001 -15c-22 -0.666992 -32.333 0.666016 -31 3.99902c3.33301 3.33301 20.666 5.66602 51.999 6.99902z
M153.002 52.0029c0 4 10.3359 10.999 31.0029 20.999c40.667 21.333 69.167 38.666 85.5 51.999s33.166 33.666 50.499 60.999c24.667 38.667 41.667 78.334 51 119.001c2.66699 14 3.33398 24 2.00098 30s-6.66602 16 -15.999 30c-22.667 36 -56.667 62.667 -102 80
c-22.667 8.66699 -66.334 13 -131.001 13c-28 0 -50.833 0.333008 -68.5 1s-26.167 1.33398 -25.5 2.00098c29.333 10 64.5 13.833 105.5 11.5s80.5 -8.16602 118.5 -17.499c37.333 -11.333 69.166 -30.166 95.499 -56.499s39.166 -51.833 38.499 -76.5
c-0.666992 -16 -6.33398 -38.333 -17.001 -67s-22 -51.334 -34 -68.001l-15.5 -22.5c-7 -10.333 -11.5 -16.833 -13.5 -19.5c-6 -8.66699 -22.333 -22.167 -49 -40.5s-51 -32.833 -73 -43.5c-21.333 -8 -32.333 -11 -33 -9z" />
    <glyph glyph-name="question" unicode="?" horiz-adv-x="649" 
d="M325 15c-7.33301 18.667 -20.665 20.999 -39.998 6.99902c-10 -7.33301 -16.333 -20.833 -19 -40.5s-0.333984 -37.167 6.99902 -52.5c6.66699 -14.667 12.167 -22 16.5 -22s11.166 7.33301 20.499 22c20.667 34.667 25.667 63.334 15 86.001zM566.001 266.999
c-6 -2 -9.00195 -20.3291 -9.00195 -54.9961c-3.33301 0 -17.666 0.833008 -42.999 2.5s-44.333 2.83398 -57 3.50098s-28.167 1 -46.5 1s-32.5 -1 -42.5 -3c-34.667 -4 -61 -4.66699 -79 -2c1.33301 -55.333 -2 -100.666 -10 -135.999c-7.33301 -27.333 -10 -42 -8 -44
c1.33301 -1.33301 8.33301 0.333984 21 5.00098c15.333 6 26 7.66699 32 5s11 -11 15 -25c6 -14 5.66699 -32 -1 -54s-15.834 -40.333 -27.501 -55s-20.834 -20 -27.501 -16s-13.5 15.667 -20.5 35s-10.167 34.666 -9.5 45.999v23l-18 -14
c-13.333 -10 -28.166 -13.5 -44.499 -10.5s-25.166 10.833 -26.499 23.5l-2 18l9 -16c5.33301 -10.667 14.5 -15.834 27.5 -15.501s26.167 6.16602 39.5 17.499c12 10 19.833 23.333 23.5 40s7.16699 52.667 10.5 108l4 71c78 10 167.667 12.667 269 8l-5 65
c-2.66699 26.667 -3.5 45.167 -2.5 55.5s4.16699 19.166 9.5 26.499c7.33301 12 12 37 14 75c0.666992 30 7.33398 80 20.001 150c12.667 68.667 17.667 106.667 15 114c-2 4.66699 -10 6 -24 4h-3c-10 -0.666992 -33.667 -4.83398 -71 -12.501s-60 -11.834 -68 -12.501
c-6 -0.666992 -13.667 -3.5 -23 -8.5s-18.666 -7.5 -27.999 -7.5c-8.66699 -0.666992 -16.667 -2 -24 -4s-12.833 -3.16699 -16.5 -3.5s-13.167 -0.166016 -28.5 0.500977c-15.333 1.33301 -32 -1.83398 -50 -9.50098s-34.333 -11.5 -49 -11.5h-35
c0.666992 -75.333 -4.33301 -137 -15 -185l-47 -5c-43.333 -4 -68.5 -5.16699 -75.5 -3.5s-9.16699 9.16699 -6.5 22.5c4 14 11 44.833 21 92.5s17 79.167 21 94.5c6 5.33301 8.33301 1.66602 7 -11.001c-0.666992 -8 -2.66699 -19.333 -6 -34
c-6.66699 -24 -13.5 -54.667 -20.5 -92s-9.83301 -56.666 -8.5 -57.999c6 -0.666992 39.667 2 101 8c12.667 48.667 18 111.667 16 189c48 -4 80 -1 96 9c16.667 7.33301 29 10 37 8c19.333 -2 58.833 4 118.5 18s97.5 22.333 113.5 25
c45.333 7.33301 68.666 13.333 69.999 18c2.66699 8 7.33398 5.33301 14.001 -8c5.33301 -10.667 7.66602 -20.334 6.99902 -29.001c-1.33301 -10.667 -3.66602 -17.667 -6.99902 -21c-3.33301 -2.66699 -11.166 -42.5 -23.499 -119.5s-17.5 -118.167 -15.5 -123.5
c1.33301 -8.66699 0.166016 -29.834 -3.50098 -63.501s-3.83398 -57.167 -0.500977 -70.5c6.66699 -25.333 5.66699 -39.666 -3 -42.999z" />
    <glyph glyph-name="at" unicode="@" horiz-adv-x="599" 
d="M355 180c-0.666992 2 8.49902 6.66602 27.499 13.999s28.5 12 28.5 14c-3.33301 21.333 -17.666 84.333 -42.999 189c-10 43.333 -17 65 -21 65s-6 -2.66699 -6 -8c0 -6.66699 -8.33301 -26.667 -25 -60c-16.667 -34 -33.334 -57.167 -50.001 -69.5
s-31.334 -13.166 -44.001 -2.49902s-22 32 -28 64l-6 30c-15.333 -37.333 -32.833 -76.166 -52.5 -116.499s-31.834 -60.833 -36.501 -61.5c-6 -5.33301 -16.5 -25.166 -31.5 -59.499s-22.5 -55.833 -22.5 -64.5c-2 -10 -5.33301 -13.333 -10 -10
c-6 4.66699 -7.33301 13.667 -4 27c0.666992 8.66699 10.167 32.334 28.5 71.001s29.833 59.667 34.5 63c7.33301 5.33301 23.166 35 47.499 89s38.5 89.333 42.5 106c4.66699 18 9 26.667 13 26c6 -2.66699 10 -21.334 12 -56.001c2 -26 6.16699 -49.5 12.5 -70.5
s12.5 -31.5 18.5 -31.5c14 0 29 13.333 45 40c14 23.333 23.333 40.333 28 51s10.334 28 17.001 52c8.66699 31.333 16 47 22 47c6.66699 0 10 -3.66699 10 -11s3 -23.666 9 -48.999l22 -90l16 -64c0 -2 3.5 -20.833 10.5 -56.5s9.83301 -56.167 8.5 -61.5
c-2.66699 -4 -10 -6 -22 -6c-6 0 -15.167 -2.83301 -27.5 -8.5s-22.833 -11.834 -31.5 -18.501s-12 -11 -10 -13s10 -0.666992 24 4c12.667 5.33301 34.334 5.33301 65.001 0c36.667 -6 65.334 -18.5 86.001 -37.5s36.334 -47.167 47.001 -84.5
c6 -21.333 9.16699 -36.5 9.5 -45.5s-1.83398 -22.833 -6.50098 -41.5c-8.66699 -34.667 -22.5 -63.5 -41.5 -86.5s-38.167 -34.5 -57.5 -34.5c-7.33301 0 -17.833 6.16699 -31.5 18.5s-20.5 21.833 -20.5 28.5c0 2.66699 -1.5 6.16699 -4.5 10.5s-6 8.33301 -9 12l-11 13
c-4.33301 5 -7.16602 8.16699 -8.49902 9.5l-5 -26c-10 -53.333 -20.667 -80 -32 -80c-5.33301 0 -8.16602 1.33301 -8.49902 4s1.5 10.667 5.5 24c6.66699 18.667 12 44 16 76c3.33301 31.333 7.66602 47 12.999 47c4 0 13.667 -9.66699 29 -29s27.333 -37.333 36 -54
c12.667 -24.667 27.5 -34.667 44.5 -30s34.167 22.667 51.5 54c26.667 50.667 27 103 1 157c-34 68 -95 92 -183 72l-33 -7.5c-7.33301 -1.66699 -13.333 -2.66699 -18 -3s-7.5 0 -8.5 1s-1.5 2.83301 -1.5 5.5c0 5.33301 7 14.666 21 27.999s25.333 21.666 34 24.999
c10 2.66699 15 6 15 10z" />
    <glyph glyph-name="A" unicode="A" horiz-adv-x="770" 
d="M48 -17c0 -20 1.32812 -33.501 3.99512 -40.501s10.334 -17.5 23.001 -31.5c13.333 -14 23.166 -22.5 29.499 -25.5s17.5 -4.16699 33.5 -3.5c24 1.33301 44.667 6 62 14c21.333 10 44.833 28.667 70.5 56s44.5 53.333 56.5 78c13.333 30 22 45 26 45
c4.66699 0 11.834 -5.83301 21.501 -17.5s18.167 -24.834 25.5 -39.501c8 -16.667 17.333 -29.334 28 -38.001s18.667 -11 24 -7c1.33301 1.33301 4.33301 3.5 9 6.5s10.667 7.16699 18 12.5l20 14c58 40 87 63 87 69c0 4.66699 -24 28.5 -72 71.5s-79.667 69.167 -95 78.5
c-25.333 14 -32.333 25 -21 33c1.33301 0.666992 3 1.33398 5 2.00098c5.33301 2 22 23.667 50 65c22.667 33.333 38.5 57.833 47.5 73.5s30.167 55.5 63.5 119.5c34 66 62.667 116.667 86 152c6 9.33301 10.667 12.333 14 9c2.66699 -2 6 -32.667 10 -92
c4 -53.333 9 -90.5 15 -111.5s17 -38.833 33 -53.5c6 -5.33301 10.333 -9.5 13 -12.5s4.5 -5.5 5.5 -7.5s0.833008 -3.5 -0.5 -4.5s-3.33301 -2.16699 -6 -3.5c-9.33301 -3.33301 -21.666 4.33398 -36.999 23.001s-25.333 38.667 -30 60c-4 16 -9.66699 71 -17 165
c-10.667 -18 -39.834 -71.833 -87.501 -161.5s-81.834 -146.834 -102.501 -171.501l-17.5 -24l-15.5 -20.5c-3.33301 -4.33301 -5 -6.83301 -5 -7.5c-1.33301 -2.66699 11.667 -14.667 39 -36c32 -25.333 65 -54.666 99 -87.999s51 -53.333 51 -60
c0 -8.66699 -5 -15.334 -15 -20.001c-10.667 -5.33301 -32.5 -20 -65.5 -44s-53.5 -40 -61.5 -48c-8.66699 -8.66699 -15.667 -13 -21 -13c-7.33301 0.666992 -17.166 7.16699 -29.499 19.5s-23.833 27.5 -34.5 45.5c-2 2.66699 -4 5.5 -6 8.5l-5 7.5
c-1.33301 2 -2.66602 4.16699 -3.99902 6.5s-2.5 4.16602 -3.5 5.49902s-2.16699 2.5 -3.5 3.5s-2.5 1.5 -3.5 1.5s-2 -0.333008 -3 -1s-2.16699 -1.66699 -3.5 -3s-2.66602 -3.33301 -3.99902 -6s-3 -5.66699 -5 -9c-14.667 -28 -31.667 -53.667 -51 -77
s-35.333 -37 -48 -41c-8.66699 -4 -13 -7.33301 -13 -10c0 -3.33301 -10.5 -8.66602 -31.5 -15.999s-40.5 -12.333 -58.5 -15c-20.667 -3.33301 -41.5 3.33398 -62.5 20.001s-35.5 37.334 -43.5 62.001c-12 35.333 -3.83301 77.666 24.5 126.999s60.833 94.333 97.5 135
c52.667 56 86.167 117.667 100.5 185s7.16602 130 -21.501 188c-15.333 28.667 -36.333 58.334 -63 89.001s-51 51.334 -73 62.001h15c30.667 0.666992 66 -27.833 106 -85.5s61.667 -111.5 65 -161.5c2.66699 -42.667 -5.66602 -91.667 -24.999 -147
s-42.666 -95.333 -69.999 -120c-17.333 -16 -40.666 -43.333 -69.999 -82s-50 -69.334 -62 -92.001c-7.33301 -13.333 -11 -35 -11 -65z" />
    <glyph glyph-name="B" unicode="B" horiz-adv-x="424" 
d="M81 62c0 -7.33301 13.166 -16.5 39.499 -27.5s47.833 -16.5 64.5 -16.5c28.667 0 60.167 13.167 94.5 39.5s60.833 57.833 79.5 94.5c22.667 42.667 19.667 87.667 -9 135c-23.333 38.667 -56.666 65 -99.999 79l-43 14c-4.66699 2 -8.5 1.33301 -11.5 -2
s-6.5 -11 -10.5 -23l-36 -100c-47.333 -128 -70 -192.333 -68 -193zM299.999 754c-26.667 4.66699 -53.165 4.33398 -79.498 -0.999023s-47.5 -14.666 -63.5 -27.999c-44.667 -38 -76.5 -81.833 -95.5 -131.5s-18.833 -88.834 0.5 -117.501
c8.66699 -12.667 25 -26.167 49 -40.5s44 -22.5 60 -24.5c7.33301 -0.666992 13.333 2.66602 18 9.99902s13 27 25 59c5.33301 18 24.166 61.167 56.499 129.5s50.833 111.5 55.5 129.5c-2.66699 6 -11.334 11 -26.001 15zM64.001 39
c-2.66699 0 -8.50195 5.33203 -17.502 15.999s-13.833 17.667 -14.5 21c0 4 5 5.33301 15 4c8 -0.666992 15.667 6.5 23 21.5s22.666 55.5 45.999 121.5c8.66699 24.667 19.834 54.834 33.501 90.501s23.167 61.167 28.5 76.5c-28.667 8.66699 -57.5 22.5 -86.5 41.5
s-46.833 36.833 -53.5 53.5c-19.333 45.333 -8.66602 101.166 32.001 167.499s88 105.833 142 118.5c8 2 22 4.33301 42 7c10 0.666992 27 -4.16602 51 -14.499s37.333 -18.166 40 -23.499c1.33301 -6 -2.66699 -19 -12 -39c-20 -40 -45.5 -96.167 -76.5 -168.5
s-47.5 -113.833 -49.5 -124.5c-0.666992 -5.33301 1.83301 -9.83301 7.5 -13.5s17.167 -8.5 34.5 -14.5c30 -10.667 53.5 -22.667 70.5 -36s33.833 -31.666 50.5 -54.999c19.333 -31.333 26.666 -65.333 21.999 -102s-17.667 -66 -39 -88
c-7.33301 -6.66699 -16.166 -15.667 -26.499 -27s-19.833 -20.833 -28.5 -28.5s-20 -15.5 -34 -23.5c-23.333 -12.667 -45.833 -18.834 -67.5 -18.501s-49.5 7.16602 -83.5 20.499c-27.333 11.333 -43.666 17 -48.999 17z" />
    <glyph glyph-name="C" unicode="C" horiz-adv-x="804" 
d="M418 542c0 -10.667 -9.66113 -23.998 -28.9941 -39.998s-45.666 -32 -78.999 -48c-40 -20 -71.333 -38.667 -94 -56c-26 -20 -53.167 -45.667 -81.5 -77s-47.5 -57 -57.5 -77c-15.333 -30 -25.166 -66.667 -29.499 -110s-2.16602 -78.333 6.50098 -105
c9.33301 -28 29.166 -52.5 59.499 -73.5s67.833 -35.833 112.5 -44.5c56 -10.667 112.333 -4.33398 169 18.999s99 57.666 127 102.999c18 28.667 33.667 58.667 47 90s20 53.333 20 66c0 22.667 -7.83301 37.334 -23.5 44.001s-31.834 2.33398 -48.501 -12.999
c-12 -11.333 -37.333 -30.166 -76 -56.499s-60.334 -39.5 -65.001 -39.5c-2.66699 1.33301 -3.83398 3.66602 -3.50098 6.99902s1.83301 6.66602 4.5 9.99902s5 4.66602 7 3.99902c15.333 4.66699 54.166 32.334 116.499 83.001s100.5 80.667 114.5 90
c40.667 29.333 75.667 58 105 86c30.667 29.333 48.667 41.333 54 36c4 -4 -7.33301 -18.833 -34 -44.5s-65 -59.5 -115 -101.5l-53 -45l18 -17c13.333 -12.667 19.166 -28.667 17.499 -48s-11.167 -46.666 -28.5 -81.999c-23.333 -47.333 -46.833 -84.333 -70.5 -111
s-51.834 -48 -84.501 -64c-58.667 -26.667 -114.334 -37 -167.001 -31c-40 4 -78.833 14 -116.5 30s-61.5 32.667 -71.5 50c-8.66699 14 -14.667 21 -18 21c-9.33301 0 -15.833 20.667 -19.5 62s-2.83398 80.666 2.49902 117.999c6.66699 53.333 37.334 107.333 92.001 162
c23.333 24 50 48.167 80 72.5s48 36.5 54 36.5c4.66699 0 21.667 7.83301 51 23.5s50 28.167 62 37.5c22 16.667 29 37.5 21 62.5s-29 46.833 -63 65.5c-25.333 14.667 -59.333 24.667 -102 30s-77.334 4 -104.001 -4c-13.333 -4 -35.333 -8.66699 -66 -14
c-16.667 -2 -25.334 -2.66699 -26.001 -2c0 1.33301 5 4 15 8c14 6 36.5 12.5 67.5 19.5s54.5 9.83301 70.5 8.5c66.667 -4.66699 116.334 -15.667 149.001 -33c21.333 -10 35.833 -18.333 43.5 -25s15.167 -17.334 22.5 -32.001c11.333 -22.667 17 -39.667 17 -51z" />
    <glyph glyph-name="D" unicode="D" horiz-adv-x="960" 
d="M252 -186c3.33301 0 -2.99316 9.33594 -18.9932 28.0029c-13.333 16 -25.666 41.167 -36.999 75.5s-17 63.833 -17 88.5c1.33301 50.667 13.666 98.334 36.999 143.001c13.333 26.667 37.5 57.167 72.5 91.5s66.5 58.166 94.5 71.499
c41.333 19.333 77.333 30.833 108 34.5s76 1.16699 136 -7.5c34.667 -4.66699 60.5 -10.334 77.5 -17.001s32.167 -16.667 45.5 -30c3.33301 -3.33301 8.66602 -8 15.999 -14s12.666 -10.5 15.999 -13.5s7.66602 -7.5 12.999 -13.5s10.666 -13 15.999 -21
c10 -14 16.333 -25.5 19 -34.5s4 -24.833 4 -47.5c0 -28 -4.83301 -59 -14.5 -93s-21.5 -63 -35.5 -87c-13.333 -23.333 -16.333 -34.333 -9 -33s22 13 44 35c32 32 54 61.333 66 88s20.667 66.334 26 119.001c3.33301 23.333 5.16602 42.666 5.49902 57.999
s-0.166992 26.333 -1.5 33l-5.5 28.5c-2.33301 12.333 -4.16602 24.166 -5.49902 35.499c0 27.333 -13 64 -39 110c-8 13.333 -26.333 34.333 -55 63c-25.333 26 -50.5 44.833 -75.5 56.5s-61.167 21.5 -108.5 29.5c-51.333 10.667 -115.5 13.5 -192.5 8.5
s-136.167 -18.167 -177.5 -39.5c-23.333 -12 -41.833 -22 -55.5 -30s-25.5 -16.833 -35.5 -26.5s-16.833 -17.167 -20.5 -22.5s-10.5 -16.333 -20.5 -33l-26 -42c-6.66699 -9.33301 -12 -17.833 -16 -25.5l-11 -20.5c-3.33301 -6 -6.16602 -13 -8.49902 -21l-5.5 -19
c-1.33301 -4.66699 -2.33301 -13 -3 -25s-1.33398 -21 -2.00098 -27s-1.33398 -18.167 -2.00098 -36.5s-1.33398 -33.166 -2.00098 -44.499l-4 -117c28.667 -73.333 50 -118 64 -134c11.333 -12.667 21.666 -27.334 30.999 -44.001
c4.66699 -8.66699 22.667 -23.834 54 -45.501s51 -32.5 59 -32.5zM819.007 141.003c0 26.667 -3.16895 46.8301 -9.50195 60.4971s-21.166 31.834 -44.499 54.501c-22.667 22.667 -42.667 37.667 -60 45s-48.333 13.666 -93 18.999c-68 8.66699 -121 9.33398 -159 2.00098
c-32 -6.66699 -47.333 -13 -46 -19c1.33301 -2.66699 7 -5 17 -7c11.333 -2 17.333 -5 18 -9c0 -6 -7.66699 -7.33301 -23 -4c-18.667 4 -42.334 -1.33301 -71.001 -16s-43 -28.667 -43 -42c0 -6 -3 -7.66699 -9 -5c-2 2 -5.83301 0.333008 -11.5 -5
s-11.167 -11.666 -16.5 -18.999s-10.666 -14.166 -15.999 -20.499s-8.66602 -9.5 -9.99902 -9.5c-6.66699 0 -16.334 -20 -29.001 -60s-19.334 -71.667 -20.001 -95c0 -25.333 6.5 -56.166 19.5 -92.499s26.833 -61.166 41.5 -74.499
c10.667 -10 16.834 -16.833 18.501 -20.5s0.166992 -7.83398 -4.5 -12.501c-8 -8 -17 -11 -27 -9s-27 10.667 -51 26c-26.667 16.667 -52 40.5 -76 71.5s-44.333 65.5 -61 103.5c-10 23.333 -16.167 42 -18.5 56s-3.83301 43 -4.5 87c-0.666992 104 6 174 20 210
c7.33301 17.333 25.333 48.333 54 93s47.334 70.667 56.001 78c9.33301 8.66699 36.333 23.667 81 45c26.667 13.333 48.334 22.333 65.001 27s38.667 8.66699 66 12c19.333 2 37.666 4.33301 54.999 7s26.333 3.5 27 2.5s22.334 -1.16699 65.001 -0.5
c56 -2.66699 102 -7.33398 138 -14.001c17.333 -3.33301 42.666 -12 75.999 -26s53.333 -24 60 -30c44 -43.333 73.833 -78.833 89.5 -106.5s28.834 -68.834 39.501 -123.501c11.333 -56.667 12.166 -116 2.49902 -178s-27.167 -107.667 -52.5 -137
c-50 -58 -92.667 -98 -128 -120c-16 -10 -23.333 -10.333 -22 -1c1.33301 5.33301 5.33301 13.333 12 24c23.333 37.333 43.333 78.833 60 124.5s25 81.834 25 108.501z" />
    <glyph glyph-name="E" unicode="E" horiz-adv-x="695" 
d="M486 687c0 -5.33301 -6.00098 -3.66797 -18.001 4.99902c-13.333 8.66699 -39 13.834 -77 15.501s-68 -1.16602 -90 -8.49902c-34 -11.333 -68 -27.333 -102 -48s-57.667 -39.667 -71 -57c-24 -29.333 -36 -65 -36 -107c0 -29.333 7.83301 -50.666 23.5 -63.999
s48.834 -27 99.501 -41c30 -8.66699 56.667 -19 80 -31s37.666 -23 42.999 -33c17.333 -44.667 10.833 -83.334 -19.5 -116.001s-72.166 -49.334 -125.499 -50.001c-78 0 -124.333 -33 -139 -99c-4.66699 -21.333 -5.5 -47.666 -2.5 -78.999s8.5 -53.333 16.5 -66
c13.333 -20.667 38.333 -37.5 75 -50.5s78 -21.167 124 -24.5c14.667 -0.666992 31 3 49 11s35.667 17.167 53 27.5s30.666 16.833 39.999 19.5c9.33301 3.33301 18.833 8 28.5 14s16.834 11 21.501 15s12.667 11.333 24 22s18.333 17 21 19
c43.333 39.333 79.666 86 108.999 140s39 108.667 29 164c-6.66699 32 -16.5 56.833 -29.5 74.5s-32.833 32.834 -59.5 45.501c-24.667 12 -40.667 18.5 -48 19.5s-11.666 -1.5 -12.999 -7.5c-2 -5.33301 -6 -3 -12 7c-2.66699 4.66699 -4.16699 8 -4.5 10s0 3.33301 1 4
s3.5 1.33398 7.5 2.00098c23.333 0.666992 44.666 -4.33301 63.999 -15c16 -8.66699 27 -13 33 -13c5.33301 0 15.333 -8 30 -24s25.667 -31 33 -45c8.66699 -16.667 14.667 -38.667 18 -66s3.33301 -51.333 0 -72c-10.667 -56.667 -42.167 -116.834 -94.5 -180.501
s-108.833 -109.834 -169.5 -138.501c-18 -8.66699 -40.333 -20.334 -67 -35.001c-14 -8 -25.167 -12.667 -33.5 -14s-22.5 -1 -42.5 1c-79.333 8.66699 -135.333 25.167 -168 49.5s-51.334 63.166 -56.001 116.499c-5.33301 60.667 7.33398 106.334 38.001 137.001
c34.667 34.667 77 52 127 52c41.333 -2.66699 75.5 8.66602 102.5 33.999s37.167 57.333 30.5 96c-6 24 -56.667 48.667 -152 74c-43.333 11.333 -73.666 31.333 -90.999 60c-12.667 20 -17.167 41.833 -13.5 65.5s16.167 54.834 37.5 93.501
c9.33301 16.667 30.333 35.5 63 56.5s69 38.833 109 53.5c18.667 6.66699 34.5 11 47.5 13s31.5 2.33301 55.5 1c27.333 -1.33301 51 -5.33301 71 -12s30 -13.667 30 -21z" />
    <glyph glyph-name="F" unicode="F" horiz-adv-x="953" 
d="M889 252c14 23.333 23.666 35.667 28.999 37c1.33301 0.666992 2.33301 -0.333008 3 -3c0.666992 -11.333 -6.33301 -27.333 -21 -48c-7.33301 -9.33301 -21.833 -31.833 -43.5 -67.5s-36.167 -58.167 -43.5 -67.5c-4 -4 -15.667 -20 -35 -48
s-31.666 -44.333 -36.999 -49c-9.33301 -10.667 -18 -23.667 -26 -39c-9.33301 -18 -17.333 -27 -24 -27c-5.33301 0 -5.66602 6.33301 -0.999023 19c5.33301 15.333 22.333 40 51 74c11.333 13.333 26.333 33.833 45 61.5l60 91.5c21.333 33.333 35.666 55.333 42.999 66z
M595.999 592.001c-9.33301 32 -18.6689 51.335 -28.002 58.002c-2.66699 1.33301 -4 0 -4 -4c0 -4.66699 -9.33301 -18.334 -28 -41.001c-42.667 -48 -78 -115 -106 -201c-4 -13.333 -4.5 -29.333 -1.5 -48s8.5 -32.334 16.5 -41.001c7.33301 -8 20 -12.833 38 -14.5
s34 0.833008 48 7.5c8.66699 4 20.334 17.5 35.001 40.5s25.334 44.5 32.001 64.5c6 18 8.83301 47.167 8.5 87.5s-3.83301 70.833 -10.5 91.5zM249.996 -44.9971c-13.333 16 -26.001 32.6748 -38.001 50.0078s-21.5 32 -28.5 44l-28 49.5
c-11.667 21 -21.167 37.5 -28.5 49.5c0 2.66699 -10.667 26 -32 70c-15.333 31.333 -29 66.666 -41 105.999s-19.667 71.333 -23 96c-2.66699 16 -0.333984 44.667 6.99902 86c4.66699 26.667 9.66699 46.667 15 60s16.333 32.666 33 57.999c24 37.333 39.333 56 46 56
c6 0 9 2 9 6c0 2.66699 3.16699 6 9.5 10s13.166 8 20.499 12s11.333 6.33301 12 7c2.66699 2.66699 13.834 8.16699 33.501 16.5s36.834 14.5 51.501 18.5c46 13.333 79.667 20.5 101 21.5s45 -2.83301 71 -11.5c18 -6 41.5 -17 70.5 -33s46.833 -28 53.5 -36
c3.33301 -3.33301 7.33301 -3.83301 12 -1.5s12.667 9.16602 24 20.499c21.333 23.333 44.666 41.5 69.999 54.5s54.5 19.333 87.5 19s66.167 -9.83301 99.5 -28.5c26 -15.333 43.5 -27 52.5 -35s13.5 -16 13.5 -24c0 -8.66699 -5.66699 -6.33398 -17 6.99902
c-12.667 13.333 -31.667 26.666 -57 39.999s-45.333 20.666 -60 21.999c-60.667 4 -117.334 -20.333 -170.001 -73l-33 -33c0.666992 -1.33301 2.83398 -6.5 6.50098 -15.5l7 -17c1 -2.33301 3 -7.5 6 -15.5s5 -13.833 6 -17.5s2.66699 -9.16699 5 -16.5
s3.83301 -13.5 4.5 -18.5s1.66699 -11.167 3 -18.5s2.16602 -14.333 2.49902 -21s0.5 -13.667 0.5 -21c0 -67.333 -13.5 -121.833 -40.5 -163.5s-59.833 -58.834 -98.5 -51.501c-28 4.66699 -47.5 13 -58.5 25s-19.167 33.333 -24.5 64c-4.66699 28 7.5 71.833 36.5 131.5
s60.5 105.834 94.5 138.501c12.667 11.333 19.5 20.166 20.5 26.499s-2.83301 13.166 -11.5 20.499c-10 8.66699 -29.667 20 -59 34s-52 22.667 -68 26c-16 4 -43.667 2.66699 -83 -4s-71.666 -15 -96.999 -25c-37.333 -16 -68.166 -36 -92.499 -60s-48.166 -57 -71.499 -99
c-12.667 -22.667 -19.334 -59 -20.001 -109s4 -89 14 -117c6.66699 -24.667 25.167 -70.167 55.5 -136.5s52.5 -109.833 66.5 -130.5l40 -59c38 -56 63.5 -92 76.5 -108s24.833 -26.333 35.5 -31c6.66699 -2.66699 10 -4.33398 10 -5.00098s-3.33301 -1 -10 -1
c-21.333 -1.33301 -41.666 14.334 -60.999 47.001c-8.66699 15.333 -19 30 -31 44z" />
    <glyph glyph-name="G" unicode="G" horiz-adv-x="688" 
d="M307 33c0 -5.33301 -12.6641 -12.6611 -37.9971 -21.9941s-45 -14 -59 -14c-31.333 0.666992 -62.166 13 -92.499 37s-53.166 54 -68.499 90c-11.333 27.333 -17.666 59.5 -18.999 96.5s2.66699 68.167 12 93.5c4 9.33301 7 20.5 9 33.5s6.33301 22.833 13 29.5
c7.33301 6 14.666 16.333 21.999 31c7.33301 16 23.166 33.667 47.499 53s45.166 31.333 62.499 36c20 5.33301 44.667 4.33301 74 -3c82 -20.667 148 -63.667 198 -129c14 -18 29.333 -43.167 46 -75.5s25 -53.166 25 -62.499c0 -3.33301 0.833008 -5.83301 2.5 -7.5
s3.5 -1.83398 5.5 -0.500977c4.66699 3.33301 5.66699 8 3 14c1.33301 15.333 13.166 69.666 35.499 162.999s34.166 149.333 35.499 168c6.66699 42 11.667 71 15 87c2.66699 10 1.66699 15 -3 15c-3.33301 -0.666992 -32.5 -9.66699 -87.5 -27s-89.833 -26 -104.5 -26
c-21.333 0 -50.833 -3.16699 -88.5 -9.5l-101.5 -17.5c-30 -5.33301 -61.833 -7 -95.5 -5s-60.834 9.66699 -81.501 23c-18.667 11.333 -25 19.666 -19 24.999c2 1.33301 5.33301 2 10 2c6.66699 0 8.66699 -2 6 -6c-3.33301 -6 2.66699 -11.667 18 -17
c13.333 -5.33301 31.333 -9.33301 54 -12c46.667 -6 119 1.66699 217 23c20 4 45.5 8.66699 76.5 14s57.333 11 79 17s49.5 15.667 83.5 29c26.667 10 43.667 12.167 51 6.5s9.33301 -22.167 6 -49.5c-12.667 -104 -32 -191.333 -58 -262
c-1.33301 -12.667 -5.83301 -36 -13.5 -70s-12.167 -61 -13.5 -81c-1.33301 -12 -6 -36.333 -14 -73s-12.667 -63.334 -14 -80.001c-5.33301 -44.667 -14.333 -66 -27 -64c-2 0 -4 1 -6 3c-5.33301 5.33301 -5.33301 14.666 0 27.999c6 24 10.667 52.667 14 86
s2.33301 64 -3 92c-27.333 74 -59 131.333 -95 172c-31.333 35.333 -73 62.166 -125 80.499s-92 20.166 -120 5.49902c-80.667 -42.667 -125 -120.334 -133 -233.001c-2 -26 -2.16699 -44.5 -0.5 -55.5s7.16699 -27.5 16.5 -49.5c22 -57.333 53.333 -95.333 94 -114
c16 -7.33301 35.5 -9.83301 58.5 -7.5s41.5 8.5 55.5 18.5c6 4.66699 11.833 7.83398 17.5 9.50098s10 1.66699 13 0s4.5 -4.5 4.5 -8.5z" />
    <glyph glyph-name="H" unicode="H" horiz-adv-x="729" 
d="M115 54c-8.66699 0 -19.166 -5.17188 -31.499 -15.5049s-21.5 -21.166 -27.5 -32.499c-5.33301 -9.33301 -8 -30.666 -8 -63.999c0 -20 1.16699 -33.667 3.5 -41s7.83301 -15.666 16.5 -24.999s15.667 -15 21 -17s14 -2.33301 26 -1c18.667 2.66699 34.5 9.5 47.5 20.5
s29.167 30.833 48.5 59.5c15.333 23.333 28.833 47.333 40.5 72s16.167 38.334 13.5 41.001s-23.5 5.33398 -62.5 8.00098s-60.5 2.66699 -64.5 0c-4.66699 -3.33301 -12.334 -5 -23.001 -5zM279.001 386.995c-1.33301 3.33301 -4.33301 12.168 -9 26.501
s-7.66699 24.166 -9 29.499c-1.33301 2.66699 -2.83301 4.16699 -4.5 4.5s-4.66699 -1 -9 -4s-9.5 -7.33301 -15.5 -13l-24 -23.5c-28.667 -28.667 -41.5 -46 -38.5 -52s23.167 -1.66699 60.5 13zM642.001 482.997c-9.33301 0 -34.668 -10.665 -76.001 -31.998
c-32.667 -16.667 -78.5 -35.5 -137.5 -56.5s-95.5 -31.5 -109.5 -31.5c-7.33301 0 -11.5 -1.16699 -12.5 -3.5s0.5 -9.83301 4.5 -22.5c5.33301 -20.667 7.5 -58 6.5 -112s-4.83301 -91.333 -11.5 -112c-7.33301 -24.667 -10.333 -39.5 -9 -44.5s9 -9.16699 23 -12.5
c15.333 -2.66699 34.333 -11.334 57 -26.001c32 -21.333 63.833 -29 95.5 -23s67.5 26.333 107.5 61c22 20 37.167 35.667 45.5 47s18.833 30.666 31.5 57.999c8.66699 21.333 14 39.5 16 54.5s3.33301 47.5 4 97.5c0.666992 71.333 -2.66602 115.333 -9.99902 132
c-8.66699 17.333 -17 26 -25 26zM69.999 768.999c0 2 3.33105 2.99512 9.99805 2.99512c10 0 37.667 -28.167 83 -84.5s68.333 -90.833 69 -103.5c0 -13.333 10 -36.666 30 -69.999c7.33301 -12 12.333 -17.667 15 -17c2.66699 4 27.834 17.833 75.501 41.5
s72.5 37.5 74.5 41.5c5.33301 5.33301 17.666 15.166 36.999 29.499s32 24.833 38 31.5c16 14.667 32.667 28.334 50 41.001s27.666 19 30.999 19c16 0 7.66699 -13.333 -25 -40c-10.667 -8 -30.167 -23.833 -58.5 -47.5s-54.333 -43.834 -78 -60.501
s-44.834 -28.334 -63.501 -35.001c-34 -16 -61.667 -30 -83 -42c1.33301 -8 4.83301 -23.667 10.5 -47s8.83398 -36.666 9.50098 -39.999c9.33301 -4 29.166 -2.83301 59.499 3.5s55.166 13.166 74.499 20.499c21.333 6 50.666 18 87.999 36
c83.333 38.667 130.333 56 141 52c7.33301 -2.66699 16 -15 26 -37c6.66699 -15.333 10.834 -30.166 12.501 -44.499s2.5 -41.5 2.5 -81.5c0 -20.667 -0.5 -38.834 -1.5 -54.501s-3.16699 -30.167 -6.5 -43.5s-6 -23.666 -8 -30.999s-5.66699 -18.166 -11 -32.499l-12 -32.5
c-4 -11.333 -18 -30 -42 -56s-46 -46.333 -66 -61c-30.667 -22.667 -63 -36.334 -97 -41.001s-60 1 -78 17c-9.33301 8.66699 -22.666 16.834 -39.999 24.501s-30.666 11.5 -39.999 11.5s-18.333 -9.66699 -27 -29c-10 -22.667 -25.5 -50 -46.5 -82s-36.5 -52.333 -46.5 -61
c-17.333 -14 -41.666 -23.333 -72.999 -28c-24.667 -3.33301 -44.5 9.5 -59.5 38.5s-18.833 62.167 -11.5 99.5c7.33301 40.667 21.666 67.667 42.999 81s61.333 20 120 20h80c14 28.667 21.5 73.834 22.5 135.501s-4.5 109.834 -16.5 144.501c-4 4 -21.333 0 -52 -12
c-16.667 -6 -33.667 -10.667 -51 -14s-31.666 -4.5 -42.999 -3.5s-17 3.83301 -17 8.5s18.333 25.334 55 62.001c44.667 43.333 69 68.666 73 75.999c3.33301 6.66699 2.33301 16.334 -3 29.001l-2 4c-1.33301 4 -5.66602 14.333 -12.999 31s-12.666 29.334 -15.999 38.001
c-16.667 42 -56.667 97 -120 165c-15.333 15.333 -23 24.333 -23 27z" />
    <glyph glyph-name="I" unicode="I" horiz-adv-x="1010" 
d="M485 546c-3.33301 0 -12.499 -11.6641 -27.499 -34.9971s-24.833 -41.333 -29.5 -54c-2.66699 -8 -10.5 -27.333 -23.5 -58s-20.5 -48.667 -22.5 -54c-0.666992 -2.66699 5.66602 -2.83398 18.999 -0.500977s27 6.16602 41 11.499s22 10.333 24 15
c5.33301 18.667 10.5 47.667 15.5 87s6.16699 68.666 3.5 87.999zM650.001 448.003c5.33301 0 18.334 6.66699 39.001 20s31 22 31 26c-0.666992 6 -6.83398 16.833 -18.501 32.5s-23.167 29.5 -34.5 41.5s-17.333 16.333 -18 13c-2 -8.66699 -3 -33 -3 -73
s1.33301 -60 4 -60zM623.002 515.003c0.666992 37.333 0.500977 59.667 -0.499023 67s-4.83301 11.333 -11.5 12c-28.667 2 -60 -8.66699 -94 -32c-7.33301 -11.333 -13.833 -44.333 -19.5 -99s-9.5 -85.667 -11.5 -93c73.333 32 115.666 52 126.999 60
c6 6 9.33301 34.333 10 85zM854.003 103.004c-2 -24 1.32324 -35.6689 9.99023 -35.002c6.66699 1.33301 12 8.33301 16 21c2 14.667 5.33301 21.334 10 20.001c3.33301 0 6.33301 -4.33301 9 -13c2.66699 -8 2.66699 -17.667 0 -29s-6.66699 -18.666 -12 -21.999
c-4.66699 -2.66699 -13.167 -1.66699 -25.5 3s-20.166 9.66699 -23.499 15c-2.66699 5.33301 -4 18.5 -4 39.5s1.33301 35.833 4 44.5c6 14.667 20.833 24.667 44.5 30s40.834 2.66602 51.501 -8.00098c15.333 -15.333 15.5 -48 0.5 -98s-35.167 -83 -60.5 -99
s-49.666 -20.333 -72.999 -13s-38.333 24.333 -45 51c-4.66699 16.667 -7 84.334 -7 203.001c0 118 -4 189 -12 213c-4.66699 14.667 -8.33398 24 -11.001 28s-5.16699 6 -7.5 6s-7.66602 -2.83301 -15.999 -8.5s-17.166 -10.5 -26.499 -14.5l-41 -20c0 -70 -2 -115 -6 -135
c-2.66699 -16 -7.83398 -63.167 -15.501 -141.5s-12.5 -135.5 -14.5 -171.5c-1.33301 -19.333 -4.5 -28.833 -9.5 -28.5s-7.83301 10.5 -8.5 30.5c-1.33301 24 4.33398 91.667 17.001 203s18 188.333 16 231c-58.667 -25.333 -93 -40.333 -103 -45
c-16 -6.66699 -26 -14.334 -30 -23.001s-8 -31.667 -12 -69c-2 -18 -6.83301 -49 -14.5 -93s-12.834 -83.333 -15.501 -118c-10.667 -120 -22 -180 -34 -180c-7.33301 0 -9.33301 6.66699 -6 20l11 91c5.33301 44 10.333 82.333 15 115s10.334 65.334 17.001 98.001
c3.33301 17.333 8 50 14 98c3.33301 27.333 3 41.333 -1 42c-1.33301 0 -3.66602 -0.666992 -6.99902 -2c-5.33301 -2 -17 -5.5 -35 -10.5s-30.333 -8.5 -37 -10.5c-3.33301 -32.667 -9.83301 -78.834 -19.5 -138.501s-15.5 -97.834 -17.5 -114.501
c-6 -41.333 -11 -63 -15 -65c-4 -2.66699 -6 -7.66699 -6 -15c0 -11.333 -9 -29.666 -27 -54.999s-32.333 -40.333 -43 -45c-24 -10 -51.167 -8.66699 -81.5 4s-55.166 33.334 -74.499 62.001c-38 56 -58.333 106 -61 150c-2.66699 29.333 -1.66699 46.333 3 51
c2.66699 2.66699 4.66699 -3.66602 6 -18.999l1 -18c0.666992 -38.667 14.167 -80.834 40.5 -126.501s53.5 -74.167 81.5 -85.5c31.333 -12.667 55.666 -15 72.999 -7s34 28.667 50 62c14 30.667 23 53.834 27 69.501s11.667 60.167 23 133.5
c6 40.667 10.167 70.167 12.5 88.5s3.83301 34.333 4.5 48s-0.166016 22.167 -2.49902 25.5s-6.16602 5.66602 -11.499 6.99902c-7.33301 2 -11.166 6 -11.499 12s3.5 10.333 11.5 13c6.66699 2 8 0 4 -6c-2 -2.66699 -2.33301 -4.5 -1 -5.5s4 -0.833008 8 0.5
c8 1.33301 20.333 23 37 65c17.333 43.333 30 73 38 89s18.333 30.667 31 44c12.667 14 32.5 28.667 59.5 44s48.5 24 64.5 26c3.33301 0 7.5 0.333008 12.5 1s9.33301 1.16699 13 1.5s6.16699 0.5 7.5 0.5c11.333 1.33301 25.166 -3.83398 41.499 -15.501
s31.833 -27.167 46.5 -46.5c22 -29.333 33.333 -45.666 34 -48.999c0.666992 -1.33301 3.33398 -1.5 8.00098 -0.5s11 3.16699 19 6.5s16.333 7.33301 25 12c67.333 34 122 47.667 164 41c22 -3.33301 32 -7.33301 30 -12c-2.66699 -5.33301 -17.334 -8.33301 -44.001 -9
c-30 0 -63.833 -6.66699 -101.5 -20s-68.834 -29 -93.501 -47c5.33301 -14.667 9.33301 -26.5 12 -35.5s4.83398 -21.5 6.50098 -37.5s2.66699 -29.167 3 -39.5s0.833008 -32.833 1.5 -67.5s1.66699 -66.667 3 -96c2 -102 3.83301 -162 5.5 -180s6.83398 -30.333 15.501 -37
c18.667 -15.333 39.5 -16.833 62.5 -4.5s41.833 34.833 56.5 67.5c10.667 22.667 16.834 46 18.501 70s-1.5 38.667 -9.5 44c-7.33301 4.66699 -12.666 6.66699 -15.999 6s-11.333 -5 -24 -13c-10.667 -6.66699 -17.167 -12.5 -19.5 -17.5s-3.5 -15.5 -3.5 -31.5z" />
    <glyph glyph-name="J" unicode="J" horiz-adv-x="845" 
d="M548 800c5.33301 0 8.33691 -4.17383 9.00391 -12.5068s0 -28.166 -2 -59.499c-8 -139.333 -41.333 -254.666 -100 -345.999c-20.667 -31.333 -31 -48 -31 -50c-2 -5.33301 -12.167 -20.5 -30.5 -45.5l-60.5 -82c-22 -29.667 -36.333 -49.5 -43 -59.5
c-5.33301 -8.66699 -13 -25.167 -23 -49.5s-14.667 -38.166 -14 -41.499c0.666992 -2 -1 -5.66699 -5 -11c-3.33301 -3.33301 -7 -18 -11 -44c-3.33301 -23.333 0.333984 -42.666 11.001 -57.999c10.667 -14.667 28.167 -28 52.5 -40s46.833 -18.333 67.5 -19
c38 -0.666992 78.333 24 121 74c68.667 82 96.334 141.667 83.001 179c-3.33301 10.667 -7.33301 17.5 -12 20.5s-14.667 5.5 -30 7.5c-22.667 3.33301 -41.334 3.33301 -56.001 0c-14 -3.33301 -21 -2.66602 -21 2.00098c0 12 22.333 20 67 24
c42.667 3.33301 86.667 20.833 132 52.5s80.666 69.5 105.999 113.5c16.667 28.667 28 43 34 43c3.33301 0 6 -4 8 -12c6.66699 -21.333 11.167 -58.166 13.5 -110.499s0.833008 -81.166 -4.5 -86.499c-6 -6 -10 -2 -12 12c-0.666992 6 -1 13.667 -1 23
c0.666992 27.333 -0.5 56.166 -3.5 86.499s-5.83301 45.5 -8.5 45.5c-3.33301 0 -13 -11.667 -29 -35c-14.667 -22.667 -34.5 -45 -59.5 -67s-51.167 -40 -78.5 -54l-43 -23c10 -15.333 16.167 -30.166 18.5 -44.499s0.5 -30.166 -5.5 -47.499s-14.833 -35.333 -26.5 -54
s-27.834 -41.334 -48.501 -68.001c-31.333 -38.667 -60.333 -65.334 -87 -80.001c-49.333 -25.333 -89 -27.666 -119 -6.99902c-12.667 8 -25.667 15.667 -39 23c-17.333 8.66699 -31 21 -41 37s-14.667 33 -14 51c0.666992 24.667 10.167 58.5 28.5 101.5
s39.166 79.833 62.499 110.5c65.333 84.667 113.333 153.667 144 207c24 41.333 44.167 93.333 60.5 156s26.166 126.667 29.499 192c-2.66699 -2.66699 -13.167 -14.334 -31.5 -35.001s-31 -34.5 -38 -41.5l-33.5 -32c-15.333 -14.333 -29.833 -25.5 -43.5 -33.5
s-27.834 -14.667 -42.501 -20c-11.333 -4 -30 -12.333 -56 -25s-49.5 -22.167 -70.5 -28.5s-43.5 -10.166 -67.5 -11.499c-29.333 -2 -57.333 -0.833008 -84 3.5s-40 9.83301 -40 16.5c0 4 3.5 5.83301 10.5 5.5s16.5 -2.5 28.5 -6.5
c12.667 -5.33301 41.167 -5.33301 85.5 0s75.166 12.333 92.499 21c10.667 5.33301 35.667 16 75 32c34.667 14 73.334 39.5 116.001 76.5s72 70.833 88 101.5c8 15.333 15.333 23 22 23z" />
    <glyph glyph-name="K" unicode="K" horiz-adv-x="615" 
d="M188 44c14.667 53.333 21.333 81.999 20 85.999s-7.16602 4.33301 -17.499 1s-21.833 -9.33301 -34.5 -18c-26.667 -17.333 -50.334 -44.666 -71.001 -81.999s-32.334 -74.333 -35.001 -111c-3.33301 -37.333 -0.166016 -60 9.50098 -68s25.5 -1 47.5 21
c29.333 29.333 56.333 86.333 81 171zM157.999 748.999c-10.667 10 -14 17.3281 -10 21.9951c5.33301 4 13.666 -1.66699 24.999 -17c34.667 -43.333 55 -181.666 61 -414.999c2.66699 -108 5 -163 7 -165c1.33301 -1.33301 24 -2.66602 68 -3.99902
c46 -1.33301 81.333 3.66699 106 15s55.667 36.666 93 75.999c37.333 40 59.333 60 66 60c7.33301 0 9 -3 5 -9c-2.66699 -4 -10 -12.667 -22 -26c-22 -25.333 -36 -42.333 -42 -51c-12 -15.333 -36 -33 -72 -53c-26.667 -14.667 -40 -24.334 -40 -29.001
c1.33301 -4.66699 18 0 50 14c14.667 6 25.5 9.33301 32.5 10s16.167 -0.666016 27.5 -3.99902c18.667 -5.33301 30.667 -14.833 36 -28.5s8.33301 -41.5 9 -83.5c0.666992 -40 2.33398 -68 5.00098 -84s8.33398 -28.667 17.001 -38c5.33301 -6 6.33301 -11.167 3 -15.5
s-8.33301 -4.16602 -15 0.500977c-18.667 11.333 -28 54.666 -28 129.999c0 34.667 -0.666992 56.834 -2 66.501s-5.33301 17.834 -12 24.501c-8.66699 8.66699 -18.5 13 -29.5 13s-26.5 -3.66699 -46.5 -11c-14.667 -5.33301 -26.5 -8.16602 -35.5 -8.49902
s-26.833 2.16699 -53.5 7.5c-41.333 8 -72 10.667 -92 8c-15.333 -2 -25 -4.33301 -29 -7s-6.66699 -8 -8 -16c0 -2 -8 -34.667 -24 -98c-27.333 -106 -65.333 -171 -114 -195c-9.33301 -4.66699 -16.166 -6.83398 -20.499 -6.50098s-11.5 3.5 -21.5 9.5
c-11.333 6.66699 -18 13 -20 19s-2.66699 23 -2 51c0.666992 24.667 2.5 43.334 5.5 56.001s9.83301 30 20.5 52c16 36 36.5 64.333 61.5 85s57.833 39.667 98.5 57c-1.33301 38.667 -2.5 87.334 -3.5 146.001s-1.83301 104.5 -2.5 137.5s-3.33398 72 -8.00098 117
s-11.334 87.5 -20.001 127.5c-8 29.333 -16 49.333 -24 60z" />
    <glyph glyph-name="L" unicode="L" horiz-adv-x="820" 
d="M590 112c2.66699 18 0.998047 26.332 -5.00195 24.999c-10.667 -1.33301 -124.667 -23 -342 -65c9.33301 -18 26.666 -59.333 51.999 -124c21.333 -56.667 34.833 -89.667 40.5 -99s13.834 -12.666 24.501 -9.99902c22.667 6 56.334 21.333 101.001 46
c28.667 16 55.334 45.667 80.001 89s41 89.333 49 138zM234.998 772.999c0 6.66699 3.66406 8 10.9971 4c2.66699 -1.33301 5.33398 -3.66602 8.00098 -6.99902c4.66699 -6 23 -14.667 55 -26c33.333 -11.333 70.166 -35 110.499 -71s70.166 -72 89.499 -108
c0 -2 11 -28.667 33 -80c26 -58.667 48 -122.667 66 -192c2.66699 -4.66699 5.16699 -23.834 7.5 -57.501s5.5 -52.167 9.5 -55.5c5.33301 0 28 8.5 68 25.5s62 27.5 66 31.5c7.33301 7.33301 16 9 26 5c4.66699 -1.33301 6.33398 -3.66602 5.00098 -6.99902
c-3.33301 -8.66699 -43.333 -30.334 -120 -65.001l-55 -24c1.33301 -30 -3.66699 -63.667 -15 -101c-6.66699 -21.333 -21.667 -51 -45 -89s-40.666 -61 -51.999 -69c-13.333 -10 -37.5 -23.5 -72.5 -40.5s-58.167 -26.5 -69.5 -28.5c-14.667 -2.66699 -25.5 0 -32.5 8
s-18.167 31 -33.5 69c-7.33301 16.667 -15.5 37.334 -24.5 62.001s-17.667 46.334 -26 65.001s-18.166 37 -29.499 55c-4.66699 3.33301 -18 6 -40 8c-83.333 11.333 -130 22 -140 32c-14 14 3 15 51 3c36 -8 66.667 -12 92 -12c28.667 -1.33301 43 -3.66602 43 -6.99902
c0 -4 9.16699 -5.66699 27.5 -5s34.833 3 49.5 7c6.66699 2.66699 55.334 13.167 146.001 31.5s137 27.833 139 28.5c5.33301 2 8.5 6.33301 9.5 13s0.833008 23 -0.5 49c-2.66699 39.333 -10 79.666 -22 120.999c-12.667 41.333 -31.167 90.666 -55.5 147.999
s-42.5 94 -54.5 110c-18.667 25.333 -42.667 50 -72 74s-57.333 41.333 -84 52c-46 19.333 -69 33.666 -69 42.999z" />
    <glyph glyph-name="M" unicode="M" horiz-adv-x="1011" 
d="M305 327v-18.002c0 -30 1.33301 -45.333 4 -46c0.666992 -0.666992 1.66699 0 3 2c7.33301 11.333 11.333 11.333 12 0c0.666992 -8 -1 -19 -5 -33c-23.333 -90.667 -35 -153.334 -35 -188.001c0 -19.333 4.83301 -36.666 14.5 -51.999s20.5 -23 32.5 -23
c22 0 41.833 4.33301 59.5 13s37.167 24 58.5 46c28.667 29.333 48.334 60 59.001 92c8 25.333 15.167 62.5 21.5 111.5s7.5 79.5 3.5 91.5c-2 6.66699 -15.333 10.334 -40 11.001s-71.334 -0.666016 -140.001 -3.99902zM269 405.998
c0 4.66699 -0.332031 8.00098 -0.999023 10.001s-2.33398 2.83301 -5.00098 2.5s-6.16699 -1.5 -10.5 -3.5s-10.833 -5.66699 -19.5 -11c-18 -10.667 -27 -20 -27 -28c0 -7.33301 5.33301 -13.666 16 -18.999s23.334 -8 38.001 -8
c9.33301 -2.66699 14.5 0.166016 15.5 8.49902s-0.166992 17.166 -3.5 26.499c-0.666992 3.33301 -1.16699 5.66602 -1.5 6.99902l-1.5 6c-0.666992 2.66699 -0.833984 4.33398 -0.500977 5.00098s0.5 2 0.5 4zM30.001 681.999c0 2.66699 2.99609 4.32715 8.99609 4.99414
s14.333 0.333984 25 -0.999023s22.334 -3.33301 35.001 -6c14.667 -3.33301 33.334 -12.5 56.001 -27.5s38 -28.167 46 -39.5c44.667 -67.333 70.667 -125.333 78 -174c25.333 2 96 5.66699 212 11c20 2 53.333 0 100 -6s76.334 -12 89.001 -18c12 -4.66699 26 -17 42 -37
c17.333 -18.667 30.5 -39.167 39.5 -61.5s14.5 -41.666 16.5 -57.999s4.66699 -43.833 8 -82.5l14 33c15.333 37.333 30.666 63.833 45.999 79.5s33.333 23.5 54 23.5c12.667 0 27 -6.16699 43 -18.5s26.333 -25.166 31 -38.499c10.667 -32 10.667 -79 0 -141
c-4.66699 -25.333 -4.66699 -45.333 0 -60c7.33301 -24 8 -35 2 -33c-6.66699 2 -12 11.333 -16 28c-6 18.667 -6 47 0 85c6.66699 41.333 8.33398 72.333 5.00098 93s-12.666 37.334 -27.999 50.001c-16 13.333 -30.667 18.666 -44 15.999c-10 -2 -22.5 -10 -37.5 -24
s-22.5 -24.667 -22.5 -32c-2.66699 -10.667 -11.834 -36.834 -27.501 -78.501s-25.5 -69.834 -29.5 -84.501c-13.333 -42.667 -23.666 -64 -30.999 -64c-1.33301 0 -3 1 -5 3c-4.66699 4.66699 -3 21.667 5 51c8 23.333 12.5 65.833 13.5 127.5s-3.83301 101.5 -14.5 119.5
c-10.667 22.667 -25.5 43 -44.5 61s-37.5 30 -55.5 36c-27.333 5.33301 -78.666 7.5 -153.999 6.5s-143.333 -3.5 -204 -7.5c4.66699 -44 8.66699 -67.667 12 -71c2.66699 -3.33301 34.334 -2.66602 95.001 2.00098c88 8 138 4.66699 150 -10
c8.66699 -10 11.834 -38.167 9.50098 -84.5s-8.83301 -86.166 -19.5 -119.499c-24.667 -74.667 -66.667 -128 -126 -160c-13.333 -7.33301 -29.833 -12.666 -49.5 -15.999s-34.5 -3.66602 -44.5 -0.999023c-10.667 3.33301 -21.834 14.333 -33.501 33s-17.5 35 -17.5 49v24
l-13 -22c-12.667 -20.667 -22.334 -31.334 -29.001 -32.001c-8 -1.33301 -6.33301 10.334 5 35.001l7 14c15.333 28 28.5 69.333 39.5 124s14.167 94.334 9.5 119.001c-2 10.667 -5 17.667 -9 21s-12.667 6 -26 8c-26 4 -44 11.667 -54 23s-11 23.833 -3 37.5
s24.333 26.5 49 38.5c16 7.33301 24 12 24 14c0 6 -5.33301 22.833 -16 50.5s-19.667 47.5 -27 59.5c-42 70 -92 105 -150 105c-10.667 0 -19.834 2.33301 -27.501 7s-11.5 10 -11.5 16z" />
    <glyph glyph-name="N" unicode="N" horiz-adv-x="844" 
d="M353 23c0 -4 1.99707 -4.33398 5.99707 -1.00098c4 2 7.66699 -1.33301 11 -10c1.33301 -5.33301 7 -10.833 17 -16.5s16.333 -6.83398 19 -3.50098c0 0.666992 7 12.334 21 35.001c9.33301 16 14.333 28.333 15 37s-1 26.667 -5 54c-4 28 -5.66699 44.833 -5 50.5
s5 11.5 13 17.5c20.667 14.667 38.5 20.667 53.5 18s33.167 -15 54.5 -37c18 -19.333 30.667 -29 38 -29c6.66699 0 14.334 4 23.001 12s13 14.667 13 20c0 6.66699 5.33301 15.834 16 27.501s19.334 17.5 26.001 17.5c8.66699 0 16.834 -5.16699 24.501 -15.5
s11.5 -21.5 11.5 -33.5c0 -16.667 6.33301 -22.334 19 -17.001c12 4.66699 32.333 18.334 61 41.001c18.667 14.667 28 20 28 16c0.666992 -4 -9.66602 -16.333 -30.999 -37c-22 -20.667 -37.167 -33.5 -45.5 -38.5s-17.833 -6.16699 -28.5 -3.5
c-10.667 3.33301 -17.667 12.333 -21 27c-6 28.667 -13 43 -21 43c-2.66699 0 -5.33398 -1 -8.00098 -3c-6 -4 -9 -11 -9 -21c0 -12 -5.66699 -23.167 -17 -33.5s-23.666 -15.5 -36.999 -15.5c-15.333 0 -35 11.667 -59 35c-24.667 24 -42 34.333 -52 31
c-14.667 -4 -23.834 -10 -27.501 -18s-3.83398 -24.333 -0.500977 -49c4.66699 -28.667 5 -53.334 1 -74.001c-4 -19.333 -13.667 -36.333 -29 -51s-32.333 -23.334 -51 -26.001l-30 -4l-10 33c-12.667 41.333 -20.334 71.666 -23.001 90.999s-3 46.333 -1 81
c4.66699 72.667 16 145.667 34 219c22.667 94 33.667 156 33 186s-13.667 53.667 -39 71c-10 6.66699 -18 10.5 -24 11.5s-15.333 -0.166992 -28 -3.5c-19.333 -5.33301 -35.166 -15.5 -47.499 -30.5s-27.5 -42.833 -45.5 -83.5
c-16.667 -37.333 -28.167 -66.166 -34.5 -86.499s-14.166 -53.833 -23.499 -100.5c-3.33301 -18 -10.166 -47.5 -20.499 -88.5s-16.5 -68.5 -18.5 -82.5c0 -13.333 -16 -53.666 -48 -120.999c-12.667 -26.667 -19.667 -39 -21 -37c-1.33301 6 2.66699 23.5 12 52.5
s17 47.5 23 55.5c8 26 19.667 72.167 35 138.5s24.333 111.166 27 134.499c0 8.66699 6.5 31.5 19.5 68.5s24.167 63.833 33.5 80.5c7.33301 14.667 11 24.334 11 29.001c0 6.66699 7.5 19.5 22.5 38.5s26.833 30.833 35.5 35.5c10.667 6.66699 26.5 12.167 47.5 16.5
s35.833 2.83301 44.5 -4.5c1.33301 -1.33301 5.33301 -5 12 -11l16 -14c19.333 -16.667 29.666 -45.167 30.999 -85.5s-6.66699 -85.166 -24 -134.499c-3.33301 -11.333 -6.5 -26.333 -9.5 -45s-6.16699 -35.334 -9.5 -50.001c-21.333 -114 -26.333 -198.667 -15 -254
c7.33301 -33.333 11 -51.666 11 -54.999z" />
    <glyph glyph-name="O" unicode="O" horiz-adv-x="751" 
d="M529 511l-0.00390625 -65l55 3c31.333 2 53.833 -0.166992 67.5 -6.5s28.167 -20.833 43.5 -43.5c12.667 -18.667 20 -51.334 22 -98.001l4 -71c-22 -24 -55.333 -44.333 -100 -61c-35.333 -12.667 -62.833 -27.834 -82.5 -45.501s-37.167 -43.5 -52.5 -77.5
c-28 -60 -48 -105 -60 -135c-28 -74 -58 -111 -90 -111h-22c22 18.667 36.833 31.5 44.5 38.5s17.334 18.333 29.001 34s20.167 32.167 25.5 49.5c14.667 40 32.167 79.5 52.5 118.5s37.166 66.5 50.499 82.5c11.333 14 31 29.333 59 46s48 25 60 25
c3.33301 0 13.666 4 30.999 12c16 7.33301 26.833 18.5 32.5 33.5s7.16699 36.5 4.5 64.5c-4.66699 52 -19.667 89.667 -45 113c-9.33301 8 -17.5 12.833 -24.5 14.5s-22.167 1.5 -45.5 -0.5c-36 -3.33301 -57.5 -1 -64.5 7s-10.833 33.667 -11.5 77
c-0.666992 47.333 -6 82 -16 104c-12 25.333 -30.167 48 -54.5 68s-45.166 29.333 -62.499 28c-5.33301 -0.666992 -29 -1 -71 -1c-32.667 0.666992 -49 3 -49 7c0 1.33301 1 3.33301 3 6c4 5.33301 5 7.83301 3 7.5s-9 -3.16602 -21 -8.49902
c-7.33301 -3.33301 -28 -11.666 -62 -24.999c-39.333 -15.333 -68.833 -37 -88.5 -65s-33.167 -69 -40.5 -123c-6 -44 -7.66699 -72.667 -5 -86c6.66699 -28 22.167 -56.667 46.5 -86s52.5 -53.333 84.5 -72c14.667 -8 33.167 -23.833 55.5 -47.5s33.5 -39.167 33.5 -46.5
c0 -5.33301 2.33301 -21.333 7 -48c4.66699 -28.667 2.66699 -57.334 -6 -86.001c-10 -30 -19.833 -53 -29.5 -69s-27.167 -39 -52.5 -69c-30.667 -35.333 -47.334 -61.333 -50.001 -78c-2.66699 -17.333 -7.66699 -25.666 -15 -24.999c-5.33301 1.33301 -8.33301 8 -9 20
c0 24 24 60.667 72 110c16.667 16.667 34 45 52 85c12 26 19.167 44.333 21.5 55s2.5 27 0.5 49c-3.33301 34 -9.66602 58 -18.999 72c-9.33301 14.667 -22.166 29.5 -38.499 44.5s-28.166 22.5 -35.499 22.5c-8.66699 0 -28.667 17 -60 51s-51.333 60.333 -60 79
c-9.33301 20.667 -14.5 39.667 -15.5 57s1.83301 48 8.5 92c14.667 94 53.667 151.333 117 172c10 4 30 12.667 60 26c18.667 8.66699 36.834 13.167 54.501 13.5s47.834 -3.16699 90.501 -10.5c112 -20 168 -95.667 168 -227z" />
    <glyph glyph-name="P" unicode="P" horiz-adv-x="728" 
d="M30 -173c0 5.33301 9.16699 8.16699 27.5 8.5s38.5 -1.5 60.5 -5.5s37.667 -9 47 -15c17.333 -11.333 20 -16.333 8 -15c-9.33301 0.666992 -24 4.33398 -44 11.001c-22.667 7.33301 -45 10.333 -67 9c-21.333 -0.666992 -32 1.66602 -32 6.99902zM79 426.001
c-2.66699 -24 -10 -77.6699 -22 -161.003s-20.667 -134 -26 -152c-2 24 1.16699 73.833 9.5 149.5s15.5 129.834 21.5 162.501c1.33301 3.33301 3.33301 5.83301 6 7.5s5.16699 1.83398 7.5 0.500977s3.5 -3.66602 3.5 -6.99902zM336 -200.002
c-6.66699 0 -6.33301 7.00488 1 21.0049l2 5c55.333 112 86 208.333 92 289l3 40.5c0.666992 9 1.83398 16.5 3.50098 22.5s3.66699 8.66699 6 8s5.5 -1.33398 9.5 -2.00098c6 -4 7.33301 -28.333 4 -73c-2 -31.333 -2.5 -51.833 -1.5 -61.5s5.83301 -21.5 14.5 -35.5
c8 -14 14.5 -22.667 19.5 -26s13.833 -5 26.5 -5c16.667 0 38.334 10.667 65.001 32c76 62 106.333 128.333 91 199c-14.667 62.667 -38.5 112.667 -71.5 150s-70.167 56 -111.5 56c-53.333 0 -101.666 -22 -144.999 -66c-24 -24.667 -43 -49.334 -57 -74.001
s-20.667 -45.667 -20 -63c0.666992 -24.667 4.16699 -49.834 10.5 -75.501s12.166 -38.5 17.499 -38.5c8 0 9 -3.33301 3 -10c-5.33301 -7.33301 -11.333 -9.5 -18 -6.5s-11.334 10.167 -14.001 21.5c-17.333 64.667 -21.666 111.667 -12.999 141
c14.667 48.667 48.667 94.334 102 137.001c29.333 23.333 64.333 39 105 47c52 10 98.667 -3.5 140 -40.5s72 -92.167 92 -165.5c18.667 -66.667 -3.33301 -132.334 -66 -197.001c-26.667 -26.667 -48.834 -45 -66.501 -55s-35.167 -13.667 -52.5 -11
c-15.333 2 -29.333 8.66699 -42 20s-19.334 22.666 -20.001 33.999c-0.666992 9.33301 -4.66699 5.33301 -12 -12c-4.66699 -11.333 -10.667 -28 -18 -50c-12 -34.667 -26.833 -69.334 -44.5 -104.001s-29.167 -52 -34.5 -52z" />
    <glyph glyph-name="Q" unicode="Q" horiz-adv-x="855" 
d="M69 352c6 -9.33301 12.5 -20.334 19.5 -33.001s17.833 -28.334 32.5 -47.001c22.667 -30 33.334 -46.667 32.001 -50c-2 -4 0.333008 -18 7 -42c9.33301 -34 12.166 -82.667 8.49902 -146s-11.834 -114.333 -24.501 -153c-10 -28.667 -14.333 -48.334 -13 -59.001
c1.33301 -12 -1 -18.667 -7 -20c-4 -1.33301 -6.66699 1.66699 -8 9c-4 19.333 0.333008 47.666 13 84.999c9.33301 26.667 15.5 71.5 18.5 134.5s1.5 111.833 -4.5 146.5c-4 20.667 -9.33301 37.834 -16 51.501s-21.667 38.834 -45 75.501l-21.5 33.5
c-9 13.667 -14.5 22.334 -16.5 26.001s-4.83301 9.5 -8.5 17.5s-5.66699 14.833 -6 20.5s-0.166016 12.834 0.500977 21.501c12 -29.333 25 -53 39 -71zM488 794.999c2 11.333 9.99902 3.66992 23.999 -22.9971c13.333 -27.333 21.333 -41.333 24 -42
c10.667 -6.66699 12.334 -52.667 5.00098 -138l-5 -63c14.667 12 38 47.5 70 106.5s54 94.833 66 107.5c18 20.667 27 32.667 27 36s6.33301 7.66602 19 12.999s22.667 8 30 8c8 0 21.667 -7.33301 41 -22c25.333 -18.667 37.333 -42.834 36 -72.501s-17 -76.167 -47 -139.5
c-7.33301 -15.333 -20.333 -44 -39 -86s-34.667 -75.333 -48 -100s-28 -47.667 -44 -69c-9.33301 -10.667 -22.333 -29 -39 -55c-4 -7.33301 -8.5 -13.5 -13.5 -18.5s-8.5 -7.5 -10.5 -7.5c-9.33301 0 -1 -10.667 25 -32c12 -10 24.667 -19.333 38 -28
c15.333 -9.33301 31.333 -21.333 48 -36s25 -23.667 25 -27c-1.33301 -2 -8.83301 -12 -22.5 -30s-25.167 -34 -34.5 -48s-16.666 -26.333 -21.999 -37c-14 -29.333 -25 -44 -33 -44c-6 0 -20.167 6.66699 -42.5 20s-38.166 24.666 -47.499 33.999
c-1.33301 1.33301 -12.333 14.333 -33 39s-33.667 38.334 -39 41.001c-2.66699 0 -4.66699 -8.66699 -6 -26c-2.66699 -40 -16.334 -83 -41.001 -129c-13.333 -26 -32.833 -53.667 -58.5 -83s-43.167 -44 -52.5 -44c-8.66699 0 2.66602 17 33.999 51c50 56 81 113 93 171
c6.66699 31.333 9.5 52.833 8.5 64.5s-6.83301 22.167 -17.5 31.5c-4.66699 4 -19 17 -43 39s-40.333 36 -49 42c-11.333 8 -15 15 -11 21c1.33301 2 3.66602 3 6.99902 3c3.33301 -1.33301 21.833 -16.833 55.5 -46.5s53.834 -45.167 60.501 -46.5
c12.667 -6 19 -11.333 19 -16c0 -5.33301 18.833 -27.666 56.5 -66.999s61.5 -61.666 71.5 -66.999c14.667 -7.33301 24.334 -10 29.001 -8s11.334 11 20.001 27c6 12 20.333 35.667 43 71c13.333 19.333 20.833 31.666 22.5 36.999s-0.5 11.333 -6.5 18s-19 16.5 -39 29.5
s-32.667 22.167 -38 27.5c-2.66699 4 -8 8.66699 -16 14s-14.667 10 -20 14s-7.83301 9.5 -7.5 16.5s5.5 14.833 15.5 23.5s20.667 23.167 32 43.5s22.333 35.166 33 44.499c12 11.333 53.667 92.666 125 243.999c45.333 94 52.666 154.333 21.999 181
c-26 20.667 -49.333 20.334 -70 -0.999023c-38 -39.333 -66.333 -78 -85 -116c-20 -39.333 -49.667 -88 -89 -146c-14 -20.667 -21.333 -17.334 -22 9.99902c-0.666992 6.66699 -0.666992 15 0 25c1.33301 31.333 -0.333984 47 -5.00098 47
c-3.33301 0 -4.33301 21.667 -3 65c2.66699 45.333 -1 80 -11 104c-10 26 -15 40.667 -15 44zM79.999 800.003c6.66699 0 9.99805 -0.999023 9.99805 -2.99902c-0.666992 -2.66699 -5 -8.66699 -13 -18c-17.333 -21.333 -31.666 -53 -42.999 -95
c-3.33301 16.667 -4 31.167 -2 43.5s7.33301 26.166 16 41.499c12.667 20.667 23.334 31 32.001 31z" />
    <glyph glyph-name="R" unicode="R" horiz-adv-x="734" 
d="M396 396c0 12.667 -15.666 12.3311 -46.999 -1.00195s-56 -30 -74 -50c-6.66699 -8 -14 -24.5 -22 -49.5s-10.667 -40.833 -8 -47.5c5.33301 -15.333 21.166 -18.5 47.499 -9.5s46.5 24.167 60.5 45.5c8 12.667 17.167 32.334 27.5 59.001s15.5 44.334 15.5 53.001z
M389.001 -75.0029c0 5.33301 24.8311 13.1709 74.498 23.5039s88.5 15.833 116.5 16.5c8 0 16.833 0.166992 26.5 0.5s16.834 0.5 21.501 0.5h7c41.333 98.667 55.333 210 42 334c-6 66 -10 96.667 -12 92c-3.33301 -10 -12.833 -25.833 -28.5 -47.5
s-29.5 -37.5 -41.5 -47.5c-12.667 -11.333 -30 -21.666 -52 -30.999s-40.667 -14.333 -56 -15c-12 0 -24.333 6.66699 -37 20s-21.667 29.666 -27 48.999c-4 12 -7.33301 20 -10 24s-5.33398 4.5 -8.00098 1.5s-5.33398 -10.5 -8.00098 -22.5
c-4.66699 -16 -16.667 -34.5 -36 -55.5s-37.666 -35.167 -54.999 -42.5c-13.333 -5.33301 -27.666 -6.83301 -42.999 -4.5s-25.666 7.83301 -30.999 16.5c-4.66699 7.33301 -5.33398 22 -2.00098 44c5.33301 31.333 23.166 62.166 53.499 92.499s61.166 47.5 92.499 51.5
c12.667 2 20.334 4.83301 23.001 8.5s5 14.167 7 31.5c2 18 6.33301 99 13 243c-30 -4.66699 -50 -9.66699 -60 -15c-10.667 -5.33301 -60 -8.83301 -148 -10.5s-139.667 -0.166992 -155 4.5c-16 5.33301 -24.667 10.666 -26 15.999c-0.666992 4.66699 6 5 20 1
c16.667 -5.33301 67.167 -7 151.5 -5s136.166 6 155.499 12c29.333 8 59 11.667 89 11c-3.33301 -111.333 -9.66602 -189.333 -18.999 -234c-7.33301 -18.667 -8.66602 -36.834 -3.99902 -54.501s6.33398 -32.5 5.00098 -44.5c-2 -12.667 1 -31.5 9 -56.5
s16.667 -42.833 26 -53.5c10 -10 22.667 -13.333 38 -10c39.333 7.33301 72.666 26.5 99.999 57.5s49.666 75.833 66.999 134.5c4.66699 15.333 9.33398 11.333 14.001 -12c2.66699 -12 4.66699 -27.667 6 -47c2.66699 -36.667 6.33398 -74.334 11.001 -113.001
c8 -48 7.16699 -103.167 -2.5 -165.5s-24.834 -119.833 -45.501 -172.5c-73.333 -2.66699 -132.666 -9.33398 -177.999 -20.001c-25.333 -6 -45.5 -9.66699 -60.5 -11s-22.833 0.333984 -23.5 5.00098z" />
    <glyph glyph-name="S" unicode="S" horiz-adv-x="825" 
d="M178 -151c27.333 0 49.9971 17.332 67.9971 51.999c13.333 24.667 16 65.334 8 122.001s-20.667 88.334 -38 95.001c-9.33301 3.33301 -16.833 4.66602 -22.5 3.99902s-18.167 -3.66699 -37.5 -9c-33.333 -9.33301 -56.166 -20.5 -68.499 -33.5
s-23.5 -38.833 -33.5 -77.5c-6.66699 -26 -7.66699 -47.167 -3 -63.5s16.667 -33.166 36 -50.499c16.667 -14.667 31.334 -24.834 44.001 -30.501s28.334 -8.5 47.001 -8.5zM148.997 474.999c0 -36 2.33105 -68.4932 6.99805 -97.4932s14.334 -71.167 29.001 -126.5
c2 -6.66699 4.16699 -15.5 6.5 -26.5s4.16602 -19.167 5.49902 -24.5s4 -11.833 8 -19.5s9.33301 -15.167 16 -22.5l24 -25c120.667 -0.666992 233.334 16.333 338.001 51c20.667 7.33301 36.5 14.666 47.5 21.999s24.5 19.666 40.5 36.999c27.333 28.667 51 61.167 71 97.5
s31 66.5 33 90.5c6.66699 50.667 -6.66602 100.167 -39.999 148.5s-72 73.833 -116 76.5c-20 3.33301 -39 -1.33398 -57 -14.001c-16.667 -12 -26.334 -18 -29.001 -18c-5.33301 0 -11.333 -5.33301 -18 -16s-11.667 -23.334 -15 -38.001
c-6 -22.667 -12.333 -34.667 -19 -36c-2 0 -3.66699 0.666992 -5 2s-2.5 4.16602 -3.5 8.49902s-1.66699 10.666 -2 18.999s-0.5 19.166 -0.5 32.499v65c-36.667 31.333 -63 51 -79 59c-27.333 12 -59.166 13.167 -95.499 3.5s-65.833 -27.5 -88.5 -53.5
c-38.667 -42.667 -58 -107.667 -58 -195zM757.995 326.006c-7.33301 -10.667 -13.5029 -20.334 -18.5029 -29.001l-10.5 -18.5c-2 -3.66699 -6.16699 -9.16699 -12.5 -16.5s-16.166 -18 -29.499 -32c-22.667 -24 -39.667 -39.5 -51 -46.5s-34.333 -16.167 -69 -27.5
c-71.333 -24 -150.333 -38.333 -237 -43c-46 -1.33301 -70.333 -3.33301 -73 -6c-1.33301 -1.33301 1.66699 -9.66602 9 -24.999c6.66699 -13.333 11.334 -34.666 14.001 -63.999s2.66699 -56.666 0 -81.999c-4.66699 -36 -20 -64 -46 -84s-53.667 -25.333 -83 -16
c-25.333 8.66699 -54 25.334 -86 50.001c-10 8 -18.333 20.167 -25 36.5s-10 32.833 -10 49.5c0 28 8.33301 58.333 25 91s33.667 52.667 51 60c10.667 4 25.834 8 45.501 12s31.5 5.33301 35.5 4c2.66699 -0.666992 4 0.666016 4 3.99902c0 4.66699 -3 25 -9 61
c-7.33301 36.667 -13 58 -17 64c-3.33301 5.33301 -5 12.166 -5 20.499s-2.33301 18.5 -7 30.5c-28.667 96.667 -33.834 181.5 -15.501 254.5s57.5 124.5 117.5 154.5c22 10.667 50.667 15.334 86 14.001c36 -1.33301 64 -9 84 -23c43.333 -35.333 66.333 -66.333 69 -93
c1.33301 -1.33301 14 6 38 22c36 22.667 69.167 31.167 99.5 25.5s62.833 -26.167 97.5 -61.5c37.333 -38.667 58.833 -85.834 64.5 -141.501s-6.16602 -103.834 -35.499 -144.501z" />
    <glyph glyph-name="T" unicode="T" horiz-adv-x="848" 
d="M291 56c0 -16.667 7.66797 -29.333 23.001 -38c25.333 -16 54.666 -17 87.999 -3c32.667 13.333 59.667 38.666 81 75.999c10 17.333 16.667 26 20 26c4 0 6 3.33301 6 10s-12 14.667 -36 24c-31.333 12.667 -60.833 17 -88.5 13s-50.667 -16.167 -69 -36.5
s-26.5 -44.166 -24.5 -71.499zM805.001 451.001c-5.33301 2.66699 -15.001 3.16504 -29.001 1.49805s-32.667 -4.66699 -56 -9s-36.333 -6.5 -39 -6.5c-10 0.666992 -18.833 -6.16602 -26.5 -20.499s-15 -34.666 -22 -60.999s-10.5 -39.833 -10.5 -40.5
c-8 -26 -34.333 -85 -79 -177l28 -27c27.333 -26 48.833 -39.667 64.5 -41s34.834 9 57.501 31c24 22 47 69.667 69 143c3.33301 11.333 11.333 47.5 24 108.5s19 93.833 19 98.5zM488 422.999c0 12.667 18.6621 22.3301 55.9951 28.9971c28 4.66699 56.333 7.66699 85 9
c11.333 0.666992 20.833 8.83398 28.5 24.501s16.834 46.167 27.501 91.5c4.66699 18 8.33398 39.833 11.001 65.5s3.66699 47.834 3 66.501s-2.66699 28 -6 28l-31.5 -13.5c-11.667 -5 -19 -8.33301 -22 -10s-9.83301 -4.16699 -20.5 -7.5
s-18.834 -5.66602 -24.501 -6.99902s-17.667 -3.83301 -36 -7.5s-36 -7 -53 -10s-42.833 -7.83301 -77.5 -14.5c-265.333 -49.333 -398 -60.333 -398 -33c0 5.33301 23 8.66602 69 9.99902c74 2 192 19 354 51c73.333 14 121.333 24 144 30s45 14.667 67 26
c28.667 14.667 44.334 21 47.001 19c2 -1.33301 3.33301 -4.33301 4 -9c4 -22.667 1.66699 -66.667 -7 -132s-18.667 -112.666 -30 -141.999l-3.5 -10.5c-1 -3 -1.5 -5.5 -1.5 -7.5s0.166992 -3.5 0.5 -4.5s1.16602 -1.66699 2.49902 -2s2.83301 -0.5 4.5 -0.5
s3.83398 0.166992 6.50098 0.5s5.33398 0.833008 8.00098 1.5s6.16699 1.33398 10.5 2.00098l12.5 2c24 5.33301 47 8.66602 69 9.99902c12.667 0.666992 20.667 0.166992 24 -1.5s5.33301 -6.83398 6 -15.501c2 -14.667 -2.66699 -50.167 -14 -106.5
s-23.333 -104.5 -36 -144.5c-17.333 -54 -38 -94.833 -62 -122.5s-49.333 -39.5 -76 -35.5c-14.667 2 -35 15 -61 39c-25.333 23.333 -39 34 -41 32c-3.33301 -3.33301 -12.333 -17.333 -27 -42c-30 -46 -64 -75.667 -102 -89c-12.667 -4 -29.667 -3.83301 -51 0.5
s-38.333 11.166 -51 20.499c-15.333 12 -22.166 31.667 -20.499 59s10.834 50 27.501 68c44.667 48.667 102.667 58.334 174 29.001c30.667 -13.333 47 -18.333 49 -15c6.66699 6 21.167 34.333 43.5 85s37.5 89.334 45.5 116.001c12.667 41.333 20.667 65.333 24 72
c2 3.33301 0 5.33301 -6 6c-2 0.666992 -4 1 -6 1c-14.667 -0.666992 -38 -3.16699 -70 -7.5s-51 -7.83301 -57 -10.5c-8 -3.33301 -12 -1 -12 7z" />
    <glyph glyph-name="U" unicode="U" horiz-adv-x="502" 
d="M200 448c11.333 0 8.66016 -9.33008 -8.00684 -27.9971c-18 -20.667 -24 -37.334 -18 -50.001c5.33301 -12.667 17.333 -11.667 36 3c28.667 22 46 49.667 52 83c4 22 3.5 36.667 -1.5 44s-17.167 11 -36.5 11c-13.333 0 -23.666 -1.5 -30.999 -4.5
s-16.666 -9.83301 -27.999 -20.5c-27.333 -24.667 -46.5 -54.667 -57.5 -90s-9.16699 -62.333 5.5 -81c7.33301 -10 23 -16.333 47 -19c16 -2 27.5 -2 34.5 0s17.5 8.33301 31.5 19c17.333 13.333 36.333 37.333 57 72s37 70.334 49 107.001
c15.333 48.667 9.66602 85.667 -17.001 111c-31.333 31.333 -69.166 43.666 -113.499 36.999s-87.5 -31.334 -129.5 -74.001c-27.333 -28 -41.333 -37.667 -42 -29c0 8.66699 13.667 25.667 41 51s50.333 42.666 69 51.999c16.667 8 34 14 52 18
c58 11.333 103.667 0 137 -34c24.667 -25.333 35.834 -52.833 33.501 -82.5s-19.5 -75.5 -51.5 -137.5c-19.333 -37.333 -33.666 -62 -42.999 -74s-24.666 -25.333 -45.999 -40c-14 -9.33301 -24.5 -15 -31.5 -17s-19.5 -1.66699 -37.5 1c-16.667 2 -28.667 4.66699 -36 8
s-14.666 10 -21.999 20c-12 16 -16.667 34.667 -14 56c2 18.667 9.5 41.334 22.5 68.001s26.5 47.334 40.5 62.001c14.667 16 31.834 28.5 51.501 37.5s36.167 12.167 49.5 9.5c17.333 -3.33301 28.333 -9.33301 33 -18s5.66699 -24.334 3 -47.001
c-3.33301 -29.333 -14.833 -57.5 -34.5 -84.5s-40.5 -43.167 -62.5 -48.5c-8 -2 -13.5 -2.16699 -16.5 -0.5s-5.5 6.16699 -7.5 13.5c-3.33301 15.333 0 35.166 10 59.499s20 36.5 30 36.5zM468.994 582.003c0 -119.333 -29.335 -215.67 -88.002 -289.003
c-12.667 -16 -16.667 -25.667 -12 -29c4.66699 -4 -2 -25.333 -20 -64c-23.333 -48.667 -37 -87.834 -41 -117.501s2.33301 -45.834 19 -48.501c12.667 -2.66699 32.167 14.833 58.5 52.5s43.833 73.5 52.5 107.5c4.66699 19.333 10.667 29 18 29c14.667 0 15 -15 1 -45
c-22 -46.667 -33.667 -93.334 -35 -140.001c-0.666992 -17.333 0.166016 -29.166 2.49902 -35.499s8.5 -14.833 18.5 -25.5c16.667 -16.667 26 -30 28 -40c2.66699 -10.667 2.5 -24.834 -0.5 -42.501s-7.83301 -32.834 -14.5 -45.501
c-5.33301 -9.33301 -17.833 -19.833 -37.5 -31.5s-35.167 -17.5 -46.5 -17.5c-12 0 -21.5 4.83301 -28.5 14.5s-10.5 22.834 -10.5 39.501c-2 19.333 2.16699 30.833 12.5 34.5s23.833 3.16699 40.5 -1.5c-1.33301 -0.666992 -4.33301 -1.66699 -9 -3
s-8 -2.66602 -10 -3.99902s-4.33301 -3 -7 -5s-4.5 -4.5 -5.5 -7.5s-1.16699 -6.83301 -0.5 -11.5c0 -14.667 4.66699 -24.167 14 -28.5s21.666 -2.83301 36.999 4.5c16 8.66699 26.5 16.334 31.5 23.001s8.83301 18.334 11.5 35.001c5.33301 31.333 -4 59.666 -28 84.999
c-15.333 15.333 -22 37.666 -20 66.999v35c-16.667 -23.333 -28.334 -38.666 -35.001 -45.999c-6.66699 -8 -18.5 -13.5 -35.5 -16.5s-28.833 -1.83301 -35.5 3.5c-6 5.33301 -9.5 17.333 -10.5 36s1.16699 36.667 6.5 54c4 14.667 4.33301 22.667 1 24
s-9.66602 -1.66699 -18.999 -9c-2 -1.33301 -3.66699 -2.5 -5 -3.5s-3.16602 -2 -5.49902 -3s-4.5 -2.16699 -6.5 -3.5c-60 -30 -104.333 -45 -133 -45c-16.667 0 -36.167 3.83301 -58.5 11.5s-33.5 14.167 -33.5 19.5c0 6 14.333 4.33301 43 -5
c24.667 -8.66699 46.834 -11.5 66.501 -8.5s47.834 13.5 84.501 31.5c26.667 12.667 47.667 26.167 63 40.5s29.333 33.5 42 57.5c10.667 19.333 14.5 29.5 11.5 30.5s-14.833 -6.5 -35.5 -22.5c-40 -30.667 -90.667 -46 -152 -46c-32 0.666992 -60.5 5.16699 -85.5 13.5
s-37.5 17.833 -37.5 28.5c0 3.33301 0.5 5.83301 1.5 7.5s2.16699 2.16699 3.5 1.5c24.667 -12.667 44 -20.667 58 -24s34 -5 60 -5c67.333 0.666992 125.333 22.667 174 66c27.333 24 48.333 48.5 63 73.5s27.334 56.833 38.001 95.5
c22.667 87.333 28.667 149.666 18 186.999c-4.66699 18.667 -16.834 37.834 -36.501 57.501s-38.167 31.834 -55.5 36.501c-97.333 26 -160.333 37 -189 33c-62.667 -9.33301 -102.334 -19.666 -119.001 -30.999c-4 -2 -6.83301 -3.5 -8.5 -4.5s-3.16699 -1.5 -4.5 -1.5
s-2.16602 0.5 -2.49902 1.5s-0.5 2.5 -0.5 4.5c0 13.333 24 26 72 38c42.667 10.667 97.834 10.834 165.501 0.500977s114.834 -25.833 141.501 -46.5c23.333 -18.667 39.166 -36.667 47.499 -54s12.5 -41.666 12.5 -72.999z" />
    <glyph glyph-name="V" unicode="V" horiz-adv-x="700" 
d="M623 525c10 0 25.6689 -6.99707 47.002 -20.9971c-67.333 -70.667 -113.666 -123.334 -138.999 -158.001c-105.333 -144 -161.333 -217.333 -168 -220c-4.66699 -1.33301 -11.334 15 -20.001 49s-12.667 97 -12 189c0.666992 50 1 102.667 1 158c-0.666992 10 -3 12 -7 6
c-4 -4.66699 -11.667 -18.334 -23 -41.001c-10.667 -23.333 -41.667 -75 -93 -155l-84 -131c-16.667 -27.333 -43.334 -67 -80.001 -119c-7.33301 -12 -12.333 -15 -15 -9c-2 8 37.333 71.333 118 190c7.33301 10 21.5 32.167 42.5 66.5s35.833 56.833 44.5 67.5
c6.66699 8 22.834 36.5 48.501 85.5s42.5 83.833 50.5 104.5s15 30.667 21 30c4 -0.666992 4.66699 -8 2 -22c-4 -21.333 -6.83301 -85.833 -8.5 -193.5s-0.833984 -168.834 2.49902 -183.501c2.66699 -8.66699 5.5 -20.167 8.5 -34.5s5.5 -24.833 7.5 -31.5
c11.333 12 24.333 27.833 39 47.5l49 68l37 52.5c15.333 21.333 42.166 53.833 80.499 97.5s59.5 65.5 63.5 65.5c8.66699 0 9.66699 3 3 9c-4.66699 4 -11 7 -19 9c-13.333 2.66699 -32.166 15 -56.499 37s-43.166 43.333 -56.499 64l-20 33
c-19.333 -44.667 -30.333 -74.667 -33 -90c-1.33301 -7.33301 -3.83301 -14 -7.5 -20s-7.33398 -10 -11.001 -12s-6.83398 -2 -9.50098 0c-2 2 3.33301 19.833 16 53.5s23.334 57.834 32.001 72.501c9.33301 18 16.666 26.333 21.999 25
c4 -0.666992 9.66699 -11.334 17 -32.001c5.33301 -17.333 22 -39.5 50 -66.5s48 -40.5 60 -40.5z" />
    <glyph glyph-name="W" unicode="W" horiz-adv-x="1018" 
d="M36 715c-6 1.33301 -8.00586 4.66406 -6.00586 9.99707c2 4 5.66699 5.66699 11 5c8.66699 0 29.834 -17.667 63.501 -53s52.834 -59.666 57.501 -72.999c5.33301 -15.333 7.33301 -50.666 6 -105.999c-1.33301 -38 -4.16602 -66.667 -8.49902 -86
s-15.833 -56.666 -34.5 -111.999c-30.667 -90 -46 -157.833 -46 -203.5s14.667 -78.834 44 -99.501c31.333 -22.667 64.666 -27.834 99.999 -15.501s68.333 40.5 99 84.5c24.667 37.333 42 87 52 149c12 79.333 22.667 136.833 32 172.5s20.333 60.5 33 74.5
s30.667 21.333 54 22c22 0.666992 37.333 0.166992 46 -1.5s19.667 -5.83398 33 -12.501c48 -24.667 59.667 -100 35 -226c-3.33301 -16.667 -7.33301 -38 -12 -64l-7 -40c-2.66699 -20 -7.33398 -30 -14.001 -30s-8.33398 -11 -5.00098 -33s8.66602 -39.667 15.999 -53
c18.667 -32 43.334 -25.333 74.001 20c38.667 58 70.667 150.333 96 277c9.33301 48 19.333 82.667 30 104c12.667 28 29.334 47 50.001 57s42.334 10 65.001 0c12 -5.33301 21.833 -21.333 29.5 -48s11.167 -57.334 10.5 -92.001c-0.666992 -28 -2.66699 -50.833 -6 -68.5
s-12.333 -52.167 -27 -103.5c-20.667 -72 -24.334 -119 -11.001 -141c6.66699 -8 15.334 -9.33301 26.001 -4c23.333 12.667 41.666 34 54.999 64c4.66699 10.667 7.66699 16.334 9 17.001c0.666992 0.666992 1.33398 -2.33301 2.00098 -9c0 -10 -6.16699 -25.667 -18.5 -47
s-22.833 -34.333 -31.5 -39c-23.333 -8.66699 -40.833 -6.66699 -52.5 6s-17.5 35.334 -17.5 68.001c0 28.667 11.667 82.667 35 162c9.33301 31.333 14.166 64 14.499 98s-3.83398 63.667 -12.501 89c-5.33301 17.333 -9.83301 28.333 -13.5 33
s-10.5 7.33398 -20.5 8.00098c-22 2 -40.833 -12.5 -56.5 -43.5s-32.834 -88.833 -51.501 -173.5c-13.333 -58.667 -32.166 -114.5 -56.499 -167.5s-45.5 -84.167 -63.5 -93.5c-10.667 -6 -23.167 -6.66699 -37.5 -2s-25.166 13.334 -32.499 26.001
c-13.333 21.333 -19.833 46 -19.5 74s7.83301 65.667 22.5 113c9.33301 29.333 15.833 64.666 19.5 105.999s3.16699 72.666 -1.5 93.999c-5.33301 22 -13 36.5 -23 43.5s-29.333 10.5 -58 10.5c-24 0 -41 -5.33301 -51 -16c-21.333 -23.333 -35 -56.666 -41 -99.999
c-2.66699 -20.667 -6.66699 -41.334 -12 -62.001s-9.33301 -41.667 -12 -63c-7.33301 -53.333 -18.333 -95.833 -33 -127.5s-36.667 -60.167 -66 -85.5c-13.333 -12 -33.166 -23.833 -59.499 -35.5s-46.166 -17.5 -59.499 -17.5c-14.667 0 -33.667 7.66699 -57 23
s-38.666 30.333 -45.999 45c-14.667 26.667 -18.167 66.834 -10.5 120.501s27.834 128.167 60.501 223.5c17.333 51.333 26 103.333 26 156s-8.66699 88.334 -26 107.001c-12 14 -29.167 31.5 -51.5 52.5s-35.166 31.833 -38.499 32.5z" />
    <glyph glyph-name="X" unicode="X" horiz-adv-x="586" 
d="M512 390c-0.666992 2 0.999023 18.666 4.99902 49.999s4 48 0 50c-3.33301 0 -29.5 -27 -78.5 -81s-73.5 -82.667 -73.5 -86c5.33301 -12 21 -38 47 -78s41.333 -65 46 -75c2 6 8.5 33.5 19.5 82.5s19.5 80.167 25.5 93.5c2 2 3 5.33301 3 10
s-0.666992 8.33398 -2 11.001c-2 8 -1.33301 11 2 9c2.66699 -2 4.33398 -0.333008 5.00098 5c0.666992 2 1 5 1 9zM29.999 767.999c0 7.33301 2.33887 11.0029 7.00586 11.0029c5.33301 -1.33301 9.66602 -6.66602 12.999 -15.999
c6.66699 -25.333 38.167 -80.833 94.5 -166.5s101.833 -146.834 136.5 -183.501c10 -10.667 22.333 -24.667 37 -42l30 -35l62 65c51.333 54.667 84.166 90.167 98.499 106.5s21.5 27.166 21.5 32.499c1.33301 8.66699 5 18 11 28c4.66699 8 7.5 12.167 8.5 12.5
s0.833008 -3.16699 -0.5 -10.5c-2.66699 -10.667 -1.33398 -16.667 3.99902 -18c4.66699 -2 4.33398 -8 -0.999023 -18c-7.33301 -22.667 -15.833 -63.334 -25.5 -122.001s-16.834 -98.334 -21.501 -119.001c-13.333 -68.667 -20.333 -112.167 -21 -130.5
s3.66602 -36.166 12.999 -53.499c14 -30.667 17 -44.667 9 -42c-10.667 2.66699 -25.334 20.667 -44.001 54l-11 21c-14.667 30 -24 45 -28 45s-6 3 -6 9c0 7.33301 -10.833 26.5 -32.5 57.5s-35.167 46.5 -40.5 46.5c-4.66699 0 -33.167 -26 -85.5 -78
s-94.833 -96.333 -127.5 -133c-51.333 -58 -80.333 -85.667 -87 -83c-4.66699 1.33301 7.66602 17.333 36.999 48l252 266c-8 11.333 -26.833 33.333 -56.5 66s-49.5 56 -59.5 70c-15.333 18.667 -53 74.667 -113 168c-19.333 30 -36.5 59.667 -51.5 89
s-22.5 47.666 -22.5 54.999z" />
    <glyph glyph-name="Y" unicode="Y" horiz-adv-x="750" 
d="M482 342c-3.33301 0 -15.335 -11.5 -36.002 -34.5s-33.667 -39.5 -39 -49.5c-11.333 -16.667 -20 -28.667 -26 -36c-12.667 -16 -25 -37.5 -37 -64.5s-19.333 -50.167 -22 -69.5c-2.66699 -18 -0.666992 -42.5 6 -73.5s14 -50.5 22 -58.5s22.5 -11.5 43.5 -10.5
s41.5 6.16699 61.5 15.5c14.667 7.33301 25.334 14.833 32.001 22.5s16.334 23.834 29.001 48.501c34 68 45.667 132.333 35 193c-7.33301 33.333 -15.833 59.166 -25.5 77.499s-24.167 31.5 -43.5 39.5zM680.998 800c6.66699 0 12.3359 -3.66895 17.0029 -11.002
s9.66699 -20.666 15 -39.999c17.333 -62.667 3 -122 -43 -178c-12.667 -14.667 -30.667 -38 -54 -70s-45.333 -59.667 -66 -83c-32 -36.667 -48 -55.667 -48 -57c0 -2 7 -10 21 -24c22 -19.333 38 -52.166 48 -98.499s10.333 -89.166 1 -128.499
c-4 -18.667 -13.167 -42.5 -27.5 -71.5s-26.5 -48.833 -36.5 -59.5s-28 -22 -54 -34s-45.333 -18 -58 -18c-28 0 -52 10.667 -72 32c-12.667 14.667 -20 44.667 -22 90s2.33301 78.666 13 99.999c7.33301 14.667 11 23.334 11 26.001c0 4 8.66699 19.333 26 46
s27.666 40.667 30.999 42c4 0.666992 6 4.66699 6 12c-2 2 9.16699 16.167 33.5 42.5s36.166 40.166 35.499 41.499c-0.666992 0 -7.5 4.16699 -20.5 12.5s-26.167 16.333 -39.5 24s-21 11.167 -23 10.5c-8 0 -21.167 11 -39.5 33s-30.833 42.333 -37.5 61
c-8 21.333 -13 37.666 -15 48.999c0 4.66699 -2.66699 2.33398 -8 -6.99902c0 -1.33301 -0.333008 -2.33301 -1 -3c-0.666992 -2.66699 -5.66699 -13.834 -15 -33.501s-18 -39 -26 -58s-12.333 -30.833 -13 -35.5c0 -4 -2.66699 -6 -8 -6c-12.667 0 -1.66699 36.333 33 109
c14.667 30.667 24.334 49.167 29.001 55.5s10.334 7.83301 17.001 4.5c9.33301 -4.66699 14 -11.667 14 -21c0 -23.333 8.66699 -48.166 26 -74.499s38.333 -46.166 63 -59.499c6.66699 -3.33301 19.167 -10.5 37.5 -21.5s31.833 -17.833 40.5 -20.5
c7.33301 -0.666992 32.166 22.666 74.499 69.999s73.166 86 92.499 116c4.66699 6.66699 11 15.167 19 25.5s14.5 19.833 19.5 28.5s10.167 19.667 15.5 33c17.333 45.333 14.666 87.333 -8.00098 126c-10 15.333 -11.333 23 -4 23zM305 799.998
c10.667 0 2.99902 -8.00098 -23.001 -24.001l-20 -11c-37.333 -21.333 -67.5 -40.666 -90.5 -57.999s-51.833 -42.333 -86.5 -75c-36.667 -34 -55 -47.667 -55 -41c0 11.333 26.833 39.833 80.5 85.5s97.167 77.167 130.5 94.5c8.66699 4 16.334 8.5 23.001 13.5
s12.667 8.66699 18 11s13 3.83301 23 4.5z" />
    <glyph glyph-name="Z" unicode="Z" horiz-adv-x="709" 
d="M623 103c3.33301 0 9.83398 22.833 19.501 68.5s15.5 82.167 17.5 109.5c2.66699 31.333 2 47 -2 47c-3.33301 0 -23.333 -7.33301 -60 -22c-42 -16 -66.333 -22 -73 -18c-2.66699 1.33301 1.33301 4.66602 12 9.99902c2 0.666992 4.33301 1.66699 7 3
c83.333 38 127.666 55.667 132.999 53c4 -2.66699 3.83301 -20.5 -0.5 -53.5s-11 -75 -20 -126s-13.5 -77.167 -13.5 -78.5c0 -7.33301 -1.5 -11.666 -4.5 -12.999s-10.167 -1 -21.5 1c-17.333 2 -36.666 5.66699 -57.999 11c-14.667 4 -27.334 5.16699 -38.001 3.5
s-32 -7.16699 -64 -16.5c-60.667 -18 -106.834 -29.833 -138.501 -35.5s-68.5 -8.83398 -110.5 -9.50098c-51.333 -1.33301 -79 0 -83 4c-3.33301 4 3.83398 20 21.501 48s39.5 57.667 65.5 89l155.5 199.5c52.333 70.333 78.5 109.166 78.5 116.499
c0 2.66699 -4 2.66699 -12 0c-6.66699 -2.66699 -43.834 -10.5 -111.501 -23.5s-104.167 -20.5 -109.5 -22.5c-29.333 -7.33301 -66.333 -15.166 -111 -23.499s-68 -11.5 -70 -9.5c-5.33301 5.33301 -0.666016 10.333 14.001 15c4.66699 2 10.334 3.66699 17.001 5
c89.333 21.333 148 34 176 38c12 1.33301 23.333 4 34 8s23 7 37 9c92 15.333 143 27.333 153 36c7.33301 7.33301 14 8 20 2c2 -2 -0.166992 -8.83301 -6.5 -20.5s-13.833 -21.834 -22.5 -30.501c-4 -3.33301 -18 -23.166 -42 -59.499s-37.667 -56.5 -41 -60.5
c-6 -6 -14.333 -17 -25 -33c-15.333 -23.333 -48.333 -65.333 -99 -126s-85 -108.667 -103 -144c19.333 -4 38.666 -6.16699 57.999 -6.5s42 1.83398 68 6.50098s52.5 10.667 79.5 18s63.167 18 108.5 32c27.333 8.66699 51.333 13.5 72 14.5s35.167 0.5 43.5 -1.5
s24.833 -6.66699 49.5 -14z" />
    <glyph glyph-name="underscore" unicode="_" horiz-adv-x="645" 
d="M166 -60l-33.002 0.000976562c-69.333 0.666992 -103.666 3.66699 -102.999 9c1.33301 6 6.66602 8.33301 15.999 7c4.66699 -0.666992 33.334 -1.66699 86.001 -3c52 -0.666992 76 -4 72 -10c-0.666992 -2 -3.66699 -3.66699 -9 -5
c-7.33301 -2.66699 -3.33301 -12.667 12 -30c10.667 -12 20.667 -19.667 30 -23c19.333 -7.33301 46.166 -13 80.499 -17s62.833 -5 85.5 -3c27.333 3.33301 55.833 11.5 85.5 24.5s52.167 27.5 67.5 43.5l20 20c-110 -6.66699 -161.667 -5.33398 -155 3.99902l10 5
c3.33301 1.33301 11.833 2.33301 25.5 3s29.334 1.16699 47.001 1.5s35 0.5 52 0.5s31.167 -0.5 42.5 -1.5s17 -2.16699 17 -3.5c-0.666992 -5.33301 -15.167 -18.5 -43.5 -39.5s-52.833 -36.5 -73.5 -46.5c-20 -10 -36 -16.167 -48 -18.5s-33.333 -3.83301 -64 -4.5
c-36 -0.666992 -70 1.5 -102 6.5s-54 11.167 -66 18.5c-13.333 8 -30.666 28.667 -51.999 62z" />
    <glyph glyph-name="grave" unicode="`" horiz-adv-x="167" 
d="M56 576c-18 -14 -26.6709 -17.668 -26.0039 -11.001c1.33301 9.33301 9.66602 20 24.999 32c6.66699 5.33301 12.334 8.33301 17.001 9c10 3.33301 17.667 4.33301 23 3s11.333 -6.33301 18 -15c12.667 -15.333 20.334 -58.333 23.001 -129
c1.33301 -19.333 0.833008 -32.5 -1.5 -39.5s-6.16602 -8.5 -11.499 -4.5s-13 13.667 -23 29c-15.333 23.333 -30.666 37.333 -45.999 42c-7.33301 2.66699 -12.833 5.5 -16.5 8.5s-4.83398 6.16699 -3.50098 9.5c2.66699 6 11.334 5.33301 26.001 -2
c16 -7.33301 28.667 -15.666 38 -24.999c11.333 -10 18 -13.333 20 -10c3.33301 3.33301 1.5 21 -5.5 53s-13.5 51.667 -19.5 59c-5.33301 6.66699 -9.66602 9.5 -12.999 8.5s-11.333 -6.83301 -24 -17.5z" />
    <glyph glyph-name="a" unicode="a" horiz-adv-x="456" 
d="M417 80c-8.66699 -3.33301 -20.834 -11.499 -36.501 -24.499s-27.167 -21.5 -34.5 -25.5c-22 -14.667 -41.333 -30.334 -58 -47.001c-25.333 -24 -41.666 -33.667 -48.999 -29c-5.33301 3.33301 0.666992 14.333 18 33c9.33301 10.667 25.833 25.334 49.5 44.001
s37.167 28 40.5 28s13.666 7 30.999 21c12.667 10.667 19.834 18 21.501 22s0.166992 11.333 -4.5 22c-6.66699 14.667 -15 49.667 -25 105c-10 52 -18.333 78 -25 78c-3.33301 0 -7.33301 -4.66699 -12 -14c-2 -4 -6.33301 -10.167 -13 -18.5s-10.667 -14.833 -12 -19.5
c0 -3.33301 -5.33301 -11.666 -16 -24.999c-50.667 -60.667 -82.667 -89.334 -96 -86.001c-4.66699 0.666992 -8.33398 5 -11.001 13c-2 9.33301 -5 14 -9 14c-6.66699 8 -17 25.333 -31 52s-24.667 44.334 -32 53.001c-3.33301 -32.667 -10.666 -77.334 -21.999 -134.001
s-19.666 -91.334 -24.999 -104.001c-5.33301 -11.333 -10 -27 -14 -47c-3.33301 -20 -8 -29.667 -14 -29c-4.66699 1.33301 -7.33398 9 -8.00098 23c-1.33301 16.667 0.333984 25 5.00098 25c3.33301 0 6.33301 5.33301 9 16c33.333 107.333 49 193.666 47 258.999
c0 35.333 3.33301 53 10 53c6 0 11 -5 15 -15c4 -14 19 -42.833 45 -86.5s41 -65.5 45 -65.5c7.33301 0 25 17.5 53 52.5s42 56.833 42 65.5c0 4.66699 3.33301 9.33398 10 14.001c6.66699 5.33301 13.667 16 21 32c15.333 34.667 29.666 29.667 42.999 -15l10 -44
c2 -8.66699 4.83301 -23.5 8.5 -44.5s7.33398 -39.667 11.001 -56s7.5 -30.166 11.5 -41.499c6.66699 -18.667 10.167 -32.334 10.5 -41.001s-2.83398 -13 -9.50098 -13z" />
    <glyph glyph-name="b" unicode="b" horiz-adv-x="514" 
d="M436 291c-12 12.667 -21.5039 20.667 -28.5039 24s-19.167 5.66602 -36.5 6.99902c-26.667 1.33301 -48.167 -1.16699 -64.5 -7.5s-34.166 -19.166 -53.499 -38.499s-32.666 -38.666 -39.999 -57.999s-11.333 -45 -12 -77c-0.666992 -26 2.83301 -43 10.5 -51
s23.834 -11.667 48.501 -11c26.667 0.666992 55.834 8.5 87.501 23.5s55.834 32.833 72.501 53.5c26.667 32 41.167 57.167 43.5 75.5s-6.83398 38.166 -27.501 59.499zM483.996 235c0 -12.667 -6.83496 -29.6689 -20.502 -51.002s-30.167 -40.666 -49.5 -57.999
c-40 -36 -91.667 -58.333 -155 -67c-16 -4.66699 -29.667 -6 -41 -4s-18.666 4.16699 -21.999 6.5s-8.5 6.66602 -15.5 12.999s-14.5 11.5 -22.5 15.5c-6 2.66699 -19.333 15 -40 37s-33.667 34.333 -39 37c-3.33301 -4.66699 -7.16602 -39 -11.499 -103s-7.5 -98 -9.5 -102
c-4 -16 -3.16699 -26 2.5 -30s17.834 -3.33301 36.501 2c10.667 4 37.834 6.5 81.501 7.5s84.834 1.5 123.501 1.5s58.667 1 60 3c10.667 2 16.167 1 16.5 -3s-4.83398 -7.66699 -15.501 -11c-11.333 -2 -55 -4.5 -131 -7.5s-120.333 -5.83301 -133 -8.5
c-19.333 -2 -31.833 -4.16699 -37.5 -6.5s-9.16699 -6.83301 -10.5 -13.5c-1.33301 -10.667 -5.33301 -17 -12 -19c-2 -0.666992 -3.66699 -1 -5 -1s-2.33301 0.833008 -3 2.5s-0.833984 4 -0.500977 7l1.5 13.5l25 291c0 12 6.33301 13 19 3
c9.33301 -7.33301 25 -22.333 47 -45c38.667 -40.667 58 -55.667 58 -45c-0.666992 3.33301 -2.33398 9 -5.00098 17c-5.33301 13.333 -4.16602 36.833 3.50098 70.5s17.5 59.5 29.5 77.5c21.333 32 49.666 54.667 84.999 68c42 18.667 84.333 15.834 127 -8.49902
s63.667 -54.166 63 -89.499z" />
    <glyph glyph-name="c" unicode="c" horiz-adv-x="401" 
d="M303 511c0 16 5.67773 10.332 17.0107 -17.001c7.33301 -18 16.666 -44 27.999 -78c4.66699 -14 8 -25 10 -33s3 -14.5 3 -19.5s-1.16699 -8.16699 -3.5 -9.5s-6.16602 -2 -11.499 -2c-14 -2 -43 -15 -87 -39l43 -44c38 -39.333 60.167 -72.833 66.5 -100.5
s-1.83398 -55.5 -24.501 -83.5c-16.667 -20.667 -35.167 -35.334 -55.5 -44.001s-46.5 -12.667 -78.5 -12c-22.667 0 -39.834 1.33301 -51.501 4s-27.834 9 -48.501 19c-30 15.333 -50.833 31.666 -62.5 48.999s-17.5 41.333 -17.5 72c0 24 3.16699 42.833 9.5 56.5
s19.166 29.834 38.499 48.501c12 12 21.667 19.667 29 23s17.666 5 30.999 5c22 0.666992 33 -1.66602 33 -6.99902c-0.666992 -4 -10.334 -7.33301 -29.001 -10c-12.667 -1.33301 -22.834 -4.5 -30.501 -9.5s-17.834 -14.833 -30.501 -29.5
c-14.667 -16 -23.334 -27.667 -26.001 -35s-4 -21.666 -4 -42.999c0 -30 4.16699 -51.833 12.5 -65.5s25.166 -27.167 50.499 -40.5c34.667 -17.333 70 -24.5 106 -21.5s67.667 15.833 95 38.5c11.333 10.667 19.333 19.667 24 27s7.66699 16.666 9 27.999
c3.33301 20.667 0.5 40 -8.5 58s-28.167 42.333 -57.5 73l-49 51c5.33301 2.66699 16.333 7.83398 33 15.501l45 20.5c13.333 6 22.333 9.33301 27 10c7.33301 0 6.33301 15.333 -3 46c-2.66699 8 -6.33398 18.333 -11.001 31c-14 37.333 -21 60 -21 68z" />
    <glyph glyph-name="d" unicode="d" horiz-adv-x="681" 
d="M151 234c22 0 44.667 8.00293 68 24.0029c20.667 14.667 40.834 35.334 60.501 62.001s32.834 51 39.501 73c8.66699 29.333 7 62.5 -5 99.5s-29.333 62.5 -52 76.5c-21.333 13.333 -34.666 17.666 -39.999 12.999c-2.66699 -2.66699 1.66602 -8.33398 12.999 -17.001
c6 -4.66699 5.33301 -7 -2 -7c-4.66699 0 -13.667 0.666992 -27 2l-40 4l-35 -37c-24 -24.667 -44 -53.834 -60 -87.501s-24.667 -64.167 -26 -91.5c-0.666992 -17.333 0.166016 -30.333 2.49902 -39s7.5 -19.334 15.5 -32.001c10.667 -16.667 22.167 -28 34.5 -34
s30.166 -9 53.499 -9zM562 297.003c-13.333 0 -37.332 -9.82617 -71.999 -29.4932s-59.667 -37.834 -75 -54.501c-21.333 -23.333 -34.666 -44.833 -39.999 -64.5s-5 -47.834 1 -84.501c6.66699 -40.667 12.667 -66.334 18 -77.001c10.667 -24 11.667 -37.333 3 -40
c-12 0 -23.667 25.333 -35 76s-14 88.667 -8 114c8.66699 38 30.5 72.667 65.5 104s79.167 55.666 132.5 72.999c24 8 41.667 17.167 53 27.5s19.666 25.166 24.999 44.499c8 26.667 7.83301 63.834 -0.5 111.501s-20.5 82.834 -36.5 105.501
c-14 19.333 -27.333 32.5 -40 39.5s-31.334 11.833 -56.001 14.5c-29.333 2.66699 -53.333 0.5 -72 -6.5s-39.334 -21.833 -62.001 -44.5c-20 -20.667 -32.5 -37.334 -37.5 -50.001s-4.83301 -26.334 0.5 -41.001c14 -36 19.333 -68.5 16 -97.5s-16.333 -60.167 -39 -93.5
c-30.667 -46.667 -62 -77.834 -94 -93.501s-66.667 -17.5 -104 -5.5c-16.667 5.33301 -28.334 10.666 -35.001 15.999s-14.334 15.666 -23.001 30.999c-12.667 23.333 -18 45.333 -16 66c4.66699 50.667 19.5 97.834 44.5 141.501s54.167 74.167 87.5 91.5
c14.667 7.33301 23.334 15 26.001 23c2.66699 6.66699 14.334 10 35.001 10c20 0 39 -7.33301 57 -22c18.667 -15.333 29 -19.666 31 -12.999c3.33301 10 17.333 27 42 51s44.334 39.333 59.001 46c27.333 13.333 58 17.5 92 12.5s60.333 -17.833 79 -38.5
s31.167 -39.834 37.5 -57.501s14.833 -54.167 25.5 -109.5c8 -42.667 3.5 -81.5 -13.5 -116.5s-40.833 -54.833 -71.5 -59.5z" />
    <glyph glyph-name="e" unicode="e" horiz-adv-x="679" 
d="M383 460c21.333 0 36.333 -1.16895 45 -3.50195s18.667 -7.5 30 -15.5c26 -19.333 39 -47.666 39 -84.999c0 -22.667 -12 -49.167 -36 -79.5s-49.333 -50.833 -76 -61.5c-15.333 -6.66699 -36.166 -11.5 -62.499 -14.5s-41.166 -2.16699 -44.499 2.5
c-1.33301 2 1.33398 4 8.00098 6c7.33301 2.66699 17.666 4.66699 30.999 6c46 4.66699 84 20.834 114 48.501s45 59.834 45 96.501c0 45.333 -24.333 73 -73 83c-16.667 3.33301 -29.834 4.66602 -39.501 3.99902s-24.834 -4.33398 -45.501 -11.001
c-32 -11.333 -59 -28.333 -81 -51c-57.333 -58.667 -84 -114.667 -80 -168s38.333 -96.333 103 -129c27.333 -14.667 50 -22 68 -22s37.667 7 59 21c42 28.667 86.333 79.667 133 153c24.667 40.667 41.667 63.334 51 68.001c9.33301 3.33301 20.166 2 32.499 -4
s21.833 -14.667 28.5 -26c24 -42 24.667 -110.667 2 -206c-10.667 -45.333 -21.667 -79 -33 -101s-28 -43.333 -50 -64c-25.333 -23.333 -46.666 -38 -63.999 -44s-47.666 -9.66699 -90.999 -11c-53.333 -1.33301 -91.666 4.16699 -114.999 16.5s-67.333 50.833 -132 115.5
c-51.333 50.667 -86.666 106.667 -105.999 168c-10 30.667 -13.667 66.667 -11 108c4 62.667 10 109.5 18 140.5s20.667 58.167 38 81.5c46 58 95.167 100.167 147.5 126.5s116.166 40.833 191.499 43.5c14.667 0.666992 31.667 -4.33301 51 -15
s35.666 -24.334 48.999 -41.001c27.333 -34 43.666 -80.667 48.999 -140c1.33301 -17.333 0.333008 -26.333 -3 -27c-6 0.666992 -11.667 16.334 -17 47.001c-14.667 80 -43.334 129 -86.001 147c-15.333 6.66699 -43.666 8.66699 -84.999 6s-75 -8.33398 -101 -17.001
c-40 -14.667 -80 -39.167 -120 -73.5s-69.667 -70.166 -89 -107.499c-13.333 -25.333 -23.333 -84 -30 -176c-3.33301 -49.333 6 -96.5 28 -141.5s59 -92.5 111 -142.5c50 -48 84 -76.833 102 -86.5s46.667 -15.167 86 -16.5c70 -2 116.333 7.33301 139 28
c36.667 34 61 60 73 78s20.333 42.333 25 73c3.33301 20 8 40.333 14 61c5.33301 18 7.66602 45.167 6.99902 81.5s-4 61.5 -10 75.5c-8.66699 20.667 -20.667 29 -36 25s-29.666 -19 -42.999 -45c-24 -46.667 -55 -89.834 -93 -129.501s-69.333 -62.167 -94 -67.5
c-20.667 -3.33301 -49.334 2.83398 -86.001 18.501s-64.667 34.5 -84 56.5c-24.667 28.667 -38.167 60.167 -40.5 94.5s3.83398 66.5 18.501 96.5s35.667 59 63 87c39.333 39.333 92 59 158 59z" />
    <glyph glyph-name="f" unicode="f" horiz-adv-x="649" 
d="M240 104c0 -15.333 5.33301 -30.667 16 -46c23.333 -35.333 57.666 -36.333 102.999 -3c78.667 56.667 94.334 118 47.001 184c-18 18 -33.667 20 -47 6c-4 -6 -18 -16.667 -42 -32c-20.667 -13.333 -38.667 -31 -54 -53s-23 -40.667 -23 -56zM513 423.999
c0 2.66699 8.16895 15.002 24.502 37.002s24.166 34.667 23.499 38c0 9.33301 -14 6.66602 -42 -8.00098c-5.33301 -2.66699 -11 -5.66699 -17 -9c-18 -10 -34.833 -17.833 -50.5 -23.5s-34 -11.5 -55 -17.5s-41.167 -12.667 -60.5 -20
c-12 -4.66699 -24.5 -8.33398 -37.5 -11.001s-28.167 -4.66699 -45.5 -6s-31.333 -2.16602 -42 -2.49902s-27.834 -0.5 -51.501 -0.5h-49.5c19.333 -8 59.333 -25.667 120 -53s110 -47.333 148 -60l43.5 42l61.5 60c17.333 17.333 27.333 28.666 30 33.999zM584.002 45.001
c-6.66699 2 -9.3291 28.6719 -7.99609 80.0049s3.66602 80.333 6.99902 87c4.66699 21.333 8 49.666 10 84.999c7.33301 123.333 8.66602 189 3.99902 197c-3.33301 6 -12 -1.33301 -26 -22l-2 -2c-6 -9.33301 -14.5 -20.833 -25.5 -34.5s-18.833 -24.5 -23.5 -32.5
c-2 -5.33301 -24 -29 -66 -71c-35.333 -36 -53.333 -56.667 -54 -62c0 -2.66699 2.33301 -5.33398 7 -8.00098c10 -5.33301 19.667 -18.166 29 -38.499s13.666 -38.833 12.999 -55.5c-0.666992 -46.667 -28.667 -92.334 -84 -137.001
c-12 -10.667 -32.5 -15.834 -61.5 -15.501s-47.167 7.16602 -54.5 20.499c-10 12.667 -17.333 29 -22 49c-7.33301 20 -4.5 42.333 8.5 67s27.5 44 43.5 58c48.667 36.667 73 58.667 73 66c0 4 -6.33301 8 -19 12c-69.333 23.333 -110.666 40 -123.999 50
c-8.66699 6.66699 -42 20.334 -100 41.001c-4.66699 -28.667 -9 -101.667 -13 -219c-2.66699 -142 -11 -213 -25 -213c-5.33301 0 -6.33301 5 -3 15c3.33301 18.667 6.33301 77.167 9 175.5s4.66699 155.5 6 171.5c2 34 2.66699 54.333 2 61s-4.33398 10 -11.001 10
c-8.66699 0 -18.167 4.33301 -28.5 13s-15.5 16.667 -15.5 24s8.66699 18.166 26 32.499s30.666 21.5 39.999 21.5s17 -2.83301 23 -8.5s9 -13.5 9 -23.5c0 -6.66699 3 -11 9 -13s23.333 -4 52 -6c31.333 -2 56.666 -1.16699 75.999 2.5s51.333 12.834 96 27.501
c14 4.66699 27 8.5 39 11.5s20.5 5.33301 25.5 7s12.833 4.66699 23.5 9s25 11.166 43 20.499c26.667 14 44.5 24.167 53.5 30.5s13.833 12.833 14.5 19.5c-0.666992 6 3 13.333 11 22s16.167 14.5 24.5 17.5s14.833 1.16699 19.5 -5.5c4 -6.66699 5 -49.667 3 -129
s-5.66699 -142.333 -11 -189c-7.33301 -58.667 -11.666 -109.334 -12.999 -152.001c-0.666992 -44.667 -4 -67 -10 -67z" />
    <glyph glyph-name="g" unicode="g" horiz-adv-x="851" 
d="M200 515c1.33301 13.333 -4.00195 18.668 -16.002 16.001c-9.33301 -2 -23.333 -8.33301 -42 -19c-20.667 -12.667 -40.167 -30.834 -58.5 -54.501s-30.5 -46.5 -36.5 -68.5c-6.66699 -26 -5.5 -51.667 3.5 -77s23.833 -44 44.5 -56c12.667 -7.33301 28.334 -8 47.001 -2
c18 4.66699 38.667 17.167 62 37.5s39.666 39.5 48.999 57.5c9.33301 18.667 16.5 46 21.5 82s5.16699 58.667 0.5 68c-7.33301 14.667 -18.166 23.5 -32.499 26.5s-22.833 -1.16699 -25.5 -12.5c-1.33301 -6 -3.66602 -10 -6.99902 -12s-6 -1.66699 -8 1s-2.66699 7 -2 13z
M295.998 455.002c0 -24 3.50098 -36.6719 10.501 -38.0049s32.167 5 75.5 19c50 16 84.833 25.333 104.5 28s40.5 0.333984 62.5 -6.99902c24 -8 43.333 -19.667 58 -35c10 -10.667 15.667 -20.167 17 -28.5s1 -28.833 -1 -61.5c-1.33301 -38 -6.5 -68.833 -15.5 -92.5
s-23.833 -46.167 -44.5 -67.5c-10.667 -11.333 -19.834 -18.5 -27.501 -21.5s-21.834 -5.16699 -42.501 -6.5c-31.333 -2 -56 0.666992 -74 8c-17.333 6.66699 -32.333 10 -45 10s-31.334 -3.33301 -56.001 -10c-44 -12 -77 -29 -99 -51
c-26 -25.333 -37.667 -53.166 -35 -83.499s19.667 -61.166 51 -92.499c45.333 -44.667 89.666 -65.167 132.999 -61.5s97.333 32.5 162 86.5c33.333 28 55 45 65 51s21.667 9 35 9c8.66699 0 15.5 2.16699 20.5 6.5s12.167 14.5 21.5 30.5
c11.333 20.667 26.333 38.334 45 53.001s34.667 22 48 22c12 0 24.333 -3.16699 37 -9.5s19 -12.5 19 -18.5c0 -5.33301 -4 -5.66602 -12 -0.999023l-6 4c-11.333 7.33301 -21.666 11 -30.999 11c-10.667 0 -28 -12 -52 -36s-40.667 -46 -50 -66
c-14.667 -30.667 -19.334 -56.834 -14.001 -78.501s20.666 -42.167 45.999 -61.5c14.667 -10.667 27.5 -16 38.5 -16s26.833 5.33301 47.5 16c22 10.667 33 13 33 7c0 -11.333 -11.667 -21.5 -35 -30.5s-43.333 -10.5 -60 -4.5c-23.333 8 -44.166 23.5 -62.499 46.5
s-26.5 49.5 -24.5 79.5c0 21.333 -3.66699 32 -11 32c-6.66699 0 -18.834 -5.66699 -36.501 -17s-31.167 -22 -40.5 -32c-10.667 -11.333 -27.167 -25 -49.5 -41s-43.5 -29 -63.5 -39c-35.333 -17.333 -72.166 -21.666 -110.499 -12.999s-73.166 29 -104.499 61
c-13.333 14 -26.666 34 -39.999 60s-20 45.333 -20 58c0.666992 16.667 10.334 39.167 29.001 67.5s33.334 42.5 44.001 42.5c4 0 9.66699 3 17 9c12 10.667 34.5 18.834 67.5 24.501s56.833 5.83398 71.5 0.500977c66 -27.333 118.667 -22.833 158 13.5
s58.333 87.166 57 152.499c0 25.333 -1 42.166 -3 50.499s-6.66699 16.5 -14 24.5c-16.667 18 -38.334 27.833 -65.001 29.5s-63.334 -4.5 -110.001 -18.5c-5.33301 -1.33301 -18.666 -5.16602 -39.999 -11.499s-36.333 -10.5 -45 -12.5
c-27.333 -7.33301 -42.333 -16.333 -45 -27c-14.667 -48.667 -47.667 -90.334 -99 -125.001c-25.333 -16.667 -51.833 -21.167 -79.5 -13.5s-48.167 25.167 -61.5 52.5c-22 46.667 -19.667 96 7 148c14 26.667 25.333 44.667 34 54s23.667 20.333 45 33
c34.667 20 71.667 24.667 111 14c36 -10 54 -38.667 54 -86z" />
    <glyph glyph-name="h" unicode="h" horiz-adv-x="746" 
d="M198 111c0 9.33301 -11.335 5 -34.002 -13c-17.333 -13.333 -29.666 -26.333 -36.999 -39c-4.66699 -7.33301 -8.16699 -15.5 -10.5 -24.5s-3 -16.5 -2 -22.5s3.16699 -9 6.5 -9c6 0 15.333 7.33301 28 22s23.334 31 32.001 49c11.333 22.667 17 35 17 37zM29.998 608
c0 2 2.17188 3.17285 6.50488 3.50586s9.66602 -0.5 15.999 -2.5s12.5 -4.66699 18.5 -8c12 -6.66699 26.5 -19 43.5 -37s30.167 -35 39.5 -51c18.667 -32 36.334 -84.167 53.001 -156.5s24.667 -130.833 24 -175.5c0 -17.333 0.833008 -28 2.5 -32s6.16699 -6 13.5 -6
c14.667 0 30.5 -4.66699 47.5 -14s29.167 -20 36.5 -32c8.66699 -14 21.5 -27.333 38.5 -40s30.833 -19 41.5 -19c9.33301 0 27.333 12.667 54 38c25.333 24 44.166 36.5 56.499 37.5s29.5 -9.16699 51.5 -30.5c20.667 -20.667 35.334 -31 44.001 -31
c16.667 0 35 15.333 55 46s30.333 58.667 31 84c0 15.333 -3.5 29.666 -10.5 42.999s-26.167 41.666 -57.5 84.999c-12.667 17.333 -18 31.833 -16 43.5s12.333 27.5 31 47.5c21.333 23.333 33.333 45.666 36 66.999c2 20.667 5 31 9 31s6 -10.333 6 -31
c0 -14 -2 -25 -6 -33s-13.667 -20.667 -29 -38c-23.333 -26 -34 -42.333 -32 -49c0.666992 -6.66699 2 -12.167 4 -16.5s4.16699 -8 6.5 -11l11.5 -14.5c5.33301 -6.66699 10.333 -13.667 15 -21c23.333 -30.667 36.333 -50 39 -58
c9.33301 -24 9.16602 -52.667 -0.500977 -86s-25.834 -60.333 -48.501 -81c-18 -16 -33.5 -23.333 -46.5 -22s-29.167 11.666 -48.5 30.999c-21.333 21.333 -36 32 -44 32c-9.33301 0 -27 -13 -53 -39c-18.667 -18 -31.334 -28.833 -38.001 -32.5
s-15.334 -4.83398 -26.001 -3.50098c-12 2 -35.667 15.667 -71 41s-55.666 39.333 -60.999 42c-10 5.33301 -15.333 8.66602 -16 9.99902c0 1.33301 1.66699 2.33301 5 3h2c8 1.33301 6 3.33301 -6 6c-18 4 -26.667 5 -26 3c-2.66699 -1.33301 -10.667 -18.333 -24 -51
c-13.333 -33.333 -30 -58.333 -50 -75c-14 -11.333 -23.333 -18 -28 -20s-11.334 -1.33301 -20.001 2c-12 5.33301 -19 12.333 -21 21s0.333008 22 7 40c7.33301 20 24.333 40.667 51 62c27.333 22 43 33 47 33c7.33301 0 11.833 10.333 13.5 31s0.666992 47 -3 79
s-8.83398 65.167 -15.501 99.5s-14.834 67 -24.501 98s-19.167 54.167 -28.5 69.5c-9.33301 14.667 -22.166 29.5 -38.499 44.5s-30.833 24.833 -43.5 29.5c-16 7.33301 -24 12 -24 14z" />
    <glyph glyph-name="i" unicode="i" horiz-adv-x="422" 
d="M164 499c0 -2.66699 15.168 -4.50684 45.501 -5.50684s61 -1.83301 92 -2.5s47.5 -1.66699 49.5 -3c10 -2.66699 15 -7 15 -13c0 -9.33301 -20 -52.333 -60 -129l-1 -1v-1l-1 -2c-14.667 -28 -22 -44.667 -22 -50s-3.33301 -10.666 -10 -15.999
c-8 -7.33301 -10.667 -13.166 -8 -17.499s12 -10.166 28 -17.499c18.667 -8 38 -22.667 58 -44c29.333 -31.333 43.666 -68.333 42.999 -111s-16 -81.334 -46 -116.001c-20 -23.333 -50.333 -38.166 -91 -44.499s-75.667 -2.16602 -105 12.501
c-18 9.33301 -37.833 29.5 -59.5 60.5s-38.834 63.833 -51.501 98.5c-6 16.667 -9.16699 43.334 -9.5 80.001s2.16699 60.334 7.5 71.001c8 14.667 12 16 12 4c-0.666992 -6.66699 -2.33398 -17 -5.00098 -31c-16.667 -67.333 5 -142 65 -224
c20.667 -27.333 40.334 -44.833 59.001 -52.5s45 -9.16699 79 -4.5c19.333 3.33301 33.333 7 42 11s19.334 12.333 32.001 25c31.333 30.667 48 65.5 50 104.5s-11 73.833 -39 104.5c-13.333 14.667 -29 27.667 -47 39s-32.333 17 -43 17
c-4.66699 0 -7.33398 1.16699 -8.00098 3.5s0 7.16602 2 14.499c5.33301 15.333 14.5 34 27.5 56s25.167 45 36.5 69c30 58.667 41.333 89.334 34 92.001c-4 2 -32.333 2.33301 -85 1c-34 -1.33301 -55.667 -3.16602 -65 -5.49902s-18.666 -7.83301 -27.999 -16.5
c-11.333 -10 -19.666 -15.667 -24.999 -17s-14.666 1 -27.999 7c-7.33301 3.33301 -11.833 6.66602 -13.5 9.99902s-1.83398 8.66602 -0.500977 15.999c6 21.333 17.667 35.333 35 42c7.33301 2.66699 15.666 2.33398 24.999 -0.999023s14 -7.66602 14 -12.999z" />
    <glyph glyph-name="j" unicode="j" horiz-adv-x="832" 
d="M195 478c4.66699 -4.66699 8.32812 -9.00488 10.9951 -13.0049s4.83398 -8.66699 6.50098 -14s2.83398 -9.5 3.50098 -12.5s1.5 -8.5 2.5 -16.5s1.83301 -13.667 2.5 -17c1.33301 -6.66699 -4 -21 -16 -43s-24.333 -39.667 -37 -53c-23.333 -24 -53 -66 -89 -126
c-4.66699 -8 -9.33398 -20.333 -14.001 -37c-17.333 -59.333 -18.333 -109.166 -3 -149.499s43.333 -67.166 84 -80.499c39.333 -12.667 74.333 -16 105 -10c6.66699 1.33301 32 10.666 76 27.999c30 12 55.833 36.833 77.5 74.5s33.834 74.834 36.501 111.501
c0 12 -3.16699 26.5 -9.5 43.5s-12.833 28.833 -19.5 35.5c-12 12 -24.333 15.833 -37 11.5s-31.334 -18.833 -56.001 -43.5c-38.667 -39.333 -60.667 -54 -66 -44c-0.666992 0.666992 -1 2 -1 4c0 3.33301 17.667 22.666 53 57.999
c48.667 46.667 96.334 105.667 143.001 177c24.667 35.333 39.334 53 44.001 53c4 0.666992 15.5 -18.166 34.5 -56.499s33.833 -71.5 44.5 -99.5c10.667 14 27.834 30.667 51.501 50s37.167 26 40.5 20c2.66699 -1.33301 1.33398 -5.16602 -3.99902 -11.499
s-11.166 -12.5 -17.499 -18.5s-9.16602 -9 -8.49902 -9c10 0 34 16.667 72 50c20.667 16.667 33.667 24 39 22c6 -1.33301 12 -17 18 -47c11.333 -56 24.333 -108 39 -156c2 -6.66699 1.66699 -11.667 -1 -15s-10 -7.66602 -22 -12.999
c-16 -7.33301 -39.5 -25.166 -70.5 -53.499s-51.167 -50.5 -60.5 -66.5c-9.33301 -14.667 -18.333 -22 -27 -22c-6 0 -9.33301 0.666992 -10 2c0 2 3.33301 8.33301 10 19c10 16 32.167 39.833 66.5 71.5s58.5 50.5 72.5 56.5c17.333 7.33301 23.666 15.333 18.999 24
c-4 7.33301 -10.333 30 -19 68c-14 67.333 -23.667 101 -29 101l-38.5 -26.5c-21.667 -15 -37.5 -24.5 -47.5 -28.5c-42 -20 -70 -34.333 -84 -43c-28.667 70 -45.667 108 -51 114c-8 11.333 -12 20 -12 26c0 18 -13 7.33301 -39 -32
c-16.667 -24.667 -33.334 -47.334 -50.001 -68.001c-14.667 -16.667 -22 -28.167 -22 -34.5s6.66699 -11.833 20 -16.5c14 -4.66699 25.667 -15 35 -31c10 -15.333 13.667 -39.666 11 -72.999c-2 -34 -6.33301 -60.167 -13 -78.5s-19 -38.5 -37 -60.5
c-36.667 -45.333 -90 -73 -160 -83c-34.667 -4.66699 -64.334 -3 -89.001 5c-21.333 6.66699 -41.333 15.834 -60 27.501s-31.667 23.5 -39 35.5c-21.333 32.667 -28.666 77 -21.999 133c5.33301 53.333 30.666 109.333 75.999 168c46 59.333 73.5 99 82.5 119
s8.5 43.333 -1.5 70c-6.66699 16.667 -14.167 26.667 -22.5 30s-19.166 1.33301 -32.499 -6c-20.667 -12 -39 -11.333 -55 2c-8 6 -10.5 15 -7.5 27s10.833 24.667 23.5 38c20.667 20 40.5 27.667 59.5 23s26.833 -19 23.5 -43c-2.66699 -14.667 3 -30.334 17 -47.001z" />
    <glyph glyph-name="k" unicode="k" horiz-adv-x="557" 
d="M308 252c-16.667 12 -30.3311 17.3369 -40.998 16.0039c-15.333 -0.666992 -33.833 -15.834 -55.5 -45.501s-30.167 -51.834 -25.5 -66.501c3.33301 -10.667 14.666 -21.334 33.999 -32.001s40.666 -18 63.999 -22c28.667 -3.33301 44 -4.5 46 -3.5
s8.33301 11.833 19 32.5c22 45.333 8.33301 85.666 -41 120.999zM313.003 463.004c-16.667 15.333 -38.667 19.498 -66 12.498s-45.666 -21.833 -54.999 -44.5c-5.33301 -13.333 -11 -26 -17 -38c-10.667 -17.333 -11 -35.666 -1 -54.999s24.667 -31.666 44 -36.999
s38.666 -1.33301 57.999 12c24.667 18.667 41 44.667 49 78s4 57.333 -12 72zM507.003 227.002c7.33301 0 10.9951 -6.99902 10.9951 -20.999c0.666992 -14 3.66699 -41.333 9 -82c-54.667 -24.667 -102 -38.667 -142 -42c-18.667 -1.33301 -31.834 -4 -39.501 -8
s-19.834 -13.667 -36.501 -29c-25.333 -24.667 -50.666 -42.5 -75.999 -53.5s-56.666 -17.167 -93.999 -18.5c-40.667 -1.33301 -64 -5 -70 -11c-2.66699 -2 -7.5 -19.833 -14.5 -53.5s-12.833 -50.834 -17.5 -51.501c-4 -1.33301 -6.33301 1.66699 -7 9
c-2 20.667 4.33301 48.334 19 83.001c7.33301 17.333 14 27 20 29c8 4 30.667 6.66699 68 8c38 2 69 8.66699 93 20c10.667 5.33301 23.334 13.333 38.001 24s26.667 20.5 36 29.5s13 14.5 11 16.5s-17 5.33301 -45 10c-22.667 4 -44 11.833 -64 23.5s-33 23.834 -39 36.501
c-4.66699 10.667 -2.66699 25.667 6 45s22.334 39.333 41.001 60l25 28l-23 6c-19.333 4.66699 -33.5 10.167 -42.5 16.5s-16.167 16.5 -21.5 30.5c-6 14.667 -8 28.334 -6 41.001s9 30.334 21 53.001c8 16 17.667 29.667 29 41s22 18 32 20c13.333 2 30 3.33301 50 4
c14.667 0.666992 25.334 0 32.001 -2s14 -7 22 -15c18 -18 23.667 -43.5 17 -76.5s-23.667 -62.167 -51 -87.5c-8 -6.66699 -13 -11.834 -15 -15.501s-2 -6.5 0 -8.5s7 -4 15 -6c18 -4.66699 36 -17.834 54 -39.501s27.667 -41.834 29 -60.501
c2 -6 -0.833008 -20.333 -8.5 -43s-11.167 -35.334 -10.5 -38.001c6.66699 -5.33301 28 -3.33301 64 6s62.333 18 79 26l-5 48c-1.33301 10.667 -2.16602 19 -2.49902 25s-0.166016 10.833 0.500977 14.5s1.66699 6 3 7s3.33301 1.5 6 1.5z" />
    <glyph glyph-name="l" unicode="l" horiz-adv-x="625" 
d="M363 -18c-2 0.666992 -13.334 -6.16699 -34.001 -20.5s-32 -21.5 -34 -21.5c-4.66699 0 -17.334 -7 -38.001 -21c-43.333 -26.667 -82.666 -33.334 -117.999 -20.001c-30.667 10.667 -47 34 -49 70s10.667 78.333 38 127c51.333 91.333 80.5 162.833 87.5 214.5
s-5.5 106.5 -37.5 164.5c-15.333 28.667 -30.833 48 -46.5 58s-38.167 15.333 -67.5 16c-23.333 0 -34.666 1.33301 -33.999 4c0 0.666992 1.33301 1.33398 4 2.00098c12.667 5.33301 32 6.5 58 3.5s44 -8.16699 54 -15.5c23.333 -18.667 43.666 -48 60.999 -88
s26 -77.667 26 -113c0 -30 -8 -67.667 -24 -113s-37.333 -91 -64 -137c-13.333 -22.667 -23.5 -48 -30.5 -76s-8.5 -49.333 -4.5 -64c3.33301 -13.333 12.333 -24.333 27 -33c23.333 -14.667 54.5 -13.667 93.5 3s109.167 59.334 210.5 128.001
c24.667 16 41.834 26.167 51.501 30.5s21.167 6.16602 34.5 5.49902c20.667 -1.33301 38 0 52 4c10 2.66699 15.5 3.66699 16.5 3s-1.83301 -3.66699 -8.5 -9c-6 -5.33301 -23.167 -9 -51.5 -11s-45.5 -6.33301 -51.5 -13c-78.667 -52 -119 -78 -121 -78z" />
    <glyph glyph-name="m" unicode="m" horiz-adv-x="836" 
d="M659 73c-12 0 -22.4971 12.1611 -31.4971 36.4941s-14.833 57.5 -17.5 99.5c-3.33301 39.333 -8.16602 75.333 -14.499 108s-12.5 52 -18.5 58c-2.66699 2.66699 -7.33398 0 -14.001 -8s-13.834 -19 -21.501 -33s-13.5 -27.667 -17.5 -41
c-6.66699 -20.667 -12.667 -47.334 -18 -80.001c-7.33301 -40 -20.166 -74.167 -38.499 -102.5s-37.5 -44.5 -57.5 -48.5c-23.333 -4 -36.5 0.833008 -39.5 14.5s-2.16699 59.834 2.5 138.501c2.66699 40.667 4.33398 71.334 5.00098 92.001s0 37.667 -2 51s-5 21.5 -9 24.5
s-10.333 4.5 -19 4.5s-21.834 -7.66699 -39.501 -23s-26.5 -26.666 -26.5 -33.999c-3.33301 -10 -11.666 -30 -24.999 -60s-23.333 -55.333 -30 -76c-16.667 -46 -32.5 -80.833 -47.5 -104.5s-31.833 -40.167 -50.5 -49.5c-16.667 -8 -29.834 -11.5 -39.501 -10.5
s-19.834 7.16699 -30.501 18.5c-7.33301 8 -14 23.667 -20 47s-9 47 -9 71c0 30 10 72.667 30 128s38.333 90.333 55 105c11.333 10.667 16.666 12.667 15.999 6c-0.666992 -7.33301 -6 -17.666 -16 -30.999c-13.333 -17.333 -28 -47.333 -44 -90
c-10 -25.333 -16.167 -45.333 -18.5 -60s-3.5 -36.334 -3.5 -65.001c0 -39.333 3.83301 -67.666 11.5 -84.999s20.5 -26.666 38.5 -27.999c18.667 -1.33301 36.334 8.33398 53.001 29.001s34 55 52 103c30.667 79.333 54.334 133.833 71.001 163.5s34.667 48.5 54 56.5
c14.667 6 25.667 7.66699 33 5s15.666 -11.667 24.999 -27c7.33301 -12 11.333 -27.5 12 -46.5s-2.33301 -62.5 -9 -130.5c-6.66699 -72 -7.66699 -112 -3 -120c4 -5.33301 13.333 -6.33301 28 -3c14 2.66699 29 18.334 45 47.001s26.667 58.667 32 90
c8.66699 49.333 21 91.833 37 127.5s30.667 53.5 44 53.5s25.166 -18.333 35.499 -55s16.833 -84 19.5 -142c2 -41.333 8 -70.333 18 -87c9.33301 -15.333 16.333 -23 21 -23c8 0 22.5 11.667 43.5 35s35.833 44 44.5 62c25.333 54.667 36.666 119.334 33.999 194.001
s-18 125.667 -46 153c-10 10 -28 19 -54 27s-46.333 10.667 -61 8c-24 -4 -40.333 -9.33301 -49 -16s-23.667 -26 -45 -58c-28 -42.667 -42 -66 -42 -70c-0.666992 -2 0.666016 -3.66699 3.99902 -5l14 -4c0.666992 -1.33301 -2.66602 -3.33301 -9.99902 -6
c-12.667 -6.66699 -20.667 -7 -24 -1s-1.33301 16.333 6 31c15.333 30.667 35.333 60.5 60 89.5s43.667 45.5 57 49.5c18 5.33301 45.167 5 81.5 -1s59.833 -14 70.5 -24c10.667 -9.33301 21.667 -25.333 33 -48c19.333 -38 26.166 -93.333 20.499 -166
s-21.167 -130.667 -46.5 -174c-13.333 -22.667 -30.166 -43.334 -50.499 -62.001s-36.5 -28 -48.5 -28z" />
    <glyph glyph-name="n" unicode="n" horiz-adv-x="574" 
d="M535 150c11.333 0 10.6709 -8.3252 -1.99609 -24.9922c-6.66699 -8.66699 -8.66699 -29.667 -6 -63c2 -21.333 2.5 -36.833 1.5 -46.5s-4.83301 -20.5 -11.5 -32.5c-8.66699 -17.333 -18.167 -30 -28.5 -38s-24.5 -13.333 -42.5 -16
c-19.333 -3.33301 -32.166 -0.333008 -38.499 9s-9.5 30.333 -9.5 63c0 21.333 1 39.833 3 55.5s4.5 32.5 7.5 50.5s5.5 35.333 7.5 52c3.33301 41.333 1.33301 71.166 -6 89.499s-21.333 27.5 -42 27.5c-26.667 0 -48.5 -11.833 -65.5 -35.5
s-33.167 -64.834 -48.5 -123.501c-10.667 -38.667 -25.834 -76 -45.501 -112s-38.834 -60.667 -57.501 -74c-6.66699 -4.66699 -14.834 -11.5 -24.501 -20.5s-21.5 -16.5 -35.5 -22.5c-18.667 -8.66699 -34.667 -10.334 -48 -5.00098
c-8.66699 3.33301 -13 5.16602 -13 5.49902s7.33301 0.833008 22 1.5c34 1.33301 70.333 24.666 109 69.999c32.667 38 59 92 79 162c13.333 48 25.166 82.667 35.499 104s22.833 37 37.5 47c16.667 11.333 34.334 17 53.001 17
c25.333 -0.666992 42.833 -8.33398 52.5 -23.001s14.5 -40.334 14.5 -77.001c-1.33301 -39.333 -5 -71.333 -11 -96c-6 -26.667 -9.33301 -54.5 -10 -83.5s1.66602 -48.167 6.99902 -57.5c6 -10.667 15.333 -15 28 -13s25.667 10 39 24c26 28 34 61 24 99
c-6.66699 12 -6.33398 28.667 0.999023 50s15.333 33.666 24 36.999z" />
    <glyph glyph-name="o" unicode="o" horiz-adv-x="540" 
d="M449 165c6 22 3.83105 41.499 -6.50195 58.499s-25.166 29.5 -44.499 37.5c-1.33301 -1.33301 -6.66602 -2.66602 -15.999 -3.99902c-14 -3.33301 -30.833 -13.833 -50.5 -31.5s-30.5 -31.834 -32.5 -42.501c-8.66699 -41.333 -4 -70 14 -86
c23.333 -21.333 49.333 -24.666 78 -9.99902s48 40.667 58 78zM456.998 456.999c-7.33301 0 -18.8301 -11.832 -34.4971 -35.499s-29.5 -50.167 -41.5 -79.5c-2 -4 -1 -4.33301 3 -1c15.333 13.333 33.333 36.666 54 69.999l7 12c3.33301 6 6.16602 11.667 8.49902 17
s3.66602 9.5 3.99902 12.5s0.166016 4.5 -0.500977 4.5zM387.001 276c14.667 0 29.8291 -5.16895 45.4961 -15.502s27.167 -22.166 34.5 -35.499c13.333 -25.333 9 -59.666 -13 -102.999c-10.667 -21.333 -22.667 -36.5 -36 -45.5s-29.666 -13.167 -48.999 -12.5
c-32.667 1.33301 -57.5 11.833 -74.5 31.5s-23.833 47.167 -20.5 82.5c-17.333 -14.667 -33.666 -25.834 -48.999 -33.501s-37.666 -15.5 -66.999 -23.5c-32 -8 -51.5 -12.167 -58.5 -12.5s-15.167 2.5 -24.5 8.5c-24.667 16 -39.334 38.667 -44.001 68
s1.66602 61 18.999 95c20.667 40.667 47.334 72.834 80.001 96.501s59.334 29.834 80.001 18.501c10 -6 15 -11 15 -15c0 -4.66699 -4.33301 -4.66699 -13 0c-10 5.33301 -27.5 2 -52.5 -10s-43.5 -25.667 -55.5 -41c-15.333 -20.667 -28.166 -43.334 -38.499 -68.001
s-15.5 -46 -15.5 -64c-0.666992 -8.66699 0.333008 -17 3 -25s5.5 -14.167 8.5 -18.5s7.66699 -10 14 -17s10.833 -12.167 13.5 -15.5c32.667 10 66 19 100 27c16 3.33301 36.333 16.5 61 39.5s40.667 43.833 48 62.5c5.33301 14.667 20.333 43.334 45 86.001
s44.667 75.334 60 98.001c4.66699 7.33301 21 26.666 49 57.999c31.333 33.333 50.333 41.666 57 24.999c4 -10.667 -10.5 -44 -43.5 -100s-61.167 -95.333 -84.5 -118c-10.667 -10 -15.667 -16.333 -15 -19s7.66699 -4 21 -4z" />
    <glyph glyph-name="p" unicode="p" horiz-adv-x="930" 
d="M728 -54c-10.667 5.33301 -17.999 7.83203 -21.999 7.49902s-11.333 -3.16602 -22 -8.49902c-11.333 -5.33301 -21.333 -16.833 -30 -34.5s-11.334 -32.5 -8.00098 -44.5c4.66699 -18.667 18 -31 40 -37s40.333 -2.33301 55 11s20.5 32.5 17.5 57.5
s-13.167 41.167 -30.5 48.5zM897.001 219.999c2 0 3.00098 -9.65918 3.00098 -28.9922s-12.333 -46.666 -37 -81.999c-10.667 -15.333 -25.334 -38.333 -44.001 -69s-38.667 -59.667 -60 -87l11 -21c12 -20.667 15.833 -41.334 11.5 -62.001s-16.5 -37 -36.5 -49
c-26.667 -16 -53.334 -16 -80.001 0c-14.667 8.66699 -24.667 18.667 -30 30s-7 26.666 -5 45.999c4.66699 43.333 29.667 66 75 68c20 0.666992 35.5 5.66699 46.5 15s25.167 28.666 42.5 57.999c4.66699 8 24.667 37.667 60 89c30 42.667 41 64 33 64
c-2.66699 0 -8.33398 -2.66699 -17.001 -8c-24 -16.667 -57 -28.334 -99 -35.001s-79.333 -6 -112 2c0.666992 11.333 9.66699 39.5 27 84.5s28 76.167 32 93.5c4 16 10.667 36.667 20 62s15.666 47.666 18.999 66.999c0.666992 11.333 6 32.166 16 62.499
s15.333 47.5 16 51.5c0 6 -46.333 8.66699 -139 8c-48.667 -0.666992 -139 -1 -271 -1s-230.333 -0.666992 -295 -2c-5.33301 -18 -11 -88.333 -17 -211s-10.333 -192 -13 -208c-5.33301 -32.667 -7.66602 -66.667 -6.99902 -102s3.66699 -63.666 9 -84.999
c39.333 -2.66699 136 -7 290 -13c59.333 -2 94 -0.666992 104 4c11.333 4.66699 17.666 19 18.999 43c0.666992 4 1.33398 15 2.00098 33c1.33301 34 5.66602 71.667 12.999 113c23.333 139.333 30 209 20 209c-2.66699 0 -13 -9 -31 -27
c-15.333 -15.333 -33.5 -28.5 -54.5 -39.5s-38.5 -16.5 -52.5 -16.5s-29.667 4.83301 -47 14.5s-28.333 19.834 -33 30.501c-18 38.667 -4 81.334 42 128.001c21.333 22.667 45 38 71 46s44.333 5.66699 55 -7c4.66699 -5.33301 5.33398 -8 2.00098 -8
c-2 0 -5.66699 0.666992 -11 2c-35.333 8 -72 -8 -110 -48c-16.667 -18 -26.834 -30.667 -30.501 -38s-5.5 -19.333 -5.5 -36c0 -28.667 8.33301 -48.667 25 -60s39 -12.333 67 -3c17.333 5.33301 38.166 18.666 62.499 39.999s39.833 39.666 46.5 54.999
c12 30 20.333 28 25 -6c0 -2.66699 0.333008 -5.66699 1 -9c4 -26.667 -2 -92 -18 -196c-5.33301 -35.333 -9.66602 -73.666 -12.999 -114.999c-4 -46.667 -7.83301 -78.334 -11.5 -95.001s-9.16699 -26 -16.5 -28c-11.333 -3.33301 -123 -1 -335 7
c-54 2.66699 -82.667 5.66699 -86 9c-10 10 -15.667 37.667 -17 83s2.33398 100 11.001 164c2.66699 16.667 5 56.167 7 118.5s4.83301 119.833 8.5 172.5s8.5 82.667 14.5 90c2 2 69.667 4.16699 203 6.5s261 3.5 383 3.5c66.667 0 108.667 2 126 6
c16.667 4 26.667 4.33301 30 1c0.666992 -10 -1.16602 -25.167 -5.49902 -45.5s-10 -42.5 -17 -66.5s-11.167 -39 -12.5 -45c-5.33301 -22.667 -12.833 -47.834 -22.5 -75.501s-16.167 -46.834 -19.5 -57.501c-2 -10.667 -10.167 -35.334 -24.5 -74.001
s-22.5 -63.334 -24.5 -74.001c27.333 -8.66699 55.833 -9.66699 85.5 -3s59.834 18.667 90.501 36c21.333 14 33 21 35 21z" />
    <glyph glyph-name="q" unicode="q" horiz-adv-x="683" 
d="M450 373c-1.33301 0 -3.66504 -10.6621 -6.99805 -31.9951c-7.33301 -51.333 -37.333 -93 -90 -125c-4.66699 -2.66699 -7.33398 -6 -8.00098 -10s0.666016 -11 3.99902 -21c5.33301 -16 6.33301 -50.333 3 -103c-2 -34.667 -2.5 -58.834 -1.5 -72.501
s5.16699 -29.834 12.5 -48.501c10 -28.667 21.667 -46.334 35 -53.001c11.333 -6 26.833 -9.16699 46.5 -9.5s36.167 2.16699 49.5 7.5c12 4 28.167 15.667 48.5 35s35.833 37.666 46.5 54.999c21.333 32.667 35.5 68.667 42.5 108s4.83301 72.333 -6.5 99
c-6.66699 14.667 -10 27.667 -10 39s-7 27.166 -21 47.499s-27.667 34.5 -41 42.5c-22 14 -56.333 27.667 -103 41zM412.001 392.005c0 10.667 -7.33105 21.668 -21.998 33.001c-20.667 17.333 -44.834 22.5 -72.501 15.5s-48.834 -23.5 -63.501 -49.5
c-32.667 -55.333 -29 -102 11 -140c19.333 -18.667 43 -23.834 71 -15.501s51 27.166 69 56.499c8.66699 14 14.5 29.167 17.5 45.5s1.83301 26.833 -3.5 31.5c-4.66699 4.66699 -7 12.334 -7 23.001zM491.003 380.006c6 0 22.1611 -6.66504 48.4941 -19.998
s42.833 -23.333 49.5 -30c15.333 -15.333 29.5 -41.5 42.5 -78.5s20.167 -70.833 21.5 -101.5c2 -46 -11.667 -97.333 -41 -154c-10.667 -20 -29.167 -41.5 -55.5 -64.5s-49.166 -37.833 -68.499 -44.5c-32.667 -10.667 -62 -10 -88 2s-44.333 33.667 -55 65
c-7.33301 23.333 -12 35 -14 35c-1.33301 0 -15.666 -13.667 -42.999 -41c-24 -24.667 -45.667 -40.834 -65 -48.501s-40.666 -8.16699 -63.999 -1.5c-27.333 7.33301 -54.333 27.833 -81 61.5s-42.334 67.834 -47.001 102.501c-2.66699 20 -0.333984 42.833 6.99902 68.5
s18 48.167 32 67.5c14.667 20.667 26.667 30.667 36 30c3.33301 -0.666992 5 -3.33398 5 -8.00098s-2 -7 -6 -7c-5.33301 0 -14.5 -11.333 -27.5 -34s-21.5 -42.334 -25.5 -59.001c-6.66699 -22 -7 -44 -1 -66c8 -32 20.167 -60 36.5 -84s34.833 -41.5 55.5 -52.5
s43.334 -12.833 68.001 -5.5s48.334 25 71.001 53c17.333 21.333 28.5 40.333 33.5 57s4.83301 35 -0.5 55s-8 46 -8 78c0 24.667 -0.833008 39.667 -2.5 45s-7.5 10.333 -17.5 15c-14 7.33301 -28 19.666 -42 36.999s-22.667 32.333 -26 45
c-6.66699 30 0.666016 64.333 21.999 103c12 20.667 26.333 35.5 43 44.5s39.334 15.5 68.001 19.5c8.66699 0.666992 20.834 -4 36.501 -14s25.834 -19.333 30.501 -28c4 -7.33301 14.833 -16.166 32.5 -26.499s30.834 -15.5 39.501 -15.5z" />
    <glyph glyph-name="r" unicode="r" horiz-adv-x="354" 
d="M322 449c-3.33301 -59.333 -4.66699 -101 -4 -125h-44c-32 0 -58.167 -6.66699 -78.5 -20s-30.833 -30.333 -31.5 -51c0 -7.33301 1.83301 -13 5.5 -17s12.167 -8.33301 25.5 -13c34 -12.667 62.333 -6.66699 85 18c11.333 12.667 20.666 16.334 27.999 11.001
c2 -2 3 -4.33301 3 -7c-14 -115.333 -22.333 -182.666 -25 -201.999l-92 -3c-41.333 -1.33301 -67.166 -1.66602 -77.499 -0.999023s-15.5 3.66699 -15.5 9c0 7.33301 13.667 11 41 11c42 0 85.667 3 131 9l8 67c6.66699 50 8.66699 76.333 6 79c-2 2 -10 -1 -24 -9
c-12.667 -6.66699 -22.167 -10.334 -28.5 -11.001s-17.833 1 -34.5 5c-38 8.66699 -57 27.334 -57 56.001c0 23.333 14.667 45.833 44 67.5s57.666 30.834 84.999 27.501l30 -4c7.33301 73.333 9 119.666 5 138.999c-2.66699 5.33301 -24.334 -2.33398 -65.001 -23.001
c-31.333 -16 -56.333 -25.833 -75 -29.5s-51.667 -4.83398 -99 -3.50098c-27.333 0.666992 -40 2.33398 -38 5.00098c2.66699 5.33301 29.334 8.66602 80.001 9.99902c27.333 1.33301 47.333 2.83301 60 4.5s21.334 3.33398 26.001 5.00098s13.167 6.33398 25.5 14.001
s24.5 14.5 36.5 20.5l30.5 16c5 2.66699 11.167 4.66699 18.5 6s11.5 1.66602 12.5 0.999023s2.33301 -4.33398 4 -11.001s2.16699 -12.834 1.5 -18.501s-1.66699 -16.5 -3 -32.5z" />
    <glyph glyph-name="s" unicode="s" horiz-adv-x="615" 
d="M390 328c0 -19.333 -8.66992 -12.998 -26.0029 19.002c-3.33301 5.33301 -6.66602 11.666 -9.99902 18.999c-15.333 30 -34.333 51.667 -57 65c-22.667 14.667 -51.667 22.667 -87 24c-36 1.33301 -60.333 0 -73 -4c-60 -20.667 -90.667 -70 -92 -148
c-0.666992 -20 0.333008 -34.667 3 -44s9.33398 -22 20.001 -38c28.667 -46 85 -96.667 169 -152c46 -31.333 70 -50 72 -56c6 -14.667 14 -6.66699 24 24l7 23c16 52 34.667 91.667 56 119s52 50.333 92 69c24.667 12 41.5 22.667 50.5 32s15.833 23.666 20.5 42.999
c2 10 2 17.833 0 23.5s-7.66699 13.834 -17 24.501c-13.333 15.333 -25.666 25.166 -36.999 29.499s-24.666 4.5 -39.999 0.5c-12.667 -3.33301 -28.334 -14 -47.001 -32s-28 -31.667 -28 -41zM358.997 548.002c-26 34 -55.334 42.334 -88.001 25.001
c-11.333 -6.66699 -21.166 -17.834 -29.499 -33.501s-11.833 -29.834 -10.5 -42.501c1.33301 -8.66699 4.5 -15.167 9.5 -19.5s15.833 -9.5 32.5 -15.5c19.333 -6.66699 32 -10.167 38 -10.5s14.667 2.83398 26 9.50098c10 6 18 13.167 24 21.5s9.66699 18.333 11 30
s-3 23.5 -13 35.5zM386.996 508.003c0 -15.333 -3.16992 -27.4971 -9.50293 -36.4971s-18.166 -18.5 -35.499 -28.5c-8 -4.66699 -9 -11 -3 -19c8 -10.667 20.667 -32.334 38 -65.001c2 2 6.5 6.83301 13.5 14.5s12.333 13.167 16 16.5s8.83398 7.66602 15.501 12.999
s13.167 9.16602 19.5 11.499s12.833 3.5 19.5 3.5c22.667 0 40.5 -2.16699 53.5 -6.5s27.5 -14.5 43.5 -30.5s24.833 -26.833 26.5 -32.5s-0.166016 -19.5 -5.49902 -41.5c-4 -16.667 -12.167 -30.5 -24.5 -41.5s-35.166 -25.167 -68.499 -42.5
c-18 -9.33301 -37.333 -23.666 -58 -42.999s-31 -33 -31 -41c0 -5.33301 -3 -11 -9 -17c-4.66699 -4.66699 -16.167 -31.667 -34.5 -81s-26.833 -76 -25.5 -80c-4 -5.33301 -8 -6.5 -12 -3.5s-8 9.16699 -12 18.5c-7.33301 16.667 -16.666 30.5 -27.999 41.5
s-32.333 27.167 -63 48.5c-36 24.667 -70 52.667 -102 84s-53.333 57 -64 77s-16.334 45.833 -17.001 77.5s3.66602 59.5 12.999 83.5c10 25.333 29.333 46.666 58 63.999s59 26 91 26c13.333 0 21.166 1 23.499 3s2.83301 8 1.5 18
c-1.33301 11.333 3.33398 27.833 14.001 49.5s21.334 35.5 32.001 41.5c7.33301 4 21.5 6.33301 42.5 7s34.167 -1 39.5 -5c11.333 -8 21.166 -20.5 29.499 -37.5s12.5 -32.5 12.5 -46.5z" />
    <glyph glyph-name="t" unicode="t" horiz-adv-x="442" 
d="M224 548c-4 -3.33301 -8 -15.167 -12 -35.5s-6.66699 -31.833 -8 -34.5c-5.33301 -16 -10.166 -45 -14.499 -87s-5.16602 -64.333 -2.49902 -67c3.33301 -3.33301 23.666 -3 60.999 1s58.333 8.33301 63 13c1.33301 0 -0.5 7.5 -5.5 22.5s-11.833 33 -20.5 54l-26.5 62.5
c-9 20.667 -16.833 38 -23.5 52s-10.334 20.333 -11.001 19zM156 9.99902c4.66699 -1.33301 40.8301 8.83691 108.497 30.5039s102.834 32.5 105.501 32.5c6.66699 0 8.66699 6.33301 6 19c-13.333 71.333 -22.333 107 -27 107c-5.33301 0 -16.666 -4.66699 -33.999 -14
c-8.66699 -4.66699 -18.667 -8.33398 -30 -11.001s-20.833 -3.83398 -28.5 -3.50098s-11.5 2.16602 -11.5 5.49902c0 4.66699 12 9.33398 36 14.001c12.667 1.33301 30.834 9.16602 54.501 23.499s38.167 22.166 43.5 23.499c3.33301 -2 3.66602 -12.667 0.999023 -32
c-2 -15.333 -0.5 -36.333 4.5 -63s11.5 -48 19.5 -64c2.66699 -5.33301 4.66699 -9.5 6 -12.5s1.83301 -5.5 1.5 -7.5s-1 -3.5 -2 -4.5s-3.16699 -1.66699 -6.5 -2s-6.66602 -0.5 -9.99902 -0.5s-7.66602 -0.333008 -12.999 -1l-16 -2
c-31.333 -1.33301 -57 -6.66602 -77 -15.999c-20.667 -9.33301 -50.5 -19 -89.5 -29s-61.833 -13.667 -68.5 -11c-7.33301 2.66699 -10.5 15.167 -9.5 37.5s5.83301 48.833 14.5 79.5c7.33301 28 14.166 64.833 20.499 110.5s7.83301 71.167 4.5 76.5
c-2.66699 4 -23.334 7.66699 -62.001 11c-46.667 4 -68.667 7.66699 -66 11c1.33301 3.33301 21 4 59 2l70 -5c2 10.667 5 32.5 9 65.5s8.33301 63.333 13 91s9.66699 48.5 15 62.5c9.33301 26.667 14.666 41.667 15.999 45c4.66699 14 13 11 25 -9
c2.66699 -4.66699 5.33398 -10.334 8.00098 -17.001c0.666992 -2 8.83398 -21.167 24.501 -57.5l44 -106.5c13.667 -34.667 20.834 -55 21.501 -61c0 -7.33301 -7 -11 -21 -11c-21.333 0 -47.333 -3 -78 -9s-48 -11.667 -52 -17c-4.66699 -8 -7.83398 -24.667 -9.50098 -50
s-3.83398 -42.333 -6.50098 -51c-9.33301 -40 -16.333 -71 -21 -93s-7.5 -39.833 -8.5 -53.5s-0.166992 -22.667 2.5 -27s7.33398 -6.5 14.001 -6.5z" />
    <glyph glyph-name="u" unicode="u" horiz-adv-x="546" 
d="M242 436c20 0 32.3398 -3.49414 37.0068 -10.4941s4.66699 -21.167 0 -42.5c-6.66699 -26 -14 -45.333 -22 -58s-22 -25.667 -42 -39c-24.667 -16 -38.334 -24 -41.001 -24c-13.333 5.33301 -17.833 17 -13.5 35s13.833 27 28.5 27c6 0 10 -1 12 -3s2 -4.33301 0 -7
s-6 -4.66699 -12 -6c-8 -2 -13 -7.66699 -15 -17c-0.666992 -5.33301 1 -8 5 -8s13.667 5.5 29 16.5s26 20.167 32 27.5c10 11.333 18 28.333 24 51s6.33301 35.667 1 39c-11.333 6.66699 -23.666 7.66699 -36.999 3s-30.333 -16.334 -51 -35.001
c-26 -24.667 -43.5 -46.167 -52.5 -64.5s-10.833 -37.166 -5.5 -56.499c5.33301 -18 11.166 -29.833 17.499 -35.5s19.833 -9.83398 40.5 -12.501c18 -2.66699 30.667 -1.5 38 3.5s26.666 26.167 57.999 63.5c36.667 43.333 59 89.666 67 138.999s-2 79.666 -30 90.999
c-23.333 8.66699 -43.333 12.5 -60 11.5s-36.334 -7.16699 -59.001 -18.5c-54 -27.333 -94.667 -68.333 -122 -123c-10 -22 -16.333 -38.833 -19 -50.5s-4 -30.5 -4 -56.5c0 -25.333 1.16699 -44 3.5 -56s7.83301 -26.667 16.5 -44
c11.333 -23.333 23.166 -39.666 35.499 -48.999s28.5 -14 48.5 -14c14.667 -0.666992 34 4.16602 58 14.499s46.333 23.166 67 38.499c23.333 18 49.666 54.667 78.999 110c8 16 15.833 27.667 23.5 35s13.834 8.66602 18.501 3.99902
c6.66699 -6.66699 -9.66602 -37 -48.999 -91c-10.667 -14 -18.334 -25.333 -23.001 -34s-11 -18.334 -19 -29.001c-14.667 -19.333 -20.334 -44.666 -17.001 -75.999s13.666 -47 30.999 -47c13.333 0 29 5.16699 47 15.5s30.333 20.833 37 31.5c39.333 62 64 105 74 129
c11.333 27.333 19.5 45 24.5 53s9.5 10.333 13.5 7c6 -6 -6 -41 -36 -105c-8.66699 -18 -13.667 -31.833 -15 -41.5s-0.666016 -23.834 2.00098 -42.501c2.66699 -23.333 2.16699 -35.333 -1.5 -36s-9.16699 10.333 -16.5 33c-4 12 -7.16699 19.5 -9.5 22.5
s-4.83301 2.83301 -7.5 -0.5s-6.66699 -10.666 -12 -21.999c-6 -16.667 -20.833 -31.5 -44.5 -44.5s-44.5 -18.833 -62.5 -17.5c-6.66699 0.666992 -12.334 2.66699 -17.001 6s-8.33398 9.33301 -11.001 18s-4.5 15.167 -5.5 19.5s-2.16699 12.833 -3.5 25.5
s-2 19.667 -2 21c0 22 -1.66699 32.333 -5 31c-70.667 -36.667 -121.667 -49.834 -153 -39.501s-56.666 48.166 -75.999 113.499c-11.333 38.667 -12.166 79.167 -2.49902 121.5s28.5 80.833 56.5 115.5c10 12 27.667 27.833 53 47.5s44.333 31.834 57 36.501
c6.66699 2.66699 24.667 3 54 1s49.333 -5 60 -9c10.667 -3.33301 21.667 -15.666 33 -36.999c8 -15.333 12.167 -26.333 12.5 -33s-2.5 -21.667 -8.5 -45c-14.667 -58.667 -37.334 -105.334 -68.001 -140.001c-35.333 -41.333 -57.833 -64.833 -67.5 -70.5
s-28.834 -6.16699 -57.501 -1.5c-17.333 2.66699 -29.333 7.66699 -36 15s-13.334 22.333 -20.001 45c-9.33301 32.667 2.33398 68.667 35.001 108c21.333 25.333 39.333 42.833 54 52.5s30.667 14.5 48 14.5z" />
    <glyph glyph-name="v" unicode="v" horiz-adv-x="338" 
d="M175 465c-1.33301 4.66699 10.167 23.0049 34.5 55.0049s36.166 50 35.499 54c0 6 2.33301 9 7 9c12.667 0 10.667 -14.333 -6 -43c-4.66699 -8.66699 -10.667 -18 -18 -28c-21.333 -28.667 -32 -44.667 -32 -48c0 -6.66699 10 -18.334 30 -35.001
s37.333 -28.334 52 -35.001c20 -8 30 -13.333 30 -16c-47.333 -99.333 -80.666 -179 -99.999 -239c-25.333 -66.667 -41 -101.667 -47 -105c-4 -2 -8 2 -12 12c-2 4 -5 11.667 -9 23c-1.33301 4 -8.33301 23.667 -21 59s-24.667 67.166 -36 95.499s-20 46.166 -26 53.499
c-8.66699 7.33301 -14.334 17.666 -17.001 30.999c-4 24 -6.83301 43.167 -8.5 57.5s-1.83398 21.5 -0.500977 21.5c6 0 27.667 -50 65 -150c26.667 -71.333 48.334 -124.666 65.001 -159.999c6 12.667 22.167 53.667 48.5 123s44.166 113 53.499 131
c12 24 17.333 36.667 16 38c-17.333 9.33301 -39.166 25.666 -65.499 48.999s-39.166 39 -38.499 47z" />
    <glyph glyph-name="w" unicode="w" horiz-adv-x="731" 
d="M30 458c0 9.33301 13.002 5.00391 39.002 -12.9961c22.667 -14.667 43 -33.667 61 -57s29 -45.333 33 -66c5.33301 -27.333 8.66602 -69.666 9.99902 -126.999c1.33301 -38.667 3.16602 -64.334 5.49902 -77.001s6.5 -22 12.5 -28
c10 -9.33301 19.167 -11.166 27.5 -5.49902s18.833 21.167 31.5 46.5c13.333 28 23.333 65 30 111c6.66699 48.667 15 81.667 25 99c8.66699 15.333 19 25.666 31 30.999s23.167 4.66602 33.5 -2.00098s17.833 -18 22.5 -34c10.667 -32 16.667 -82.667 18 -152
c0.666992 -20.667 4.16699 -35.167 10.5 -43.5s16.833 -11.833 31.5 -10.5c16.667 1.33301 29.5 14 38.5 38s16.5 66 22.5 126c3.33301 40 9.33301 67.833 18 83.5s22 23.5 40 23.5c19.333 0 32.5 -4.5 39.5 -13.5s10.5 -25.833 10.5 -50.5c-2 -46.667 -4 -81.667 -6 -105
c-2.66699 -26 -3.83398 -43.833 -3.50098 -53.5s3.16602 -18.167 8.49902 -25.5c6.66699 -11.333 14 -17 22 -17c6.66699 0 14.667 6.33301 24 19s14 23.667 14 33c0 10.667 3.66699 19 11 25c3.33301 2.66699 5.66602 4 6.99902 4s2.16602 -0.833008 2.49902 -2.5
s0.5 -5.16699 0.5 -10.5c0 -34.667 -11.667 -59 -35 -73s-43.333 -8.66699 -60 16c-12.667 19.333 -13.667 73.666 -3 162.999c7.33301 54.667 -2.66699 80 -30 76c-10.667 -1.33301 -20 -10.333 -28 -27s-13 -37.667 -15 -63
c-3.33301 -31.333 -8.66602 -64.5 -15.999 -99.5s-14 -56.167 -20 -63.5c-5.33301 -8 -17.166 -13.167 -35.499 -15.5s-31.833 -0.166016 -40.5 6.50098c-19.333 14.667 -29.666 54 -30.999 118c-1.33301 68 -8.33301 106 -21 114c-11.333 7.33301 -24.666 1 -39.999 -19
s-23 -40.667 -23 -62c-0.666992 -30.667 -8.33398 -68.834 -23.001 -114.501s-29 -75.5 -43 -89.5c-4.66699 -4.66699 -9.16699 -7.33398 -13.5 -8.00098s-11.166 0.666016 -20.499 3.99902c-10 3.33301 -17 6.33301 -21 9s-8 6 -12 10s-6.66699 12 -8 24
s-2.5 24.167 -3.5 36.5s-2.16699 32.833 -3.5 61.5c-3.33301 76 -8 120.667 -14 134c-18 40 -44.667 70.667 -80 92c-20.667 12 -31 20 -31 24z" />
    <glyph glyph-name="x" unicode="x" horiz-adv-x="322" 
d="M267 248c-3.33301 12 -5.5 42.834 -6.5 92.501s-2.5 79.167 -4.5 88.5c-6.66699 -2.66699 -23.167 -22.667 -49.5 -60s-45.5 -67 -57.5 -89c5.33301 -10.667 10.5 -20.167 15.5 -28.5s9.16699 -15 12.5 -20s8.5 -12.167 15.5 -21.5l18.5 -25
c15.333 -22 34 -43.333 56 -64c6 47.333 6 89.666 0 126.999zM137 255.001c-0.666992 0.666992 -2.83496 -1.50195 -6.50195 -6.50195l-14 -19.5l-18.5 -26.5l-20 -29l-18.5 -26.5c-5.66699 -8 -10.5 -14.333 -14.5 -19s-6.33301 -6.66699 -7 -6
c-12 0 -8.33301 15.667 11 47l21 34c30.667 46.667 46 73.334 46 80.001s-13 32.334 -39 77.001c-27.333 46.667 -39.666 71.667 -36.999 75c1.33301 0.666992 3 1 5 1c1.33301 1.33301 7.66602 -7 18.999 -25c4.66699 -6 11.667 -17 21 -33c30.667 -47.333 48 -71 52 -71
c6.66699 7.33301 18.334 23.333 35.001 48s33 46.5 49 65.5s30.667 31.167 44 36.5c14 0 18.667 -34 14 -102c-2 -38 -1 -64.667 3 -80c6 -18 9.16699 -48.833 9.5 -92.5s-2.16699 -70.5 -7.5 -80.5l-9 -17c-40 43.333 -72.667 83 -98 119c-25.333 34 -38.666 51 -39.999 51
z" />
    <glyph glyph-name="y" unicode="y" horiz-adv-x="753" 
d="M490 112c-15.333 16.667 -30.668 25.667 -46.001 27s-34.333 -4.66699 -57 -18c-42.667 -24 -74 -53 -94 -87c-10.667 -18 -16.167 -33.667 -16.5 -47s4.16699 -30.333 13.5 -51c12.667 -26 28.834 -41.833 48.501 -47.5s46.167 -2.16699 79.5 10.5
c25.333 10 45 22.167 59 36.5s24.667 32.833 32 55.5c16 50.667 9.66699 91 -19 121zM614.998 456c2 0 14.665 -3.66699 37.998 -11s38.666 -10.333 45.999 -9c16.667 0 24.667 -2 24 -6c-1.33301 -4.66699 -12 -7.66699 -32 -9c-16 -0.666992 -25.833 -2.66699 -29.5 -6
s-7.5 -12.666 -11.5 -27.999c-10.667 -41.333 -29.5 -81.666 -56.5 -120.999s-56.5 -69.666 -88.5 -90.999c-17.333 -12 -26.333 -19.333 -27 -22c0 -2 2.33301 -3.66699 7 -5c12 -2.66699 23.333 -14.334 34 -35.001s16.334 -41.334 17.001 -62.001
c1.33301 -27.333 -3.66699 -54.666 -15 -81.999s-25.333 -47 -42 -59c-15.333 -10.667 -36 -21.167 -62 -31.5s-45 -15.5 -57 -15.5c-14.667 0 -30 5.83301 -46 17.5s-27.333 25.167 -34 40.5c-7.33301 17.333 -12.666 39 -15.999 65s-2.66602 40.667 2.00098 44
c4 2.66699 11.667 12.667 23 30c11.333 18 28 36.167 50 54.5s43.667 31.833 65 40.5l-20 13c-11.333 7.33301 -24.166 25 -38.499 53s-21.5 49.333 -21.5 64c0 12 2 18.333 6 19c5.33301 0.666992 9.33301 -7.33301 12 -24c3.33301 -14.667 11.333 -34 24 -58
c14.667 -24.667 30.834 -40.834 48.501 -48.501s35.5 -7.5 53.5 0.5s34.833 18.833 50.5 32.5s30.834 30.5 45.501 50.5c50 66.667 74 125.334 72 176.001c-5.33301 0 -16 0.333008 -32 1s-28.833 1 -38.5 1s-21 -0.166992 -34 -0.5s-23.833 -1.33301 -32.5 -3
s-15 -4.16699 -19 -7.5c-14.667 -8 -30.334 -14 -47.001 -18c-12.667 -2.66699 -33.334 -13.834 -62.001 -33.501s-53.667 -39.834 -75 -60.501c-25.333 -24.667 -46.666 -42 -63.999 -52s-39 -17.667 -65 -23c-23.333 -4.66699 -49.833 -6.33398 -79.5 -5.00098
s-47.834 5 -54.501 11c-6 6.66699 -2 9.33398 12 8.00098c5.33301 -0.666992 11.666 -1.66699 18.999 -3c34.667 -6 75.667 -3.66699 123 7c22.667 5.33301 49.667 22.666 81 51.999c28.667 27.333 59 52 91 74s55.667 34.667 71 38c9.33301 2.66699 20.333 7 33 13
s25 10.5 37 13.5s29 4.83301 51 5.5c42.667 2.66699 64 4.33398 64 5.00098z" />
    <glyph glyph-name="z" unicode="z" horiz-adv-x="556" 
d="M422 424c0 3.33301 5.33691 5 16.0039 5s17.667 -1.33301 21 -4c2.66699 -4 -7.33301 -16.667 -30 -38c-22.667 -22 -48.334 -62.333 -77.001 -121l-24.5 -52c-6.33301 -14 -10.333 -23.5 -12 -28.5s-4.83398 -12 -9.50098 -21s-11.334 -21.167 -20.001 -36.5
c-14.667 -25.333 -19.834 -40.333 -15.501 -45s21.833 -2.66699 52.5 6c10 3.33301 38 9.83301 84 19.5s74.333 16.5 85 20.5c4.66699 4 7.66699 24 9 60c0.666992 26.667 0.5 42.334 -0.5 47.001s-4.83301 6.66699 -11.5 6c-34 -4 -59.333 -7.66699 -76 -11l5 27
c8.66699 40.667 17.334 59.334 26.001 56.001c6.66699 -4.66699 5 -20.667 -5 -48c-2.66699 -7.33301 1 -11.333 11 -12c14 -0.666992 29.333 4.33301 46 15c16 9.33301 25.333 10.666 28 3.99902c2 -6 2 -32.667 0 -80s-4.33301 -73.333 -7 -78
c-2 -3.33301 -9.66699 -6.33301 -23 -9c-2.66699 -0.666992 -14.5 -3 -35.5 -7l-66.5 -13c-23.333 -4.66699 -48.5 -9.33398 -75.5 -14.001s-47.333 -7.16699 -61 -7.5s-21.167 1.16699 -22.5 4.5c0.666992 1.33301 10.5 18.333 29.5 51s28.833 51 29.5 55
c8 20 39.333 85 94 195c-25.333 4 -67.5 4.5 -126.5 1.5s-103.167 -3.5 -132.5 -1.5c-45.333 2.66699 -69 2.33398 -71 -0.999023c-2.66699 -20 -7.66699 -106.667 -15 -260c-1.33301 -36 0 -54.333 4 -55c1.33301 0 3 0.333008 5 1l8 2
c-0.666992 -1.33301 -3.33398 -4.33301 -8.00098 -9c-8 -8 -13.667 -10.667 -17 -8c-2.66699 18 -3.16699 75.167 -1.5 171.5s2.16699 153.833 1.5 172.5h78c96.667 0.666992 172.667 4.66699 228 12s83 16.666 83 27.999z" />
    <glyph glyph-name="uni0093" horiz-adv-x="330" 
d="M120 229c0 5.33301 -1.00098 10.8359 -3.00098 16.5029s-4.16699 10.667 -6.5 15s-6 9.66602 -11 15.999s-8.83301 11 -11.5 14l-12.5 14c-5.66699 6.33301 -9.16699 10.166 -10.5 11.499c-0.666992 -1.33301 -2.66699 -6.5 -6 -15.5l-6.5 -17.5
c-1 -2.66699 -2.83301 -8.66699 -5.5 -18s-3.5 -15.666 -2.5 -18.999s1.5 -9.66602 1.5 -18.999c2.66699 -18.667 1.33398 -28.334 -3.99902 -29.001c-3.33301 0 -6.66602 6 -9.99902 18c-6 25.333 1.33301 61 22 107c10.667 24 19.667 35.333 27 34
c5.33301 -0.666992 7.33301 -8.66699 6 -24c-0.666992 -8.66699 0.5 -16.167 3.5 -22.5s9.5 -14.833 19.5 -25.5c12.667 -12.667 20 -22.334 22 -29.001s2.33301 -21.334 1 -44.001c-2 -26 -9.33301 -52.667 -22 -80s-24.667 -42 -36 -44c-6 -1.33301 -8.66699 -1 -8 1
c1.33301 3.33301 5.66602 9.33301 12.999 18c10.667 12.667 20 31.167 28 55.5s12 46.5 12 66.5zM260.999 101.003c-7.33301 0 -7.33398 4 -0.000976562 12c8 8 15 22 21 42c4 13.333 5.66699 23 5 29s-3.66699 14.667 -9 26c-4.66699 12 -14.167 25.167 -28.5 39.5
s-23.833 25.833 -28.5 34.5c-7.33301 15.333 -13.333 19.333 -18 12c-6.66699 -11.333 -12.667 -29.333 -18 -54s-7 -42.334 -5 -53.001c2 -11.333 2.33301 -17 1 -17c-0.666992 -0.666992 -3.33398 2 -8.00098 8c-7.33301 10 -11 18.333 -11 25
c0 6 5.83301 28.833 17.5 68.5s20.167 65.834 25.5 78.501c3.33301 6.66699 5.5 10.5 6.5 11.5s2.16699 -0.166992 3.5 -3.5c0.666992 -2.66699 1.66699 -8.66699 3 -18c6 -34.667 20 -62.667 42 -84c30.667 -28 43.334 -57.667 38.001 -89
c-3.33301 -18 -8.66602 -33.833 -15.999 -47.5s-14.333 -20.5 -21 -20.5z" />
    <glyph glyph-name="uni0094" horiz-adv-x="322" 
d="M55 443c2.66699 0 4.33105 -0.999023 4.99805 -2.99902s0.5 -4.33301 -0.5 -7s-2.83301 -5 -5.5 -7c-4.66699 -3.33301 -7 -15.333 -7 -36c0 -15.333 2.16699 -26.833 6.5 -34.5s16.166 -21.834 35.499 -42.501l43 -44c0.666992 2 1.83398 5 3.50098 9
s2.66699 6.83301 3 8.5s1 4.33398 2 8.00098s1.5 6.66699 1.5 9v9c0 3.66699 -0.666992 7.33398 -2 11.001s-3 7.5 -5 11.5c-4 10 -6.83301 19.5 -8.5 28.5s-2.16699 16.333 -1.5 22s2.33398 8.5 5.00098 8.5s6.83398 -7.16699 12.501 -21.5s10.5 -29.833 14.5 -46.5
c2.66699 -10.667 -0.5 -29.834 -9.5 -57.501s-16.167 -41.5 -21.5 -41.5c-6 0 -9 6 -9 18c0 12.667 -13 31 -39 55c-26.667 24.667 -41.667 46 -45 64c-8 45.333 -0.666992 71.666 22 78.999zM232.997 429.001c-12 -11.333 -21.832 -24.834 -29.499 -40.501
s-10.834 -32.667 -9.50098 -51s9.33301 -33.5 24 -45.5c16.667 -16.667 25 -26.667 25 -30c0 -4.66699 1.66699 -7 5 -7c6 0 12.5 10 19.5 30s9.83301 36.667 8.5 50c-1.33301 18.667 1 28.334 7 29.001c4 1.33301 6.66699 -2.66699 8 -12
c0.666992 -4.66699 1 -11.334 1 -20.001c0 -18 -5.16699 -40.333 -15.5 -67s-20.5 -44.334 -30.5 -53.001c-5.33301 -4 -8.33301 -3 -9 3c-0.666992 2.66699 -1 6.66699 -1 12c0 14.667 -8.33301 30.334 -25 47.001c-16.667 14 -26.667 34 -30 60s2 49.333 16 70
c14 23.333 24 36.333 30 39c16 8.66699 23.667 10.334 23 5.00098c-2 -4.66699 -7.66699 -11 -17 -19z" />
    <glyph glyph-name=".null" horiz-adv-x="0" 
 />
    <glyph glyph-name="nonmarkingreturn" horiz-adv-x="333" 
 />
    </font>
</defs>
</svg>
