<?xml version="1.0" standalone="no"?>
<!DOCTYPE svg PUBLIC "-//W3C//DTD SVG 1.1//EN" "http://www.w3.org/Graphics/SVG/1.1/DTD/svg11.dtd" >
<svg>
<metadata>
Created by FontForge 20090914 at Sat Feb 27 00:00:16 2016
 By www-data
Copyright (c) 2016, root
</metadata>
<defs>
<font id="QuickPrint" horiz-adv-x="364" >
  <font-face 
    font-family="Quick Print"
    font-weight="400"
    font-stretch="normal"
    units-per-em="1000"
    panose-1="2 0 5 3 0 0 0 0 0 0"
    ascent="800"
    descent="-200"
    x-height="433.005"
    cap-height="642"
    bbox="28.0011 -164.611 689.084 742.529"
    underline-thickness="50"
    underline-position="-100"
    unicode-range="U+0020-U+0094"
  />
<missing-glyph 
d="M33 0v666h265v-666h-265zM66 33h199v600h-199v-600z" />
    <glyph glyph-name=".notdef" 
d="M33 0v666h265v-666h-265zM66 33h199v600h-199v-600z" />
    <glyph glyph-name="space" unicode=" " horiz-adv-x="286" 
 />
    <glyph glyph-name="exclam" unicode="!" horiz-adv-x="158" 
d="M63 152c26.667 0 40 -11.668 40 -35.001c0 -12 -5 -20.667 -15 -26s-21.667 -5.66602 -35 -0.999023c-22 7.33301 -28.667 23 -20 47c3.33301 10 13.333 15 30 15zM61 575.999c0 30 3.66699 49.335 11 58.002c2 4 5.66699 6.16699 11 6.5s10.5 -0.5 15.5 -2.5
s10.667 -4.5 17 -7.5s10.5 -4.83301 12.5 -5.5c0.666992 -38.667 -1 -99.834 -5 -183.501s-7.33301 -137.5 -10 -161.5c-2.66699 -10.667 -10 -18.334 -22 -23.001c-4.66699 -4 -10 -4.83301 -16 -2.5s-10.667 4.83301 -14 7.5s-7.5 6.66699 -12.5 12s-8.83301 9 -11.5 11
c16 154 24 251 24 291z" />
    <glyph glyph-name="quotedbl" unicode="&#x22;" horiz-adv-x="332" 
d="M46 626c6.66699 16 15.3311 24.834 25.998 26.501s22.334 -4.16602 35.001 -17.499c7.33301 -8.66699 11.166 -14.834 11.499 -18.501s-2.5 -11.834 -8.5 -24.501c-9.33301 -19.333 -12.666 -47.666 -9.99902 -84.999s9.66699 -63.666 21 -78.999
c20.667 -28.667 14.334 -45 -18.999 -49c-22.667 -2.66699 -41 12.666 -55 45.999s-19.333 75 -16 125c2 31.333 7 56.666 15 75.999zM202.997 655.001c9.33301 17.333 18.6699 27.667 28.0029 31s20.333 0.333008 33 -9c16.667 -13.333 16 -34.333 -2 -63
c-8 -12 -15.333 -32.667 -22 -62s-6.33398 -51.666 0.999023 -66.999c6.66699 -13.333 16.334 -20.666 29.001 -21.999c11.333 -1.33301 20.166 -5.33301 26.499 -12s7.83301 -13.667 4.5 -21c-2 -6.66699 -11.667 -14 -29 -22c-16.667 -10 -34.834 -8.5 -54.501 4.5
s-33.5 27.167 -41.5 42.5c-12 23.333 -15.333 53.666 -10 90.999s17.666 73.666 36.999 108.999z" />
    <glyph glyph-name="dollar" unicode="$" horiz-adv-x="349" 
d="M227 110c6.66699 0 12.667 8.16797 18 24.501s6.33301 30.166 3 41.499s-6.5 19 -9.5 23s-5.83301 4 -8.5 0s-4.66699 -11.667 -6 -23c-5.33301 -44 -4.33301 -66 3 -66zM171 461.001c0 52 -1 77.999 -3 77.999c-2.66699 0 -9.66699 -7 -21 -21
c-22.667 -26 -24 -58.667 -4 -98c10 -20 17 -30 21 -30c4.66699 0.666992 7 24.334 7 71.001zM234 659c0 -7.33301 2.00293 -12.834 6.00293 -16.501s12.333 -7.16699 25 -10.5c19.333 -4.66699 33.166 -11.167 41.499 -19.5s11.833 -18.5 10.5 -30.5
c1.33301 -8 -1.5 -13.667 -8.5 -17s-14.667 -4.33301 -23 -3s-14.833 3.33301 -19.5 6c-7.33301 6 -14.333 7.33301 -21 4c-4.66699 -1.33301 -7.66699 -10.166 -9 -26.499s-2 -50.833 -2 -103.5v-127l27 -32c56 -68 70.667 -131.333 44 -190
c-12.667 -29.333 -34.667 -48 -66 -56c-8.66699 -2 -14 -4.83301 -16 -8.5s-2.33301 -11.834 -1 -24.501c4 -32.667 -8.66699 -49 -38 -49c-13.333 0 -22.333 3.66699 -27 11s-7 21.333 -7 42v37c-54.667 42 -91.334 74 -110.001 96c-6 8.66699 -9.33301 18.334 -10 29.001
s1.5 19.667 6.5 27s11.833 11 20.5 11c2.66699 1.33301 11.334 -4 26.001 -16l43.5 -35c14.333 -11.333 22.5 -15.666 24.5 -12.999c2 3.33301 7 50.666 15 141.999l-35 37c-44 46.667 -67.667 94 -71 142c-2 19.333 -2 33.166 0 41.499s8.66699 20.5 20 36.5
c16.667 24.667 35.334 44.334 56.001 59.001c18.667 15.333 28.667 25.5 30 30.5s-0.333984 21.5 -5.00098 49.5c-3.33301 26 -1.33301 42.667 6 50c7.33301 6.66699 12.166 10.167 14.499 10.5s9.16602 -2.16699 20.499 -7.5c9.33301 -4 17 -13.333 23 -28s9 -30.667 9 -48
z" />
    <glyph glyph-name="percent" unicode="%" horiz-adv-x="584" 
d="M472 213c-13.333 -23.333 -16.667 -36.667 -10 -40c4 -2 9 3 15 15c1.33301 2 2.33301 4 3 6c8 20 9.66699 31.667 5 35c-2 1.33301 -5.33301 -2 -10 -10zM553.999 220.999c0.666992 -16 0.000976562 -28.3311 -1.99902 -36.998s-5.66699 -17.167 -11 -25.5
s-9 -14.5 -11 -18.5c0 -6.66699 -10.167 -19.334 -30.5 -38.001s-35.5 -29.334 -45.5 -32.001c-20 -5.33301 -37 0.166992 -51 16.5s-21 38.833 -21 67.5c0 20 7.16699 49.667 21.5 89s27.166 64 38.499 74c8.66699 8.66699 15 17.667 19 27
c7.33301 18 22.333 14.667 45 -10c20.667 -22 34 -40 40 -54s8.66699 -33.667 8 -59zM107 392.001c4 0 10.667 8 20 24s15.333 30 18 42c3.33301 14 -0.666992 28 -12 42c-10 12.667 -17 16.667 -21 12c-2.66699 -4 -6.66699 -17.333 -12 -40
c-4 -17.333 -5.16699 -35 -3.5 -53s5.16699 -27 10.5 -27zM199 437.001c0 -8 -6.66602 -25.6729 -19.999 -53.0059s-23.666 -45.333 -30.999 -54c-18.667 -19.333 -40 -25 -64 -17s-39.667 26 -47 54c-10.667 45.333 -11 91.666 -1 138.999
c4 16.667 12.333 34.334 25 53.001s23.667 29.667 33 33c7.33301 3.33301 12 9.83301 14 19.5s5.66699 16.5 11 20.5c12 10.667 24.5 14.334 37.5 11.001s24.5 -13.666 34.5 -30.999s15 -36.666 15 -57.999c0 -17.333 0.833008 -27.666 2.5 -30.999s7.5 -5 17.5 -5
c24.667 0 60.334 16 107.001 48s70 56.333 70 73c0 8.66699 1.66699 13 5 13c4 0 9.66699 7.33301 17 22c5.33301 8.66699 10.333 14.334 15 17.001s11.667 3.33398 21 2.00098c14.667 -0.666992 25 -7 31 -19c3.33301 -7.33301 4 -14.833 2 -22.5s-9 -22.5 -21 -44.5
c-15.333 -28 -40.666 -84.5 -75.999 -169.5s-64 -158.167 -86 -219.5c-12.667 -37.333 -20.834 -64.333 -24.501 -81s-5.83398 -38 -6.50098 -64c-0.666992 -27.333 -1.83398 -45.333 -3.50098 -54s-5.83398 -15.667 -12.501 -21c-11.333 -9.33301 -23.833 -12.5 -37.5 -9.5
s-22.834 11.167 -27.501 24.5c-14.667 41.333 14 150 86 326c35.333 90 54 140.333 56 151c-45.333 -21.333 -81.666 -34.333 -108.999 -39c-22 -4 -33 -8.66699 -33 -14z" />
    <glyph glyph-name="ampersand" unicode="&#x26;" horiz-adv-x="389" 
d="M283 418c0.666992 -5.33301 16.666 -18.6689 47.999 -40.002c0 -9.33301 -0.166992 -39.666 -0.5 -90.999s0 -94.166 1 -128.499s3.16699 -55.5 6.5 -63.5c2.66699 -8 3.5 -14 2.5 -18s-4.83301 -9.33301 -11.5 -16c-10 -9.33301 -21.333 -14 -34 -14
s-23.334 4.66699 -32.001 14c-6.66699 6.66699 -10.667 16.167 -12 28.5s-1.66602 41.5 -0.999023 87.5c0 68.667 -1.66699 104 -5 106c-3.33301 3.33301 -14 -3.33398 -32 -20.001c-16.667 -15.333 -31.5 -25 -44.5 -29s-26.5 -3 -40.5 3c-26.667 12 -34 34.333 -22 67
c5.33301 16 7.5 26.333 6.5 31s-6.5 7 -16.5 7c-12 0 -24.667 3.66699 -38 11c-51.333 26.667 -31 78.334 61 155.001c22.667 19.333 48.834 37.666 78.501 54.999s49.5 26 59.5 26c6.66699 0 13.334 21.333 20.001 64c8 42 16 67.667 24 77c8 10 17 14 27 12
s18.333 -8.5 25 -19.5s8 -21.167 4 -30.5c-5.33301 -25.333 -8.5 -58.333 -9.5 -99s0.5 -69.667 4.5 -87c5.33301 -22 6.66602 -38.167 3.99902 -48.5s-10.334 -17.833 -23.001 -22.5c-15.333 -5.33301 -28.666 -4 -39.999 4s-18.666 20.667 -21.999 38
c-4 19.333 -8.66699 30 -14 32c-16.667 6.66699 -49.334 -12.666 -98.001 -57.999l-49 -46c40.667 4 69.667 11.333 87 22c17.333 10 36 14 56 12s30 -9 30 -21z" />
    <glyph glyph-name="quotesingle" unicode="'" horiz-adv-x="169" 
d="M96 527c0 -28 1.17188 -45.499 3.50488 -52.499s9.16602 -15.833 20.499 -26.5s17.666 -17.5 18.999 -20.5s-1 -7.83301 -7 -14.5c-14.667 -16 -31.834 -18.5 -51.501 -7.5s-34.167 31.167 -43.5 60.5c-8.66699 27.333 -9.33398 66.5 -2.00098 117.5
s17.666 79.167 30.999 84.5c7.33301 3.33301 15.5 4.16602 24.5 2.49902s15.167 -5.83398 18.5 -12.501c6 -7.33301 5 -21.666 -3 -42.999c-6.66699 -18 -10 -47.333 -10 -88z" />
    <glyph glyph-name="parenleft" unicode="(" horiz-adv-x="262" 
d="M154 585c-4.66699 -6 -8.16797 -14.501 -10.501 -25.501s-4.83301 -18.833 -7.5 -23.5c-7.33301 -9.33301 -17.5 -51.833 -30.5 -127.5s-19.5 -132.167 -19.5 -169.5c0 -24 2.83301 -50 8.5 -78s12.167 -49.667 19.5 -65c7.33301 -14.667 21.5 -32 42.5 -52
s39.5 -34.333 55.5 -43c14.667 -7.33301 21.5 -15.166 20.5 -23.499s-9.16699 -13.166 -24.5 -14.499c-13.333 -1.33301 -31.166 3.16699 -53.499 13.5s-40.5 22.833 -54.5 37.5c-14.667 14.667 -29.334 37.334 -44.001 68.001c-10 20.667 -16.5 37.667 -19.5 51
s-5.16699 36.666 -6.5 69.999c-2.66699 78 5.33301 166 24 264s38 154.667 58 170c8 6 18 8.33301 30 7c10.667 -1.33301 17.334 -8.33301 20.001 -21s0 -25.334 -8 -38.001z" />
    <glyph glyph-name="parenright" unicode=")" horiz-adv-x="232" 
d="M63 645c12 0 23.668 -7.16602 35.001 -21.499s26 -40.166 44 -77.499c77.333 -162 78.666 -341.333 3.99902 -538c-24.667 -65.333 -42.167 -108.333 -52.5 -129s-19.833 -32 -28.5 -34c-12 -3.33301 -21.667 -1.33301 -29 6c-6 6 -7.16699 15.667 -3.5 29
s18.167 54.666 43.5 123.999c22.667 60 37.167 107 43.5 141s9.5 79.667 9.5 137c0 72 -5 123.667 -15 155c-16.667 57.333 -38.667 106 -66 146c-6.66699 9.33301 -11 20.166 -13 32.499s-0.666992 20.5 4 24.5c2 3.33301 10 5 24 5z" />
    <glyph glyph-name="asterisk" unicode="*" horiz-adv-x="440" 
d="M301 592c0 -41.333 2.00391 -62.9971 6.00391 -64.9971c1.33301 -0.666992 4.66602 -0.333984 9.99902 0.999023c8 3.33301 23 6.33301 45 9c12.667 2 21.334 2.16699 26.001 0.5s9.66699 -6.16699 15 -13.5c15.333 -24 7.66602 -43.667 -23.001 -59
c-22 -11.333 -36 -20.5 -42 -27.5s-7.66699 -16.833 -5 -29.5c4.66699 -25.333 2.16699 -41.833 -7.5 -49.5s-25.167 -5.83398 -46.5 5.49902l-29 14c-4 -2.66699 -11.333 -8.16699 -22 -16.5l-26.5 -21c-7 -5.66699 -14.333 -12.167 -22 -19.5s-13.167 -13.333 -16.5 -18
c-19.333 -28 -37.666 -34 -54.999 -18c-6.66699 6.66699 -10.834 13.667 -12.501 21s-2.5 21.666 -2.5 42.999c0.666992 22.667 0 36.834 -2 42.501s-7.66699 10.5 -17 14.5c-11.333 4 -22.333 14.667 -33 32c-20.667 32 -13.667 60.667 21 86
c13.333 9.33301 25.666 14.166 36.999 14.499s26 -3.16699 44 -10.5c17.333 -7.33301 27 -10 29 -8c3.33301 3.33301 12.666 23 27.999 59s24 58.333 26 67c3.33301 16 10.666 27.833 21.999 35.5s24.333 4.83398 39 -8.49902c6 -6 9.83301 -13.833 11.5 -23.5
s2.5 -28.834 2.5 -57.501z" />
    <glyph glyph-name="plus" unicode="+" horiz-adv-x="581" 
d="M295 575c12 0 20.332 -7.16992 24.999 -21.5029s7.66699 -42.833 9 -85.5c1.33301 -44 3.66602 -68.667 6.99902 -74c4.66699 -9.33301 20 -10.333 46 -3c2.66699 0.666992 21.334 6 56.001 16c40 11.333 65.5 16.666 76.5 15.999s21.167 -8 30.5 -22
c7.33301 -11.333 7.5 -22.166 0.5 -32.499s-19.167 -17.5 -36.5 -21.5c-59.333 -11.333 -115.333 -24 -168 -38c-6 -2 -9.5 -6.66699 -10.5 -14s-0.5 -27.666 1.5 -60.999c2 -44.667 6 -76.334 12 -95.001c8.66699 -30 -0.666016 -48.333 -27.999 -55
c-19.333 -4.66699 -34.166 7.33301 -44.499 36s-14.5 69.334 -12.5 122.001l2 51h-102c-44 0 -72.5 0.833008 -85.5 2.5s-21.833 5.16699 -26.5 10.5c-20 22.667 -22.333 41.667 -7 57c8.66699 8.66699 17.167 13.334 25.5 14.001s21.166 -1.66602 38.499 -6.99902
c24 -6.66699 75.667 -6 155 2v91c0 40 0.833008 66 2.5 78s5.16699 20 10.5 24c8 6.66699 15.667 10 23 10z" />
    <glyph glyph-name="comma" unicode="," horiz-adv-x="197" 
d="M167 68c0 -24.667 -1.33203 -41.9961 -3.99902 -51.9961s-9.66699 -24.333 -21 -43c-34.667 -57.333 -69 -74 -103 -50c-6 5.33301 -8.83301 9.16602 -8.5 11.499s5.16602 8.5 14.499 18.5c22 22.667 36.667 50.667 44 84s4 56.333 -10 69
c-7.33301 6.66699 -12.166 18.667 -14.499 36s-0.833008 28.666 4.5 33.999c33.333 8 58.666 -0.666992 75.999 -26c10 -12.667 16.167 -23.334 18.5 -32.001s3.5 -25.334 3.5 -50.001z" />
    <glyph glyph-name="hyphen" unicode="-" horiz-adv-x="388" 
d="M288 356c20.667 12.667 39.499 10.833 56.499 -5.5s18.833 -33.833 5.5 -52.5c-8.66699 -11.333 -84 -27.333 -226 -48c-28 -4 -46 -5.66699 -54 -5s-15 3.66699 -21 9c-10 8.66699 -16 20 -18 34c-3.33301 17.333 0.333984 29.5 11.001 36.5s30 9.16699 58 6.5
c22 -2 56 0 102 6s74.667 12.333 86 19z" />
    <glyph glyph-name="period" unicode="." horiz-adv-x="144" 
d="M72 159c12 0 22.166 -5.83203 30.499 -17.499s12.333 -24.334 12 -38.001s-5.5 -23.167 -15.5 -28.5c-12 -6.66699 -24.333 -7.83398 -37 -3.50098s-21 12.833 -25 25.5c-5.33301 14.667 -7.66602 24.334 -6.99902 29.001s5 11 13 19c9.33301 9.33301 19 14 29 14z" />
    <glyph glyph-name="slash" unicode="/" horiz-adv-x="312" 
d="M70 75c-17.333 0 -29.499 9.16406 -36.499 27.4971s-3.83301 33.5 9.5 45.5c8.66699 7.33301 14.334 16.333 17.001 27c0 2.66699 13.833 48.167 41.5 136.5s41.167 134.166 40.5 137.499c0 6 11.167 33.833 33.5 83.5s37.5 80.834 45.5 93.501
c7.33301 10.667 16.166 16.834 26.499 18.501s18.833 -2.16602 25.5 -11.499c12.667 -17.333 9 -45.333 -11 -84c-16 -31.333 -40.667 -95.5 -74 -192.5s-58 -176.833 -74 -239.5c-4.66699 -17.333 -9.83398 -28.666 -15.501 -33.999s-15.167 -8 -28.5 -8z" />
    <glyph glyph-name="zero" unicode="0" horiz-adv-x="467" 
d="M314 463c-13.333 12.667 -23.333 20.167 -30 22.5s-23.334 3.16602 -50.001 2.49902c-26 -0.666992 -42.5 -2.16699 -49.5 -4.5s-15.167 -9.5 -24.5 -21.5c-41.333 -53.333 -62.666 -120 -63.999 -200c-0.666992 -65.333 11 -107.666 35 -126.999
c25.333 -21.333 52 -30.333 80 -27s54 13.5 78 30.5s43.833 42 59.5 75s23.5 68.167 23.5 105.5c0 57.333 -19.333 105.333 -58 144zM160 564c11.333 6.66699 18.6641 9.99805 21.9971 9.99805s9 -3 17 -9c9.33301 -6.66699 26 -9 50 -7c47.333 5.33301 87.333 -11 120 -49
c24.667 -28.667 43.5 -68.167 56.5 -118.5s15.833 -94.5 8.5 -132.5c-7.33301 -41.333 -26 -82.166 -56 -122.499s-62 -68.166 -96 -83.499c-25.333 -11.333 -52.666 -16.5 -81.999 -15.5s-56.333 8.16699 -81 21.5c-17.333 9.33301 -29.666 17.833 -36.999 25.5
s-16.333 22.167 -27 43.5c-12 23.333 -19.167 41 -21.5 53s-3.5 38 -3.5 78c0.666992 37.333 2.16699 63.5 4.5 78.5s8.5 35.833 18.5 62.5c12.667 33.333 30.334 67.333 53.001 102s40.667 55.667 54 63z" />
    <glyph glyph-name="one" unicode="1" horiz-adv-x="161" 
d="M74 596c19.333 21.333 36.6641 16.999 51.9971 -13.001c6 -12.667 6.33301 -72.334 1 -179.001c-5.33301 -115.333 -10.666 -195.166 -15.999 -239.499s-12.333 -70.166 -21 -77.499c-9.33301 -8.66699 -16.166 -12.667 -20.499 -12s-12.166 6.66699 -23.499 18
c-12.667 12.667 -17.667 24 -15 34c10 42 18 143.667 24 305c2 62.667 4.16699 104 6.5 124s6.5 33.333 12.5 40z" />
    <glyph glyph-name="two" unicode="2" horiz-adv-x="483" 
d="M355 533c0 -28.667 -10.1689 -64.5 -30.502 -107.5s-56.5 -104.5 -108.5 -184.5c-29.333 -46.667 -44 -72 -44 -76c0 -4.66699 5.33301 -5.66699 16 -3c31.333 8 68.833 19 112.5 33s70.5 24.667 80.5 32c22.667 14 42.334 12.667 59.001 -4
c9.33301 -8.66699 14 -18.167 14 -28.5s-4.66699 -19.166 -14 -26.499c-10 -8.66699 -55 -25.167 -135 -49.5s-133 -38.166 -159 -41.499c-29.333 -2.66699 -50 0 -62 8c-15.333 10 -20.833 23.667 -16.5 41s20.5 46.666 48.5 87.999c49.333 72 88.666 135.5 117.999 190.5
s44 92.5 44 112.5c0 10.667 -1 17 -3 19s-6.33301 1.66699 -13 -1c-28 -8.66699 -57.333 -27.334 -88 -56.001s-51 -56.667 -61 -84c-10.667 -30 -23.167 -47.667 -37.5 -53s-28.5 1.66699 -42.5 21c-3.33301 7.33301 -3.83301 15.166 -1.5 23.499s9.83301 24.833 22.5 49.5
c19.333 37.333 47.5 72.833 84.5 106.5s69.833 53.834 98.5 60.501c24.667 6 43.334 7.83301 56.001 5.5s25.334 -9.83301 38.001 -22.5c16 -16 24 -33.667 24 -53z" />
    <glyph glyph-name="three" unicode="3" horiz-adv-x="466" 
d="M366 332c0 14 -5.99902 23.166 -17.999 27.499s-36.667 6.16602 -74 5.49902c-30.667 -0.666992 -52.167 -2.33398 -64.5 -5.00098s-28.5 -8.66699 -48.5 -18c-24.667 -12.667 -42.667 -18.834 -54 -18.501s-21.666 6.83301 -30.999 19.5c-6 8 -9.16699 14 -9.5 18
s1.5 9.33301 5.5 16c5.33301 8 25.166 22 59.499 42s54.166 33.667 59.499 41c37.333 42 56 69.333 56 82c0 14 -17.333 16 -52 6c-38.667 -12 -66 -28.333 -82 -49c-12.667 -17.333 -21.167 -27.833 -25.5 -31.5s-10.833 -5.5 -19.5 -5.5c-11.333 0 -21 4.66699 -29 14
c-17.333 18.667 -11.833 42.834 16.5 72.501s68.5 52.834 120.5 69.501c33.333 10.667 64.5 11.834 93.5 3.50098s46.167 -23.166 51.5 -44.499c8.66699 -32.667 1.33398 -66.667 -21.999 -102c-12.667 -18 -18.334 -27.667 -17.001 -29c2 -2 19.667 -7.33301 53 -16
c94 -24.667 123 -74 87 -148c-10.667 -22 -32.167 -47.5 -64.5 -76.5s-63.833 -50.833 -94.5 -65.5c-29.333 -13.333 -59.333 -22.833 -90 -28.5s-55.334 -6.16699 -74.001 -1.5c-16 4 -28 12.333 -36 25s-9.66699 26 -5 40c3.33301 10 9.33301 16.333 18 19
s15.334 0.333984 20.001 -6.99902c4 -6.66699 22.667 -8.16699 56 -4.5s59.333 10.167 78 19.5c35.333 17.333 66.833 39.166 94.5 65.499s41.5 47.833 41.5 64.5z" />
    <glyph glyph-name="four" unicode="4" horiz-adv-x="476" 
d="M284 339c0.666992 10.667 0.665039 18.498 -0.00195312 23.498s-2.16699 7.33301 -4.5 7s-4.66602 -1.16602 -6.99902 -2.49902s-6 -4.66602 -11 -9.99902s-9.16699 -9.33301 -12.5 -12c-16 -16 -28 -26.667 -36 -32c-15.333 -8 -18.666 -13.667 -9.99902 -17
c5.33301 -2.66699 15 -2.66699 29 0c24.667 3.33301 39.5 7 44.5 11s7.5 14.667 7.5 32zM445.998 292.998c0 -12.667 -3.49902 -21.8281 -10.499 -27.4951s-21.5 -11.167 -43.5 -16.5l-34 -9c0 -64.667 2 -106.334 6 -125.001c2.66699 -15.333 3.66699 -25.666 3 -30.999
s-4.33398 -11.333 -11.001 -18c-9.33301 -8.66699 -19.833 -11.834 -31.5 -9.50098s-21.167 9.16602 -28.5 20.499c-4 6.66699 -8 23.667 -12 51s-6.33301 55 -7 83c0 5.33301 -5.5 8.66602 -16.5 9.99902s-41.167 2 -90.5 2c-50 0 -81.5 0.666992 -94.5 2
s-22.833 5.33301 -29.5 12c-28.667 26 -17.334 52.667 33.999 80c108 57.333 166.667 111.666 176 162.999c4.66699 21.333 10.667 36.333 18 45c17.333 19.333 37.333 19.666 60 0.999023c7.33301 -5.33301 12.333 -14 15 -26s5.33398 -38.333 8.00098 -79l7 -93l27 4
c16.667 2.66699 30 0.5 40 -6.5s15 -17.833 15 -32.5z" />
    <glyph glyph-name="five" unicode="5" horiz-adv-x="435" 
d="M108 385c4 0 21.335 7.33496 52.002 22.002c21.333 10 38.166 16.333 50.499 19s31.5 4 57.5 4c36 0.666992 63.167 -2.83301 81.5 -10.5s33.166 -21.167 44.499 -40.5c9.33301 -17.333 12.333 -34.333 9 -51c-8.66699 -40 -32 -78 -70 -114s-82 -61.667 -132 -77
c-30.667 -10 -54.667 -11.833 -72 -5.5s-29.333 21.833 -36 46.5c-6 20 -3.33301 34 8 42c8.66699 5.33301 17.334 2.66602 26.001 -8.00098c14 -16.667 43.833 -13.167 89.5 10.5s77.167 52.167 94.5 85.5c10 20.667 12.833 33.834 8.5 39.501s-19.5 8.5 -45.5 8.5
c-44.667 0 -94.334 -18.667 -149.001 -56c-19.333 -12.667 -34.833 -19.167 -46.5 -19.5s-22.834 5.83398 -33.501 18.501c-8 9.33301 -12.667 17.666 -14 24.999s-1 25 1 53c3.33301 55.333 12.166 95.166 26.499 119.499s38.833 41.833 73.5 52.5l91 29
c56.667 20 91.334 20.667 104.001 2c12 -17.333 13.333 -30.833 4 -40.5s-33.666 -20.167 -72.999 -31.5c-11.333 -3.33301 -25.666 -7.33301 -42.999 -12s-30.5 -8.33398 -39.5 -11.001s-19 -7 -30 -13s-19.333 -13.667 -25 -23s-9.83398 -21.333 -12.501 -36
c-2.66699 -18.667 -2.66699 -28 0 -28z" />
    <glyph glyph-name="six" unicode="6" horiz-adv-x="451" 
d="M354 334c0 16 -6.66699 19.334 -20 10.001c-6 -4.66699 -12.667 -11.667 -20 -21c-10 -14 -20 -33.333 -30 -58s-13.333 -38.667 -10 -42c6 0 20.667 14.167 44 42.5s35.333 51.166 36 68.499zM102 246.001c0.666992 -32 7.66797 -52.834 21.001 -62.501
s34 -12.5 62 -8.5c5.33301 54.667 20.666 106.167 45.999 154.5s53.666 78.5 84.999 90.5c50.667 22.667 84.667 5.66699 102 -51c7.33301 -27.333 1.5 -61.333 -17.5 -102s-44.167 -73 -75.5 -97c-23.333 -18.667 -40.666 -34.667 -51.999 -48
c-8 -10.667 -15.833 -17.167 -23.5 -19.5s-27.167 -3.83301 -58.5 -4.5c-44 -1.33301 -72 1.33398 -84 8.00098c-14 7.33301 -28.167 19.833 -42.5 37.5s-23.5 33.834 -27.5 48.501c-13.333 48.667 -9.5 113.667 11.5 195s49.833 141.666 86.5 180.999
c14 16 25.667 24.833 35 26.5s19 -2.5 29 -12.5c20.667 -20.667 16 -46.667 -14 -78c-18.667 -18.667 -32.667 -38.667 -42 -60c-12 -24.667 -22.167 -57.5 -30.5 -98.5s-11.833 -74.167 -10.5 -99.5z" />
    <glyph glyph-name="seven" unicode="7" horiz-adv-x="430" 
d="M349 226c0 -34.667 -1 -55.998 -3 -63.998s-7 -15 -15 -21c-10.667 -10.667 -21.667 -11.334 -33 -2.00098s-19.666 19.333 -24.999 30c-4 10.667 -4 41.667 0 93s9.66699 99.333 17 144c13.333 77.333 17.666 117.666 12.999 120.999
c-10 1.33301 -41.667 0.833008 -95 -1.5s-87 -2.5 -101 -0.5c-23.333 2 -38 4.33301 -44 7s-12.333 9.66699 -19 21l-14 24c3.33301 2 8.5 6.16699 15.5 12.5s12 10.166 15 11.499s9.16699 3.5 18.5 6.5s18.333 2.5 27 -1.5c28 -4 46.667 -6 56 -6s47.333 2 114 6
c46 2.66699 74.667 3.5 86 2.5s19.666 -4.5 24.999 -10.5c8.66699 -9.33301 12.834 -20.666 12.501 -33.999s-4.83301 -34.333 -13.5 -63c-24.667 -86 -37 -177.667 -37 -275z" />
    <glyph glyph-name="eight" unicode="8" horiz-adv-x="370" 
d="M142 293c-3.33301 0 -11.166 -8.50098 -23.499 -25.501s-18.5 -27.833 -18.5 -32.5s8.66699 -10.167 26 -16.5s29.333 -8.16602 36 -5.49902c28.667 10.667 28.667 32 0 64c-10.667 10.667 -17.334 16 -20.001 16zM143 401.999c4 4 11.6689 12.165 23.002 24.498l26 29
l21.5 26c8.33301 10.333 15.333 20.333 21 30s10.167 18.834 13.5 27.501c-46 4.66699 -86.333 -9.66602 -121 -42.999c-8.66699 -10 -12.834 -22.333 -12.501 -37s5.16602 -27.667 14.499 -39zM270.002 623.997c0 8 4.99805 9.33105 14.998 3.99805
c5.33301 -2.66699 9.66602 -7 12.999 -13c5.33301 -9.33301 14 -18.666 26 -27.999c10 -8.66699 15.333 -19.834 16 -33.501s-4 -23.167 -14 -28.5c-9.33301 -4.66699 -20 -18 -32 -40c-3.33301 -10.667 -19.166 -33.667 -47.499 -69s-44.166 -57 -47.499 -65
c0 -7.33301 6.66699 -19.333 20 -36c19.333 -24.667 30.833 -46.167 34.5 -64.5s1.16699 -38.166 -7.5 -59.499c-10.667 -25.333 -30.167 -41.5 -58.5 -48.5s-58.833 -2.83301 -91.5 12.5c-74 34.667 -86.333 86.667 -37 156c11.333 16.667 18.5 28.334 21.5 35.001
s2.83301 12.334 -0.5 17.001c-18.667 25.333 -30.167 54.166 -34.5 86.499s-0.5 58.166 11.5 77.499c14.667 24.667 39.834 45.834 75.501 63.501s70.167 26.5 103.5 26.5c22.667 0 34 2.33301 34 7z" />
    <glyph glyph-name="nine" unicode="9" 
d="M214 540c-10 8 -17.999 11.998 -23.999 11.998s-14.333 -4 -25 -12c-17.333 -13.333 -34.333 -42 -51 -86s-21.334 -72 -14.001 -84c3.33301 -6 11 -5.5 23 1.5s25.667 18.833 41 35.5s30 35.334 44 56.001c12.667 19.333 19.5 34.833 20.5 46.5
s-3.83301 21.834 -14.5 30.501zM75.001 536.998c0 6 11.001 18.333 33.001 37s37.667 29 47 31c3.33301 1.33301 6.83301 2.16602 10.5 2.49902s7.33398 0.5 11.001 0.5s7 -0.166992 10 -0.5s6.66699 -1 11 -2s7.66602 -1.83301 9.99902 -2.5s5.83301 -2 10.5 -4
s7.83398 -3.16699 9.50098 -3.5s5.16699 -1.83301 10.5 -4.5s8.33301 -4 9 -4c4.66699 -3.33301 10.667 -2.66602 18 2.00098c10 6 21.167 7.83301 33.5 5.5s21.5 -7.83301 27.5 -16.5c6.66699 -10 9.5 -21.833 8.5 -35.5s-7.16699 -56.834 -18.5 -129.501
c-24 -153.333 -33.333 -240.333 -28 -261c4 -16 -3.83301 -26.667 -23.5 -32s-37.167 -1.66602 -52.5 11.001c-6 8 -9.33301 19.833 -10 35.5s0.166016 31.167 2.49902 46.5s5.16602 33 8.49902 53s5.33301 35.667 6 47l5 53l-32 -29c-31.333 -28 -62.833 -41.5 -94.5 -40.5
s-52.5 16.167 -62.5 45.5c-6.66699 19.333 -6.5 49.833 0.5 91.5s16.833 70.167 29.5 85.5c6.66699 6.66699 10 12.667 10 18z" />
    <glyph glyph-name="colon" unicode=":" horiz-adv-x="169" 
d="M120 145c0 -15.333 -5.33301 -26.5 -16 -33.5s-22.667 -8.33301 -36 -4s-23.333 13.5 -30 27.5c-5.33301 11.333 -7.83301 18.833 -7.5 22.5s3.16602 10.167 8.49902 19.5c5.33301 8 10.333 13 15 15s12.334 2 23.001 0c28.667 -4 43 -19.667 43 -47zM99 413
c-19.333 0 -32.502 10.498 -39.502 31.498s-2.5 36.833 13.5 47.5c14.667 11.333 27.834 13.833 39.501 7.5s19.834 -20.166 24.501 -41.499c3.33301 -13.333 1.5 -24.166 -5.5 -32.499s-17.833 -12.5 -32.5 -12.5z" />
    <glyph glyph-name="semicolon" unicode=";" horiz-adv-x="214" 
d="M115 169c21.333 14 40.334 12.6689 57.001 -3.99805c6.66699 -6.66699 10.5 -13.667 11.5 -21s0.5 -24 -1.5 -50c-6.66699 -70 -21.667 -121 -45 -153c-7.33301 -10 -18.333 -16.5 -33 -19.5s-27.667 -1.16699 -39 5.5c-8.66699 5.33301 -12.834 10.666 -12.501 15.999
s5.5 14.333 15.5 27c10.667 12.667 19.834 35 27.501 67s10.167 60 7.5 84c-2 16 -2.33301 26.667 -1 32s5.66602 10.666 12.999 15.999zM46.001 465.002c16.667 12 33.167 14.501 49.5 7.50098s25.5 -18.167 27.5 -33.5s-4 -30.333 -18 -45c-12 -10 -20.667 -15 -26 -15
s-14.333 5.66699 -27 17c-13.333 11.333 -20.5 23.666 -21.5 36.999s4.16699 24 15.5 32z" />
    <glyph glyph-name="equal" unicode="=" horiz-adv-x="496" 
d="M283 251c-80 0 -131.665 -2.3291 -154.998 -6.99609c-12 -3.33301 -20.5 -4.33301 -25.5 -3s-11.167 5.66602 -18.5 12.999c-10.667 10.667 -16 22.167 -16 34.5s5 23.166 15 32.499c11.333 10 21.333 13.333 30 10c13.333 -4.66699 61 -7.83398 143 -9.50098
s130 0.166016 144 5.49902c19.333 7.33301 36.666 4.33301 51.999 -9s18.666 -26.333 9.99902 -39c-6 -11.333 -20.667 -18.833 -44 -22.5s-68.333 -5.5 -135 -5.5zM243.002 486.004c67.333 12 109.332 12.001 125.999 0.000976562c10.667 -7.33301 16 -17.5 16 -30.5
s-5.33301 -21.833 -16 -26.5c-8.66699 -4 -42 -9 -100 -15s-112.667 -10.333 -164 -13c-30.667 -2 -50.667 -0.833008 -60 3.5s-14.333 15.166 -15 32.499c0 16 5 26.167 15 30.5s34.333 6.83301 73 7.5c54.667 1.33301 96.334 5 125.001 11z" />
    <glyph glyph-name="greater" unicode="&#x3e;" horiz-adv-x="508" 
d="M424 286c-8 -0.666992 -20.667 -3.5 -38 -8.5s-33.333 -10.167 -48 -15.5l-50 -18c-18.667 -6.66699 -29.667 -10.667 -33 -12c-21.333 -7.33301 -39 -16.333 -53 -27c-25.333 -18.667 -46.333 -24.667 -63 -18c-9.33301 3.33301 -16.333 11.833 -21 25.5
s-4.33398 25.167 0.999023 34.5c5.33301 10.667 54.666 33.334 147.999 68.001c38.667 13.333 57.334 23 56.001 29c-2.66699 8 -58 25 -166 51c-66 15.333 -104 27.333 -114 36c-8 7.33301 -12.167 17 -12.5 29s3.16699 22.667 10.5 32
c6.66699 7.33301 12.667 11.166 18 11.499s15 -3.16699 29 -10.5c8 -4 23.333 -9.5 46 -16.5l72.5 -21.5l75.5 -21.5c24.667 -7 44.834 -13 60.501 -18s22.834 -8.16699 21.501 -9.5c4 -2.66699 15.667 -7.33398 35 -14.001c15.333 -5.33301 31.666 -13.833 48.999 -25.5
s27.333 -21.5 30 -29.5c2.66699 -7.33301 -3 -17.666 -17 -30.999s-26.333 -20 -37 -20z" />
    <glyph glyph-name="question" unicode="?" horiz-adv-x="403" 
d="M181 189c15.333 17.333 35 14.665 59 -8.00195c12.667 -12.667 19.167 -21.5 19.5 -26.5s-4.16699 -13.833 -13.5 -26.5c-16.667 -21.333 -37 -23.666 -61 -6.99902c-9.33301 6.66699 -14.5 17.334 -15.5 32.001s2.83301 26.667 11.5 36zM153 634.999
c35.333 6 69.0029 8.33301 101.003 7c70.667 -4 110 -24.833 118 -62.5s-14.667 -93.167 -68 -166.5c-30.667 -42 -49 -69.667 -55 -83s-6.66699 -26.666 -2 -39.999c4 -10.667 5.83301 -18.167 5.5 -22.5s-3.5 -9.83301 -9.5 -16.5
c-8.66699 -10 -19.834 -14.667 -33.501 -14s-25.834 6.33398 -36.501 17.001c-15.333 15.333 -19.833 34.166 -13.5 56.499s27.166 59.5 62.499 111.5c27.333 41.333 48 71.666 62 90.999c12.667 18.667 18.334 33.334 17.001 44.001c-1.33301 6.66699 -5 10.667 -11 12
s-23 1.66602 -51 0.999023c-73.333 -1.33301 -119.333 -11.666 -138 -30.999c-14 -15.333 -30.833 -17.5 -50.5 -6.5s-25.834 26.167 -18.501 45.5c4 10 18.333 20.667 43 32s50.667 19.666 78 24.999z" />
    <glyph glyph-name="at" unicode="@" horiz-adv-x="554" 
d="M228 244c3.33301 0 10.001 5.16699 20.001 15.5s18.333 21.5 25 33.5c26.667 56 36 101.667 28 137c-2.66699 2 -8.5 -2.66699 -17.5 -14s-18.167 -25.666 -27.5 -42.999s-16 -32.666 -20 -45.999c-4.66699 -14.667 -8.16699 -28.334 -10.5 -41.001
s-3.33301 -22.834 -3 -30.501s2.16602 -11.5 5.49902 -11.5zM337.001 209c-8.66699 18 -14.3271 27.0059 -16.9941 27.0059c-3.33301 0 -8.33301 -6 -15 -18c0 -0.666992 -0.333008 -1.33398 -1 -2.00098c-11.333 -21.333 -28.166 -37.333 -50.499 -48
s-43.166 -12.334 -62.499 -5.00098c-15.333 6 -24.833 23.167 -28.5 51.5s-0.833984 62.833 8.49902 103.5c13.333 60 36.666 109.167 69.999 147.5s67.333 55.166 102 50.499c19.333 -2.66699 34.666 -9.33398 45.999 -20.001s17 -23.667 17 -39c0 -10 -1 -16.333 -3 -19
s-5.66699 -3 -11 -1c-6 2 -10 0.833008 -12 -3.5s-4 -15.833 -6 -34.5c-4.66699 -46.667 -2 -89.667 8 -129c5.33301 -17.333 15.666 -16.666 30.999 2.00098c2.66699 3.33301 5.66699 7.66602 9 12.999c26.667 42 40 91.333 40 148s-13 107.334 -39 152.001
c-11.333 19.333 -22.166 31.666 -32.499 36.999s-24.833 6 -43.5 2c-39.333 -8.66699 -78.333 -36.667 -117 -84s-70.334 -106.333 -95.001 -177s-36.334 -141 -35.001 -211c-0.666992 -56 2.66602 -95 9.99902 -117s22 -38 44 -48c16 -6.66699 35.833 -10.334 59.5 -11.001
s45.167 1.66602 64.5 6.99902c14 4 35.833 14.833 65.5 32.5s54.167 34.167 73.5 49.5c28 18.667 43 22 45 10c0 -32.667 -24.5 -68.167 -73.5 -106.5s-99.833 -61.833 -152.5 -70.5c-40 -6.66699 -76.5 -1.5 -109.5 15.5s-57.167 43.167 -72.5 78.5
c-19.333 44 -27 101 -23 171s19.667 146 47 228c49.333 147.333 123 246.333 221 297c18 9.33301 41 13 69 11c27.333 -1.33301 48.166 -8 62.499 -20s30.833 -36.333 49.5 -73c25.333 -51.333 39.833 -105 43.5 -161s-3.83301 -107 -22.5 -153
c-18.667 -46.667 -39.334 -80.5 -62.001 -101.5s-45 -26.833 -67 -17.5c-15.333 6.66699 -27 18.667 -35 36z" />
    <glyph glyph-name="A" unicode="A" horiz-adv-x="467" 
d="M261 415c0 57.333 -9 60.001 -27 8.00098c-10.667 -30 -15 -46.667 -13 -50c3.33301 -3.33301 11 -3.33301 23 0c8 2 12.833 5.16699 14.5 9.5s2.5 15.166 2.5 32.499zM216 586.001c4 9.33301 7.16895 20.3379 9.50195 33.0049s6.16602 23.334 11.499 32.001
c14 20 35.333 19.333 64 -2c15.333 -12 22.666 -25.667 21.999 -41c-0.666992 -34 3.66602 -87.333 12.999 -160s19.666 -130.334 30.999 -173.001c6.66699 -25.333 13.667 -46 21 -62s20.666 -40.333 39.999 -73c6.66699 -10.667 10 -17.667 10 -21
s-3.33301 -8.33301 -10 -15c-8.66699 -9.33301 -21 -14.333 -37 -15s-28 3.66602 -36 12.999c-17.333 21.333 -36.666 70.333 -57.999 147c-4 16.667 -7.33301 29 -10 37s-6.16699 13.333 -10.5 16s-8.16602 3.66699 -11.499 3s-9.16602 -2.33398 -17.499 -5.00098
s-16.5 -4.33398 -24.5 -5.00098c-17.333 -2.66699 -28.333 -6.33398 -33 -11.001s-11 -18.667 -19 -42c-36.667 -100.667 -61 -157 -73 -169c-8.66699 -8.66699 -18.667 -12.834 -30 -12.501s-20.666 5.16602 -27.999 14.499c-6.66699 6.66699 -10 13.167 -10 19.5
s3 22.833 9 49.5c10 41.333 23 87 39 137l-18 13c-16 12.667 -21 28.167 -15 46.5s19.333 27.833 40 28.5c10 0 16.333 1.33301 19 4c0.666992 0.666992 5.16699 16.5 13.5 47.5l25 92.5c8.33301 30.667 13.5 46 15.5 46c5.33301 6.66699 14.333 8.33398 27 5.00098
c9.33301 -2 15.666 -1.83301 18.999 0.5s7.33301 9.5 12 21.5z" />
    <glyph glyph-name="B" unicode="B" horiz-adv-x="544" 
d="M389 342c-13.333 4.66699 -47.3311 8.33398 -101.998 11.001s-87.334 2.33398 -98.001 -0.999023c-6 -2 -9.5 -6.66699 -10.5 -14s-0.833008 -25 0.5 -53c1.33301 -40.667 4 -63 8 -67c5.33301 -4.66699 24 -7.33398 56 -8.00098s56.667 1 74 5
c20.667 5.33301 42.167 15.333 64.5 30s37.166 28.667 44.499 42c5.33301 8.66699 8 14.667 8 18s-2.66699 8.33301 -8 15c-8 9.33301 -20.333 16.666 -37 21.999zM305.002 533c0 5.33301 -4.00098 7.33301 -12.001 6c-9.33301 -0.666992 -27 -4.16699 -53 -10.5
s-44.667 -11.5 -56 -15.5c-9.33301 -4 -14.666 -8 -15.999 -12s-1 -14 1 -30c2.66699 -22.667 4.66699 -34.667 6 -36c4 -5.33301 26.667 7.5 68 38.5s62 50.833 62 59.5zM199.001 123c0 -6.66699 -4.83008 -13.999 -14.4971 -21.999s-18.834 -12 -27.501 -12
c-10.667 0 -20.334 5.5 -29.001 16.5s-13 23.167 -13 36.5c0 16.667 -3.33301 26 -10 28c-7.33301 3.33301 -15 12.833 -23 28.5s-10.667 26.834 -8 33.501s9 9 19 7c6.66699 -2 10.667 -1.33301 12 2s2 13.333 2 30c0 17.333 -1.33301 28.333 -4 33s-9 6 -19 4
c-4.66699 -1.33301 -10.667 1.66699 -18 9s-12.666 15.333 -15.999 24c-8 22.667 1.66699 39.667 29 51c10 4 16 7.83301 18 11.5s2.66699 11.167 2 22.5c-0.666992 12 -2.33398 19.167 -5.00098 21.5s-9.33398 2.83301 -20.001 1.5c-9.33301 -0.666992 -16 0 -20 2
s-8.33301 7.66699 -13 17c-7.33301 13.333 -11 22.666 -11 27.999c0 4.66699 12.333 20 37 46c16.667 17.333 29 28.333 37 33s21 8 39 10c20 2 47 6.66699 81 14c40 9.33301 71.5 12.666 94.5 9.99902s43.833 -12.334 62.5 -29.001c14.667 -13.333 19 -28.833 13 -46.5
s-23.667 -41.834 -53 -72.501c-22 -22 -31.667 -34.333 -29 -37c1.33301 -1.33301 14 -3.33301 38 -6c78 -9.33301 129 -37.333 153 -84c9.33301 -19.333 12.666 -36.666 9.99902 -51.999c-3.33301 -18.667 -15.833 -38.5 -37.5 -59.5s-47.167 -38.833 -76.5 -53.5
c-24 -12 -42.667 -19.667 -56 -23s-36.666 -5.66602 -69.999 -6.99902c-32.667 -1.33301 -53.167 -3 -61.5 -5s-12.5 -5.66699 -12.5 -11z" />
    <glyph glyph-name="C" unicode="C" horiz-adv-x="400" 
d="M191 575c-12 0 -25.0049 -15.832 -39.0049 -47.499s-25.667 -70.834 -35 -117.501c-7.33301 -37.333 -10.166 -81.833 -8.49902 -133.5s6.83398 -83.834 15.501 -96.501c15.333 -23.333 36 -35 62 -35c18.667 0 40.667 10.333 66 31s47.333 46.334 66 77.001
c9.33301 15.333 16.833 22.833 22.5 22.5s12.834 -8.16602 21.501 -23.499c12.667 -22.667 7.66699 -52.334 -15 -89.001c-14.667 -23.333 -38.167 -45 -70.5 -65s-60.5 -30 -84.5 -30c-39.333 0 -76.333 18.333 -111 55c-34 36 -51 93 -51 171
c0 84.667 10.833 158.667 32.5 222s50.834 106 87.501 128c15.333 9.33301 29.833 13 43.5 11s30.167 -10.333 49.5 -25c17.333 -13.333 29.333 -24 36 -32s17.667 -24.667 33 -50l23 -37l-14 -15c-15.333 -14.667 -32.166 -18.334 -50.499 -11.001s-29.5 22.333 -33.5 45
c-2 10.667 -7.83301 20.834 -17.5 30.501s-19.167 14.5 -28.5 14.5z" />
    <glyph glyph-name="D" unicode="D" horiz-adv-x="493" 
d="M192 534c-1.33301 -20 1.83105 -76.1689 9.49805 -168.502s12.834 -144.166 15.501 -155.499c2.66699 -3.33301 17.167 3.33398 43.5 20.001s47.5 32.667 63.5 48c66 64.667 82.667 118 50 160c-11.333 14 -21.666 24.5 -30.999 31.5s-27 17.167 -53 30.5
c-37.333 18.667 -70 30 -98 34zM135.997 227.998c0 30 -3.83203 81.667 -11.499 155s-13.167 113.333 -16.5 120c-4 7.33301 -15 11.666 -33 12.999c-30 1.33301 -45 15 -45 41c0 10 5.33301 19.667 16 29s25 16.333 43 21c20.667 5.33301 37.834 8 51.501 8
s34.5 -3 62.5 -9c51.333 -11.333 102.666 -33.833 153.999 -67.5s83.333 -65.834 96 -96.501c19.333 -49.333 12.166 -101.166 -21.501 -155.499s-86.167 -98.833 -157.5 -133.5l-60 -29l4 -24c1.33301 -10 1.16602 -17.333 -0.500977 -22s-6.16699 -9.33398 -13.5 -14.001
c-23.333 -14 -42.666 -8.66699 -57.999 16c-8.66699 14 -16 21.667 -22 23c-18.667 0.666992 -34 9.33398 -46 26.001s-14 32.667 -6 48c5.33301 10 12.833 16.833 22.5 20.5s17.167 2.83398 22.5 -2.49902c10 -10 16 -8.33301 18 5c0.666992 6 1 15.333 1 28z" />
    <glyph glyph-name="E" unicode="E" horiz-adv-x="451" 
d="M148 422l0.000976562 -21.001c17.333 2.66699 43.333 6.33398 78 11.001s60.667 8.33398 78 11.001c21.333 -22.667 27 -39.5 17 -50.5s-44.667 -23.5 -104 -37.5l-69 -17c-3.33301 -31.333 1.16699 -62 13.5 -92s26.833 -45.333 43.5 -46
c21.333 1.33301 50.333 14.833 87 40.5s56 50.167 58 73.5c3.33301 18.667 8.83301 28.667 16.5 30s18.834 -5.33398 33.501 -20.001c12.667 -13.333 19.667 -25.833 21 -37.5s-2.33398 -25.167 -11.001 -40.5c-14 -22.667 -42.5 -47.334 -85.5 -74.001
s-78.833 -42 -107.5 -46c-31.333 -4 -60.5 8.5 -87.5 37.5s-44.833 67.167 -53.5 114.5c-4.66699 28 -10 42 -16 42c-12.667 0 -22.334 12.333 -29.001 37c-3.33301 12.667 1.33398 25.334 14.001 38.001s20.167 27 22.5 43s-1.16699 29 -10.5 39
c-10 10 -15.667 24.667 -17 44s5.66699 32.333 21 39c12 4 21.333 11 28 21c6 8.66699 11.833 13 17.5 13s16.167 -3.66699 31.5 -11c11.333 -5.33301 22.666 -7.5 33.999 -6.5s40.333 7.83301 87 20.5c67.333 16.667 102.333 24.667 105 24
c8 -1.33301 15.333 -8.33301 22 -21c14.667 -24 3 -41.667 -35 -53c-96.667 -28.667 -154.667 -48 -174 -58s-29 -25.667 -29 -47z" />
    <glyph glyph-name="F" unicode="F" horiz-adv-x="492" 
d="M141 399c2 -0.666992 34.5 14.6699 97.5 46.0029s96.167 46 99.5 44c6.66699 -1.33301 11.667 -8.83301 15 -22.5s3 -24.834 -1 -33.501c-3.33301 -5.33301 -21.5 -18.333 -54.5 -39s-67.833 -40.334 -104.5 -59.001c-30 -15.333 -46 -24.333 -48 -27
c-2 -3.33301 -0.833008 -24 3.5 -62s8.83301 -65 13.5 -81c3.33301 -12 4 -22.833 2 -32.5s-6.33301 -16.667 -13 -21s-13.667 -6.66602 -21 -6.99902s-15 2.66699 -23 9s-14.333 15.166 -19 26.499c-4 7.33301 -8.66699 37.333 -14 90s-10.333 82.334 -15 89.001
c-5.33301 8 -7.83301 22 -7.5 42s-3.5 33 -11.5 39c-9.33301 14 -12.333 26.333 -9 37c4.66699 19.333 9.66699 43 15 71c2 10 8.5 16.333 19.5 19s21.833 0.666992 32.5 -6c7.33301 -4.66699 14.5 -6.5 21.5 -5.5s22.167 6.16699 45.5 15.5
c25.333 12 107.666 37 246.999 75c14.667 5.33301 27.667 -0.333984 39 -17.001c10 -14.667 12.667 -26.334 8 -35.001c-4 -6.66699 -13.167 -12.667 -27.5 -18s-55.166 -17.333 -122.499 -36c-44.667 -12.667 -84.334 -27.5 -119.001 -44.5s-52.667 -30.833 -54 -41.5
c-1.33301 -10 0.333984 -15 5.00098 -15z" />
    <glyph glyph-name="G" unicode="G" horiz-adv-x="470" 
d="M179 666c26 14 45.668 16.002 59.001 6.00195c11.333 -8.66699 8.66602 -20 -8.00098 -34c-4 -3.33301 -8.33301 -6.66602 -13 -9.99902c-38.667 -24.667 -69.334 -65.334 -92.001 -122.001s-31.667 -115 -27 -175c3.33301 -34 8.5 -59.167 15.5 -75.5
s19.167 -30.5 36.5 -42.5c26 -18.667 56.167 -27.334 90.5 -26.001s62.166 11.666 83.499 30.999c11.333 11.333 18.333 21.333 21 30s5.33398 30.334 8.00098 65.001c3.33301 48 3.33301 73.333 0 76c-2 2 -10.667 -0.333008 -26 -7c-24.667 -10.667 -54 -20 -88 -28
c-10 -2 -21.333 1.66699 -34 11c-13.333 10.667 -19.166 24.167 -17.499 40.5s10.167 28.833 25.5 37.5c16 8.66699 28.333 10.667 37 6s25.667 -2.83398 51 5.49902s45.666 19.166 60.999 32.499c24 20.667 45.667 21.334 65 2.00098c10.667 -10.667 14.667 -24 12 -40
c-10 -83.333 -15.667 -145 -17 -185s1.66699 -75 9 -105c8.66699 -35.333 1.33398 -58.333 -21.999 -69c-10.667 -8 -21.334 -6.33301 -32.001 5s-18.667 23 -24 35c-1.33301 4.66699 -2.83301 7.66699 -4.5 9s-4.66699 1.33301 -9 0s-12.166 -4.33301 -23.499 -9
c-24.667 -10.667 -49 -16.667 -73 -18c-18.667 -2 -33.167 -1.83301 -43.5 0.5s-26.833 8.83301 -49.5 19.5c-28.667 14 -49.5 26.5 -62.5 37.5s-24.5 26.167 -34.5 45.5c-19.333 36.667 -26.833 90 -22.5 160s18.5 128.667 42.5 176c10 19.333 26.333 41.333 49 66
s41.667 41 57 49z" />
    <glyph glyph-name="H" unicode="H" horiz-adv-x="452" 
d="M106 487c0 -52.667 3.99805 -80.668 11.998 -84.001c18 -8 49 -7.5 93 1.5s80.667 19.833 110 32.5c18.667 101.333 32.667 158.333 42 171c6.66699 6.66699 16.334 10 29.001 10s21.334 -3.33301 26.001 -10c4.66699 -7.33301 4 -26 -2 -56c-4 -14 -7 -39.667 -9 -77
s-5.66699 -62.333 -11 -75c-5.33301 -9.33301 -7.66602 -62 -6.99902 -158c0.666992 -65.333 0.333984 -105.666 -0.999023 -120.999s-5 -25 -11 -29c-18.667 -14 -36.334 -12.667 -53.001 4c-6.66699 6.66699 -10.5 16.667 -11.5 30s-0.166992 49.333 2.5 108
c3.33301 81.333 3.33301 122 0 122c-49.333 -18.667 -119.333 -35.667 -210 -51l5 -84c2 -37.333 2.5 -61.5 1.5 -72.5s-4.16699 -19.5 -9.5 -25.5c-15.333 -18 -31.333 -17.667 -48 1c-5.33301 6 -9 17.667 -11 35s-3.33301 55.333 -4 114
c-0.666992 43.333 -3 122.333 -7 237c-2 50 -2.5 79.333 -1.5 88s5.5 14.667 13.5 18c11.333 4 22.166 3.33301 32.499 -2s17.833 -14.333 22.5 -27s7 -46 7 -100z" />
    <glyph glyph-name="I" unicode="I" horiz-adv-x="158" 
d="M81 642c24.667 14 39.332 11.6689 43.999 -6.99805c4 -14 3.66699 -43 -1 -87c-3.33301 -18.667 -6.66602 -90.334 -9.99902 -215.001s-6.33301 -195.334 -9 -212.001c-8 -20 -25 -24.667 -51 -14l-24 10c3.33301 27.333 7.83301 109.333 13.5 246
s10.167 219.667 13.5 249c3.33301 13.333 11.333 23.333 24 30z" />
    <glyph glyph-name="J" unicode="J" horiz-adv-x="353" 
d="M260 613c5.33301 6.66699 14.667 10.1689 28 10.502s22.666 -2.83398 27.999 -9.50098c4.66699 -6 7 -14.667 7 -26c-2.66699 -166 -5.83398 -270.333 -9.50098 -313s-13.5 -77.667 -29.5 -105c-13.333 -24.667 -26.333 -40.667 -39 -48s-30.667 -10.333 -54 -9
c-26.667 1.33301 -54.167 14 -82.5 38s-49.666 49.833 -63.999 77.5s-17.5 47.834 -9.5 60.501c6 7.33301 13.167 10.833 21.5 10.5s13.833 -4.5 16.5 -12.5c3.33301 -9.33301 16.833 -25 40.5 -47s42.834 -36.667 57.501 -44c15.333 -6.66699 27 -7.33398 35 -2.00098
s17.667 19.666 29 42.999c6.66699 14.667 10.667 32 12 52s2.33301 68.667 3 146c0.666992 112 4 171.333 10 178z" />
    <glyph glyph-name="K" unicode="K" horiz-adv-x="504" 
d="M164 341c2.66699 -16.667 24.832 -33.334 66.499 -50.001s80.667 -29 117 -37s67.5 -13.667 93.5 -17c6.66699 0 13.834 -6.66699 21.501 -20s11.5 -25.666 11.5 -36.999c0 -9.33301 -5.66699 -19.666 -17 -30.999c-9.33301 -9.33301 -18 -13.666 -26 -12.999
s-22 7.33398 -42 20.001c-18.667 11.333 -48 21.666 -88 30.999c-82.667 19.333 -140 42.333 -172 69c-19.333 15.333 -29.333 23 -30 23c-2 0 -2.33301 -19.833 -1 -59.5s3.33301 -67.5 6 -83.5c2.66699 -18 -1.66602 -32.667 -12.999 -44
c-11.333 -10.667 -19.833 -16.167 -25.5 -16.5s-13.167 4.16699 -22.5 13.5c-7.33301 7.33301 -11.5 23 -12.5 47s-0.833008 100.333 0.5 229c2 122 3.83301 196.5 5.5 223.5s5.5 42.833 11.5 47.5c15.333 11.333 30.333 9.66602 45 -5.00098
c6.66699 -6.66699 10.5 -15.667 11.5 -27s0.5 -41 -1.5 -89c-2.66699 -68 -2.66699 -102 0 -102c8.66699 0 38.5 23.833 89.5 71.5s86.167 84.167 105.5 109.5c16.667 23.333 32 37 46 41c11.333 3.33301 21.666 0.666016 30.999 -8.00098s14 -19.667 14 -33
c0 -8.66699 -6.83301 -21 -20.5 -37s-44.167 -47.333 -91.5 -94c-75.333 -74 -113 -114.667 -113 -122z" />
    <glyph glyph-name="L" unicode="L" horiz-adv-x="349" 
d="M78 609c8 4 16.9961 4.66992 26.9961 2.00293c15.333 -4 23.333 -22.833 24 -56.5s-4.66602 -114.5 -15.999 -242.5c-7.33301 -78.667 -10 -119 -8 -121c8 -3.33301 35.833 -7 83.5 -11s76.5 -3.66699 86.5 1c18 4.66699 30.333 3.66699 37 -3
c4.66699 -4.66699 7 -8.5 7 -11.5s-2.33301 -9.16699 -7 -18.5c-8.66699 -16.667 -17 -27.834 -25 -33.501s-19.667 -9.5 -35 -11.5s-43.666 -2.66699 -84.999 -2c-65.333 1.33301 -104.666 5.33301 -117.999 12s-19.666 25.667 -18.999 57c0.666992 20 5 74.833 13 164.5
s12 148.5 12 176.5c0.666992 41.333 2.16699 67.166 4.5 77.499s8.5 17.166 18.5 20.499z" />
    <glyph glyph-name="M" unicode="M" horiz-adv-x="592" 
d="M191 469c-3.33301 0 -10.002 -12.6689 -20.002 -38.002s-17.667 -49 -23 -71c-6.66699 -26 -13.167 -66.333 -19.5 -121s-9.5 -96 -9.5 -124c0 -23.333 -0.833008 -39.166 -2.5 -47.499s-5.5 -15.5 -11.5 -21.5c-9.33301 -9.33301 -17.833 -13.666 -25.5 -12.999
s-16.5 6.33398 -26.5 17.001c-8 8.66699 -12.833 21.667 -14.5 39s-3.16699 76.666 -4.5 177.999l-4 198c1.33301 1.33301 4.83301 4.5 10.5 9.5s10 8.5 13 10.5s7.66699 4.16699 14 6.5s11.166 1.16602 14.499 -3.50098c10.667 -5.33301 16 -9.66602 16 -12.999
c0 -10.667 4.33301 -10.334 13 0.999023c4.66699 6.66699 9.66699 16 15 28c19.333 42.667 43.333 64 72 64c20.667 0 37.834 -13 51.501 -39s25.167 -67.667 34.5 -125c4.66699 -36.667 8.66699 -55 12 -55s10 19.667 20 59c10 38 23 74 39 108s28.333 52 37 54
c20.667 5.33301 35.334 2.5 44.001 -8.5s15.667 -36.167 21 -75.5c16 -118 29.667 -200.833 41 -248.5s24 -79.167 38 -94.5c26 -26.667 32.333 -51.667 19 -75c-17.333 -30.667 -38.333 -31.667 -63 -3c-16 19.333 -30.667 48.333 -44 87
c-6.66699 19.333 -16.167 59.666 -28.5 120.999s-18.833 99.333 -19.5 114c0 16 -1.66699 28 -5 36c-1.33301 4 -4 1.33301 -8 -8c-11.333 -25.333 -23 -69.666 -35 -132.999c-16 -82 -28.167 -134 -36.5 -156s-20.166 -31.667 -35.499 -29
c-15.333 2 -26.5 11.833 -33.5 29.5s-12.167 47.834 -15.5 90.501c-10 123.333 -20.333 203.333 -31 240c-2.66699 8 -5.66699 12 -9 12z" />
    <glyph glyph-name="N" unicode="N" horiz-adv-x="487" 
d="M412 473c0 -24.667 4.99805 -77.335 14.998 -158.002s18 -132.667 24 -156c4.66699 -17.333 6.83398 -28.833 6.50098 -34.5s-2.83301 -12.5 -7.5 -20.5c-12 -18 -27.667 -24.333 -47 -19c-13.333 2.66699 -46.333 31 -99 85s-98 105.667 -136 155l-69 91l-4 -156
c-2 -75.333 -4 -121.166 -6 -137.499s-6.66699 -28.166 -14 -35.499c-10 -10 -19.333 -12.667 -28 -8c-5.33301 3.33301 -8.66602 13.166 -9.99902 29.499s-2.33301 56.833 -3 121.5c-2 132.667 -3 205.667 -3 219c-1.33301 34.667 -1.33301 56.5 0 65.5s5 15.833 11 20.5
c17.333 13.333 35 12.333 53 -3s53.333 -58.666 106 -129.999c36 -48.667 68.333 -89.5 97 -122.5s46 -49.5 52 -49.5c4 0 5 8.66699 3 26c-15.333 93.333 -21.833 173.333 -19.5 240s12.833 104 31.5 112c10 4.66699 21.333 2.33398 34 -6.99902
c12.667 -8.66699 20.167 -17.334 22.5 -26.001s1.5 -21.667 -2.5 -39c-4.66699 -17.333 -7 -38.333 -7 -63z" />
    <glyph glyph-name="O" unicode="O" horiz-adv-x="438" 
d="M155 497c-3.33301 0 -9.99902 -11.8359 -19.999 -35.5029s-17 -44.5 -21 -62.5c-6 -25.333 -9 -60.666 -9 -105.999c0 -75.333 10 -130.166 30 -164.499s48.333 -45.166 85 -32.499c28 8.66699 52.667 29 74 61s33.666 66.667 36.999 104c4 54 -11.667 107.333 -47 160
c-14.667 22 -27 36.667 -37 44s-26.333 14.333 -49 21c-26.667 7.33301 -41 11 -43 11zM200.001 553.997c35.333 0 71.668 -18.3311 109.001 -54.998c44 -44 74.333 -98.667 91 -164c12.667 -48.667 11.167 -97.834 -4.5 -147.501s-41.834 -90.334 -78.501 -122.001
s-77.334 -47.5 -122.001 -47.5c-54 0 -95 24.167 -123 72.5s-42 118.833 -42 211.5c0 124 27.333 210.333 82 259c14 12 23.333 18.333 28 19s11.334 -3.33301 20.001 -12c8 -9.33301 21.333 -14 40 -14z" />
    <glyph glyph-name="P" unicode="P" horiz-adv-x="583" 
d="M248 525c0 -105.333 -1.33008 -165.334 -3.99707 -180.001c-2 -14 0.333008 -25.333 7 -34c4 -5.33301 6.66699 -8.5 8 -9.5s2.83301 -1 4.5 0s4.5 3.83301 8.5 8.5c5.33301 6.66699 9 9.5 11 8.5s5.66699 1.16699 11 6.5c7.33301 7.33301 14.333 9.66602 21 6.99902
c6.66699 -2 10 -1 10 3c0 4.66699 5.33301 7 16 7s30.167 6.83301 58.5 20.5s46.166 24.834 53.499 33.501c7.33301 9.33301 12.666 24.833 15.999 46.5s2.66602 37.167 -2.00098 46.5c-6.66699 10.667 -20 20.334 -40 29.001c-15.333 7.33301 -30.333 11.333 -45 12
s-45.667 -0.333008 -93 -3zM255.003 132.999c0 -44 -2.33594 -72.002 -7.00293 -84.002s-14.667 -15.333 -30 -10c-18.667 6.66699 -31.5 21.834 -38.5 45.501s-9.83301 60.834 -8.5 111.501c0.666992 31.333 0.333984 66.5 -0.999023 105.5s-3.66602 72 -6.99902 99
s-6.33301 40.5 -9 40.5c-4.66699 0 -5.33398 7 -2.00098 21c2 12 0.833008 19 -3.5 21s-11.166 -1.33301 -20.499 -10c-8 -8 -37.333 -13 -88 -15c-8.66699 28 -11.167 45.833 -7.5 53.5s27.167 20.834 70.5 39.501l50 22c0 24 4.16699 45.5 12.5 64.5
s20.166 30.833 35.499 35.5c10 -0.666992 19.833 -5 29.5 -13s16.5 -17.667 20.5 -29c0 -0.666992 0.333008 -1.66699 1 -3c4 -12 9.66699 -18.667 17 -20s31.666 0.333984 72.999 5.00098h2h2c23.333 2.66699 41.5 3.16699 54.5 1.5s32.167 -6.83398 57.5 -15.501
c38.667 -12 64.334 -26.667 77.001 -44c8.66699 -11.333 14 -21.5 16 -30.5s2.66699 -27.833 2 -56.5c0 -38 -3 -63.667 -9 -77c-6.66699 -12.667 -23.667 -32.667 -51 -60s-47 -43.666 -59 -48.999c-7.33301 -4 -20.666 -8.33301 -39.999 -13
s-31.666 -8.33398 -36.999 -11.001c-6 -4.66699 -21 -10.334 -45 -17.001c-27.333 -8 -43.333 -15.333 -48 -22c-6 -14 -9 -42.667 -9 -86z" />
    <glyph glyph-name="Q" unicode="Q" horiz-adv-x="490" 
d="M274 562c0 -3.33301 -10.667 -9.66895 -32 -19.002c-38 -15.333 -68 -45.333 -90 -90c-26 -52 -40.5 -104.167 -43.5 -156.5s5.5 -98.5 25.5 -138.5c14.667 -30 46 -44.333 94 -43c16 0.666992 35.167 5.83398 57.5 15.501s36.166 19.167 41.499 28.5
c2 4.66699 -2.33301 26.334 -13 65.001c-24.667 80 -31.667 125.333 -21 136c18 12 34.833 13.5 50.5 4.5s24.834 -26.167 27.501 -51.5c2.66699 -18 5.66699 -27 9 -27c4.66699 1.33301 7 16.666 7 45.999c0 34 -6.83301 73.5 -20.5 118.5s-28.5 77.167 -44.5 96.5
c-3.33301 4 -9 7.83301 -17 11.5s-15 5.83398 -21 6.50098s-9.33301 -0.333008 -10 -3zM407 17.9971c-6.66699 0 -15.167 4.66895 -25.5 14.002s-15.5 17.333 -15.5 24c-0.666992 12 -4.5 18.5 -11.5 19.5s-21.167 -3.16699 -42.5 -12.5c-28 -12.667 -58.333 -19 -91 -19
c-106 0 -168.667 66 -188 198c-7.33301 54 -1.5 109.5 17.5 166.5s49.5 109.167 91.5 156.5c28.667 33.333 53.667 54.666 75 63.999c27.333 13.333 52 17.666 74 12.999s45.333 -19 70 -43c12.667 -12.667 23 -26 31 -40s17.667 -35.667 29 -65
c24 -62 37 -115.833 39 -161.5s-6.66699 -94.5 -26 -146.5c-5.33301 -14 -8.83301 -23.833 -10.5 -29.5s-2.5 -11 -2.5 -16s0.833008 -8.5 2.5 -10.5s4.16699 -7 7.5 -15s6.33301 -17 9 -27l13 -44c-24 -17.333 -39.333 -26 -46 -26z" />
    <glyph glyph-name="R" unicode="R" horiz-adv-x="510" 
d="M145 342c11.333 0 34.502 14.833 69.502 44.5s56.833 53.167 65.5 70.5c18 34.667 16.667 60.334 -4 77.001c-10.667 8.66699 -29.334 13.167 -56.001 13.5s-45.334 -3.83398 -56.001 -12.501c-6.66699 -5.33301 -11 -13.833 -13 -25.5s-4 -37.5 -6 -77.5
c-3.33301 -60 -3.33301 -90 0 -90zM433.002 89c-6 -1.33301 -21.8359 5.33789 -47.5029 20.0049s-39.167 22 -40.5 22c-6.66699 0 -32.167 9.33301 -76.5 28s-72.833 32 -85.5 40c-21.333 13.333 -33.833 17.5 -37.5 12.5s-4.16699 -26.833 -1.5 -65.5
c4 -52 8 -87.667 12 -107c4 -22 5.16699 -37.333 3.5 -46s-7.5 -16.334 -17.5 -23.001c-11.333 -6.66699 -23.166 -6.5 -35.499 0.5s-21.166 19.167 -26.499 36.5s-10.166 72.333 -14.499 165s-5.16602 166.667 -2.49902 222c2 41.333 2.33301 66 1 74s-7 15.667 -17 23
c-11.333 8.66699 -17.166 17.667 -17.499 27s4.83398 20.333 15.501 33c6.66699 7.33301 13.334 19.666 20.001 36.999s11.667 28.666 15 33.999c5.33301 6 13.166 8.83301 23.499 8.5s19.5 -3.5 27.5 -9.5c9.33301 -6.66699 30.666 -8.66699 63.999 -6
c44.667 3.33301 82.5 -2.5 113.5 -17.5s52.833 -38.167 65.5 -69.5c3.33301 -8.66699 4.66602 -16.834 3.99902 -24.501s-4.33398 -19.834 -11.001 -36.501c-20 -51.333 -60 -101.333 -120 -150l-50 -40c22.667 -18.667 41 -31 55 -37c2 -0.666992 40 -14.667 114 -42
c44 -15.333 68.667 -25.666 74 -30.999s11 -8 17 -8c4 0 8.83301 -4 14.5 -12s8.5 -15.333 8.5 -22s-5.66699 -14.334 -17 -23.001s-21.333 -13 -30 -13z" />
    <glyph glyph-name="S" unicode="S" horiz-adv-x="427" 
d="M312 568c0 -12 -5.83691 -20.332 -17.5039 -24.999s-32.5 -7 -62.5 -7s-56.667 -3.5 -80 -10.5s-37 -15.833 -41 -26.5c-5.33301 -13.333 2.33398 -34 23.001 -62s58.334 -68.667 113.001 -122c76.667 -76 120.334 -125.333 131.001 -148c12.667 -24 19 -41.333 19 -52
c0 -21.333 -15.333 -46.333 -46 -75c-11.333 -9.33301 -21 -15.333 -29 -18s-21 -4 -39 -4c-28 0 -61.333 9 -100 27c-44.667 21.333 -79 45.833 -103 73.5s-32.333 52.834 -25 75.501c6.66699 21.333 26.667 15.333 60 -18l7 -7c31.333 -31.333 65.333 -53.333 102 -66
s62.334 -11.334 77.001 3.99902c6.66699 6.66699 10 11.667 10 15s-3 13 -9 29c-6.66699 16 -47.667 62 -123 138c-72 72.667 -115.333 121.334 -130 146.001c-11.333 20.667 -17.5 42.5 -18.5 65.5s3.5 40.833 13.5 53.5c10 13.333 29.5 26.166 58.5 38.499
s56.5 20.166 82.5 23.499c0.666992 0.666992 17 -1.66602 49 -6.99902c52 -8.66699 78 -22.334 78 -41.001z" />
    <glyph glyph-name="T" unicode="T" horiz-adv-x="718" 
d="M376 425c0 -50.667 -2.33301 -118.001 -7 -202.001c-3.33301 -64.667 -6.16602 -103.334 -8.49902 -116.001s-7.83301 -22.667 -16.5 -30c-20 -18 -37 -19.333 -51 -4c-6.66699 6.66699 -10 23.167 -10 49.5s2.66699 76.166 8 149.499c3.33301 38.667 5 112 5 220h-120
c-58 -0.666992 -93.167 -0.5 -105.5 0.5s-21.5 4.83301 -27.5 11.5c-7.33301 8 -11.5 18.333 -12.5 31s1.5 22 7.5 28c7.33301 4.66699 59 7.83398 155 9.50098s147.667 3.16699 155 4.5c164.667 13.333 252.667 22.333 264 27c24.667 9.33301 45.667 6.33301 63 -9
s18.666 -32.333 3.99902 -51c-6 -7.33301 -13.333 -12.166 -22 -14.499s-27.667 -4.5 -57 -6.5c-134.667 -9.33301 -206.667 -16.666 -216 -21.999c-5.33301 -2.66699 -8 -28 -8 -76z" />
    <glyph glyph-name="U" unicode="U" horiz-adv-x="357" 
d="M168 39c-16.667 0 -35.1699 15.1699 -55.5029 45.5029s-37.166 68.166 -50.499 113.499c-15.333 51.333 -25.5 119.5 -30.5 204.5s-1.83301 134.5 9.5 148.5c12.667 15.333 23 15.333 31 0c6 -10.667 8.33301 -26.334 7 -47.001
c-3.33301 -46.667 0.833984 -103.834 12.501 -171.501s26.167 -119.5 43.5 -155.5c8 -16 15 -27 21 -33s12 -7 18 -3s12.667 13 20 27c14.667 30.667 29 82.5 43 155.5s20.667 132.167 20 177.5c0 24 2.66699 41.333 8 52c5.33301 10 12.833 14.667 22.5 14
s18.834 -6.66699 27.501 -18c8.66699 -10.667 12.5 -28.667 11.5 -54s-7.16699 -75 -18.5 -149c-32 -204.667 -78.667 -307 -140 -307z" />
    <glyph glyph-name="V" unicode="V" horiz-adv-x="423" 
d="M356 633c1.33301 8 4.49512 13.668 9.49512 17.001s9.83301 3.66602 14.5 0.999023s8 -8 10 -16c4.66699 -6.66699 4.16699 -44.167 -1.5 -112.5s-12.667 -143.166 -21 -224.499s-12.833 -132.333 -13.5 -153c-1.33301 -54 -6.33301 -83.667 -15 -89
c-13.333 -10 -27.666 -12.167 -42.999 -6.5s-26.666 17.834 -33.999 36.501c-20 38 -42.667 78.167 -68 120.5s-58.666 102.833 -99.999 181.5c-17.333 31.333 -30.666 52.333 -39.999 63c-20 22.667 -27.667 46 -23 70c4 19.333 14 26.333 30 21
c2.66699 -0.666992 5.33398 -1.66699 8.00098 -3c6.66699 -3.33301 24.5 -27.333 53.5 -72s51.167 -81.667 66.5 -111c6.66699 -14.667 25 -47.334 55 -98.001c21.333 -37.333 34 -56 38 -56c1.33301 1.33301 2.33301 4.66602 3 9.99902c20.667 192.667 38 307.667 52 345
c12.667 48 19 73.333 19 76z" />
    <glyph glyph-name="W" unicode="W" horiz-adv-x="704" 
d="M360 599c21.333 0 39.002 -9.99805 53.002 -29.998s31 -59.333 51 -118c46 -126.667 82 -213.334 108 -260.001c14.667 55.333 25.667 141 33 257c4 70 7.5 115.667 10.5 137s7.83301 34.666 14.5 39.999c10.667 8.66699 20.667 -1 30 -29c6 -19.333 10 -42.333 12 -69
c6 -95.333 -3.33301 -225 -28 -389c-6 -52.667 -15 -84 -27 -94c-14.667 -12 -27.334 -14.833 -38.001 -8.5s-23.667 24.166 -39 53.499c-43.333 83.333 -89 190.666 -137 321.999c-20 54 -32.667 82.667 -38 86c-4.66699 2.66699 -11.334 -4 -20.001 -20
c-2 -3.33301 -5.33301 -9.66602 -10 -18.999c-46.667 -92.667 -75.334 -206 -86.001 -340c-2 -24 -4.33301 -40.333 -7 -49s-7 -15 -13 -19c-16.667 -11.333 -32.167 -13.333 -46.5 -6s-21.5 21 -21.5 41c1.33301 14.667 -13.167 86.834 -43.5 216.501
s-50.166 205.5 -59.499 227.5c-27.333 66 -35.333 106 -24 120c13.333 15.333 30.666 13.666 51.999 -5.00098c16.667 -15.333 32.334 -52.666 47.001 -111.999c17.333 -64.667 35 -141.334 53 -230.001c4.66699 -18.667 10 -21.334 16 -8.00098l5 15
c5.33301 26.667 15.666 61.834 30.999 105.501s28.666 75.834 39.999 96.501c18.667 35.333 33.334 58.833 44.001 70.5s23.334 17.5 38.001 17.5z" />
    <glyph glyph-name="X" unicode="X" horiz-adv-x="546" 
d="M516 49c0 -20.667 -14.667 -30.999 -44 -30.999c-12.667 0 -21.334 2 -26.001 6s-12 15.667 -22 35c-12.667 23.333 -38.834 63.833 -78.501 121.5s-61.834 87.5 -66.501 89.5c-6 2 -25 -24 -57 -78c-16.667 -28.667 -43.167 -66 -79.5 -112s-58.166 -70 -65.499 -72
c-10 -0.666992 -18.833 -1 -26.5 -1s-13.334 3 -17.001 9s-4.83398 15.333 -3.50098 28c0 14 2 24.833 6 32.5s13.667 19.167 29 34.5c16.667 16.667 43 50.5 79 101.5s60.333 89.167 73 114.5c5.33301 11.333 7.83301 19.166 7.5 23.499s-3.83301 11.166 -10.5 20.499
c-10 14 -15 22 -15 24c0 2.66699 -13.833 24.334 -41.5 65.001s-46.834 67.667 -57.501 81c-7.33301 8.66699 -12.166 20.334 -14.499 35.001s-0.833008 26 4.5 34c3.33301 5.33301 10.833 7.5 22.5 6.5s21.5 -4.83301 29.5 -11.5c4 -2 25.833 -31.333 65.5 -88
s61.5 -86 65.5 -88c4.66699 -1.33301 15.334 14 32.001 46c31.333 60 53.333 100 66 120s22.334 31.667 29.001 35c8 4 15 4.66699 21 2c18.667 -10.667 29.334 -24.334 32.001 -41.001s-3.33301 -31.667 -18 -45c-16.667 -15.333 -54.667 -79 -114 -191
c-1.33301 -3.33301 14.167 -28.833 46.5 -76.5s60.5 -86.5 84.5 -116.5c2 -2 7.33301 -11 16 -27s14.667 -25 18 -27c4.66699 -2 10.834 -10.667 18.501 -26s11.5 -26.333 11.5 -33z" />
    <glyph glyph-name="Y" unicode="Y" horiz-adv-x="445" 
d="M172 -52c-16 0 -26.667 5.66602 -32 16.999c-3.33301 7.33301 -4 15.833 -2 25.5s7.66699 27.5 17 53.5c9.33301 24.667 23.666 65.334 42.999 122.001l35 102c-24 15.333 -54 40.833 -90 76.5s-64 67.167 -84 94.5c-14 19.333 -22.667 33.166 -26 41.499
s-4 17.5 -2 27.5c4.66699 23.333 15.667 33.833 33 31.5s32.333 -16.166 45 -41.499c8.66699 -17.333 32.334 -45.333 71.001 -84s62.334 -58 71.001 -58c2 0 4.16699 1.83301 6.5 5.5s5.83301 12.5 10.5 26.5s10.667 33.667 18 59l31 107c14.667 52 27 83 37 93
c8.66699 8 15.667 11.833 21 11.5s13 -5.83301 23 -16.5c10 -10 15.5 -19 16.5 -27s-1.83301 -18.667 -8.5 -32c-10 -20 -25 -66.833 -45 -140.5s-28 -112.5 -24 -116.5c7.33301 -7.33301 9.66602 -17.5 6.99902 -30.5s-9 -23.833 -19 -32.5c-14 -11.333 -33 -53 -57 -125
c-11.333 -35.333 -22.5 -68 -33.5 -98s-17.833 -49 -20.5 -57c-3.33301 -13.333 -8 -22.5 -14 -27.5s-15.333 -7.5 -28 -7.5z" />
    <glyph glyph-name="Z" unicode="Z" horiz-adv-x="431" 
d="M289 396c0 -4.66699 13.002 -5.00488 39.002 -1.00488c18.667 2 29.667 2.33301 33 1s5 -5.66602 5 -12.999c0 -10 -8.66699 -22.667 -26 -38s-37.333 -28.333 -60 -39c-21.333 -9.33301 -34 -18 -38 -26c-9.33301 -22.667 -22.333 -59.834 -39 -111.501
s-24.334 -78.834 -23.001 -81.501c2 -4 8.33301 -4.66699 19 -2c50 16 95 33.667 135 53c28.667 14 49 9.33301 61 -14c11.333 -20.667 9.66602 -37.667 -5.00098 -51c-5.33301 -4.66699 -35.166 -17.167 -89.499 -37.5s-107.166 -38.833 -158.499 -55.5
c-18.667 -6 -30.167 -9 -34.5 -9s-10.833 4 -19.5 12c-10 9.33301 -15.833 22.333 -17.5 39s1.83301 31 10.5 43c6 8.66699 18.667 39.834 38 93.501s28 81.5 26 83.5s-14.667 -0.666992 -38 -8c-28 -9.33301 -48.833 -9.5 -62.5 -0.5s-17.5 25.167 -11.5 48.5
c2.66699 10 10.667 19 24 27s27 12 41 12c7.33301 0.666992 37 10.334 89 29.001l27 65c22.667 56.667 33 86 31 88c-0.666992 0.666992 -2.66699 1 -6 1c-7.33301 0 -26 -10.167 -56 -30.5s-52.333 -38.166 -67 -53.499c-15.333 -15.333 -28 -24.166 -38 -26.499
s-20 1.16699 -30 10.5c-10.667 9.33301 -14.834 21 -12.501 35s10.833 27.667 25.5 41c18 17.333 42.333 35.666 73 54.999s58 34 82 44c26.667 10.667 46.667 15.834 60 15.501s26.666 -6.16602 39.999 -17.499c14 -11.333 21 -24.166 21 -38.499
s-7.66699 -39.833 -23 -76.5c-16.667 -41.333 -25 -63.333 -25 -66z" />
    <glyph glyph-name="underscore" unicode="_" horiz-adv-x="60" 
 />
    <glyph glyph-name="grave" unicode="`" horiz-adv-x="191" 
d="M36 608c5.33301 6.66699 13.332 10 23.999 10s20.334 -3.33301 29.001 -10c6.66699 -4 11.167 -11.167 13.5 -21.5s4.5 -31.833 6.5 -64.5c5.33301 -88 17.333 -145.667 36 -173c10 -14.667 15.333 -24.5 16 -29.5s-2.33301 -11.167 -9 -18.5
c-10 -10 -25.5 -8.66699 -46.5 4s-35.833 30 -44.5 52c-11.333 28.667 -20.333 75.167 -27 139.5s-6 101.5 2 111.5z" />
    <glyph glyph-name="a" unicode="a" horiz-adv-x="435" 
d="M106 110c0 -24.667 2.00098 -37 6.00098 -37c6.66699 2.66699 15.667 20 27 52s17.666 57.667 18.999 77c0.666992 6 2 10.833 4 14.5s3.33301 10.167 4 19.5c2.66699 15.333 1.66699 21.333 -3 18c-6.66699 -5.33301 -18.667 -26 -36 -62c-14 -30.667 -21 -58 -21 -82z
M303.001 -67c-28 0 -49.3359 5.66504 -64.0029 16.998c-12.667 8.66699 -24 20.334 -34 35.001s-15 26.334 -15 35.001c0 6.66699 -1.33301 10 -4 10c-4 0 -13.667 -6 -29 -18c-15.333 -11.333 -31.666 -17.666 -48.999 -18.999s-31.666 3 -42.999 13
c-10 8.66699 -18.667 23.334 -26 44.001c-5.33301 14 -8.33301 25 -9 33s1 22.667 5 44c8.66699 45.333 25.667 88.666 51 129.999s54 72.666 86 93.999c14.667 10 25 15.667 31 17s14 0 24 -4c14.667 -6 26 -14.667 34 -26c6.66699 -8.66699 10 -16 10 -22
s-3 -19.667 -9 -41c-7.33301 -26 -11.333 -64 -12 -114s2.33301 -86 9 -108c4.66699 -16 12.334 -28.5 23.001 -37.5s21 -11.833 31 -8.5c8.66699 3.33301 19 10.666 31 21.999c7.33301 7.33301 13.5 11.5 18.5 12.5s12.5 -0.5 22.5 -4.5
c10 -3.33301 16 -6.66602 18 -9.99902s2 -10 0 -20c-4 -15.333 -14.333 -31.333 -31 -48c-12.667 -12 -22.5 -19.333 -29.5 -22s-20.167 -4 -39.5 -4z" />
    <glyph glyph-name="b" unicode="b" horiz-adv-x="371" 
d="M257 245c2 13.333 1.33398 20.667 -1.99902 22s-12.666 -2.66699 -27.999 -12c-18.667 -11.333 -37.334 -30.333 -56.001 -57s-32.334 -53.667 -41.001 -81c-3.33301 -11.333 0.333984 -16.666 11.001 -15.999c6 0 13.667 2.66699 23 8c16 8.66699 34.667 28.667 56 60
s33.666 56.666 36.999 75.999zM94.001 569.001c30 0 42.332 -18.333 36.999 -55c-3.33301 -38.667 -9.66602 -128.667 -18.999 -270c22.667 26 48 49.667 76 71s52.333 31.333 73 30c14 0 29.667 -4.66699 47 -14c16.667 -8.66699 26.834 -19.834 30.501 -33.501
s2.16699 -34.834 -4.5 -63.501c-5.33301 -20 -19.333 -48.833 -42 -86.5s-42.667 -64.5 -60 -80.5c-30.667 -28.667 -63 -43 -97 -43c-18 0 -30 -3.66699 -36 -11c-6.66699 -7.33301 -15.667 -10.666 -27 -9.99902s-21.333 5.33398 -30 14.001
c-6.66699 6.66699 -10.5 12.834 -11.5 18.501s-0.5 15.5 1.5 29.5c5.33301 61.333 13.333 195 24 401c1.33301 41.333 4.66602 67.666 9.99902 78.999c6.66699 16 16 24 28 24z" />
    <glyph glyph-name="c" unicode="c" horiz-adv-x="358" 
d="M182 394c-6.66699 0 -15.6689 -11.998 -27.002 -35.998s-20.333 -49 -27 -75c-25.333 -106.667 -27 -185.334 -5 -236.001s64.667 -66.667 128 -48c26.667 7.33301 42.667 10 48 8c8.66699 -3.33301 11.5 -11.166 8.5 -23.499s-10.5 -24.166 -22.5 -35.499
c-20.667 -18.667 -50.667 -28.167 -90 -28.5s-71.333 8.5 -96 26.5s-43.167 46.667 -55.5 86s-16.166 83.333 -11.499 132c5.33301 62 18.5 122.333 39.5 181s43.5 98.667 67.5 120c28 25.333 59.333 21 94 -13c18 -16.667 34 -26 48 -28c16 -1.33301 24.667 -3 26 -5
c2 -6.66699 5.5 -30.667 10.5 -72s8.16699 -65.333 9.5 -72c1.33301 -14 1.33301 -23.833 0 -29.5s-5.33301 -11.834 -12 -18.501c-8.66699 -8 -16 -12.5 -22 -13.5s-15.333 0.833008 -28 5.5c-7.33301 3.33301 -12.333 7.66602 -15 12.999s-5 15.666 -7 30.999
c-3.33301 21.333 -12.666 48.5 -27.999 81.5s-26.333 49.5 -33 49.5z" />
    <glyph glyph-name="d" unicode="d" horiz-adv-x="383" 
d="M261 257c-2.66699 8 -6.66602 12.001 -11.999 12.001c-15.333 -0.666992 -38 -12.5 -68 -35.5s-50 -44.167 -60 -63.5c-8.66699 -17.333 -11.834 -34.333 -9.50098 -51s8.83301 -25 19.5 -25c36.667 1.33301 70 20.666 100 57.999s40 72.333 30 105zM288.001 534.001
c15.333 0 26.1719 -5.83203 32.5049 -17.499s10.166 -32.5 11.499 -62.5c0 -5.33301 0.666992 -28.333 2 -69s2.66602 -78 3.99902 -112s3 -68.667 5 -104s4 -58 6 -68c9.33301 -40.667 1 -66.334 -25 -77.001c-11.333 -4 -23.833 -3 -37.5 3s-22.167 14.333 -25.5 25
c-2.66699 7.33301 -6 11.666 -10 12.999s-7.66699 -0.666992 -11 -6c-4.66699 -6 -15.667 -13.333 -33 -22c-18 -10 -43.667 -13.667 -77 -11c-31.333 2 -53.5 7.5 -66.5 16.5s-22.5 25.833 -28.5 50.5l-3.5 17c-1 4.66699 -1.16699 9.83398 -0.5 15.501
s1.16699 9.66699 1.5 12s1.66602 8.16602 3.99902 17.499s4.16602 16.333 5.49902 21c8 32.667 34 67.834 78 105.501s80.667 57.167 110 58.5l24 2c0 104 2 163 6 177c3.33301 10 12.666 15 27.999 15z" />
    <glyph glyph-name="e" unicode="e" horiz-adv-x="426" 
d="M204 280c10.667 13.333 13.5 20.001 8.5 20.001s-14.5 -7 -28.5 -21c-16 -16 -23.333 -25.667 -22 -29c3.33301 -2.66699 9.5 -0.833984 18.5 5.49902s16.833 14.5 23.5 24.5zM132 113.001c-1.33301 -26 8.83496 -47.002 30.502 -63.002s47.5 -20 77.5 -12
c15.333 3.33301 28.333 8 39 14s24.334 16.667 41.001 32c48 42.667 73.333 47.667 76 15c1.33301 -10.667 -2.83398 -26.167 -12.501 -46.5s-20.167 -35.166 -31.5 -44.499c-27.333 -23.333 -60.5 -38.166 -99.5 -44.499s-76.167 -2.83301 -111.5 10.5
c-24 9.33301 -42 21.5 -54 36.5s-22 38.833 -30 71.5c-2.66699 10.667 -8 33.334 -16 68.001c-7.33301 28.667 -10.833 46.167 -10.5 52.5s4.83301 11.5 13.5 15.5c12 6 23.333 21 34 45c22.667 46.667 58 83.667 106 111c29.333 16.667 55.666 22.667 78.999 18
s35.666 -18.334 36.999 -41.001c1.33301 -34.667 -11 -71.5 -37 -110.5s-58 -68.167 -96 -87.5c-16 -8 -25.833 -14.167 -29.5 -18.5s-5.5 -11.5 -5.5 -21.5z" />
    <glyph glyph-name="f" unicode="f" horiz-adv-x="391" 
d="M334 238c0 -11.333 -6.1709 -21.832 -18.5039 -31.499s-28.5 -17.167 -48.5 -22.5c-22.667 -4.66699 -36 -9 -40 -13c-1.33301 -4 2.16699 -33.667 10.5 -89s11.166 -85.333 8.49902 -90c-8 -41.333 -33 -54.333 -75 -39c-14 5.33301 -24.333 20.666 -31 45.999
c-5.33301 21.333 -2.66602 32 8.00098 32c14 0 15 28 3 84c-4 18 -7.16699 28.333 -9.5 31s-9.16602 2.66699 -20.499 0c-30.667 -6.66699 -50.834 -9.66699 -60.501 -9s-17.167 5 -22.5 13c-6.66699 9.33301 -9.16699 21.333 -7.5 36s6.83398 25.334 15.501 32.001
c8.66699 6 19.334 9 32.001 9c24.667 0 39.334 3.16699 44.001 9.5s8.33398 28.166 11.001 65.499c3.33301 45.333 9.66602 80.666 18.999 105.999c14.667 31.333 33.834 58.666 57.501 81.999s50.5 38 80.5 44c12.667 0.666992 25.5 -3.16602 38.5 -11.499
s21.833 -18.5 26.5 -30.5c4.66699 -10.667 6.5 -17.667 5.5 -21s-5.16699 -8.33301 -12.5 -15c-12 -9.33301 -25.333 -13 -40 -11c-23.333 4 -44.833 -8.66699 -64.5 -38s-31.167 -66 -34.5 -110l-3 -45l52 5c30.667 2.66699 51 2.83398 61 0.500977s15 -8.83301 15 -19.5z
" />
    <glyph glyph-name="g" unicode="g" horiz-adv-x="378" 
d="M105 284c0 -10.667 0.833008 -16.667 2.5 -18s8.16699 0.333984 19.5 5.00098c17.333 7.33301 35.833 19.666 55.5 36.999s34.834 34.333 45.501 51c14.667 22.667 23.167 38.167 25.5 46.5s0.166016 16.166 -6.50098 23.499c-8 9.33301 -14.333 14 -19 14
c-6 -0.666992 -16.333 -5.66699 -31 -15s-26 -18.333 -34 -27c-12.667 -14 -25.5 -34.167 -38.5 -60.5s-19.5 -45.166 -19.5 -56.499zM312 520c17.333 0 28.334 -5.83203 33.001 -17.499s3.66699 -30.834 -3 -57.501c-5.33301 -22 -8.33301 -48.167 -9 -78.5
s0.333008 -94.5 3 -192.5c1.33301 -67.333 -0.666992 -114 -6 -140s-18.333 -51.667 -39 -77c-16 -19.333 -34.667 -34.166 -56 -44.499s-41.666 -15.333 -60.999 -15s-36.5 6 -51.5 17s-24.167 26.5 -27.5 46.5c-3.33301 20.667 -2.66602 32.5 2.00098 35.5
s16 -0.833008 34 -11.5c33.333 -18.667 60.666 -19.334 81.999 -2.00098c20 15.333 33.667 38.333 41 69s9.66602 75 6.99902 133c-1.33301 58.667 -3.33301 88.667 -6 90c-0.666992 1.33301 -5.83398 -2.33398 -15.501 -11.001l-29.5 -26
c-10 -8.66699 -15.667 -12.334 -17 -11.001c-4 0 -12.333 -4.66699 -25 -14c-13.333 -10 -29.5 -16.167 -48.5 -18.5s-35.833 -0.166016 -50.5 6.50098c-35.333 14.667 -46.833 51.5 -34.5 110.5s42.5 109.833 90.5 152.5c49.333 44.667 93 58.334 131 41.001
c8 -3.33301 13.5 -4.83301 16.5 -4.5s5.83301 2.83301 8.5 7.5c4.66699 8 15 12 31 12z" />
    <glyph glyph-name="h" unicode="h" horiz-adv-x="437" 
d="M42 559c10.667 14 26.3223 13.668 46.9893 -0.999023c7.33301 -4.66699 11.666 -14.334 12.999 -29.001s2.33301 -60.334 3 -137.001c0.666992 -93.333 2.66699 -140.333 6 -141c1.33301 0 3 2.66699 5 8c8.66699 18.667 25.334 40.334 50.001 65.001
c23.333 24.667 42.333 39.5 57 44.5s39.334 5.83301 74.001 2.5c63.333 -6.66699 99 -103.667 107 -291c2.66699 -47.333 3.33398 -76.333 2.00098 -87s-5.66602 -19.667 -12.999 -27c-9.33301 -8.66699 -21.333 -11.667 -36 -9c-14 3.33301 -22.333 7 -25 11
c-2 8 -4.66699 47.833 -8 119.5s-6.66602 112.5 -9.99902 122.5c-5.33301 23.333 -12.166 44.5 -20.499 63.5s-16.166 29.833 -23.499 32.5c-10 4 -22.167 0.833008 -36.5 -9.5s-26.833 -24.833 -37.5 -43.5c-14 -23.333 -24.667 -47.833 -32 -73.5
s-14.666 -62.5 -21.999 -110.5c-7.33301 -52 -14.666 -81.667 -21.999 -89c-7.33301 -9.33301 -18.666 -13.666 -33.999 -12.999s-26.333 6 -33 16c-11.333 18 -18.666 115.167 -21.999 291.5s0.333984 271.166 11.001 284.499z" />
    <glyph glyph-name="i" unicode="i" horiz-adv-x="168" 
d="M120 283c0.666992 -23.333 3.49902 -61.168 8.49902 -113.501s7.83301 -89.833 8.5 -112.5c1.33301 -34.667 1.5 -56.667 0.5 -66s-4.83301 -17.333 -11.5 -24c-7.33301 -7.33301 -16.666 -11.5 -27.999 -12.5s-21 1.83301 -29 8.5
c-7.33301 5.33301 -13.333 52.333 -18 141c-4.66699 82.667 -10 139.334 -16 170.001c-4 16 -5.66699 26.833 -5 32.5s3.66699 11.5 9 17.5c13.333 15.333 35 15 65 -1c10.667 -4.66699 16 -18 16 -40zM36.999 509.998c9.33301 10.667 20 17 32 19s25 -2.66699 39 -14
c14 -12 16.167 -26.667 6.5 -44s-23.5 -22.666 -41.5 -15.999c-10.667 3.33301 -21.334 11.666 -32.001 24.999c-9.33301 12 -10.666 22 -3.99902 30z" />
    <glyph glyph-name="j" unicode="j" horiz-adv-x="259" 
d="M163 401c12.667 0 21.668 -1.00098 27.001 -3.00098s9.33301 -6 12 -12c6 -11.333 9.16699 -72.5 9.5 -183.5s-2.5 -182.167 -8.5 -213.5c-12.667 -66.667 -29.334 -110.167 -50.001 -130.5s-48.667 -21.166 -84 -2.49902c-18.667 9.33301 -30.334 21.333 -35.001 36
c-5.33301 14.667 -5.5 23.834 -0.5 27.501s15.833 2.5 32.5 -3.5c18 -7.33301 30.333 -9 37 -5c6 4 15.333 60 28 168c7.33301 65.333 6.33301 148.666 -3 249.999c-3.33301 37.333 -3.66602 59 -0.999023 65c3.33301 4.66699 15.333 7 36 7zM229.001 523.999
c0 -18.667 -5.16699 -32.1641 -15.5 -40.4971s-23.166 -9.5 -38.499 -3.5c-9.33301 3.33301 -16 7.66602 -20 12.999s-7.33301 14.666 -10 27.999c-5.33301 22 -5.33301 38 0 48c5.33301 10.667 17.666 14.667 36.999 12c16.667 -2 28.667 -7.33301 36 -16
s11 -22.334 11 -41.001z" />
    <glyph glyph-name="k" unicode="k" horiz-adv-x="485" 
d="M135 220c15.333 0 48.1709 27.832 98.5039 83.499s78.833 95.834 85.5 120.501c8.66699 20 17 32 25 36c9.33301 3.33301 21 2.33301 35 -3c25.333 -10.667 38.166 -21.5 38.499 -32.5s-11.834 -33.5 -36.501 -67.5c-17.333 -22 -24 -35.667 -20 -41
c3.33301 -4 2.66602 -5 -2.00098 -3c-4.66699 3.33301 -19.667 -9.66699 -45 -39c-23.333 -26.667 -43.666 -48.667 -60.999 -66c-14.667 -14.667 -19.334 -24 -14.001 -28c6.66699 -5.33301 39.334 -22.333 98.001 -51c44 -21.333 74.667 -38.833 92 -52.5
s26 -27.5 26 -41.5c0 -6.66699 -4.5 -12.5 -13.5 -17.5s-19.167 -7.5 -30.5 -7.5s-27 7 -47 21c-16.667 10 -53.334 28.5 -110.001 55.5s-95.667 48.167 -117 63.5l-4 -65c-2 -37.333 -6.16699 -63.833 -12.5 -79.5s-17.5 -27.167 -33.5 -34.5
c-22 -11.333 -38.5 -8.33301 -49.5 9s-10.833 35.666 0.5 54.999c8 8.66699 11.667 71.167 11 187.5s-3.33398 184.5 -8.00098 204.5c-8.66699 60.667 -8 94.334 2 101.001c8 4.66699 18.167 6.5 30.5 5.5s22.833 -4.83301 31.5 -11.5c8 -6.66699 13 -17.667 15 -33
s3.66699 -57 5 -125c2 -96 5.33301 -144 10 -144z" />
    <glyph glyph-name="l" unicode="l" horiz-adv-x="149" 
d="M50 590c2 0.666992 4.00098 1.66406 6.00098 2.99707s3.5 2.16602 4.5 2.49902l3 1c1 0.333008 1.83301 0.5 2.5 0.5h2.5c1 0 2 -0.333008 3 -1s2.16699 -1.16699 3.5 -1.5s3.16602 -1 5.49902 -2s4.83301 -1.83301 7.5 -2.5c13.333 -4 21.666 -12 24.999 -24
c2.66699 -12.667 2.33398 -60.667 -0.999023 -144c-3.33301 -97.333 -4.83301 -177.166 -4.5 -239.499s4.16602 -112.166 11.499 -149.499l-22 -9c-16.667 -7.33301 -31 -7.16602 -43 0.500977s-19.333 21.834 -22 42.501c-3.33301 18 -3.66602 109.333 -0.999023 274
c2 120.667 3.83301 191.667 5.5 213s6.16699 33.333 13.5 36z" />
    <glyph glyph-name="m" unicode="m" horiz-adv-x="648" 
d="M274 82c-4.66699 42.667 -12.665 89.9932 -23.998 141.993s-24.333 87 -39 105l-13 16c-16.667 -32 -28.167 -65.167 -34.5 -99.5s-10.166 -84.166 -11.499 -149.499c-0.666992 -54.667 -3.5 -89.667 -8.5 -105s-16.167 -23 -33.5 -23c-10.667 0 -21 6.66699 -31 20
s-15 27 -15 41c-1.33301 16.667 -6 54.834 -14 114.501s-13 105.834 -15 138.501c-4 44.667 -5.83301 71.834 -5.5 81.501s3.83301 16.834 10.5 21.501c8 6 18 7.83301 30 5.5s23 -8.16602 33 -17.499c7.33301 -7.33301 12 -10.833 14 -10.5s6.33301 5.5 13 15.5
c8 13.333 18.333 25 31 35c10.667 9.33301 20.667 14.333 30 15s22.333 -2.66602 39 -9.99902c16.667 -8 30.667 -20.5 42 -37.5s23 -42.833 35 -77.5c12.667 -32.667 20 -48 22 -46c0.666992 8.66699 9.33398 26.5 26.001 53.5s31 45.833 43 56.5
c28.667 26.667 53 43.334 73 50.001s42 5 66 -5c28.667 -12 48 -33.167 58 -63.5s17 -88.5 21 -174.5c3.33301 -84 3.33301 -129.667 0 -137c-4.66699 -8.66699 -13.334 -14.167 -26.001 -16.5s-24 -0.166016 -34 6.50098c-8 5.33301 -12.833 12.333 -14.5 21
s-2.5 32.667 -2.5 72c-0.666992 142.667 -13.667 219 -39 229c-12 4.66699 -28 -3 -48 -23c-18.667 -18.667 -36.667 -51.334 -54 -98.001s-26.333 -86.334 -27 -119.001c-0.666992 -28 -3.83398 -47.5 -9.50098 -58.5s-15.834 -18.833 -30.501 -23.5
c-16 -4.66699 -29.333 -0.666992 -40 12s-16.334 27 -17.001 43z" />
    <glyph glyph-name="n" unicode="n" horiz-adv-x="405" 
d="M375 116c0 -38 -2.49805 -66.332 -7.49805 -84.999s-14.167 -33.334 -27.5 -44.001c-24 -20.667 -43.667 -19.667 -59 3c-4 6 -5.66699 12.833 -5 20.5s4 23.167 10 46.5c6.66699 24 10.167 43.167 10.5 57.5s-1.5 37.833 -5.5 70.5c-4.66699 42 -12.667 77.5 -24 106.5
s-23 43.5 -35 43.5c-16.667 0 -38 -33.333 -64 -100s-40 -123.667 -42 -171c-1.33301 -31.333 -4.33301 -50.5 -9 -57.5s-17 -10.5 -37 -10.5c-23.333 0 -37.166 8.66699 -41.499 26s-6.83301 74.333 -7.5 171c-1.33301 93.333 -0.333008 149 3 167s13.666 27 30.999 27
c11.333 0 22.666 -5.66699 33.999 -17c7.33301 -7.33301 11.666 -13.666 12.999 -18.999s1.33301 -13.333 0 -24l-4 -27c12.667 23.333 28 46.666 46 69.999s32 37 42 41c14 7.33301 25.667 10.833 35 10.5s22 -4.5 38 -12.5c31.333 -16 56.833 -51.333 76.5 -106
s29.5 -117 29.5 -187z" />
    <glyph glyph-name="o" unicode="o" horiz-adv-x="449" 
d="M157 360c5.33301 8.66699 6.33105 13.002 2.99805 13.002c-4 0 -10.667 -5 -20 -15c-27.333 -30 -39 -79.333 -35 -148c4.66699 -76 21 -129.333 49 -160c25.333 -28 55 -37 89 -27c26.667 7.33301 48.834 22.166 66.501 44.499s29.167 49.166 34.5 80.499
c4.66699 29.333 -1.33301 64.833 -18 106.5s-35.667 69.167 -57 82.5c-8.66699 5.33301 -15 8 -19 8s-10.333 -2.33301 -19 -7c-23.333 -14 -44.666 -16.667 -63.999 -8c-14.667 6.66699 -18 16.667 -10 30zM99.998 422.002c25.333 22.667 48.335 26.3359 69.002 11.0029
c6 -4.66699 9.33301 -8.83398 10 -12.501s-0.666016 -10.167 -3.99902 -19.5l-8 -21l20 17c28.667 24 59.834 29.833 93.501 17.5s63.834 -40.833 90.501 -85.5c20 -32.667 34 -68.834 42 -108.501s8.33301 -73.167 1 -100.5c-4.66699 -20 -14.334 -41.833 -29.001 -65.5
s-30 -42.5 -46 -56.5c-40 -35.333 -84.167 -51.5 -132.5 -48.5s-88.833 24.167 -121.5 63.5c-20.667 26 -34.834 53 -42.501 81s-11.834 68.667 -12.501 122c-0.666992 44 0.166016 72.167 2.49902 84.5s9.16602 30.166 20.499 53.499c17.333 33.333 33 56 47 68z" />
    <glyph glyph-name="p" unicode="p" horiz-adv-x="420" 
d="M314 268c0 42 -11.001 67.668 -33.001 77.001c-13.333 6 -27.5 8.33301 -42.5 7s-26.5 -5.66602 -34.5 -12.999c-16.667 -15.333 -31.667 -40 -45 -74s-20 -64.333 -20 -91c0.666992 -11.333 5.5 -23.333 14.5 -36s19.5 -22.334 31.5 -29.001
c14.667 -8 32.334 -4 53.001 12s38.5 38.167 53.5 66.5s22.5 55.166 22.5 80.499zM47.999 -66.999c0 40 -3.66504 104.664 -10.998 193.997c-11.333 144.667 -8.33301 225.667 9 243c6.66699 6.66699 15.834 10 27.501 10s22.834 -3.66699 33.501 -11
c8.66699 -5.33301 14.5 -7.66602 17.5 -6.99902s7.83301 5.33398 14.5 14.001c11.333 12.667 25.666 23.334 42.999 32.001c34 16.667 70.833 19.334 110.5 8.00098s67.167 -32.666 82.5 -63.999c13.333 -26 18 -58.167 14 -96.5s-15.667 -73.5 -35 -105.5
c-32 -51.333 -64.833 -84.833 -98.5 -100.5s-74.834 -16.834 -123.501 -3.50098c0 -4 0.333008 -12 1 -24s1.16699 -23 1.5 -33s1 -20.5 2 -31.5s2.33301 -20 4 -27s3.5 -11.167 5.5 -12.5c7.33301 -4.66699 7.66602 -16 0.999023 -34s-15.334 -29.333 -26.001 -34
c-12.667 -6 -22.167 -8.5 -28.5 -7.5s-15.166 5.83301 -26.499 14.5c-8.66699 6.66699 -13.834 13.667 -15.501 21s-2.5 25.666 -2.5 54.999z" />
    <glyph glyph-name="q" unicode="q" horiz-adv-x="442" 
d="M224 351c2.66699 16.667 1.83301 26.166 -2.5 28.499s-14.166 -1.5 -29.499 -11.5c-14.667 -10 -29.834 -26.167 -45.501 -48.5s-25.834 -42.5 -30.501 -60.5c-7.33301 -28.667 -6.66602 -45.667 2.00098 -51s23.667 1.33398 45 20.001c14 12 26.667 29.5 38 52.5
s19 46.5 23 70.5zM374.999 30.999c0 -4 5.00098 -10.9961 15.001 -20.9961c9.33301 -8.66699 16 -22.834 20 -42.501s4 -38.5 0 -56.5c-6 -25.333 -20.667 -45.333 -44 -60s-47 -19 -71 -13c-32 8 -57.833 36.5 -77.5 85.5s-29.834 109.5 -30.501 181.5v43l-50 -4
c-29.333 -2 -50.5 -0.166992 -63.5 5.5s-24.167 18.167 -33.5 37.5c-8.66699 19.333 -11 40 -7 62c8.66699 45.333 30.5 87.833 65.5 127.5s72.5 64.167 112.5 73.5c39.333 9.33301 68.333 7.66602 87 -5.00098c16 -10 23.833 -20 23.5 -30s-9.5 -47.333 -27.5 -112
c-10.667 -37.333 -17.667 -66.833 -21 -88.5s-5.66602 -54.834 -6.99902 -99.501c-1.33301 -45.333 -1.5 -76 -0.5 -92s4.83301 -33.333 11.5 -52c16 -44.667 30.667 -66 44 -64l6 3c5.33301 5.33301 9.66602 27.333 12.999 66c2 26.667 4 43.167 6 49.5
s6.66699 9.83301 14 10.5c10 1.33301 15 -0.333984 15 -5.00098z" />
    <glyph glyph-name="r" unicode="r" horiz-adv-x="331" 
d="M55 422c10 0 21.8369 -2.83301 35.5039 -8.5s20.5 -10.5 20.5 -14.5c0 -4.66699 7.66699 0 23 14c36.667 32.667 74.334 42.667 113.001 30c24 -8 40.167 -18 48.5 -30s7.16602 -22.167 -3.50098 -30.5s-28.334 -11.833 -53.001 -10.5
c-17.333 1.33301 -28.166 1.16602 -32.499 -0.500977s-8.83301 -7.16699 -13.5 -16.5c-24.667 -46 -35.334 -106 -32.001 -180c1.33301 -34 1.16602 -54.667 -0.500977 -62s-7.16699 -14.333 -16.5 -21c-10.667 -8.66699 -22.834 -13 -36.501 -13s-23.167 3.66699 -28.5 11
c-5.33301 6.66699 -9.33301 24.667 -12 54c0.666992 6.66699 -3 31 -11 73s-14.833 82.833 -20.5 122.5s-5.83398 61.834 -0.500977 66.501c6 10.667 12.667 16 20 16z" />
    <glyph glyph-name="s" unicode="s" horiz-adv-x="346" 
d="M114 297c0 -8 10.833 -22.667 32.5 -44s48.834 -44 81.501 -68c46 -34 73.833 -61.5 83.5 -82.5s3.83398 -41.833 -17.499 -62.5c-14.667 -14.667 -28.667 -24.667 -42 -30c-20.667 -8 -48.334 -5.83301 -83.001 6.5s-65.334 30 -92.001 53s-40 44.167 -40 63.5
c0 15.333 4.33301 23 13 23c10.667 0 37 -12.667 79 -38s67.667 -38 77 -38c26.667 0 8.33398 23.333 -54.999 70c-52 38.667 -85.167 66.5 -99.5 83.5s-21.5 36.833 -21.5 59.5c0 26.667 11 53.334 33 80.001s48.667 45.667 80 57c39.333 12.667 66.333 10.667 81 -6
c10 -12.667 11.167 -24.834 3.5 -36.501s-22.834 -20.167 -45.501 -25.5c-11.333 -3.33301 -25.5 -13 -42.5 -29s-25.5 -28 -25.5 -36z" />
    <glyph glyph-name="t" unicode="t" horiz-adv-x="424" 
d="M214 226c1.33301 -54 4.50391 -93.333 9.50391 -118s15.5 -44.667 31.5 -60l25 24c14 13.333 26.333 32.5 37 57.5s16 46.833 16 65.5c0 15.333 3.33301 23.666 10 24.999s13 -5 19 -19c6.66699 -14.667 14 -27.667 22 -39c16 -24.667 9 -59.667 -21 -105
c-14.667 -22 -31.834 -40 -51.501 -54s-37.834 -21 -54.501 -21c-15.333 0 -31 3.66699 -47 11s-28.333 16.333 -37 27c-21.333 26.667 -34.333 88.334 -39 185.001c-2 44 -4.33301 69.667 -7 77c-2.66699 4 -13.334 3.33301 -32.001 -2
c-16 -7.33301 -31.167 -5.83301 -45.5 4.5s-20.833 22.833 -19.5 37.5c0.666992 13.333 4.5 22.333 11.5 27s22.833 8.66699 47.5 12c28 3.33301 43 6 45 8c0.666992 2 4 25.667 10 71s9.66699 68.666 11 69.999c3.33301 7.33301 12.666 10.666 27.999 9.99902
s28 -4.66699 38 -12c7.33301 -6.66699 11.5 -12.667 12.5 -18s-0.5 -18.666 -4.5 -39.999c-8 -44 -9.33301 -68 -4 -72c4 -2 10 -2 18 0c14.667 2.66699 24 1 28 -5c6 -9.33301 7.16699 -17.666 3.5 -24.999s-13.5 -16 -29.5 -26l-31 -21v-75z" />
    <glyph glyph-name="u" unicode="u" horiz-adv-x="433" 
d="M272 389c0 23.333 9.16602 40.9951 27.499 52.9951s36.833 10 55.5 -6c11.333 -11.333 14.666 -23.666 9.99902 -36.999c-7.33301 -28 -7.5 -87.667 -0.5 -179s17.167 -156.666 30.5 -195.999c13.333 -38.667 8.66602 -61 -14.001 -67
c-24.667 -6.66699 -42.667 -0.5 -54 18.5s-22 60.833 -32 125.5l-13 80c-26 -48 -49.667 -83 -71 -105c-39.333 -43.333 -77.166 -53.666 -113.499 -30.999s-56.5 69.334 -60.5 140.001c0 10 -1 29.5 -3 58.5s-3.16699 51.833 -3.5 68.5s0.833984 34.667 3.50098 54
c4 6.66699 16 8.5 36 5.5s33 -8.5 39 -16.5c6 -7.33301 9.33301 -41.666 10 -102.999c0.666992 -82.667 7 -125.667 19 -129c8 -2 20.667 8.66699 38 32c24.667 32.667 46.834 73 66.501 121s29.5 85.667 29.5 113z" />
    <glyph glyph-name="v" unicode="v" horiz-adv-x="379" 
d="M349 407c-8 -32 -25.8311 -87 -53.498 -165s-42.834 -121.667 -45.501 -131c-14.667 -42 -24 -65.833 -28 -71.5s-12 -8.5 -24 -8.5c-14.667 0 -26.167 5.16699 -34.5 15.5s-20.166 34.166 -35.499 71.499c-38.667 96 -63 151 -73 165c-22.667 34 -29.667 56 -21 66
c6.66699 8 17 11.5 31 10.5s25.333 -6.5 34 -16.5c4 -2 19 -30.5 45 -85.5s41 -83.833 45 -86.5c3.33301 2 7.16602 9.33301 11.499 22s7.16602 20.334 8.49902 23.001c8 21.333 16.667 46 26 74c31.333 90 52 140 62 150c12 11.333 23.667 13.5 35 6.5s17 -20.167 17 -39.5
z" />
    <glyph glyph-name="w" unicode="w" horiz-adv-x="562" 
d="M337 408c-0.666992 -1.33301 13.5029 -32.8359 42.5029 -94.5029s42.833 -93.167 41.5 -94.5c0 -4 2.33301 -6 7 -6c3.33301 0 8 20.333 14 61c16 114.667 28 177.334 36 188.001c10.667 13.333 24.334 10 41.001 -10c6.66699 -8 10.5 -16.167 11.5 -24.5
s0.833008 -23.833 -0.5 -46.5c-2 -24.667 -7.16699 -66.5 -15.5 -125.5s-13.5 -99.167 -15.5 -120.5c-2.66699 -35.333 -7.33398 -57 -14.001 -65c-4.66699 -6.66699 -12.834 -10.5 -24.501 -11.5s-21.834 1.16699 -30.501 6.5c-2.66699 -2 -15.334 19.333 -38.001 64
l-68.5 134.5c-23 45 -35.5 66.833 -37.5 65.5c-4.66699 -1.33301 -14.5 -30.333 -29.5 -87s-22.833 -93.667 -23.5 -111c0 -20 -3 -36 -9 -48c-8 -17.333 -21.5 -24.833 -40.5 -22.5s-33.5 13.5 -43.5 33.5c-8 14.667 -25 52.667 -51 114s-43.667 101.333 -53 120
c-4.66699 4.66699 -6.66699 14.334 -6 29.001s3.33398 24.334 8.00098 29.001c5.33301 5.33301 14.333 8 27 8s21.334 -2.66699 26.001 -8c6.66699 -11.333 18.667 -39 36 -83c25.333 -60 40.333 -90 45 -90c3.33301 7.33301 11.666 34.333 24.999 81
c18 64 32.167 104.833 42.5 122.5s24.833 26.5 43.5 26.5c7.33301 0 18.166 -4.66699 32.499 -14s21.5 -16.333 21.5 -21z" />
    <glyph glyph-name="x" unicode="x" horiz-adv-x="405" 
d="M230 201c0 -7.33301 14.8369 -24.668 44.5039 -52.001s48.167 -41 55.5 -41c6.66699 0 14.834 -5.33301 24.501 -16s16.167 -21.667 19.5 -33s1.66602 -21.166 -5.00098 -29.499s-16.334 -12.5 -29.001 -12.5c-14 0 -28.167 4.66699 -42.5 14s-35.5 27.666 -63.5 54.999
l-44 43l-23 -33c-34.667 -52.667 -63.334 -79 -86.001 -79c-14 0 -25.833 4.83301 -35.5 14.5s-13.834 20.167 -12.501 31.5s8.33301 19.333 21 24c4.66699 1.33301 9.66699 4.33301 15 9s11.666 11.834 18.999 21.501l16.5 22c3.66699 5 9.5 13.833 17.5 26.5l13 19
c-16 16 -40 46.333 -72 91c-24.667 36.667 -35.334 60 -32.001 70c6.66699 20 17.334 29.5 32.001 28.5s29.334 -12.167 44.001 -33.5c38 -54.667 60.667 -80 68 -76c4 2.66699 16.333 28 37 76c30.667 71.333 50.667 108.333 60 111c10 3.33301 15.5 4.83301 16.5 4.5
s6.83301 -3.83301 17.5 -10.5c13.333 -9.33301 16.666 -25.5 9.99902 -48.5s-29.667 -73.833 -69 -152.5c-11.333 -24 -17 -38.667 -17 -44z" />
    <glyph glyph-name="y" unicode="y" horiz-adv-x="348" 
d="M276 506c12 0 20.1621 -1.16992 24.4951 -3.50293s8.5 -8.16602 12.5 -17.499c6.66699 -14.667 6.66699 -32.667 0 -54c-6.66699 -22.667 -8.66699 -104.667 -6 -246c2 -106 2.5 -170.167 1.5 -192.5s-5.16699 -41.166 -12.5 -56.499
c-29.333 -60 -79.666 -81.667 -150.999 -65c-26.667 6 -47.667 18 -63 36c-10.667 12 -19.334 26 -26.001 42s-8 25.667 -4 29c2.66699 0 23.334 -8.33301 62.001 -25s61.334 -24 68.001 -22c13.333 0 25 5 35 15s16.333 23.333 19 40c2 9.33301 3.16699 30.833 3.5 64.5
s-0.166992 65.667 -1.5 96s-3 45.5 -5 45.5c-2 -2 -8.16699 -11.333 -18.5 -28s-18.833 -27 -25.5 -31c-19.333 -14 -38 -12.667 -56 4s-33.667 46.667 -47 90c-4.66699 14 -10 37.5 -16 70.5s-13.667 58.167 -23 75.5c-11.333 21.333 -17 35.333 -17 42
c0 12.667 6.33301 21.167 19 25.5s26.334 3.5 41.001 -2.5s24.667 -15.667 30 -29c2 -4.66699 8.83301 -33.5 20.5 -86.5s18.834 -82.167 21.501 -87.5c2 -4 3.5 -6.33301 4.5 -7s2 -0.5 3 0.5s2.16699 3.83301 3.5 8.5c12 24 24 55.833 36 95.5s19 70.834 21 93.501
c2.66699 26.667 6.33398 47 11.001 61c3.33301 8 7 13.167 11 15.5s12 3.5 24 3.5z" />
    <glyph glyph-name="z" unicode="z" horiz-adv-x="348" 
d="M253 464c5.33301 0 14.0049 -3.33203 26.0049 -9.99902c16.667 -8.66699 25 -20.167 25 -34.5s-8.33301 -39.833 -25 -76.5c-18.667 -42 -28 -65 -28 -69c0 -3.33301 7 -5 21 -5c20 0 29 -5.66699 27 -17c-2.66699 -14.667 -22.334 -33 -59.001 -55
c-24.667 -14 -42.334 -32.667 -53.001 -56c-10 -23.333 -14 -36 -12 -38c3.33301 -2.66699 15.666 -0.666992 36.999 6s37.666 13.667 48.999 21c11.333 8.66699 20.833 11.667 28.5 9s15.167 -11 22.5 -25c10 -19.333 7.5 -35.666 -7.5 -48.999
s-44.5 -25.666 -88.5 -36.999c-28 -6.66699 -53.333 -17.334 -76 -32.001c-17.333 -12 -30.5 -18.5 -39.5 -19.5s-19.167 2.83301 -30.5 11.5s-17.5 22.167 -18.5 40.5s3.5 34.166 13.5 47.499c30.667 44 46 69.333 46 76c-2.66699 2.66699 -13 4.5 -31 5.5
s-28.667 3.16699 -32 6.5c-8 4.66699 -13.5 12.834 -16.5 24.501s-2.16699 23.5 2.5 35.5c3.33301 9.33301 7.66602 14.666 12.999 15.999s20.666 0.666016 45.999 -2.00098c28.667 -2.66699 46.834 -1.83398 54.501 2.49902s18.167 20.833 31.5 49.5
c11.333 26 16 39.333 14 40c-0.666992 0.666992 -3 1 -7 1c-5.33301 0 -17.333 -9.33301 -36 -28c-20 -21.333 -39.667 -30 -59 -26s-29 18.667 -29 44c0 22.667 18.333 43.667 55 63c6 3.33301 26 15.833 60 37.5s59.333 35.834 76 42.501z" />
    <glyph glyph-name="uni0093" horiz-adv-x="292" 
d="M119 293c7.33301 0 11.8359 2.16602 13.5029 6.49902s3.16699 16.5 4.5 36.5c1.33301 28.667 6 50.334 14 65.001c6.66699 13.333 18 26 34 38s29.667 18 41 18c20 0 31.5 -8.5 34.5 -25.5s-4.16699 -33.167 -21.5 -48.5c-20.667 -18 -30.5 -39.5 -29.5 -64.5
s12.167 -45.5 33.5 -61.5c13.333 -10 19.666 -19.5 18.999 -28.5s-8.33398 -16.5 -23.001 -22.5c-13.333 -5.33301 -27.333 -4.33301 -42 3s-27 19.333 -37 36l-14 24l-20 -18c-13.333 -11.333 -28 -17.333 -44 -18s-28 4.33301 -36 15
c-14 20.667 -19.833 45.167 -17.5 73.5s9 55.833 20 82.5s24.167 48.334 39.5 65.001c31.333 31.333 54.666 32.333 69.999 3c13.333 -26.667 8 -48.334 -16 -65.001c-9.33301 -6.66699 -19 -21.167 -29 -43.5s-14.333 -39.5 -13 -51.5c0.666992 -12.667 7 -19 19 -19z" />
    <glyph glyph-name="uni0094" horiz-adv-x="308" 
d="M68 457c13.333 0 33.335 -13.335 60.002 -40.002c42.667 -44.667 60 -86 52 -124c-4 -22 -16 -39.833 -36 -53.5s-36 -15.5 -48 -5.5c-6.66699 6 -9.83398 12.333 -9.50098 19s4.83301 17.334 13.5 32.001s11.167 27.834 7.5 39.501s-13.834 24.167 -30.501 37.5
c-17.333 13.333 -29 23 -35 29c-7.33301 6 -11.5 15.5 -12.5 28.5s1.83301 22.833 8.5 29.5c5.33301 5.33301 15.333 8 30 8zM163.002 461.998c2.66699 12.667 8.66797 19.835 18.001 21.502s18.166 0.166992 26.499 -4.5s15.833 -10.334 22.5 -17.001
c10.667 -12 21.167 -34.5 31.5 -67.5s15.5 -60.5 15.5 -82.5c0.666992 -15.333 0 -26.333 -2 -33s-6.66699 -12.667 -14 -18c-8 -6.66699 -14.5 -10.667 -19.5 -12s-9.83301 0.5 -14.5 5.5s-8.5 13.167 -11.5 24.5s-6.5 27.666 -10.5 48.999
c-4.66699 26.667 -11.334 46.334 -20.001 59.001c-13.333 18 -21.166 31.667 -23.499 41s-1.83301 20.666 1.5 33.999z" />
    <glyph glyph-name=".null" horiz-adv-x="0" 
 />
    <glyph glyph-name="nonmarkingreturn" horiz-adv-x="333" 
 />
    </font>
</defs>
</svg>
