<?xml version="1.0" standalone="no"?>
<!DOCTYPE svg PUBLIC "-//W3C//DTD SVG 1.1//EN" "http://www.w3.org/Graphics/SVG/1.1/DTD/svg11.dtd" >
<svg xmlns="http://www.w3.org/2000/svg" xmlns:xlink="http://www.w3.org/1999/xlink" version="1.1">
<metadata></metadata>
<defs>
<font id="hussarbdobl" horiz-adv-x="930" >
<font-face units-per-em="1000" ascent="750" descent="-250" />
<missing-glyph horiz-adv-x="166" />
<glyph horiz-adv-x="0" />
<glyph horiz-adv-x="333" />
<glyph unicode=" "  horiz-adv-x="166" />
<glyph unicode="&#x09;" horiz-adv-x="166" />
<glyph unicode="&#xa0;" horiz-adv-x="166" />
<glyph unicode="!" horiz-adv-x="308" d="M84 88q5 36 34 62t64 26t56 -26t16 -62q-3 -24 -18 -44t-36 -32t-44 -12q-35 0 -56 26t-16 62zM122 235l65 590h177l-110 -590h-132z" />
<glyph unicode="&#x22;" horiz-adv-x="430" d="M168 581l21 279h133l-61 -279h-93zM341 581l21 279h133l-61 -279h-93z" />
<glyph unicode="#" horiz-adv-x="764" d="M83 219l50 121h102l60 146h-107l50 121h107l89 218h124l-89 -218h108l89 218h124l-89 -218h102l-50 -121h-102l-60 -146h107l-50 -121h-107l-89 -219h-124l89 219h-108l-89 -219h-124l89 219h-102zM359 340h108l60 146h-108z" />
<glyph unicode="$" horiz-adv-x="723" d="M65 94l117 158q4 -4 11 -10t28.5 -22t43 -28.5t51 -22.5t54.5 -10q119 0 131 81q4 23 -12 45t-43 41t-61 39t-67 42.5t-59.5 48t-40.5 60t-8 72.5q9 64 46.5 116.5t89.5 85t111 44.5l15 98l113 -42l-8 -54q32 -4 62.5 -13.5t51.5 -19.5t37.5 -19.5t24.5 -15.5l8 -6 l-99 -150q-3 2 -8.5 6t-22.5 14t-34.5 17.5t-43 13.5t-49.5 6q-47 0 -75.5 -20t-33.5 -54q-4 -23 13.5 -43.5t47 -37.5t66 -34.5t72 -39t64 -46.5t43.5 -62t8 -81q-16 -112 -85 -174.5t-171 -82.5l-15 -103l-116 31l10 64q-36 2 -70 9t-60 16.5t-49 20.5t-38.5 22t-27 20 t-17.5 15z" />
<glyph unicode="%" horiz-adv-x="981" d="M146 643q12 82 83 143t156 61q84 0 136 -60.5t40 -143t-82 -143t-155 -60.5t-137.5 60.5t-40.5 142.5zM194 0l602 825h118l-602 -825h-118zM265 643q-3 -17 2 -33t15 -27.5t25.5 -19t33.5 -7.5q36 0 66 26t35 61q3 23 -5.5 43.5t-27.5 32.5t-42 12q-36 0 -66.5 -26.5 t-35.5 -61.5zM544 188q12 82 82.5 143t155.5 61t137 -60.5t40 -143.5q-8 -53 -42.5 -100t-86.5 -75t-108 -28q-85 0 -137.5 60.5t-40.5 142.5zM662 188q-5 -35 18 -61t59 -26t66 26t35 61t-17 61.5t-59 26.5q-23 0 -45.5 -12t-37.5 -32.5t-19 -43.5z" />
<glyph unicode="&#x26;" horiz-adv-x="972" d="M85 217q6 38 34.5 73t64 58.5t69.5 43t53.5 34.5t13.5 25q-8 12 -18.5 32t-26.5 66.5t-12 75.5q10 64 46.5 112.5t100.5 75.5t148 27q59 0 104.5 -19t70 -50t34.5 -68.5t4 -77.5q-4 -34 -28 -64.5t-54 -51.5t-58 -39t-43.5 -32.5t-9.5 -24.5q44 -51 83.5 -83.5t67 -44.5 t55.5 -13.5t45.5 4t40.5 13t37 9.5q-30 -33 -134 -113l151 -185h-237l-60 76q-45 -29 -83 -47t-92 -31t-114 -13q-40 0 -76.5 6.5t-73 23t-61.5 41.5t-37.5 66.5t-4.5 94.5zM300 232q-5 -33 20.5 -51t62.5 -18q30 0 63 11.5t50 23.5l18 12l-112 129q-4 -1 -10 -3.5t-22 -12 t-29 -21t-25.5 -30.5t-15.5 -40zM454 625q-3 -21 8.5 -46.5t24.5 -39.5l12 -15q100 50 107 101q12 82 -68 82q-36 0 -57 -23t-27 -59z" />
<glyph unicode="'" horiz-adv-x="257" d="M168 581l21 279h133l-61 -279h-93z" />
<glyph unicode="(" horiz-adv-x="409" d="M85.5 157q0.5 69 10.5 140q15 100 48.5 196t71.5 162t73 118t59 77l23 25l107 -49q-6 -7 -17.5 -20.5t-43 -62.5t-58.5 -105t-56 -148.5t-44 -192.5q-14 -101 -13.5 -182.5t10.5 -142.5t22.5 -101.5t22.5 -61.5l10 -20l-122 -49q-3 4 -8 12.5t-19 37.5t-26 60.5t-24.5 82 t-19.5 103t-6.5 121.5z" />
<glyph unicode=")" horiz-adv-x="410" d="M36 -211q6 7 16.5 20.5t39.5 61t53.5 101.5t51.5 142t41 183q11 73 13 141.5t-2.5 120t-13 96.5t-19 75.5t-19.5 53t-16 32.5l-6 10l122 49q3 -5 8.5 -13.5t21 -38.5t28.5 -63.5t27 -85.5t21.5 -106.5t8 -126t-10.5 -144.5q-11 -71 -30.5 -139.5t-43 -122.5t-49.5 -102.5 t-49.5 -82.5t-42.5 -59.5t-31 -38.5l-11 -12z" />
<glyph unicode="*" horiz-adv-x="476" d="M157 698l38 80l109 -35l18 117h86l-16 -117l119 35l14 -80l-120 -41l51 -99l-72 -45l-57 91l-83 -91l-60 45l81 99z" />
<glyph unicode="+" horiz-adv-x="636" d="M111 338l23 153h180l27 180h153l-27 -180h180l-23 -153h-180l-26 -180h-153l26 180h-180z" />
<glyph unicode="," horiz-adv-x="295" d="M54 -104q5 5 14.5 13.5t29 36t28.5 55.5q-27 7 -42 28t-11 51q6 35 34.5 60.5t64.5 25.5t57 -25t16 -61q-16 -111 -158 -216z" />
<glyph unicode="-" horiz-adv-x="455" d="M98 213l23 153h322l-23 -153h-322z" />
<glyph unicode="." horiz-adv-x="294" d="M75 88q5 36 34 62t64 26t56 -26t16 -62t-34 -62t-64 -26t-56 26t-16 62z" />
<glyph unicode="/" horiz-adv-x="652" d="M26 -120l556 980h153l-556 -980h-153z" />
<glyph unicode="0" horiz-adv-x="792" d="M120 216q-13 81 1 196q16 104 55.5 187t94 135t118.5 79t131.5 27t123 -26.5t95 -80t54 -134t-0.5 -187.5q-16 -111 -55.5 -195t-94 -133.5t-117 -74t-131 -24.5t-123.5 23.5t-96.5 75t-54.5 132.5zM307 265q9 -58 37.5 -86.5t74.5 -28.5q69 0 116.5 65.5t66.5 196.5 q19 125 -9.5 194t-96.5 69t-117 -69.5t-68 -193.5q-13 -89 -4 -147z" />
<glyph unicode="1" horiz-adv-x="457" d="M138 487l28 186l257 152h89l-122 -825h-188l85 575z" />
<glyph unicode="2" horiz-adv-x="755" d="M56 0l7 47q10 7 27 20t67 52.5t96 78t102.5 90.5t98.5 96.5t73 89.5t35 76q2 10 2 20.5t-1 26.5t-7 30t-16 26.5t-29.5 20t-45.5 7.5t-52.5 -16t-47 -39.5t-37 -46.5t-25.5 -39l-9 -16l-145 76q2 5 6.5 13.5t21 33.5t35 47.5t49 50.5t62.5 48t75.5 33.5t89.5 13.5 q59 0 105.5 -11t76.5 -28.5t51 -42.5t31 -50t14.5 -55t3.5 -54t-5 -49q-8 -54 -46.5 -113.5t-88.5 -106t-98.5 -85t-81.5 -59.5l-33 -21h306l-24 -165h-643z" />
<glyph unicode="3" horiz-adv-x="720" d="M80 188l186 85v-13.5t5.5 -30.5t16.5 -38.5t35.5 -30t59.5 -13.5q50 0 91.5 24t57 57.5t11.5 67t-47 55.5t-116 20l18 123q110 0 146 64q26 47 -2 91q-25 40 -77 40q-21 0 -40.5 -5.5t-33 -14.5t-25 -20t-18.5 -22t-12 -20t-7 -14l-2 -6l-138 72q3 7 9 19.5t30.5 43.5 t55 55t85.5 43.5t120 19.5q78 0 135 -30.5t84 -85.5t17 -124q-15 -98 -96 -155q95 -64 77 -189q-18 -118 -115.5 -194.5t-230.5 -76.5q-52 0 -95.5 11t-71.5 29t-50 39.5t-33.5 43.5t-18.5 40t-9 29z" />
<glyph unicode="4" horiz-adv-x="782" d="M81 174l8 56l417 595h247l-72 -486h96l-24 -165h-96l-26 -174h-176l26 174h-400zM356 339h149l35 235h-40z" />
<glyph unicode="5" horiz-adv-x="706" d="M77 164l160 72q6 -42 38 -68t93 -26q74 0 118 59q42 56 22 113q-27 75 -145 90q-24 3 -52 3q-82 0 -145 -26l135 444h421l-25 -165h-260l-35 -115q49 0 88.5 -5.5t76 -18.5t61.5 -34.5t44 -53.5t22 -76t-3 -101q-18 -118 -115.5 -194.5t-230.5 -76.5q-63 0 -113 16 t-80.5 42.5t-48.5 56.5t-26 64z" />
<glyph unicode="6" horiz-adv-x="748" d="M96 265q4 26 18.5 60t32.5 65.5t50 74.5t56 73.5t64.5 78t63 72.5t65 72.5t56.5 63.5h217l-269 -283q22 12 60 12q44 0 86.5 -18.5t77 -53t51 -91.5t6.5 -126q-11 -70 -45.5 -125.5t-84 -88t-105 -49.5t-113.5 -17q-139 0 -222 81t-65 199zM291 265q-8 -54 22 -89.5 t84 -35.5q55 0 96.5 35.5t49.5 89.5q8 55 -23.5 91.5t-84.5 36.5q-35 0 -66 -16.5t-52 -46t-26 -65.5z" />
<glyph unicode="7" horiz-adv-x="760" d="M51 0q21 34 66 111.5t69.5 118t69 108t81 114t87 103.5t104.5 105h-355l25 165h633l-8 -55q-188 -215 -325 -403t-225 -367h-222z" />
<glyph unicode="8" horiz-adv-x="726" d="M87 222q6 41 22 77t40 63t52.5 47.5t62.5 35.5q-100 62 -81 187q6 44 35.5 83.5t72 66.5t94 42.5t102.5 15.5q70 0 128 -26t89 -74.5t22 -107.5q-19 -125 -134 -187q62 -30 93 -86t19 -137q-10 -67 -63 -122.5t-127.5 -85t-152.5 -29.5q-80 0 -146 30t-102 85t-26 122z M296 252q-4 -23 1 -42.5t16.5 -33t29.5 -21.5t41 -8q45 0 79.5 29.5t41.5 75.5q6 46 -20 75.5t-70 29.5t-78 -29.5t-41 -75.5zM360 605q-6 -40 17 -66t62 -26q27 0 49 11.5t37 32.5t19 48q4 26 -4.5 47.5t-27.5 33.5t-45 12q-40 0 -70.5 -26.5t-36.5 -66.5z" />
<glyph unicode="9" horiz-adv-x="749" d="M140 560q10 70 44.5 125.5t84 88t105 49.5t113.5 17q139 0 222 -81t66 -199q-4 -26 -19 -60t-33 -65.5t-49.5 -74.5t-55.5 -73.5t-65 -78t-63.5 -72.5t-65 -72.5t-56.5 -63.5h-217l270 283q-23 -12 -61 -12q-44 0 -86.5 18.5t-76.5 53t-50.5 91.5t-6.5 126zM328 560 q-8 -55 23 -91.5t85 -36.5q52 0 94 36.5t50 91.5q5 36 -6.5 64.5t-38 44.5t-62.5 16q-55 0 -96 -35.5t-49 -89.5z" />
<glyph unicode=":" horiz-adv-x="301" d="M78.5 88q5.5 36 34.5 62t63.5 26t56 -26t16 -62t-34.5 -62t-63.5 -26t-56 26t-16 62zM122.5 386q5.5 36 34.5 62t63.5 26t56 -26t16 -62t-34.5 -62t-63.5 -26t-56 26t-16 62z" />
<glyph unicode=";" horiz-adv-x="302" d="M58 -104q6 5 15 13.5t28.5 36t28.5 55.5q-27 7 -42 28t-11 51q6 35 34.5 60.5t64.5 25.5t57 -25t16 -61q-16 -111 -158 -216zM121.5 386q5.5 36 34.5 62t63.5 26t56 -26t16 -62t-34.5 -62t-63.5 -26t-56 26t-16 62z" />
<glyph unicode="&#x3c;" horiz-adv-x="672" d="M115 357l18 118l579 222l-21 -142l-378 -140l337 -138l-21 -142z" />
<glyph unicode="=" horiz-adv-x="652" d="M102 218l22 153h513l-22 -153h-513zM137 458l23 153h513l-23 -153h-513z" />
<glyph unicode="&#x3e;" horiz-adv-x="674" d="M83 135l21 142l379 138l-338 140l21 142l515 -222l-18 -118z" />
<glyph unicode="?" horiz-adv-x="656" d="M143 611q1 4 9.5 21.5t31 47t53.5 55.5t84.5 45.5t115.5 19.5q75 0 135.5 -30t92 -85.5t21.5 -123.5q-19 -127 -199 -199q-29 -19 -35.5 -37.5t-18.5 -94.5h-165q18 120 31 159t48 59q13 7 28 14.5t26.5 12.5t23.5 11.5t20.5 13t16.5 15t13 20t7 26.5q5 36 -15 59t-54 23 q-49 0 -83 -31.5t-50 -71.5zM247 88q3 24 18 44t36 32t44 12q35 0 56 -26t16 -62t-34 -62t-64 -26t-56 26t-16 62z" />
<glyph unicode="@" horiz-adv-x="994" d="M120 413q18 124 94.5 222.5t186.5 151.5t232 53q70 0 131.5 -18.5t109 -54t80 -83.5t45 -110.5t1.5 -131.5q-8 -56 -32 -99.5t-57.5 -69t-70.5 -38t-75 -12.5q-85 0 -132 46q-23 -33 -62.5 -50t-82.5 -17q-82 0 -127 58t-32 143q12 86 74.5 144.5t143.5 58.5 q63 0 108.5 -14t68.5 -36t36.5 -48.5t17.5 -53t6.5 -48.5t9 -36t20.5 -14q33 0 46 16t21 70q18 117 -59 192t-208 75q-127 0 -228.5 -86.5t-119.5 -209.5q-18 -121 58.5 -203.5t203.5 -82.5q37 0 70.5 7t55.5 17t39 20t24 17l8 7l104 -77q-4 -5 -12.5 -14t-38.5 -32 t-64.5 -40.5t-90.5 -32t-116 -14.5q-91 0 -168.5 31.5t-130.5 87t-77.5 136t-10.5 173.5zM468 405q-5 -35 16.5 -57.5t60.5 -22.5q25 0 46 10.5t35 28.5t18 41q5 35 -17 58.5t-58 23.5q-37 0 -66.5 -23.5t-34.5 -58.5z" />
<glyph unicode="A" horiz-adv-x="931" d="M46 0l453 825h174l213 -825h-202l-38 165h-314l-84 -165h-202zM420 330h186l-58 240z" />
<glyph unicode="B" horiz-adv-x="727" d="M67 0l121 821h310q81 0 134 -26.5t76 -79.5q16 -36 16 -82q0 -22 -4 -47q-16 -104 -93 -167q70 -54 70 -146q0 -19 -3 -41q-16 -111 -103.5 -171.5t-213.5 -60.5h-310zM285 142h24q23 0 39.5 1t38.5 4t38 10t31.5 17.5t25.5 28.5t13 41q1 7 1 14q0 15 -4 27 q-6 18 -21.5 28.5t-32 17.5t-38 10t-34.5 4t-27 1h-24zM334 472h24q27 0 44.5 1t39 7t35 16.5t25 30t15.5 47.5q2 14 2 26q-1 18 -5 30q-8 22 -29.5 31.5t-42 12t-54.5 2.5h-24z" />
<glyph unicode="C" horiz-adv-x="798" d="M117 411q17 116 94.5 215.5t189 156.5t227.5 57q36 0 68.5 -2t55.5 -5.5t42 -8t31 -9t20 -8t11 -5.5l4 -2l-68 -185q-7 4 -21 11t-56.5 18t-85.5 11q-68 0 -125 -22t-94 -58t-59.5 -77.5t-29.5 -84.5q-2 -16 -2 -31q1 -27 7 -54q10 -42 36 -78t77 -58t119 -22q42 0 86 10 t66 20l23 10l12 -185q-7 -4 -23 -11t-78.5 -18t-142.5 -11q-86 0 -162.5 33.5t-129.5 90.5t-79 137q-17 53 -17 108q0 28 4 57z" />
<glyph unicode="D" horiz-adv-x="791" d="M68 0l122 825h240q84 0 155.5 -31t119.5 -84.5t70 -131.5q14 -49 13 -101q0 -31 -4 -64q-17 -118 -87.5 -213t-173 -147.5t-215.5 -52.5h-240zM281 168q60 0 107.5 11.5t80.5 32.5t56.5 52t37 67t20.5 81q5 29 5 56q0 23 -4 43q-8 45 -32 77.5t-74.5 50.5t-124.5 18z" />
<glyph unicode="E" horiz-adv-x="613" d="M70 0l122 825h472l-24 -165h-284l-24 -164h272l-25 -165h-272l-24 -166h284l-25 -165h-472z" />
<glyph unicode="F" horiz-adv-x="608" d="M65 0l122 825h478l-25 -165h-290l-24 -164h268l-24 -165h-268l-49 -331h-188z" />
<glyph unicode="G" horiz-adv-x="903" d="M121 412q17 117 83 215t167 155.5t215 57.5q201 0 297 -141l-143 -135q-50 106 -168 106q-87 0 -159.5 -75.5t-88.5 -182.5q-3 -23 -3 -46q0 -43 13 -82q19 -58 62 -92t100 -34q34 0 67.5 11t62 30.5t48 50t25.5 67.5h-170l-13 145h395l-68 -462l-92 34l13 60 q-114 -109 -304 -109q-109 0 -193.5 57t-123.5 156q-27 68 -27 145q0 34 5 69z" />
<glyph unicode="H" horiz-adv-x="744" d="M75 0l122 825h188l-47 -319h218l47 319h188l-122 -825h-188l47 318h-218l-47 -318h-188z" />
<glyph unicode="I" horiz-adv-x="338" d="M75 0l122 825h188l-122 -825h-188z" />
<glyph unicode="J" horiz-adv-x="597" d="M59 -5l86 180q86 -10 134 -10q43 0 73 28.5t39 87.5l80 544h188l-87 -592q-18 -121 -93.5 -184.5t-200.5 -63.5q-24 0 -49 0.5t-46 1.5t-40.5 2t-34.5 2t-26.5 2t-16.5 1z" />
<glyph unicode="K" horiz-adv-x="869" d="M58 0l122 825h188l-60 -406l344 406h228l-358 -406l288 -419h-260l-242 419l-62 -419h-188z" />
<glyph unicode="L" horiz-adv-x="604" d="M66 0l122 825h188l-98 -660h284l-24 -165h-472z" />
<glyph unicode="M" horiz-adv-x="1044" d="M72 0l122 825h266l114 -476l252 476h267l-121 -825h-188l76 523l-289 -518h-98l-133 518l-80 -523h-188z" />
<glyph unicode="N" horiz-adv-x="856" d="M75 0l122 825l453 -425l65 425h188l-122 -825l-455 424l-63 -424h-188z" />
<glyph unicode="O" horiz-adv-x="951" d="M121 412q17 114 86.5 213t174 157t218.5 58t201 -58t127 -156q29 -69 29 -146q0 -33 -5 -67q-17 -115 -86.5 -213t-174 -156.5t-218 -58.5t-201.5 59q-88 58 -128 156q-29 69 -28 146q0 32 5 66zM308 413q-3 -18 -3 -36q0 -43 16 -81q22 -54 70 -86.5t111 -32.5 q95 0 172 69.5t91 166.5q3 19 3 38q0 73 -45 128q-56 69 -151.5 69t-172.5 -69t-91 -166z" />
<glyph unicode="P" horiz-adv-x="711" d="M64 0l122 825h301q72 -2 124 -23.5t79.5 -57.5t37.5 -80q6 -26 6 -53q0 -19 -3 -40q-39 -262 -433 -265l-46 -306h-188zM320 456q22 0 39.5 1.5t39.5 4.5t38.5 7.5t33.5 12.5t28.5 19t20.5 27.5t12 36.5q2 10 2 19q0 20 -8 36q-12 22 -38.5 34t-58.5 16.5t-77 4.5z" />
<glyph unicode="Q" horiz-adv-x="1002" d="M111 412q17 115 86.5 213.5t174 156.5t218.5 58q85 0 157.5 -34.5t119.5 -92t68 -135.5q13 -49 13 -100q0 -32 -5 -65q-21 -141 -121 -256l130 -157h-226l-39 46q-106 -61 -223 -61q-114 0 -201.5 58.5t-128.5 156.5q-28 69 -28 146q0 33 5 66zM298 413q-3 -18 -3 -36 q0 -43 16 -81q22 -55 70 -87t111 -32q32 0 72 12l-80 93l142 112l82 -99q39 54 48 118q3 18 3 36q0 43 -16 81q-22 54 -70.5 86t-111 32t-120 -32t-96 -86t-47.5 -117z" />
<glyph unicode="R" horiz-adv-x="711" d="M64 0l122 825h301q72 -2 124 -23.5t79.5 -57.5t37.5 -80q6 -26 6 -53q0 -19 -3 -40q-24 -162 -186 -226l177 -345h-208l-156 308q-27 -2 -60 -2l-46 -306h-188zM320 456q22 0 39.5 1.5t39.5 4.5t38.5 7.5t33.5 12.5t28.5 19t20.5 27.5t12 36.5q2 10 2 19q0 20 -8 36 q-12 22 -38.5 34t-58.5 16.5t-77 4.5z" />
<glyph unicode="S" horiz-adv-x="726" d="M66 94l118 158q37 -30 88.5 -51.5t100.5 -29.5q16 -3 31 -3q30 0 55 12q37 16 44 60q1 5 1 9q0 17 -10 35q-12 22 -33 39t-49 35t-58 34t-57.5 37t-48.5 43q-22 22 -32 52q-7 20 -7 42q0 11 2 22q8 54 38 104.5t81 87.5q50 38 114 54q32 8 68 8q38 0 80 -9 q84 -17 170 -71l-98 -150q-38 38 -86 52q-30 9 -56 9q-15 0 -29 -3q-37 -8 -65 -28q-32 -24 -33 -51q1 -13 13 -27q14 -16 37 -28.5t53.5 -28.5t62.5 -31.5t61.5 -38.5t51.5 -48t32 -61q7 -23 7 -48q0 -14 -2 -29q-8 -49 -37.5 -96.5t-75 -85.5t-106.5 -60q-62 -23 -129 -25 h-11q-62 0 -134 26q-78 28 -152 84z" />
<glyph unicode="T" horiz-adv-x="682" d="M148 660l25 165h580l-25 -165h-196l-97 -660h-188l97 660h-196z" />
<glyph unicode="U" horiz-adv-x="785" d="M114 293l78 532h188l-70 -477q-6 -37 -6 -66q0 -49 16 -73q26 -39 97.5 -39t108.5 39t52 139l70 477h188l-78 -532q-23 -152 -116.5 -230t-251.5 -78t-228 78q-53 59 -54 160q0 33 6 70z" />
<glyph unicode="V" horiz-adv-x="927" d="M165 825h212l128 -542l288 542h212l-467 -825h-148z" />
<glyph unicode="W" horiz-adv-x="1239" d="M165 825h210l57 -566h6l233 566h142l67 -566h4l225 566h208l-357 -825h-208l-64 463l-200 -463h-208z" />
<glyph unicode="X" horiz-adv-x="958" d="M46 0l374 418l-252 407h233l159 -244l231 244h243l-382 -407l260 -418h-243l-156 262l-234 -262h-233z" />
<glyph unicode="Y" horiz-adv-x="889" d="M164 825h221l134 -324l228 324h221l-369 -506l-47 -319h-216l48 319z" />
<glyph unicode="Z" horiz-adv-x="825" d="M44 0l505 660h-301l-24 165h679l-507 -660h333l25 -165h-710z" />
<glyph unicode="[" horiz-adv-x="448" d="M25 -260l165 1120h322l-17 -117h-169l-131 -886h169l-17 -117h-322z" />
<glyph unicode="\" horiz-adv-x="653" d="M171 860h153l267 -980h-153z" />
<glyph unicode="]" horiz-adv-x="449" d="M25 -260l17 117h169l131 886h-169l17 117h322l-165 -1120h-322z" />
<glyph unicode="^" horiz-adv-x="617" d="M145 605l242 235h92l172 -235h-161l-76 109l-108 -109h-161z" />
<glyph unicode="_" horiz-adv-x="663" d="M60 -100l13 85h513l-13 -85h-513z" />
<glyph unicode="`" horiz-adv-x="406" d="M163 725l108 115l177 -176l-67 -77z" />
<glyph unicode="a" horiz-adv-x="735" d="M105 256q17 114 101 193t194 79q7 0 30.5 0.5t42 0.5t47.5 -0.5t52.5 -2.5t50.5 -5t46.5 -9t35.5 -13.5t24 -19t6 -25.5l-67 -454h-176l9 58q-35 -33 -82.5 -53t-98.5 -20q-112 1 -172 79q-47 61 -47 144q0 23 4 48zM293 256q-2 -11 -2 -21q0 -22 8 -41q11 -27 36 -42.5 t61 -15.5q51 0 90 34q38 34 46 86q2 11 2 21q0 39 -24 66q-30 34 -79 34q-51 0 -90.5 -34t-47.5 -87z" />
<glyph unicode="b" horiz-adv-x="742" d="M69 0l127 860h177l-50 -334q31 2 169 2q73 0 126.5 -36.5t76.5 -98.5q16 -42 16 -90q0 -23 -4 -47q-17 -114 -100.5 -192.5t-194.5 -78.5q-51 0 -93 20t-66 53l-9 -58h-175zM278 231q2 -43 30 -69t73 -26q54 0 92 33.5t46 86.5q2 11 2 22q1 39 -23 65q-30 34 -81 34 q-44 0 -80 -26.5t-51 -68.5z" />
<glyph unicode="c" horiz-adv-x="572" d="M96 255q11 74 60 137t119.5 99.5t144.5 36.5q32 0 60.5 -5t47 -12t32 -14t19.5 -12l6 -5l-78 -121q-30 24 -82 24q-33 0 -64 -17t-51.5 -46t-25.5 -63q-2 -11 -2 -21q0 -39 24 -69q30 -37 81 -37q24 0 46.5 6t32.5 12l11 6l42 -123q-3 -2 -8 -5t-22.5 -11t-36.5 -14 t-49.5 -11t-62.5 -5q-74 0 -134 36q-60 37 -90 99q-22 46 -23 97q0 19 3 38z" />
<glyph unicode="d" horiz-adv-x="742" d="M107 256q17 114 100.5 193t194.5 79q138 0 169 -2l48 334h177l-127 -860h-175l9 58q-35 -33 -83 -53t-98 -20q-112 1 -172 79q-47 61 -47 144q0 23 4 48zM295 256q-2 -11 -2 -22q-1 -22 7 -40q10 -27 36 -42.5t61 -15.5q45 0 81 26t50 69l7 51q-1 21 -9 38.5t-21.5 30 t-32 19.5t-39.5 7q-51 0 -90.5 -34t-47.5 -87z" />
<glyph unicode="e" horiz-adv-x="679" d="M99 256q16 112 111 192t211 80q119 0 185 -80q50 -62 51 -159q0 -29 -5 -62h-373q-1 -7 -1 -15q0 -18 7 -35q10 -24 31.5 -39t49.5 -20q8 -1 16 -1q23 0 50 10q37 14 75 46l120 -54q-100 -134 -286 -134q-115 -1 -187 79q-58 64 -58 150q0 20 3 42zM297 317h195 q0 42 -22.5 69t-60.5 27q-29 0 -53.5 -14.5t-39 -36t-19.5 -45.5z" />
<glyph unicode="f" horiz-adv-x="516" d="M114 450l20 135h74q14 97 44.5 160.5t80 96.5t119.5 33q40 0 74.5 -11.5t49.5 -23.5l15 -11l-81 -125q-22 14 -50 14q-14 0 -24.5 -4.5t-18 -15.5t-12 -20.5t-9 -28.5t-6.5 -30t-5 -34h118l-20 -135h-118l-67 -450h-176l66 450h-74z" />
<glyph unicode="g" horiz-adv-x="683" d="M18 -126l156 71q13 -27 44.5 -46.5t84.5 -19.5q28 0 56 10t54.5 39t32.5 71l5 38q-54 -52 -175 -52q-111 0 -172 79q-47 61 -47 144q0 23 4 48q17 114 100.5 193t194.5 79h81t65.5 -2t56 -5t41.5 -10.5t33.5 -16.5t20.5 -24.5t14.5 -34.5t3.5 -47q1 -10 1 -20 q0 -18 -3 -38q-3 -32 -9 -74l-40 -270q-19 -125 -112 -193t-229 -68q-219 0 -262 149zM249 256q-2 -11 -2 -22q0 -22 7 -40q11 -27 36.5 -42.5t60.5 -15.5q52 0 90.5 34t46.5 86q8 55 9 62q1 8 1 15q0 14 -4 21q-6 12 -30 17.5t-77 5.5q-34 0 -63.5 -15.5t-49.5 -43 t-25 -62.5z" />
<glyph unicode="h" horiz-adv-x="695" d="M72 0l127 860h177l-59 -401q79 69 159 69q30 0 59 -6t57 -20t48 -35t30 -55q6 -21 5 -43q0 -15 -2 -31l-50 -338h-177l43 290q1 9 1 17q0 29 -16 53q-21 30 -62 30q-40 0 -77.5 -31t-42.5 -69l-43 -290h-177z" />
<glyph unicode="i" horiz-adv-x="321" d="M70 0l78 526h180l-78 -526h-180zM178 691q3 18 12 34t22.5 28t30 19t33.5 7q35 0 56 -26q17 -21 17 -49q0 -7 -1 -13q-5 -36 -34 -62t-64 -26t-56 26q-17 21 -17 49q0 6 1 13z" />
<glyph unicode="j" horiz-adv-x="394" d="M21 -14q7 2 24 7t25.5 9.5t21 14t20 26.5t10.5 41l63 427h177l-62 -421q-15 -107 -80.5 -173.5t-160.5 -66.5q-11 0 -23 19.5t-19 44.5q-7 22 -7 43q0 25 11 29zM215 691q3 18 12 34t22.5 28t30 19t33.5 7q35 0 56 -26q17 -21 17 -49q0 -6 -1 -13q-5 -36 -34 -62t-64 -26 t-56 26q-17 21 -17 49q0 6 1 13z" />
<glyph unicode="k" horiz-adv-x="728" d="M59 0l127 860h177l-78 -526l206 179h230l-280 -245l228 -268h-228l-175 205l-30 -205h-177z" />
<glyph unicode="l" horiz-adv-x="406" d="M141 225l86 600h176l-83 -591q-1 -6 -1 -12q0 -11 4 -20q6 -14 15 -21t22.5 -11.5t19.5 -5t13 -1.5q7 0 7 -11t-8 -31q-14 -41 -40.5 -81t-40.5 -40q-97 0 -141 60q-33 44 -33 113q0 24 4 52z" />
<glyph unicode="m" horiz-adv-x="1082" d="M72 0l76 520h140l-4 -29q60 37 150 37q74 0 113 -11.5t66 -55.5q47 45 86.5 56t110.5 11q146 0 204 -56q44 -43 44 -126q0 -27 -5 -59l-43 -287h-176l36 244q5 29 5 51q0 17 -3 30q-6 31 -25.5 45t-57.5 14q-46 0 -72 -21.5t-40 -71.5l-43 -291h-180l43 291v7q1 29 -7 47 q-8 20 -27 29.5t-50 9.5q-55 0 -82.5 -32t-38.5 -108l-36 -244h-184z" />
<glyph unicode="n" horiz-adv-x="706" d="M72 0l76 520h140l-4 -29q60 37 151 37q145 0 203 -56q43 -42 44 -126q0 -27 -5 -59l-43 -287h-176l36 244q4 29 4 51q0 37 -11 57q-18 32 -73 32q-37 0 -61.5 -14t-39 -44.5t-21.5 -81.5l-36 -244h-184z" />
<glyph unicode="o" horiz-adv-x="675" d="M99 256q16 109 110.5 190.5t207.5 81.5q74 0 133 -38q58 -38 85 -100q20 -46 20 -96q0 -19 -3 -38q-16 -110 -109 -190.5t-206 -80.5q-75 0 -133 37q-60 38 -88 100q-21 45 -20 95q0 19 3 39zM257 256q-1 -9 -1 -17q0 -37 24 -65q30 -34 78.5 -34t88.5 34q41 35 47 82 q1 8 1 17q-1 37 -25 65q-30 35 -77.5 35t-88 -35t-47.5 -82z" />
<glyph unicode="p" horiz-adv-x="736" d="M30 -260l105 714q2 14 13 25.5t29.5 19t39.5 13.5t49 9t52 5t53.5 2.5t48 0.5t42 -0.5t29.5 -0.5q111 0 171 -78q48 -62 48 -145q0 -23 -4 -48q-17 -114 -100.5 -193t-194.5 -79q-138 0 -169 2l-35 -247h-177zM278 231q2 -42 30.5 -68.5t71.5 -26.5q51 0 90.5 34t47.5 87 q2 12 2 22q0 38 -22 65q-29 33 -82 33q-45 0 -81 -26t-50 -69z" />
<glyph unicode="q" horiz-adv-x="736" d="M106 257q17 114 100.5 192.5t194.5 78.5q6 0 29.5 0.5t42 0.5t48 -0.5t52.5 -2.5t50 -5t46.5 -9t36 -13.5t24 -19t5.5 -25.5l-105 -714h-177l37 247q-31 -2 -169 -2q-111 0 -171 79q-48 62 -48 145q0 23 4 48zM294 257q-2 -11 -2 -22q0 -38 24 -65q29 -34 80 -34 q44 0 80 26.5t51 68.5l7 51q-1 43 -29 69t-73 26q-54 0 -92 -33.5t-46 -86.5z" />
<glyph unicode="r" horiz-adv-x="573" d="M62 0l76 513h177l-11 -74q3 4 8.5 10t23 21t36.5 27t47.5 21.5t56.5 9.5q30 0 56.5 -8t39.5 -16l12 -8l-96 -150q-2 1 -4 3t-10.5 7t-17.5 8.5t-24.5 6.5t-31.5 3q-22 0 -41 -6.5t-31.5 -17.5t-22 -23t-15 -24.5t-8 -20.5t-3.5 -12l-39 -270h-178z" />
<glyph unicode="s" horiz-adv-x="546" d="M60 54l90 121q31 -26 59 -40q29 -15 49 -17q7 -1 14 -1q12 -1 22 3q16 4 25 13t10 20v6q-1 17 -17 35q-20 20 -49 37.5t-58 35.5t-48 43q-16 21 -16 43q0 5 1 10q5 30 25.5 61.5t58.5 57t86 39.5q32 9 71 9q20 0 41 -2q65 -7 133 -40l-76 -116q-36 18 -65.5 26t-47.5 8 t-31 -5.5t-18 -12.5q-6 -9 -7 -19q0 -15 20 -30q22 -17 54 -33t64 -35t52 -48q16 -23 16 -50q0 -7 -1 -13q-6 -44 -39.5 -82.5t-83.5 -61t-107 -30.5q-17 -2 -35 -2q-40 0 -83 12q-61 17 -109 58z" />
<glyph unicode="t" horiz-adv-x="487" d="M110 378l20 135h74l28 191h177l-28 -191h108l-20 -135h-108l-24 -163q-2 -15 -3 -27q0 -44 32 -44q10 0 22 4t18 8l7 4l23 -143q-7 -4 -19.5 -9t-48 -14t-67.5 -9q-41 0 -71 11.5t-46 31.5q-15 18 -24 44q-9 24 -9 51q0 25 4 58l29 197h-74z" />
<glyph unicode="u" horiz-adv-x="694" d="M102 226l43 287h177l-36 -244q-5 -30 -5 -53q1 -6 1 -12q2 -26 11 -43t27 -24.5t46 -7.5q55 0 82.5 32t39.5 108l36 244h177l-43 -287q-19 -128 -93.5 -184.5t-219.5 -56.5q-145 1 -203 57q-44 43 -45 126q0 27 5 58z" />
<glyph unicode="v" horiz-adv-x="767" d="M124 513h210l84 -279l166 279h210l-350 -513h-120z" />
<glyph unicode="w" horiz-adv-x="1123" d="M124 513h204l84 -277l164 277h122l82 -277l166 277h204l-350 -513h-120l-79 265l-157 -265h-120z" />
<glyph unicode="x" horiz-adv-x="744" d="M45 0l259 268l-152 245h207l71 -119l107 119h207l-224 -245l179 -268h-214l-92 145l-134 -145h-214z" />
<glyph unicode="y" horiz-adv-x="765" d="M74 -260l227 340l-179 433h204l104 -263l161 263h204l-517 -773h-204z" />
<glyph unicode="z" horiz-adv-x="648" d="M48 0l310 378h-212l20 135h509l-310 -378h234l-19 -135h-532z" />
<glyph unicode="{" horiz-adv-x="432" d="M90 253l14 94q70 0 80 65q3 21 9 60q9 66 14 96t13.5 77.5t16.5 66.5t20 49.5t27.5 40.5t36 26t47.5 20t60.5 8t77.5 4l-19 -128q-75 0 -95 -38.5t-45 -208.5q-7 -49 -11 -78q-11 -75 -77 -107q57 -32 45 -107q-4 -29 -11 -78q-28 -162 -18.5 -204.5t85.5 -42.5l-19 -128 q-129 0 -176.5 31.5t-49 117.5t26.5 239q6 39 9 60q9 65 -61 65z" />
<glyph unicode="|" horiz-adv-x="302" d="M74 0l127 860h153l-126 -860h-154z" />
<glyph unicode="}" horiz-adv-x="432" d="M15 -260l19 128q75 0 95 38.5t44 208.5q7 49 11 78q12 75 77 107q-56 32 -45 107q4 29 12 78q28 162 18.5 204.5t-85.5 42.5l19 128q129 0 176.5 -31.5t49 -117.5t-26.5 -239q-6 -39 -9 -60q-10 -65 60 -65l-14 -94q-70 0 -79 -65q-3 -21 -9 -60q-10 -66 -14.5 -96 t-13.5 -77.5t-16.5 -66.5t-20 -49.5t-27.5 -40.5t-35.5 -26t-48 -20t-61 -8t-76.5 -4z" />
<glyph unicode="~" horiz-adv-x="691" d="M116 391q2 3 5.5 8t14.5 19t23 27t30 29t36.5 27t42 19t45.5 8q29 0 71.5 -21.5t80.5 -42.5t56 -21q26 0 49.5 19.5t34.5 39.5l11 19l81 -81q-1 -3 -4.5 -8t-14.5 -19t-23 -27t-30 -29t-36.5 -27t-42 -19t-46.5 -8q-35 0 -67 13.5t-52 29t-44 29t-44 13.5 q-12 0 -23.5 -4.5t-21 -11t-17.5 -15t-14 -17t-10.5 -15t-7.5 -11.5l-2 -4z" />
<glyph unicode="&#xa1;" horiz-adv-x="303" d="M25 -260l111 590h129l-63 -590h-177zM138 468q3 18 12 34t22.5 28t30 19t33.5 7q35 0 56 -26t16 -62t-34 -62t-63.5 -26t-56 26t-16.5 62z" />
<glyph unicode="&#xa2;" horiz-adv-x="568" d="M94 255q13 88 78.5 159t154.5 99l18 123h108l-16 -109q44 -2 80.5 -14t51.5 -22l14 -11l-78 -121q-30 24 -82 24q-51 0 -92 -37t-49 -89q-8 -53 22.5 -90t80.5 -37q24 0 46.5 6t32.5 12l11 6l42 -123q-48 -32 -130 -43l-17 -117h-108l18 121q-92 20 -146 94t-40 169z" />
<glyph unicode="&#xa3;" horiz-adv-x="763" d="M54 0q3 21 17.5 50.5t37 58.5t54 49t63.5 20q17 0 21 22.5t-1 46.5t-12 42h-138l15 98h102q-40 82 -27 171q18 123 103.5 203t219.5 80q37 0 69.5 -6.5t55.5 -17.5t42 -25t31.5 -30t21.5 -32t14 -30t7.5 -25t3.5 -18l1 -6l-170 -77q0 5 -0.5 12.5t-6 27.5t-15 35 t-30 27.5t-47.5 12.5q-45 0 -75 -36t-39 -95q-4 -24 -4.5 -43.5t3 -39t6 -29t9.5 -32t9 -27.5h173l-15 -98h-154q-21 -36 -24.5 -73t9.5 -52q10 -13 49.5 -24t91.5 -11q11 0 21.5 4t18.5 10.5t14 14t10.5 15t7.5 14t4 10.5l1 4l127 -68q-2 -6 -6 -16t-20 -35.5t-37 -45 t-59 -35.5t-83 -16q-41 0 -86 9t-76.5 20t-70 20t-69.5 9q-12 0 -21.5 -4.5t-15 -10.5t-9.5 -12.5t-6 -11.5l-2 -4h-114z" />
<glyph unicode="&#xa4;" horiz-adv-x="888" d="M86 98l104 97q-51 94 -33 217q16 104 80 190l-85 92l99 97l85 -92q107 76 228 76q114 0 196 -66l99 92l85 -85l-109 -101q45 -91 29 -203q-17 -114 -89 -205l80 -86l-99 -97l-83 90q-100 -66 -216 -66q-110 0 -188 57l-98 -91zM329 336.5q7 -37.5 23 -67t49 -48t79 -18.5 t84.5 18t63.5 48t41 66.5t22 76.5q8 55 -3.5 101t-49 77t-96.5 31q-87 0 -143.5 -61.5t-68.5 -147.5q-8 -38 -1 -75.5z" />
<glyph unicode="&#xa5;" horiz-adv-x="895" d="M168 825h220l134 -324l229 324h220l-290 -397h82l-19 -130h-145l-9 -61h145l-19 -130h-145l-16 -107h-215l16 107h-139l19 130h139l9 61h-139l19 130h76z" />
<glyph unicode="&#xa6;" horiz-adv-x="297" d="M72 0l49 332h153l-49 -332h-153zM150 528l49 332h153l-49 -332h-153z" />
<glyph unicode="&#xa7;" horiz-adv-x="699" d="M43 -84l165 34q0 -2 0.5 -4.5t3.5 -10.5t7 -15.5t11.5 -16t16.5 -15t23.5 -11t30.5 -4.5q29 0 49.5 8t29.5 20t11 27q2 10 -1 19.5t-13 19t-19 16.5t-29 18t-32.5 17.5t-38.5 19.5q-91 46 -132.5 101.5t-29.5 136.5q7 38 28 72t55 62t77 46q-41 33 -56.5 74t-6.5 101 q13 88 87.5 148.5t201.5 60.5q44 0 79 -10t57 -25.5t38 -35t23.5 -38.5t12 -34.5t4.5 -25.5l1 -10l-165 -34q0 3 -0.5 7t-3.5 15.5t-9.5 20t-22 15.5t-36.5 7q-30 0 -48.5 -15.5t-22.5 -39.5q-1 -10 2 -19t13 -18.5t19.5 -17t29.5 -18.5t33 -17.5l39 -19.5 q91 -46 132.5 -101.5t29.5 -136.5q-12 -57 -54 -105t-107 -75q41 -34 56.5 -75t6.5 -100q-4 -28 -15.5 -55t-35.5 -55.5t-57.5 -50t-85.5 -35t-116 -13.5q-47 0 -86 10.5t-63 27.5t-41.5 37t-26 40.5t-13.5 37.5t-6 27v11zM264 305q-1 -10 3 -20t14.5 -20.5t19.5 -18.5 t27 -19t28 -17t31.5 -18t29.5 -16q27 -15 62 17.5t39 66.5q-1 53 -154 129q-32 16 -67 -15.5t-33 -68.5z" />
<glyph unicode="&#xa8;" horiz-adv-x="544" d="M164.5 699q5.5 38 36.5 65t69.5 27t61 -27t17.5 -65q-2 -13 -7 -24.5t-12.5 -22t-17.5 -19t-20.5 -14t-23 -9t-25.5 -3.5q-38 0 -61 27t-17.5 65zM401.5 699q5.5 38 36.5 65t69.5 27t61 -27t17 -65t-36.5 -65t-69 -27t-61 27t-17.5 65z" />
<glyph unicode="&#xa9;" horiz-adv-x="973" d="M120 412q17 116 89 214.5t178.5 156t222.5 57.5t206 -57.5t133 -156t26 -214.5q-13 -87 -58.5 -166t-111.5 -136t-150 -91t-171 -34q-116 0 -206 57.5t-132.5 155.5t-25.5 214zM234 412q-13 -85 18.5 -157t97.5 -114t151 -42q129 0 235 92t125 221q12 85 -19 157.5 t-97.5 114.5t-151.5 42q-129 0 -234.5 -92t-124.5 -222zM348 413q13 86 88 148.5t161 62.5q38 0 69.5 -8.5t42.5 -15.5t14 -11l-56 -89q-32 16 -65 16q-40 0 -73.5 -29.5t-39.5 -71.5q-6 -43 18 -72.5t65 -29.5q40 0 69 16q5 -16 15 -45t15 -45q-6 -4 -18 -9.5t-47.5 -14.5 t-70.5 -9q-86 0 -143 61t-44 146z" />
<glyph unicode="&#xaa;" horiz-adv-x="500" d="M163 671q7 46 32.5 84.5t65.5 61.5t85 23q62 0 99 -40l5 30h109l-47 -317h-108l5 36q-48 -45 -113 -45q-68 0 -105.5 48.5t-27.5 118.5zM280 671q-3 -21 3.5 -38t22 -26.5t37.5 -9.5q32 0 56 21t29 53q5 33 -13.5 54t-49.5 21t-55.5 -21t-29.5 -54z" />
<glyph unicode="&#xab;" horiz-adv-x="649" d="M97 278l231 250l83 -73l-164 -177l111 -177l-103 -73zM347 278l231 250l83 -73l-164 -177l111 -177l-103 -73z" />
<glyph unicode="&#xac;" horiz-adv-x="645" d="M109 288l12 85h513l-26 -176h-76l14 91h-437z" />
<glyph unicode="&#xad;" horiz-adv-x="392" d="M101 232l23 153h258l-23 -153h-258z" />
<glyph unicode="&#xae;" horiz-adv-x="567" d="M150 615q14 93 89.5 159t167.5 66q93 0 149 -66t42 -159q-13 -92 -88.5 -157.5t-169.5 -65.5q-91 0 -147 65.5t-43 157.5zM210 615q-10 -67 31 -115t108 -48q69 0 124 47.5t65 115.5t-30.5 116.5t-109.5 48.5q-44 0 -85 -22t-68.5 -60t-34.5 -83zM290 513l31 207h73 q20 0 34 -7t21 -21t4 -33q-7 -45 -51 -60l60 -86h-62l-51 82l-12 -82h-47zM354 628h6q37 0 41 27q2 12 -3.5 18.5t-12 8t-17.5 1.5h-6z" />
<glyph unicode="&#xaf;" horiz-adv-x="539" d="M159 634l18 120h408l-18 -120h-408z" />
<glyph unicode="&#xb0;" horiz-adv-x="352" d="M174 772q4 30 23 53.5t47.5 36.5t60.5 13q50 0 79 -29t22 -74q-4 -30 -22.5 -53.5t-47 -36.5t-61.5 -13q-34 0 -58.5 13t-35.5 36.5t-7 53.5zM247 772q-3 -19 7 -32.5t29 -13.5q12 0 23.5 6.5t18.5 17t9 22.5q3 19 -8 32t-29 13q-19 0 -33 -13t-17 -32z" />
<glyph unicode="&#xb1;" horiz-adv-x="645" d="M66 0l23 153h513l-23 -153h-513zM120 363l22 153h180l23 155h153l-23 -155h180l-22 -153h-180l-23 -155h-153l23 155h-180z" />
<glyph unicode="&#xb2;" horiz-adv-x="373" d="M137 513l2 18q8 6 20.5 15.5t45 36t58 50.5t47.5 50.5t24 43.5q0 7 0.5 18.5t-9.5 22t-29 10.5q-16 0 -32.5 -15t-24.5 -31l-9 -15l-57 30q2 4 5.5 10t16 22t26.5 28.5t37 22.5t47 10q32 0 54.5 -8t33 -20t17 -27.5t5.5 -30t-2 -27.5q-3 -21 -18 -44t-34 -41t-38 -33.5 t-32 -23.5l-13 -8h119l-9 -64h-251z" />
<glyph unicode="&#xb3;" horiz-adv-x="350" d="M146 590l71 32v-5t2 -11t6 -14.5t13.5 -11.5t22.5 -5q19 0 35 9t21.5 21.5t4 25.5t-17.5 21.5t-44 7.5l7 46q50 0 58 33q7 24 -14 37q-8 5 -19 5q-17 0 -30.5 -10t-17.5 -20l-4 -9l-53 27q2 3 4 7.5t11.5 16.5t21 21t32.5 16.5t45 7.5q45 0 70.5 -25.5t19.5 -65.5 q-6 -38 -37 -59q37 -25 30 -72q-7 -45 -44 -74t-88 -29q-19 0 -35.5 4.5t-27.5 11t-19 15t-12.5 16.5t-7.5 15t-3 11z" />
<glyph unicode="&#xb4;" horiz-adv-x="405" d="M154 664l229 176l74 -115l-259 -138z" />
<glyph unicode="&#xb5;" horiz-adv-x="696" d="M50 -133l96 646h177l-36 -244q-6 -38 -4.5 -64.5t11 -43.5t27.5 -24.5t46 -7.5q55 0 82.5 32t39.5 108l36 244h177l-43 -287q-19 -128 -93.5 -184.5t-219.5 -56.5q-57 0 -100 8l-19 -126h-177z" />
<glyph unicode="&#xb6;" horiz-adv-x="757" d="M150 571q16 108 99 181t201 73h363l-122 -825h-103l106 721h-61l-106 -721h-103l45 306h-96q-78 0 -133 37t-77.5 97t-12.5 131z" />
<glyph unicode="&#xb7;" horiz-adv-x="299" d="M114.5 339q5.5 36 34.5 62t63.5 26t56 -26t16.5 -62q-4 -24 -18.5 -44t-36 -32t-43.5 -12q-35 0 -56.5 26t-16 62z" />
<glyph unicode="&#xb8;" horiz-adv-x="570" d="M22 -211l80 54q4 -5 10 -13t25.5 -21t39.5 -13q28 0 46.5 8.5t23 21t0 25t-23 21t-45.5 8.5q-16 0 -29 -2t-18 -5l-6 -2l61 155l67 -22l-32 -67q48 0 84.5 -27t29.5 -75q-4 -25 -15.5 -47t-31.5 -41t-52 -30t-72 -11q-18 0 -36 4.5t-31.5 12t-26 16.5t-21 17.5t-15 16 t-9.5 11.5z" />
<glyph unicode="&#xb9;" horiz-adv-x="247" d="M165 697l11 71l96 57h34l-46 -312h-71l32 217z" />
<glyph unicode="&#xba;" horiz-adv-x="500" d="M159 671q10 73 72.5 121t144.5 48q79 0 126.5 -48t37.5 -121q-11 -73 -71.5 -120t-142.5 -47q-57 0 -97.5 21.5t-59 59.5t-10.5 86zM275.5 671q-4.5 -33 12.5 -53.5t51 -20.5q32 0 56 21t29 53q4 33 -14 54t-49.5 21t-56 -21t-29 -54z" />
<glyph unicode="&#xbb;" horiz-adv-x="649" d="M70 101l165 177l-112 177l103 73l159 -250l-232 -250zM320 101l165 177l-112 177l103 73l159 -250l-232 -250z" />
<glyph unicode="&#xbc;" horiz-adv-x="819" d="M92 0l602 825h118l-602 -825h-118zM144 628l16 109l149 88h52l-71 -480h-109l49 335zM390 101l5 33l282 346h108l-42 -283h55l-14 -96h-55l-15 -101h-103l15 101h-236zM554 197h86l20 137h-1z" />
<glyph unicode="&#xbd;" horiz-adv-x="888" d="M92 0l602 825h118l-602 -825h-118zM144 628l16 109l149 88h52l-71 -480h-109l49 335zM468 0l4 27q11 8 29.5 22t66.5 53.5t85.5 74.5t69.5 74.5t36 64.5q2 6 0.5 18.5t-4.5 25t-17 22t-36 9.5q-15 0 -30 -9.5t-26.5 -22.5t-21 -26t-14.5 -23l-6 -9l-83 43q3 6 8 15 t23.5 33t39 42t54 33t69.5 15q39 0 69 -8t47 -22t28 -30.5t14.5 -36.5t3.5 -36t-2 -33q-5 -31 -27 -65t-50.5 -61t-56.5 -49t-47 -34l-19 -12h176l-14 -95h-369z" />
<glyph unicode="&#xbe;" horiz-adv-x="920" d="M115 457l106 48v-8t3 -17t9 -21.5t20 -17t34 -7.5q28 0 51.5 13t32 32.5t6.5 38t-26.5 31t-65.5 11.5l10 70q69 0 86 43q12 32 -13 54q-15 12 -35 13q-26 0 -45.5 -14.5t-26.5 -28.5l-6 -15l-78 41l5.5 11t17 24.5t31 31t48.5 24.5t68 11q66 0 104 -38t29 -98 q-8 -55 -54 -87q54 -36 43 -107q-6 -44 -33.5 -79t-70 -54.5t-91.5 -19.5q-30 0 -54.5 6.5t-40 16.5t-28 22t-19 24.5t-10.5 22.5t-5 16zM197 0l602 825h118l-602 -825h-118zM488 101l5 33l282 346h108l-42 -283h55l-14 -96h-55l-15 -101h-103l15 101h-236zM652 197h86 l20 137h-1z" />
<glyph unicode="&#xbf;" horiz-adv-x="672" d="M96 224q19 127 198 199q29 19 36 37.5t19 94.5h165q-18 -120 -31.5 -159t-47.5 -59q-16 -9 -38.5 -19.5t-36 -17t-27.5 -17t-22 -25t-11 -34.5q-5 -36 15 -59t54 -23q49 0 83 31.5t50 71.5l137 -71q-1 -1 -3.5 -7.5t-8.5 -18t-15 -25.5t-23 -30t-30 -31t-39 -29 t-48.5 -24.5t-58 -17t-68.5 -6.5q-75 0 -135.5 30t-92 85.5t-21.5 123.5zM365 697q5 36 34 62t63.5 26t56 -26t16.5 -62t-34.5 -62t-64 -26t-55.5 26t-16 62z" />
<glyph unicode="&#xc0;" d="M45 0l454 825h174l212 -825h-202l-38 165h-314l-84 -165h-202zM382 1037l108 115l177 -176l-67 -77zM420 330h186l-59 240z" />
<glyph unicode="&#xc1;" d="M45 0l454 825h174l212 -825h-202l-38 165h-314l-84 -165h-202zM420 330h186l-59 240zM550 976l229 176l74 -115l-258 -138z" />
<glyph unicode="&#xc2;" d="M45 0l454 825h174l212 -825h-202l-38 165h-314l-84 -165h-202zM390 990l245 162l197 -162l-81 -91l-137 112l-169 -112zM420 330h186l-59 240z" />
<glyph unicode="&#xc3;" d="M45 0l454 825h174l212 -825h-202l-38 165h-314l-84 -165h-202zM371 927q1 4 3 10t9.5 24t16 34t23 36t30 34t36.5 24t43 10q20 0 86.5 -23t86.5 -23q15 0 28 11.5t18 23.5l6 11h101q-1 -4 -3 -10t-9.5 -24t-16 -34t-23 -36t-29.5 -34t-36.5 -24t-43.5 -10q-16 0 -77 23 t-96 23q-15 0 -27.5 -11.5t-18.5 -23.5l-6 -11h-101zM420 330h186l-59 240z" />
<glyph unicode="&#xc4;" d="M45 0l454 825h174l212 -825h-202l-38 165h-314l-84 -165h-202zM403.5 1011q5.5 38 36.5 65t69 27t61 -27t17.5 -65t-36.5 -65t-69.5 -27t-61 27t-17 65zM420 330h186l-59 240zM640 1011q4 25 19.5 46t38.5 33.5t48 12.5q38 0 61 -27t17.5 -65t-36.5 -65t-69.5 -27t-61 27 t-17.5 65z" />
<glyph unicode="&#xc5;" d="M45 0l454 825h174l212 -825h-202l-38 165h-314l-84 -165h-202zM420 330h186l-59 240zM458 1045q9 62 61.5 102t120.5 40q69 0 109 -40t31 -102q-9 -63 -60 -103t-122 -40q-72 0 -110.5 40t-29.5 103zM558 1045q-4 -27 10.5 -45.5t41.5 -18.5q26 0 46 18.5t24 45.5 q4 26 -11 44t-41 18q-24 0 -45 -18.5t-25 -43.5z" />
<glyph unicode="&#xc6;" horiz-adv-x="1282" d="M55 0l593 825h700l-24 -165h-355l-24 -164h340l-24 -165h-340l-25 -166h355l-24 -165h-590l24 165h-241l-112 -165h-253zM527 330h158l45 305z" />
<glyph unicode="&#xc7;" horiz-adv-x="798" d="M115 411q17 116 94.5 215.5t188.5 156.5t227 57q37 0 69.5 -2t55 -5.5t41.5 -8t31 -9t20 -8t12 -5.5l3 -2l-67 -185q-8 4 -21.5 11t-56.5 18t-85 11q-68 0 -125 -22t-94.5 -58t-60 -77.5t-28.5 -84.5t4 -85t36.5 -78t77 -58t118.5 -22q27 0 55 4t48.5 10t37.5 12t25 10 l9 4l13 -185q-8 -4 -23.5 -11t-78.5 -18t-142 -11q-34 0 -60 4l-24 -52q47 0 84 -27t30 -75q-8 -53 -51 -91t-120 -38q-19 0 -36.5 4.5t-31.5 12t-26 16.5t-20.5 17.5t-15 16t-9.5 11.5l-3 5l80 54q3 -5 9 -13t25.5 -21t40.5 -13q27 0 46 8.5t23 21t0 25t-22.5 21t-46.5 8.5 q-16 0 -29 -2t-18 -5l-5 -2l51 134q-130 42 -203 154t-52 252z" />
<glyph unicode="&#xc8;" horiz-adv-x="613" d="M74 0l121 825h472l-24 -165h-284l-24 -164h272l-25 -165h-272l-24 -166h284l-24 -165h-472zM221 1037l108 115l177 -176l-68 -77z" />
<glyph unicode="&#xc9;" horiz-adv-x="612" d="M70 0l122 825h472l-25 -165h-284l-24 -164h272l-24 -165h-272l-25 -166h284l-24 -165h-472zM326 976l229 176l74 -115l-258 -138z" />
<glyph unicode="&#xca;" horiz-adv-x="612" d="M70 0l122 825h472l-25 -165h-284l-24 -164h272l-24 -165h-272l-25 -166h284l-24 -165h-472zM225 990l245 162l197 -162l-81 -91l-137 112l-169 -112z" />
<glyph unicode="&#xcb;" horiz-adv-x="612" d="M70 0l122 825h472l-25 -165h-284l-24 -164h272l-24 -165h-272l-25 -166h284l-24 -165h-472zM238 1011q4 25 19.5 46t38.5 33.5t48 12.5q38 0 61 -27t17.5 -65t-36.5 -65t-69.5 -27t-61 27t-17.5 65zM475.5 1011q5.5 38 36.5 65t69 27t61 -27t17.5 -65t-36.5 -65 t-69.5 -27t-61 27t-17 65z" />
<glyph unicode="&#xcc;" horiz-adv-x="444" d="M199 0l122 825h188l-122 -825h-188zM210 1037l108 115l177 -176l-67 -77z" />
<glyph unicode="&#xcd;" horiz-adv-x="402" d="M58 0l122 825h188l-122 -825h-188zM198 976l229 176l74 -115l-258 -138z" />
<glyph unicode="&#xce;" horiz-adv-x="518" d="M165 0l122 825h188l-122 -825h-188zM184 990l245 162l197 -162l-81 -91l-137 112l-169 -112z" />
<glyph unicode="&#xcf;" horiz-adv-x="498" d="M154 0l122 825h188l-122 -825h-188zM188 1011q3 25 18.5 46t38.5 33.5t48 12.5q39 0 61.5 -27t17 -65t-36.5 -65t-69 -27t-61 27t-17 65zM424.5 1011q5.5 38 36.5 65t69.5 27t61 -27t17 -65t-36.5 -65t-69 -27t-61 27t-17.5 65z" />
<glyph unicode="&#xd0;" horiz-adv-x="851" d="M112 372l13 89l86 28l50 336h239q84 0 155.5 -31t120 -84.5t70.5 -131t9 -165.5q-17 -118 -88 -213t-173.5 -147.5t-215.5 -52.5h-239l50 336zM352 168q144 0 214.5 63.5t87.5 180.5q10 54 1.5 99t-32.5 77.5t-74.5 50.5t-124.5 18l-25 -168l111 -28l-13 -89l-120 -36z " />
<glyph unicode="&#xd1;" horiz-adv-x="856" d="M75 0l122 825l453 -425l65 425h188l-122 -825l-455 424l-63 -424h-188zM334 927q1 4 3 10t9.5 24t16 34t23 36t30 34t36.5 24t43 10q20 0 86.5 -23t86.5 -23q15 0 28 11.5t18 23.5l6 11h101q-1 -4 -3 -10t-9.5 -24t-16 -34t-23 -36t-29.5 -34t-36.5 -24t-43.5 -10 q-16 0 -77 23t-96 23q-15 0 -27.5 -11.5t-18.5 -23.5l-6 -11h-101z" />
<glyph unicode="&#xd2;" horiz-adv-x="952" d="M121 413q18 118 89 216.5t174.5 154.5t216.5 56t200 -56t128 -154.5t23 -216.5q-17 -119 -85.5 -217t-172 -154.5t-220.5 -56.5q-119 0 -206.5 56.5t-125.5 154t-21 217.5zM321 340.5q1 -35.5 13.5 -67t32.5 -55t54.5 -37.5t79.5 -14q44 0 82 14t65.5 37.5t49 55t34 66.5 t17.5 73q9 46 1 90.5t-27 79t-57.5 55.5t-91.5 21q-69 0 -124.5 -36.5t-85.5 -91t-40 -118.5q-4 -37 -3 -72.5zM393 1037l108 115l177 -176l-68 -77z" />
<glyph unicode="&#xd3;" horiz-adv-x="952" d="M121 413q18 118 89 216.5t174.5 154.5t216.5 56t200 -56t128 -154.5t23 -216.5q-17 -119 -85.5 -217t-172 -154.5t-220.5 -56.5q-119 0 -206.5 56.5t-125.5 154t-21 217.5zM321 340.5q1 -35.5 13.5 -67t32.5 -55t54.5 -37.5t79.5 -14q44 0 82 14t65.5 37.5t49 55t34 66.5 t17.5 73q9 46 1 90.5t-27 79t-57.5 55.5t-91.5 21q-69 0 -124.5 -36.5t-85.5 -91t-40 -118.5q-4 -37 -3 -72.5zM522 976l229 176l74 -115l-259 -138z" />
<glyph unicode="&#xd4;" horiz-adv-x="952" d="M121 413q18 118 89 216.5t174.5 154.5t216.5 56t200 -56t128 -154.5t23 -216.5q-17 -119 -85.5 -217t-172 -154.5t-220.5 -56.5q-119 0 -206.5 56.5t-125.5 154t-21 217.5zM321 340.5q1 -35.5 13.5 -67t32.5 -55t54.5 -37.5t79.5 -14q44 0 82 14t65.5 37.5t49 55t34 66.5 t17.5 73q9 46 1 90.5t-27 79t-57.5 55.5t-91.5 21q-69 0 -124.5 -36.5t-85.5 -91t-40 -118.5q-4 -37 -3 -72.5zM401 990l245 162l197 -162l-82 -91l-136 112l-170 -112z" />
<glyph unicode="&#xd5;" horiz-adv-x="952" d="M121 413q18 118 89 216.5t174.5 154.5t216.5 56t200 -56t128 -154.5t23 -216.5q-17 -119 -85.5 -217t-172 -154.5t-220.5 -56.5q-119 0 -206.5 56.5t-125.5 154t-21 217.5zM321 340.5q1 -35.5 13.5 -67t32.5 -55t54.5 -37.5t79.5 -14q44 0 82 14t65.5 37.5t49 55t34 66.5 t17.5 73q9 46 1 90.5t-27 79t-57.5 55.5t-91.5 21q-69 0 -124.5 -36.5t-85.5 -91t-40 -118.5q-4 -37 -3 -72.5zM381 927q1 4 3.5 10l10 24t16 34t22.5 36t29.5 34t36.5 24t44 10q19 0 85.5 -23t87.5 -23q14 0 27 11.5t19 23.5l6 11h101q-1 -4 -3 -10t-9.5 -24t-16.5 -34 t-23 -36t-29.5 -34t-36.5 -24t-44 -10q-16 0 -77 23t-96 23q-14 0 -27 -11.5t-19 -23.5l-6 -11h-101z" />
<glyph unicode="&#xd6;" horiz-adv-x="952" d="M121 413q18 118 89 216.5t174.5 154.5t216.5 56t200 -56t128 -154.5t23 -216.5q-17 -119 -85.5 -217t-172 -154.5t-220.5 -56.5q-119 0 -206.5 56.5t-125.5 154t-21 217.5zM321 340.5q1 -35.5 13.5 -67t32.5 -55t54.5 -37.5t79.5 -14q44 0 82 14t65.5 37.5t49 55t34 66.5 t17.5 73q9 46 1 90.5t-27 79t-57.5 55.5t-91.5 21q-69 0 -124.5 -36.5t-85.5 -91t-40 -118.5q-4 -37 -3 -72.5zM414.5 1011q5.5 38 36.5 65t69.5 27t61 -27t17 -65t-36.5 -65t-69 -27t-61 27t-17.5 65zM652 1011q3 25 18.5 46t38.5 33.5t48 12.5q39 0 61.5 -27t17 -65 t-36.5 -65t-69 -27t-61 27t-17 65z" />
<glyph unicode="&#xd7;" horiz-adv-x="629" d="M93 263l174 152l-129 153l124 107l129 -152l176 152l92 -108l-176 -153l131 -152l-123 -108l-131 153l-175 -153z" />
<glyph unicode="&#xd8;" horiz-adv-x="952" d="M113 59l65 69q-81 118 -57 285q18 118 89 216.5t174.5 154.5t216.5 56q109 0 196 -55l64 68l100 -86l-69 -73q84 -120 60 -281q-17 -119 -85.5 -217t-172 -154.5t-220.5 -56.5q-115 0 -201 53l-60 -65zM324 413q-10 -70 5 -125l331 352q-37 19 -86 19q-69 0 -124.5 -36.5 t-85.5 -91t-40 -118.5zM412 185q36 -18 89 -18q44 0 82 14t65.5 37.5t49 55t34 66.5t17.5 73q10 67 -6 123z" />
<glyph unicode="&#xd9;" horiz-adv-x="785" d="M114 293l78 532h188l-70 -477q-15 -100 10.5 -139t97 -39t108.5 39t52 139l70 477h188l-78 -532q-23 -152 -116.5 -230t-251.5 -78t-228.5 78t-47.5 230zM310 1037l108 115l177 -176l-68 -77z" />
<glyph unicode="&#xda;" horiz-adv-x="785" d="M114 293l78 532h188l-70 -477q-15 -100 10.5 -139t97 -39t108.5 39t52 139l70 477h188l-78 -532q-23 -152 -116.5 -230t-251.5 -78t-228.5 78t-47.5 230zM419 976l229 176l74 -115l-259 -138z" />
<glyph unicode="&#xdb;" horiz-adv-x="785" d="M114 293l78 532h188l-70 -477q-15 -100 10.5 -139t97 -39t108.5 39t52 139l70 477h188l-78 -532q-23 -152 -116.5 -230t-251.5 -78t-228.5 78t-47.5 230zM318 990l245 162l197 -162l-82 -91l-136 112l-170 -112z" />
<glyph unicode="&#xdc;" horiz-adv-x="785" d="M114 293l78 532h188l-70 -477q-15 -100 10.5 -139t97 -39t108.5 39t52 139l70 477h188l-78 -532q-23 -152 -116.5 -230t-251.5 -78t-228.5 78t-47.5 230zM330.5 1011q5.5 38 36.5 65t69.5 27t61 -27t17 -65t-36.5 -65t-69 -27t-61 27t-17.5 65zM567.5 1011 q5.5 38 36.5 65t69.5 27t61 -27t17 -65t-36.5 -65t-69 -27t-61 27t-17.5 65z" />
<glyph unicode="&#xdd;" horiz-adv-x="879" d="M163 825h226l133 -264l211 264h226l-371 -455l-54 -370h-188l54 370zM467 976l229 176l74 -115l-259 -138z" />
<glyph unicode="&#xde;" horiz-adv-x="718" d="M68 0l121 825h188l-22 -153h113q82 0 140.5 -27.5t87 -85.5t16.5 -141q-18 -124 -107 -194.5t-214 -70.5h-113l-22 -153h-188zM300 303h53q62 0 104.5 25.5t50.5 83.5q9 59 -25.5 84.5t-96.5 25.5h-53z" />
<glyph unicode="&#xdf;" horiz-adv-x="678" d="M67 0l95 650q20 135 139 195q100 51 215 26q108 -24 151 -102q31 -58 14 -131q-10 -72 -44.5 -116t-91.5 -78q61 -33 86 -89.5t15 -122.5q-7 -49 -31 -88t-57 -62.5t-71.5 -41t-75 -25t-66.5 -11.5t-49 -4h-18l21 142q-1 4 4.5 7t16.5 4t25.5 2.5t30 4t31 9t28.5 15.5 t22.5 24.5t12.5 35.5q5 34 -8 60.5t-30.5 39t-43 27t-33.5 21.5l17 117q3 19 22.5 31.5t41 18t41.5 22.5t24 45q5 33 -3 55.5t-25 31.5t-40 12.5t-48 -1.5q-44 -6 -64 -140l-86 -584h-168z" />
<glyph unicode="&#xe0;" horiz-adv-x="733" d="M105 256q17 114 101 193t194 79q7 0 30.5 0.5t42 0.5t47.5 -0.5t52.5 -2.5t50.5 -5t46.5 -9t35.5 -13.5t24 -19t6 -25.5l-67 -454h-176l9 58q-35 -33 -82.5 -53t-98.5 -20q-111 0 -171.5 78.5t-43.5 192.5zM256 725l108 115l177 -176l-68 -77zM293 256q-5 -35 6 -62 t36 -42.5t61 -15.5q51 0 90 34t46.5 86.5t-22 86.5t-79.5 34q-51 0 -90.5 -34t-47.5 -87z" />
<glyph unicode="&#xe1;" horiz-adv-x="733" d="M105 256q17 114 101 193t194 79q7 0 30.5 0.5t42 0.5t47.5 -0.5t52.5 -2.5t50.5 -5t46.5 -9t35.5 -13.5t24 -19t6 -25.5l-67 -454h-176l9 58q-35 -33 -82.5 -53t-98.5 -20q-111 0 -171.5 78.5t-43.5 192.5zM293 256q-5 -35 6 -62t36 -42.5t61 -15.5q51 0 90 34t46.5 86.5 t-22 86.5t-79.5 34q-51 0 -90.5 -34t-47.5 -87zM425 664l229 176l74 -115l-259 -138z" />
<glyph unicode="&#xe2;" horiz-adv-x="733" d="M105 256q17 114 101 193t194 79q7 0 30.5 0.5t42 0.5t47.5 -0.5t52.5 -2.5t50.5 -5t46.5 -9t35.5 -13.5t24 -19t6 -25.5l-67 -454h-176l9 58q-35 -33 -82.5 -53t-98.5 -20q-111 0 -171.5 78.5t-43.5 192.5zM264 678l245 162l197 -162l-82 -91l-136 112l-170 -112z M293 256q-5 -35 6 -62t36 -42.5t61 -15.5q51 0 90 34t46.5 86.5t-22 86.5t-79.5 34q-51 0 -90.5 -34t-47.5 -87z" />
<glyph unicode="&#xe3;" horiz-adv-x="733" d="M105 256q17 114 101 193t194 79q7 0 30.5 0.5t42 0.5t47.5 -0.5t52.5 -2.5t50.5 -5t46.5 -9t35.5 -13.5t24 -19t6 -25.5l-67 -454h-176l9 58q-35 -33 -82.5 -53t-98.5 -20q-111 0 -171.5 78.5t-43.5 192.5zM244 615q1 4 3.5 10l10 24t16 34t22.5 36t29.5 34t36.5 24 t44 10q19 0 85.5 -23t87.5 -23q14 0 27 11.5t19 23.5l6 11h101q-1 -4 -3.5 -10l-10 -24t-16 -34t-22.5 -36t-29.5 -34t-36.5 -24t-44 -10q-16 0 -77 23t-96 23q-14 0 -27 -11.5t-19 -23.5l-6 -11h-101zM293 256q-5 -35 6 -62t36 -42.5t61 -15.5q51 0 90 34t46.5 86.5 t-22 86.5t-79.5 34q-51 0 -90.5 -34t-47.5 -87z" />
<glyph unicode="&#xe4;" horiz-adv-x="733" d="M105 256q17 114 101 193t194 79q7 0 30.5 0.5t42 0.5t47.5 -0.5t52.5 -2.5t50.5 -5t46.5 -9t35.5 -13.5t24 -19t6 -25.5l-67 -454h-176l9 58q-35 -33 -82.5 -53t-98.5 -20q-111 0 -171.5 78.5t-43.5 192.5zM277.5 699q5.5 38 36.5 65t69.5 27t61 -27t17 -65t-36.5 -65 t-69 -27t-61 27t-17.5 65zM293 256q-5 -35 6 -62t36 -42.5t61 -15.5q51 0 90 34t46.5 86.5t-22 86.5t-79.5 34q-51 0 -90.5 -34t-47.5 -87zM514.5 699q5.5 38 36.5 65t69.5 27t61 -27t17 -65t-36.5 -65t-69 -27t-61 27t-17.5 65z" />
<glyph unicode="&#xe5;" horiz-adv-x="733" d="M105 256q17 114 101 193t194 79q7 0 30.5 0.5t42 0.5t47.5 -0.5t52.5 -2.5t50.5 -5t46.5 -9t35.5 -13.5t24 -19t6 -25.5l-67 -454h-176l9 58q-35 -33 -82.5 -53t-98.5 -20q-111 0 -171.5 78.5t-43.5 192.5zM293 256q-5 -35 6 -62t36 -42.5t61 -15.5q51 0 90 34t46.5 86.5 t-22 86.5t-79.5 34q-51 0 -90.5 -34t-47.5 -87zM332 733q9 62 61 102t121 40t109 -40t31 -102q-10 -63 -61 -103t-121 -40q-72 0 -111 40t-29 103zM432 733q-4 -27 10.5 -45.5t40.5 -18.5q17 0 32.5 8.5t25.5 23.5t13 32q4 26 -11.5 44t-40.5 18t-46 -18.5t-24 -43.5z" />
<glyph unicode="&#xe6;" horiz-adv-x="1015" d="M79 136q11 71 67 118t140 47q101 0 152 -39l5 37q6 39 -25.5 63.5t-73.5 24.5q-41 0 -76.5 -7.5t-51.5 -15.5l-15 -7l-38 121q8 6 23.5 14t68 22t110.5 14q54 0 109.5 -15t93.5 -49q87 64 191 64q122 0 188 -70.5t47 -201.5q-3 -18 -5 -24h-372q-8 -54 23 -80t73 -26 q29 0 49 5t39.5 16.5t44.5 35.5l119 -64q-100 -134 -286 -134q-63 0 -114.5 25t-84.5 69q-3 -4 -9.5 -10t-28 -22.5t-46 -29t-65 -22.5t-84.5 -10q-82 0 -130 41.5t-38 109.5zM257 151q-4 -27 15.5 -43.5t54.5 -16.5t63 18.5t31 41.5q4 23 -18.5 39.5t-57.5 16.5 q-36 0 -60 -14.5t-28 -41.5zM637 330h195q0 27 -10.5 45.5t-29.5 28t-45 9.5q-30 0 -53.5 -11t-37.5 -29.5t-19 -42.5z" />
<glyph unicode="&#xe7;" horiz-adv-x="570" d="M95 255q11 74 60 137t119.5 99.5t144.5 36.5q32 0 60.5 -5t47 -12t32 -14t19.5 -12l6 -5l-78 -121q-30 24 -82 24q-51 0 -92 -37t-49 -89q-8 -53 22.5 -90t80.5 -37q24 0 46.5 6t32.5 12l11 6l42 -123q-8 -5 -22 -12.5t-60.5 -20.5t-96.5 -13q-12 0 -18 1l-23 -49 q47 0 84 -27t30 -75q-4 -25 -15.5 -47t-31.5 -41t-52 -30t-72 -11q-19 0 -36.5 4.5t-31.5 12t-26 16.5t-20.5 17.5t-15 16t-9.5 11.5l-3 5l80 54q3 -5 9 -13t25.5 -21t40.5 -13q27 0 46 8.5t23 21t0 25t-22.5 21t-46.5 8.5q-16 0 -29 -2t-18 -5l-5 -2l48 129 q-79 28 -123.5 98t-31.5 157z" />
<glyph unicode="&#xe8;" horiz-adv-x="676" d="M97 256q17 112 111.5 192t210.5 80q121 0 186.5 -80.5t44.5 -220.5h-373q-4 -26 6 -50t31.5 -39t50 -20t66 9t74.5 46l120 -54q-100 -134 -286 -134q-116 0 -187 79.5t-55 191.5zM209 725l108 115l177 -176l-68 -77zM295 317h195q0 42 -22 69t-61 27q-29 0 -53.5 -14.5 t-39 -36t-19.5 -45.5z" />
<glyph unicode="&#xe9;" horiz-adv-x="675" d="M97 256q17 112 111.5 192t210.5 80q121 0 186.5 -80.5t44.5 -220.5h-373q-4 -26 6 -50t31.5 -39t50 -20t66 9t74.5 46l120 -54q-100 -134 -286 -134q-116 0 -187 79.5t-55 191.5zM295 317h195q0 42 -22 69t-61 27q-29 0 -53.5 -14.5t-39 -36t-19.5 -45.5zM377 664 l229 176l74 -115l-258 -138z" />
<glyph unicode="&#xea;" horiz-adv-x="675" d="M97 256q17 112 111.5 192t210.5 80q121 0 186.5 -80.5t44.5 -220.5h-373q-4 -26 6 -50t31.5 -39t50 -20t66 9t74.5 46l120 -54q-100 -134 -286 -134q-116 0 -187 79.5t-55 191.5zM216 678l245 162l197 -162l-81 -91l-137 112l-169 -112zM295 317h195q0 42 -22 69t-61 27 q-29 0 -53.5 -14.5t-39 -36t-19.5 -45.5z" />
<glyph unicode="&#xeb;" horiz-adv-x="676" d="M97 256q17 112 111.5 192t210.5 80q121 0 186.5 -80.5t44.5 -220.5h-373q-4 -26 6 -50t31.5 -39t50 -20t66 9t74.5 46l120 -54q-100 -134 -286 -134q-116 0 -187 79.5t-55 191.5zM230.5 699q5.5 38 36.5 65t69.5 27t61 -27t17 -65t-36.5 -65t-69 -27t-61 27t-17.5 65z M295 317h195q0 42 -22 69t-61 27q-29 0 -53.5 -14.5t-39 -36t-19.5 -45.5zM467.5 699q5.5 38 36.5 65t69.5 27t61 -27t17.5 -65q-3 -19 -13 -36t-24 -29t-32 -19.5t-37 -7.5q-38 0 -61 27t-17.5 65z" />
<glyph unicode="&#xec;" horiz-adv-x="440" d="M165 725l108 115l177 -176l-67 -77zM205 0l76 513h177l-76 -513h-177z" />
<glyph unicode="&#xed;" horiz-adv-x="438" d="M57 0l76 513h177l-76 -513h-177zM185 664l229 176l74 -115l-258 -138z" />
<glyph unicode="&#xee;" horiz-adv-x="529" d="M144 678l245 162l197 -162l-82 -91l-136 112l-170 -112zM176 0l75 513h177l-76 -513h-176z" />
<glyph unicode="&#xef;" horiz-adv-x="516" d="M150.5 699q5.5 38 36.5 65t69.5 27t61 -27t17 -65t-36.5 -65t-69 -27t-61 27t-17.5 65zM170 0l75 513h177l-76 -513h-176zM387.5 699q5.5 38 36.5 65t69.5 27t61 -27t17 -65t-36.5 -65t-69 -27t-61 27t-17.5 65z" />
<glyph unicode="&#xf0;" horiz-adv-x="736" d="M98 256q9 60 41.5 113t76 86.5t91.5 53t89 19.5q61 0 88 -16q-35 63 -100 115l-95 -82l-66 77l72 62q-27 13 -53 23.5t-39 13.5l-13 4l64 150q82 -19 177 -72l84 72l64 -78l-59 -52q238 -187 193 -489q-17 -118 -115 -194.5t-231 -76.5q-138 0 -212 76t-57 195zM286 256 q-4 -26 1.5 -48t19 -38t34.5 -25t48 -9q51 0 90 34t46 86l1 5q5 51 -24 83.5t-78 32.5q-51 0 -90.5 -34t-47.5 -87z" />
<glyph unicode="&#xf1;" horiz-adv-x="692" d="M70 0l77 520h140l-4 -29q60 37 151 37q146 0 203.5 -56.5t38.5 -184.5l-42 -287h-178l37 244q11 76 -7 108t-73 32q-28 0 -48 -7.5t-35 -24.5t-24.5 -43.5t-14.5 -64.5l-37 -244h-184zM200 615q1 4 3.5 10l10 24t16 34t22.5 36t29.5 34t36.5 24t44 10q19 0 85.5 -23 t87.5 -23q14 0 27 11.5t19 23.5l6 11h101q-1 -4 -3.5 -10l-10 -24t-16 -34t-22.5 -36t-29.5 -34t-36.5 -24t-44 -10q-16 0 -77 23t-96 23q-14 0 -27 -11.5t-19 -23.5l-6 -11h-101z" />
<glyph unicode="&#xf2;" horiz-adv-x="735" d="M98 256q17 119 117.5 195.5t231.5 76.5q129 0 206 -77t59.5 -195t-115 -194.5t-230.5 -76.5q-138 0 -212.5 76t-56.5 195zM238 725l108 115l177 -176l-67 -77zM286 256q-4 -26 1.5 -48t18.5 -38t34 -25t48 -9q52 0 90.5 34t46.5 86q4 26 -2 48.5t-20 38.5t-34.5 25 t-44.5 9q-51 0 -90.5 -34t-47.5 -87z" />
<glyph unicode="&#xf3;" horiz-adv-x="735" d="M98 256q17 119 117.5 195.5t231.5 76.5q129 0 206 -77t59.5 -195t-115 -194.5t-230.5 -76.5q-138 0 -212.5 76t-56.5 195zM286 256q-4 -26 1.5 -48t18.5 -38t34 -25t48 -9q52 0 90.5 34t46.5 86q4 26 -2 48.5t-20 38.5t-34.5 25t-44.5 9q-51 0 -90.5 -34t-47.5 -87z M367 664l229 176l74 -115l-258 -138z" />
<glyph unicode="&#xf4;" horiz-adv-x="734" d="M97 256q18 119 118 195.5t231 76.5q130 0 207 -77t59.5 -195t-115.5 -194.5t-231 -76.5q-138 0 -212 76t-57 195zM246 678l245 162l197 -162l-82 -91l-136 112l-170 -112zM285 256q-5 -35 6 -62t36 -42.5t61 -15.5q51 0 90 34t46.5 86.5t-22 86.5t-79.5 34 q-51 0 -90.5 -34t-47.5 -87z" />
<glyph unicode="&#xf5;" horiz-adv-x="735" d="M98 256q17 119 117.5 195.5t231.5 76.5q129 0 206 -77t59.5 -195t-115 -194.5t-230.5 -76.5q-138 0 -212.5 76t-56.5 195zM227 615q1 4 3 10t9.5 24t16 34t23 36t30 34t36.5 24t43 10q19 0 86 -23t87 -23q15 0 28 11.5t18 23.5l6 11h101q-1 -4 -3 -10t-9.5 -24t-16 -34 t-23 -36t-29.5 -34t-36.5 -24t-43.5 -10q-17 0 -77.5 23t-95.5 23q-15 0 -28 -11.5t-18 -23.5l-6 -11h-101zM286 256q-4 -26 1.5 -48t18.5 -38t34 -25t48 -9q52 0 90.5 34t46.5 86q4 26 -2 48.5t-20 38.5t-34.5 25t-44.5 9q-51 0 -90.5 -34t-47.5 -87z" />
<glyph unicode="&#xf6;" horiz-adv-x="734" d="M97 256q18 119 118 195.5t231 76.5q130 0 207 -77t59.5 -195t-115.5 -194.5t-231 -76.5q-138 0 -212 76t-57 195zM259.5 699q5.5 38 36.5 65t69.5 27t61 -27t17 -65t-36.5 -65t-69 -27t-61 27t-17.5 65zM285 256q-5 -35 6 -62t36 -42.5t61 -15.5q51 0 90 34t46.5 86.5 t-22 86.5t-79.5 34q-51 0 -90.5 -34t-47.5 -87zM496.5 699q5.5 38 36.5 65t69.5 27t61 -27t17 -65t-36.5 -65t-69 -27t-61 27t-17.5 65z" />
<glyph unicode="&#xf7;" horiz-adv-x="639" d="M113 338l23 153h513l-23 -153h-513zM266 189q5 34 32 58t60 24q35 0 55 -24t15 -58q-5 -33 -32.5 -56.5t-61.5 -23.5q-33 0 -53 23.5t-15 56.5zM332 638q3 17 11.5 32t21 26t28 17.5t31.5 6.5q35 0 55 -23.5t15 -58.5q-5 -33 -32 -56.5t-62 -23.5q-33 0 -53 23.5 t-15 56.5z" />
<glyph unicode="&#xf8;" horiz-adv-x="775" d="M54 28l93 67q-43 69 -29 161q17 119 117.5 195.5t231.5 76.5q116 0 192 -63l100 73l37 -54l-95 -69q45 -68 32 -159q-18 -118 -115.5 -194.5t-230.5 -76.5q-124 0 -196 61l-100 -72zM306 210l203 146q-28 21 -65 21q-51 0 -90.5 -34t-47.5 -87q-4 -26 0 -46zM342 155 q27 -19 66 -19q52 0 90.5 34t46.5 86q3 23 -2 45z" />
<glyph unicode="&#xf9;" horiz-adv-x="693" d="M102 226l42 287h177l-36 -244q-5 -38 -4 -64.5t11 -43.5t28 -24.5t46 -7.5q55 0 82.5 32t38.5 108l36 244h177l-42 -287q-19 -128 -93.5 -184.5t-220 -56.5t-203.5 56.5t-39 184.5zM218 725l108 115l177 -176l-68 -77z" />
<glyph unicode="&#xfa;" horiz-adv-x="693" d="M102 226l42 287h177l-36 -244q-5 -38 -4 -64.5t11 -43.5t28 -24.5t46 -7.5q55 0 82.5 32t38.5 108l36 244h177l-42 -287q-19 -128 -93.5 -184.5t-220 -56.5t-203.5 56.5t-39 184.5zM386 664l229 176l74 -115l-259 -138z" />
<glyph unicode="&#xfb;" horiz-adv-x="692" d="M101 226l43 287h177l-36 -244q-6 -38 -4.5 -64.5t11 -43.5t27.5 -24.5t46 -7.5q55 0 82.5 32t39.5 108l36 244h177l-43 -287q-19 -128 -93.5 -184.5t-219.5 -56.5t-203.5 56.5t-39.5 184.5zM225 678l245 162l197 -162l-81 -91l-137 112l-169 -112z" />
<glyph unicode="&#xfc;" horiz-adv-x="693" d="M102 226l42 287h177l-36 -244q-5 -38 -4 -64.5t11 -43.5t28 -24.5t46 -7.5q55 0 82.5 32t38.5 108l36 244h177l-42 -287q-19 -128 -93.5 -184.5t-220 -56.5t-203.5 56.5t-39 184.5zM238.5 699q5.5 38 36.5 65t69.5 27t61 -27t17.5 -65q-2 -13 -7 -24.5t-12.5 -22 t-17.5 -19t-20.5 -14t-23 -9t-25.5 -3.5q-38 0 -61 27t-17.5 65zM475.5 699q5.5 38 36.5 65t69.5 27t61 -27t17.5 -65q-3 -19 -13 -36t-24 -29t-32 -19.5t-37 -7.5q-38 0 -61 27t-17.5 65z" />
<glyph unicode="&#xfd;" horiz-adv-x="767" d="M75 -260l227 340l-179 433h204l104 -263l161 263h204l-517 -773h-204zM384 664l229 176l74 -115l-258 -138z" />
<glyph unicode="&#xfe;" horiz-adv-x="736" d="M30 -260l165 1120h177l-58 -396q75 64 177 64q73 0 126.5 -36.5t76.5 -98.5t12 -137q-17 -114 -100.5 -192.5t-194.5 -78.5q-51 0 -93 20t-66 53l-47 -318h-175zM279 256.5q-8 -52.5 20.5 -86.5t80.5 -34q54 0 92 33.5t46 86.5t-21.5 87t-80.5 34t-90 -34t-47 -86.5z" />
<glyph unicode="&#xff;" horiz-adv-x="766" d="M74 -260l227 340l-179 433h204l104 -263l161 263h204l-517 -773h-204zM275.5 699q5.5 38 36.5 65t69.5 27t61 -27t17.5 -65q-2 -13 -7 -24.5t-12.5 -22t-17.5 -19t-20.5 -14t-23 -9t-25.5 -3.5q-38 0 -61 27t-17.5 65zM512.5 699q5.5 38 36.5 65t69.5 27t61 -27t17.5 -65 q-3 -19 -13 -36t-24 -29t-32 -19.5t-37 -7.5q-38 0 -61 27t-17.5 65z" />
<glyph unicode="&#x152;" horiz-adv-x="1065" d="M124 412q17 118 87.5 213t173.5 147.5t216 52.5h523l-25 -165h-284l-24 -164h272l-24 -165h-272l-25 -166h284l-24 -165h-523q-84 0 -156 31t-120.5 84.5t-70 131t-8.5 165.5zM327 413q-16 -105 39.5 -175t159.5 -70h29l72 489h-29q-104 0 -180 -70t-91 -174z" />
<glyph unicode="&#x153;" horiz-adv-x="1097" d="M99 256q17 119 114.5 195.5t228.5 76.5q25 0 48.5 -4.5t41.5 -12t33.5 -16t26 -17t18 -16t10.5 -11.5l4 -5l5 5t14.5 11.5t24 16t32.5 17t40 16.5t46.5 11.5t52.5 4.5q122 0 188 -70.5t47 -201.5q-3 -18 -5 -24h-372q-8 -54 23 -80t73 -26q43 0 69.5 11.5t63.5 45.5 l119 -64q-100 -134 -286 -134q-34 0 -66 8.5t-53.5 20t-38 23.5t-24.5 21l-8 8q-4 -3 -10 -8.5t-26.5 -19.5t-43 -24.5t-57.5 -19.5t-70 -9q-137 0 -209 75.5t-54 195.5zM284 256q-5 -35 5.5 -62t36 -42.5t60.5 -15.5q52 0 90.5 34t46.5 86.5t-21.5 86.5t-79.5 34 q-25 0 -48.5 -9t-42 -25t-31 -38.5t-16.5 -48.5zM717 330h195q0 27 -10.5 45.5t-29.5 28t-45 9.5q-44 0 -73.5 -23t-36.5 -60z" />
<glyph unicode="&#x178;" horiz-adv-x="879" d="M163 825h226l133 -264l211 264h226l-371 -455l-54 -370h-188l54 370zM378 1011q3 25 18.5 46t38.5 33.5t48 12.5q39 0 61.5 -27t17 -65t-36.5 -65t-69 -27t-61 27t-17 65zM614.5 1011q5.5 38 36.5 65t69.5 27t61 -27t17 -65t-36.5 -65t-69 -27t-61 27t-17.5 65z" />
<glyph unicode="&#x2c6;" horiz-adv-x="557" d="M158 678l245 162l197 -162l-82 -91l-136 112l-170 -112z" />
<glyph unicode="&#x2dc;" horiz-adv-x="580" d="M150 615q0 2 1.5 6t6 15.5t9.5 23t13.5 27t18 29t22 27t26 23t30.5 15.5t34 6q19 0 86 -23t87 -23q15 0 28 11.5t18 23.5l6 11h101q-1 -4 -3 -10t-9.5 -24t-16 -34t-23 -36t-29.5 -34t-36.5 -24t-43.5 -10q-17 0 -77.5 23t-95.5 23q-15 0 -28 -11.5t-18 -23.5l-6 -11 h-101z" />
<glyph unicode="&#x2000;" horiz-adv-x="593" />
<glyph unicode="&#x2001;" horiz-adv-x="1187" />
<glyph unicode="&#x2002;" horiz-adv-x="593" />
<glyph unicode="&#x2003;" horiz-adv-x="1187" />
<glyph unicode="&#x2004;" horiz-adv-x="395" />
<glyph unicode="&#x2005;" horiz-adv-x="296" />
<glyph unicode="&#x2006;" horiz-adv-x="197" />
<glyph unicode="&#x2007;" horiz-adv-x="197" />
<glyph unicode="&#x2008;" horiz-adv-x="148" />
<glyph unicode="&#x2009;" horiz-adv-x="237" />
<glyph unicode="&#x200a;" horiz-adv-x="65" />
<glyph unicode="&#x2010;" horiz-adv-x="455" d="M98 213l23 153h322l-23 -153h-322z" />
<glyph unicode="&#x2011;" horiz-adv-x="455" d="M98 213l23 153h322l-23 -153h-322z" />
<glyph unicode="&#x2012;" horiz-adv-x="455" d="M98 213l23 153h322l-23 -153h-322z" />
<glyph unicode="&#x2013;" horiz-adv-x="710" d="M106 213l23 153h560l-23 -153h-560z" />
<glyph unicode="&#x2014;" horiz-adv-x="1213" d="M98 213l23 153h1080l-23 -153h-1080z" />
<glyph unicode="&#x2018;" horiz-adv-x="326" d="M145 581q19 132 190 259l42 -37q-7 -6 -18.5 -16.5t-35 -44t-34.5 -67.5q32 -8 50.5 -34t13.5 -60q-7 -44 -41.5 -74.5t-77.5 -30.5t-69.5 31t-19.5 74z" />
<glyph unicode="&#x2019;" horiz-adv-x="325" d="M143 513q3 2 7.5 6t16.5 17t22.5 27t22.5 35.5t19 42.5q-33 8 -51 34t-13 60q6 44 41 74.5t78 30.5t69 -30.5t20 -74.5q-19 -132 -190 -259z" />
<glyph unicode="&#x201a;" horiz-adv-x="329" d="M53 -113q7 6 18 16.5t35 44t35 67.5q-33 8 -51 34t-13 60q4 29 21 53t43 38t54 14q44 0 70 -30.5t20 -74.5q-20 -132 -191 -259z" />
<glyph unicode="&#x201c;" horiz-adv-x="580" d="M145 581q19 132 190 259l42 -37q-7 -6 -18.5 -16.5t-35 -44t-34.5 -67.5q32 -8 50.5 -34t13.5 -60q-7 -44 -41.5 -74.5t-77.5 -30.5t-69.5 31t-19.5 74zM400 581q20 135 189 259l42 -37q-7 -6 -18.5 -16.5t-35.5 -44t-35 -67.5q33 -8 51.5 -34t13.5 -60q-7 -43 -42 -74 t-78 -31t-68.5 30.5t-18.5 74.5z" />
<glyph unicode="&#x201d;" horiz-adv-x="579" d="M143 513q7 6 18.5 16.5t35 44t35.5 67.5q-33 8 -51.5 34t-13.5 60q6 43 41.5 74t78.5 31t68 -30.5t19 -74.5q-20 -135 -189 -259zM397 513q2 1 4 3l9 9t14 14.5t16 19t17 23.5t15.5 27.5t12.5 31.5q-33 8 -51 34t-13 60q6 44 41 74.5t78 30.5t69 -30.5t20 -74.5 q-19 -132 -190 -259z" />
<glyph unicode="&#x201e;" horiz-adv-x="583" d="M53 -113q7 6 18 16.5t35 44t36 67.5q-34 8 -52 34t-13 60q6 43 41 74t78 31q29 0 50.5 -14t31.5 -38t6 -53q-20 -135 -190 -259zM307 -113q7 6 18 16.5t35 44t35 67.5q-33 8 -51 34t-13 60q4 29 21 53t43 38t54 14q44 0 70 -30.5t20 -74.5q-20 -132 -191 -259z" />
<glyph unicode="&#x2022;" horiz-adv-x="514" d="M114 356q12 82 77.5 139.5t146.5 57.5t130.5 -57.5t37.5 -139.5q-12 -81 -78 -138t-148 -57q-81 0 -129.5 57t-36.5 138z" />
<glyph unicode="&#x2026;" horiz-adv-x="1047" d="M75 99q7 48 45 81.5t86 33.5t76.5 -33.5t21.5 -81.5q-7 -47 -45.5 -80.5t-86.5 -33.5q-47 0 -75.5 33.5t-21.5 80.5zM424 99q7 48 45 81.5t86 33.5t76.5 -33.5t21.5 -81.5q-7 -47 -45.5 -80.5t-86.5 -33.5q-47 0 -75.5 33.5t-21.5 80.5zM773 99q7 48 45 81.5t86 33.5 t76.5 -33.5t21.5 -81.5q-7 -47 -45.5 -80.5t-86.5 -33.5q-47 0 -75.5 33.5t-21.5 80.5z" />
<glyph unicode="&#x202f;" horiz-adv-x="237" />
<glyph unicode="&#x2039;" horiz-adv-x="399" d="M97 278l231 250l83 -73l-164 -177l111 -177l-103 -73z" />
<glyph unicode="&#x203a;" horiz-adv-x="399" d="M70 101l165 177l-112 177l103 73l159 -250l-232 -250z" />
<glyph unicode="&#x205f;" horiz-adv-x="296" />
<glyph unicode="&#x20ac;" horiz-adv-x="798" d="M3 266l18 120h93q1 12 3 25q2 15 6 30h-94l18 120h122q68 123 195.5 201t263.5 78q36 0 68.5 -2t55.5 -5.5t42 -8t31 -9t20 -8t11 -5.5l4 -2l-68 -185q-7 4 -21 11t-56.5 18t-85.5 11q-143 0 -233 -94h230l-18 -120h-281l-6 -28q-1 -13 -2 -27h281l-18 -120h-231 q61 -96 207 -96q42 0 86 10t66 20l23 10l12 -185q-7 -4 -23 -11t-78.5 -18t-142.5 -11q-136 0 -241 78.5t-136 202.5h-121z" />
<glyph unicode="&#x2122;" horiz-adv-x="597" d="M173 773l8 52h183l-8 -52h-61l-30 -206h-61l30 206h-61zM335 567l61 258h63l35 -148l79 148h63l-14 -258h-60l10 153h-1l-75 -151h-35l-31 151h-1l-35 -153h-59z" />
<glyph unicode="&#x25fc;" horiz-adv-x="515" d="M0 0v515h515v-515h-515z" />
<glyph unicode="&#xfb01;" horiz-adv-x="726" d="M121 378l20 135h74l16 109q12 76 43 132t84 88.5t121 32.5q28 0 55.5 -4.5t48.5 -12t40 -16t32.5 -17.5t23 -16.5t14.5 -11.5l5 -5l-81 -125q-6 6 -16.5 14.5t-39.5 23t-53 14.5q-50 0 -71.5 -23t-29.5 -79l-15 -104h345l-76 -513h-177l56 378h-168l-56 -378h-177l56 378 h-74z" />
<glyph unicode="&#xfb02;" horiz-adv-x="727" d="M121 378l20 135h74l16 109q18 115 81 184t158 69q50 0 169 -7.5t149 -7.5l-127 -860h-177l106 716q-87 2 -112 2q-33 0 -47.5 -22.5t-22.5 -78.5l-16 -104h118l-20 -135h-118l-56 -378h-176l55 378h-74z" />
<glyph unicode="&#xfb03;" horiz-adv-x="1081" d="M121 378l20 135h74l16 109q18 115 81 184t157 69q40 0 75 -11.5t50 -23.5l14 -11l-80 -125q-22 14 -51 14q-33 0 -47.5 -22.5t-22.5 -78.5l-15 -104h178l16 109q12 76 43 132t84 88.5t121 32.5q28 0 55.5 -4.5t48.5 -12t40 -16t32.5 -17.5t23 -16.5t14.5 -11.5l5 -5 l-81 -125q-2 2 -6 5.5t-16.5 12.5t-25 16t-29.5 12.5t-32 5.5q-50 0 -71.5 -23t-29.5 -79l-15 -104h345l-76 -513h-177l56 378h-168l-56 -378h-177l56 378h-178l-56 -378h-177l56 378h-74z" />
<glyph unicode="&#xfb04;" horiz-adv-x="1083" d="M122 378l20 135h74l16 109q18 115 81 184t157 69q40 0 75 -11.5t50 -23.5l14 -11l-80 -125q-22 14 -51 14q-33 0 -47.5 -22.5t-22.5 -78.5l-15 -104h178l16 109q18 115 81 184t157 69q54 0 165.5 -7.5t153.5 -7.5l-127 -860h-177l104 707q-88 11 -111 11 q-33 0 -47.5 -22.5t-22.5 -78.5l-15 -104h118l-20 -135h-118l-56 -378h-177l56 378h-178l-56 -378h-177l56 378h-74z" />
</font>
</defs>
</svg>
