<?xml version="1.0" standalone="no"?>
<!DOCTYPE svg PUBLIC "-//W3C//DTD SVG 1.1//EN" "http://www.w3.org/Graphics/SVG/1.1/DTD/svg11.dtd" >
<svg xmlns="http://www.w3.org/2000/svg">
<metadata>
This is a custom SVG webfont generated by Font Squirrel.
Copyright   : Copyright c 2010 by BSozoo All rights reserved3
Designer    : BSozoo
Foundry     : BSozoo
</metadata>
<defs>
<font id="NemoyBold" horiz-adv-x="1701" >
<font-face units-per-em="2048" ascent="1638" descent="-410" />
<missing-glyph horiz-adv-x="659" />
<glyph unicode=" "  horiz-adv-x="659" />
<glyph unicode="&#x09;" horiz-adv-x="659" />
<glyph unicode="&#xa0;" horiz-adv-x="659" />
<glyph unicode="!" horiz-adv-x="526" d="M59 48q0 48 35 83t84 35t84 -35l2 -4l4 4q35 35 84 35q48 0 83 -35q34 -35 34 -83t-33 -83l-4 -4l4 -4q35 -35 35 -84q0 -48 -35 -83q-34 -34 -84 -34q-49 0 -82 33l-6 6l-4 -6q-35 -33 -83 -33t-83 34q-35 35 -35 83q0 49 35 84l4 4l-4 4q-35 35 -35 83zM147 406v1101 q0 49 35 84t84 35t84 -35t35 -84v-1101q0 -49 -35 -84t-84 -35t-84 35t-35 84z" />
<glyph unicode="&#x22;" horiz-adv-x="745" d="M53 1432v227q0 49 35 84t84 35t84 -35t35 -84v-227q0 -48 -35 -83q-34 -34 -84 -34t-84 34q-35 35 -35 83zM430 1432v227q0 50 34 84q35 35 83 35t83 -35q34 -34 34 -84v-227q0 -49 -34 -83t-83 -34t-83 34t-34 83z" />
<glyph unicode="#" horiz-adv-x="1525" d="M-27 399q0 50 34 83q34 34 83 34h189l63 129h-100q-49 0 -83 34t-34 83q0 50 34 84q35 35 83 35h217l137 272q19 43 67 58q18 5 38 7q27 0 52 -13q44 -23 59 -67q6 -20 6 -37q0 -27 -13 -52l-82 -168h238l135 272q22 43 68 58q18 5 38 7q26 0 51 -13q44 -23 60 -67 q7 -18 7 -39q0 -27 -13 -50l-84 -168h37q48 0 83 -35t35 -84t-34.5 -83t-83.5 -34h-154l-64 -129h66q50 0 84 -34q35 -33 35 -83q0 -49 -35 -84q-34 -34 -84 -34h-182l-166 -334q-22 -42 -69 -59q-19 -6 -38 -6q-27 0 -52 13q-44 23 -59 67q-5 17 -7 37q0 26 14 54l115 228 h-240l-166 -334q-19 -42 -67 -59q-19 -6 -38 -6q-27 0 -52 13q-44 23 -59 67q-7 18 -7 39q0 27 12 52l115 228h-72q-49 0 -83 34.5t-34 83.5zM543 516h237l64 129h-238z" />
<glyph unicode="$" horiz-adv-x="1304" d="M82 0q0 49 35 84t84 35h610l-186 173l-166 153l-130 127q-73 73 -111 122q-32 41 -73 107q-63 106 -63 231q0 245 173 420q129 129 298 162v117q0 49 34 82.5t83 33.5t82.5 -33.5t33.5 -82.5v-105h265q78 0 108 -73q11 -27 11 -50q0 -42 -35 -80l-664 -661 q60 -63 304 -288l409 -390q36 -38 35 -80q0 -23 -11 -50q-31 -73 -108 -73h-314v-104q0 -49 -33.5 -83t-82.5 -34t-83 34t-34 83v104h-352q-49 0 -84 35t-35 84zM317 1016q2 -29 15 -62l434 435h-89h-3h-4h-3q-141 -3 -243 -102q-105 -101 -107 -247v-24z" />
<glyph unicode="%" horiz-adv-x="1374" d="M-4 1192q8 125 47.5 212.5t118.5 147.5q95 74 207 74q0 -2 14 -2q30 0 58 -7q71 -16 132 -65q80 -62 123 -158q10 -24 17 -44l78 229q13 46 58 69q26 14 52 12q19 0 38 -6q45 -15 68 -60q12 -26 12 -50q0 -21 -7 -39l-276 -812q82 55 182 55h2q2 -1 6 -1.5t8 -0.5 q27 -1 58 -7q63 -11 132 -63q80 -62 122 -159t42 -202q-6 -125 -45.5 -212.5t-118.5 -147.5q-95 -74 -206 -74q0 2 -15 2q-30 0 -59 8q-71 17 -131 64q-80 62 -123 157q-16 35 -27 74l-92 -272q-13 -46 -58 -69q-26 -14 -52 -12q-19 0 -38 6q-45 15 -68 60q-12 25 -12 50 q0 21 7 39l276 812q-75 -41 -157 -40q-7 0 -17 1q-26 1 -59 7q-62 12 -131 63q-80 61 -123 159q-43 96 -43 202zM233 1192q0 -117 74 -174q27 -19 62 -23q30 0 59 23q69 52 76 174q0 117 -76 174q-23 20 -59 23q-33 0 -62 -23q-68 -50 -74 -174zM782 315q0 -117 74 -174 q27 -21 62 -22q33 0 61 22q68 50 74 174q0 117 -74 174q-26 19 -61 23q-30 0 -62 -23q-67 -51 -74 -174z" />
<glyph unicode="&#x26;" horiz-adv-x="1734" d="M27 479q0 47 36 84l400 400q-81 78 -121.5 154.5t-40.5 172.5q0 140 94 237q95 99 236 99q122 0 207 -76q85 -75 114 -182q6 -26 15 -96q0 -70 -39 -142q-39 -73 -131 -165l319 -318l205 205q35 33 83 33t83 -34q35 -35 35 -83q0 -49 -35 -84l-203 -203l397 -397 q34 -35 34 -87q0 -47 -34 -80q-33 -33 -84 -35h-2q-48 0 -82 34l-397 397l-401 -401q-37 -37 -84 -37t-82 37l-486 485q-36 35 -36 82zM313 479l318 -317l319 319l-319 318zM537 1290q0 -41 21 -76.5t71 -83.5q67 68 90 111q12 19 12 31q-1 22 -6 33q-10 39 -35.5 61.5 t-58.5 22.5q-41 0 -67.5 -28.5t-26.5 -70.5z" />
<glyph unicode="'" horiz-adv-x="718" d="M-102 1563v309q0 51 32.5 85t83.5 34h299q77 0 109 -72q11 -27 11 -49q0 -42 -36 -80l-297 -309q-36 -38 -81 -38q-24 0 -48 10q-73 30 -73 110z" />
<glyph unicode="(" horiz-adv-x="714" d="M207 740q0 452 205 855q19 42 67 59q19 6 39 6q26 0 51 -12q42 -22 59 -69q6 -19 6 -38q0 -27 -13 -52q-177 -351 -179 -749q0 -395 179 -748q13 -25 13 -53q0 -17 -6 -37q-15 -46 -59 -69q-25 -13 -51 -12q-20 0 -39 6q-48 15 -67 58q-205 403 -205 855z" />
<glyph unicode=")" horiz-adv-x="714" d="M91 -61q0 28 13 53q178 352 178 748q1 395 -178 749q-13 25 -13 52q0 19 6 38q15 46 59 69q26 14 51 12q19 0 39 -6q47 -15 67 -59q203 -404 203 -855t-203 -855q-19 -43 -67 -58q-20 -6 -39 -6q-25 0 -51 12q-44 23 -59 69q-6 20 -6 37z" />
<glyph unicode="*" horiz-adv-x="755" d="M-10 1507q0 37 21.5 68t54.5 43q-10 21 -10 46q0 15 1 22q6 37 33 63.5t64 32.5q14 2 21 2q27 0 48 -10q12 33 42 53t67 20q36 0 66 -20.5t44 -54.5q21 10 46 10q8 0 22 -2q37 -6 62.5 -32t31.5 -62q2 -14 2 -22q0 -26 -10 -46q48 -16 66.5 -63.5t0 -95t-66.5 -62.5 q10 -21 10 -46q0 -8 -2 -22q-6 -37 -31.5 -62.5t-62.5 -31.5q-14 -2 -22 -2q-26 0 -46 10q-12 -35 -42.5 -56.5t-67.5 -21.5t-68 21.5t-43 54.5q-21 -10 -46 -10q-7 0 -21 2q-37 6 -64 32.5t-33 63.5q-2 15 -1 22q0 26 10 46q-33 12 -54.5 42.5t-21.5 67.5z" />
<glyph unicode="+" horiz-adv-x="755" d="M-41 278q0 49 35 84t84 35h160v158q0 49 34.5 83t83.5 34q50 0 84 -34q35 -35 35 -83v-158h158q48 0 83 -35q34 -34 34 -84q0 -49 -34 -82.5t-83 -33.5h-158v-162q0 -49 -35 -84t-84 -35t-84 35q-34 34 -34 84v162h-160q-49 0 -84 34t-35 82z" />
<glyph unicode="," horiz-adv-x="679" d="M-92 158q0 51 33.5 84.5t85.5 33.5h374q75 0 107 -69q12 -27 12 -52q0 -41 -31 -75l-374 -428q-36 -42 -84 -42q-22 0 -46 9q-77 29 -77 111v428z" />
<glyph unicode="-" horiz-adv-x="671" d="M-8 596q0 49 34 83t85 34h448q49 0 83 -34t34 -83t-34 -83t-83 -34h-448q-50 0 -84 34q-35 35 -35 83z" />
<glyph unicode="." horiz-adv-x="471" d="M14 -24q0 48 35 83l4 4l-4 5q-35 35 -35 83q0 47 35 82t83 35t83 -35l4 -4l4 4q35 35 84 35q48 0 83 -35q34 -34 34 -83q0 -47 -35 -82l-4 -5l6 -4q33 -35 33 -84t-34 -82q-34 -34 -83 -34t-84 32l-4 7l-4 -7q-35 -33 -84 -32q-49 0 -83 34q-34 33 -34 83z" />
<glyph unicode="/" horiz-adv-x="888" d="M56 -51q0 21 7 39l541 1591q13 46 59 69q26 14 52 12q19 0 38 -6q46 -15 67 -60q12 -26 12 -50q0 -21 -7 -39l-540 -1591q-13 -46 -59 -69q-26 -14 -52 -12q-18 0 -38 6q-46 15 -67 60q-11 24 -13 50z" />
<glyph unicode="0" horiz-adv-x="1531" d="M25 760q0 235 94 433q95 201 260 317q166 118 365 118q93 0 177 -25q17 29 49 45q26 14 52 12q18 0 38 -6q46 -15 67 -60q11 -24 13 -50q0 -21 -7 -39l-3 -9q153 -117 241 -303q95 -201 95 -433q0 -234 -94 -432t-261 -317q-167 -117 -366 -117q-81 0 -153 19 q-15 -46 -58 -68q-26 -14 -53 -12q-19 0 -38 6q-46 15 -67 60q-12 25 -12 50q0 21 7 39l8 24q-165 116 -260 316q-94 198 -94 432zM260 761q0 -265 144 -449q22 -28 56 -62l383 1130q-45 13 -98 13q-196 0 -341 -184q-144 -183 -144 -448zM667 137q40 -8 78 -8 q197 0 340 183q144 184 144 449t-144 448q-18 24 -38 44z" />
<glyph unicode="1" horiz-adv-x="811" d="M-45 1070q0 37 25 71l331 438q36 48 88 48q20 0 44 -8q81 -29 81 -112v-1388h121q48 0 83 -35q34 -34 34 -84t-34 -84q-35 -35 -83 -35h-479q-48 0 -83 35q-34 34 -34 84t34 84q35 35 83 35h121v831h-213q-74 0 -106 66q-13 27 -13 54z" />
<glyph unicode="2" horiz-adv-x="1304" d="M22 4q0 42 35 80l373 358l304 293q95 95 143 174h-668q-51 0 -85 33t-34 84q0 169 58 301q58 133 185 216t302 83q240 0 384 -148q144 -147 144 -386q0 -41 -4 -76v-2q-12 -119 -79 -224q-41 -64 -72 -103q-33 -43 -107 -119l-126 -124l-163 -152l-182 -173h610 q49 0 84 -35t35 -84t-35 -84t-84 -35h-899q-77 0 -108 73q-11 27 -11 50zM338 1145h586q-12 105 -80 175q-68 69 -209 69q-248 0 -297 -244z" />
<glyph unicode="3" horiz-adv-x="1304" d="M-37 449q0 34 23 66q28 40 76 48q14 2 21 2q37 0 68 -22q41 -29 48 -78q26 -148 137 -246q112 -97 260 -102h10q159 0 271 106q118 111 116 266v5q-1 98 -55 182q-41 -30 -80 -47q-111 -56 -240 -58q-45 0 -86 7q-170 29 -292 149q-35 36 -35 83t33 83q122 126 294 164 q57 12 119 12q112 0 215 -41l35 -16q14 47 14 90q0 27 -4 47q-17 99 -89 165q-73 68 -171 77h-20q-111 0 -191 -74q-89 -83 -90 -203q0 -50 -34 -84q-33 -34 -80 -34h-3q-49 1 -83.5 35.5t-32.5 82.5q0 104 42.5 203t121.5 172q148 137 350 137q11 0 37 -2q182 -12 315 -135 t162 -303q6 -40 6 -84q0 -128 -57 -240q12 -15 34 -45q96 -146 99 -319v-9q0 -124 -50.5 -238.5t-138.5 -197.5q-179 -172 -432 -172q-6 0 -14 2q-237 5 -412 160q-176 155 -215 385q-2 14 -2 21zM545 815l26 -4q20 -4 47 -4q53 0 107 18q-38 8 -74 9q-35 0 -69 -9 q-23 -5 -37 -10z" />
<glyph unicode="4" horiz-adv-x="1259" d="M64 519q0 37 28 71l805 991q37 46 87 46q20 0 44 -8q78 -29 78 -112v-1507q0 -51 -33 -85t-84 -34h-375q-49 0 -84 35q-34 34 -34 84t34 84q35 35 84 35h258v278h-688q-73 0 -106 68q-12 26 -14 54zM432 635h440v541z" />
<glyph unicode="5" horiz-adv-x="1333" d="M115 220q0 7 2 21q7 47 48 76q30 21 67 23q7 0 21 -2q48 -8 77 -47q54 -79 140.5 -124.5t182.5 -49.5h11q47 0 92 12q102 24 179 96t101 170q13 46 15 94v5q-5 89 -45 164.5t-111 119.5q-67 45 -154 60q-42 8 -79 8q-172 0 -312 -107q-35 -26 -70 -26q-27 0 -54 13 q-68 32 -66 105v676q0 51 33.5 85t85.5 34h749q43 0 74 -24.5t41 -65.5q4 -15 4 -32q0 -22 -9 -45q-15 -37 -55 -56l-686 -371q126 49 265 49q64 0 120 -10q132 -25 242 -96q50 -36 88 -72q83 -79 127 -186q45 -99 45 -219v-9q0 -78 -20 -155q-48 -167 -168 -281 q-57 -56 -133 -96q-72 -39 -152 -57q-71 -17 -147 -19q-5 0 -15 2q-75 0 -149 21q-141 35 -262 139q-58 51 -101 111q-22 29 -22 66zM397 1298l166 91h-166v-91z" />
<glyph unicode="6" horiz-adv-x="1196" d="M25 516q0 211 76 406q77 198 216 354q245 269 605 346q14 3 25 3q34 0 63 -19q40 -27 51 -74q3 -14 3 -26q0 -33 -20 -62q-27 -41 -73 -51q-284 -62 -477 -277q-20 -20 -39 -45q90 31 188 31q254 0 434 -180q180 -178 180 -431q0 -251 -180 -430q-179 -178 -434 -178 q-247 0 -426 171t-186 417q-4 15 -4 31q-2 8 -2 14zM266 491q0 -154 109 -263t268 -109q158 0 267 109q110 110 110 263t-110 263t-267 110q-158 0 -268 -110q-109 -109 -109 -263z" />
<glyph unicode="7" horiz-adv-x="1099" d="M22 1504q0 23 11 50q31 72 108 72h842q61 0 97 -52q20 -31 22 -64q0 -23 -10 -46l-596 -1507q-17 -46 -62 -65q-23 -10 -47 -10l-43 8q-44 16 -64 63q-10 21 -10 46q0 21 9 44l284 723h-225q-48 0 -83 35q-34 34 -34 84t34 84q35 35 83 35h119l-402 421q-34 36 -33 79z M416 1389l278 -293l115 293h-393z" />
<glyph unicode="8" horiz-adv-x="1304" d="M37 481q0 198 119 359q-60 114 -62 245q0 223 159 382t382 159t382 -159q159 -157 159 -382q0 -130 -62 -245q119 -161 119 -359q0 -249 -175 -424q-176 -176 -423 -176t-423 176q-175 175 -175 424zM272 481q0 -152 106 -258t256 -106t256 106q107 107 107 258 q0 90 -41 170q-142 -106 -321 -106t-322 106q-41 -80 -41 -170zM332 1085q0 -45 10 -81q135 77 293 75q158 0 293 -75q12 39 12 81q0 125 -90 214q-90 90 -215 90t-214 -90q-89 -89 -89 -214zM494 815q66 -35 141.5 -35t140.5 35q-141 60 -282 0z" />
<glyph unicode="9" horiz-adv-x="1196" d="M-78 1016q0 252 180 430q181 178 435 178q247 0 426 -171t186 -417q4 -15 4 -30q2 -8 2 -15q0 -208 -77 -407q-77 -197 -216 -353q-246 -270 -604 -346q-14 -3 -26 -3q-33 0 -62 20q-41 27 -51 73q-3 13 -3 26q0 34 19 62q28 42 74 52q283 61 477 276q20 19 39 45 q-92 -32 -188 -30q-253 0 -435 179q-180 179 -180 431zM160 1015q0 -154 109 -263t267 -109t267 109q110 110 110 263q0 154 -110 264t-267 110t-267 -110q-109 -109 -109 -264z" />
<glyph unicode=":" horiz-adv-x="444" d="M14 -24q0 48 35 83l4 4l-4 5q-35 35 -35 83q0 47 35 82t83 35t83 -35l4 -4l4 4q35 35 84 35q48 0 83 -35q34 -34 34 -83q0 -47 -35 -82l-4 -5l6 -4q33 -35 33 -84t-34 -82q-34 -34 -83 -34t-84 32l-4 7l-4 -7q-35 -33 -84 -32q-49 0 -83 34q-34 33 -34 83zM14 909 q0 49 35 84l4 4l-4 4q-35 35 -35 83t35 83t83 35t83 -35l4 -4l4 4q35 35 84 35q48 0 83 -35q34 -34 34 -83q0 -48 -35 -83l-4 -4l6 -4q33 -35 33 -84t-34 -83q-34 -33 -83 -33t-84 32l-4 6l-4 -6q-35 -33 -84 -33q-49 1 -83 34q-34 34 -34 83z" />
<glyph unicode=";" horiz-adv-x="471" d="M-72 -176v428q0 51 34 85t85 34h375q76 0 106 -70q12 -27 12 -52q0 -41 -30 -75l-375 -428q-36 -42 -83 -42q-22 0 -47 9q-77 29 -77 111zM14 909q0 49 35 84l4 4l-4 4q-35 35 -35 83t35 83t83 35t83 -35l4 -4l4 4q35 35 84 35q48 0 83 -35q34 -34 34 -83q0 -48 -35 -83 l-4 -4l6 -4q33 -35 33 -84t-34 -83q-34 -33 -83 -33t-84 32l-4 6l-4 -6q-35 -33 -84 -33q-49 1 -83 34q-34 34 -34 83z" />
<glyph unicode="&#x3c;" horiz-adv-x="641" d="M34 638q0 42 32 79l196 221q36 42 83 42q22 0 46 -9q76 -28 76 -111v-418q0 -78 -72 -108q-27 -11 -49 -11q-42 0 -80 35l-196 197q-36 36 -36 83z" />
<glyph unicode="=" horiz-adv-x="770" d="M-8 348q0 50 34 84q35 35 85 35h561q49 0 84 -35t35 -84t-35 -84t-84 -35h-561q-49 0 -84 35t-35 84zM-8 596q0 49 34 83t85 34h561q50 0 84 -34q35 -35 35 -83t-35 -83q-34 -34 -84 -34h-561q-50 0 -84 34q-35 35 -35 83z" />
<glyph unicode="&#x3e;" horiz-adv-x="641" d="M135 442v418q0 83 76 111q24 9 46 9q47 0 83 -42l197 -221q32 -37 31 -79q0 -47 -36 -83l-196 -197q-38 -36 -80 -35q-22 0 -49 11q-72 30 -72 108z" />
<glyph unicode="?" horiz-adv-x="991" d="M-1 1503q0 23 11 50q31 73 109 73h768q73 0 105 -66q13 -27 13 -54q0 -36 -26 -70l-389 -504v-570q0 -48 -35 -83q-12 -10 -18 -14q13 3 28 3q36 2 65.5 -19.5t42.5 -53t7 -67.5t-33 -60l-4 -5l6 -4q33 -35 33 -84t-34 -82q-34 -34 -83 -34t-84 32l-4 7l-4 -7 q-35 -33 -84 -32q-49 0 -83 34q-34 33 -34 83q0 48 35 83l4 4l-4 5q-35 35 -35 83q0 47 35 82t83 35q7 0 11 -1l-14 12q-35 35 -35 83v611q0 41 27 71l14 21l-358 358q-36 37 -36 80zM401 1389l138 -138l106 138h-244zM457 246q15 -12 16 -13l4 -4l4 4q6 6 20 16 q-15 -3 -30 -3h-14z" />
<glyph unicode="@" horiz-adv-x="1748" d="M0 704q0 226 111 417q113 192 303 303q191 112 417 112q227 0 417 -112q192 -111 303 -303q112 -190 112 -416q0 -148 -47 -259q-66 -146 -192 -185l-27 -6q-21 -4 -40 -6l-9 -1q-67 0 -126 35t-92 94l-77 145l-103 -153q-35 -51 -97 -53h-2q-60 0 -95 53l-105 153 l-76 -143q-23 -43 -69 -57q-18 -6 -36 -6q-28 0 -54 14q-43 22 -58 69q-6 19 -5 36q0 28 14 54l161 308q4 10 13 20l207 395q33 63 103 63q71 2 103 -63l381 -720q5 -8 13 -9q29 5 51 58q27 63 26 164q0 247 -174 419q-174 174 -420 174q-245 0 -420 -174t-175 -420 q0 -245 175 -419t420 -174q190 0 314 73h2q26 17 61 19q66 0 101 -56q16 -28 16 -63q0 -66 -55 -100q-180 -111 -439 -111q-226 0 -417 112q-190 111 -303 302q-111 192 -111 417zM774 760l78 -115l76 115l-76 145z" />
<glyph unicode="A" d="M-61 1q0 28 14 54l792 1508q32 60 104 62h2q68 0 103 -62l795 -1508q14 -26 14 -54q0 -18 -6 -36q-13 -47 -57 -69q-26 -14 -54 -14q-16 0 -36 5q-47 14 -70 58l-258 489l-332 -500q-34 -50 -97 -52h-2q-61 0 -95 52l-338 500l-256 -489q-22 -43 -70 -58q-16 -5 -31 -5 h-5q-28 0 -54 14q-44 22 -57 69q-6 18 -6 36zM543 670l309 -459l305 459l-307 585z" />
<glyph unicode="B" horiz-adv-x="1439" d="M86 0v1507q0 51 34 84t85 33h389q226 0 396 -152q169 -151 194 -374q97 -97 153 -230q56 -132 56 -276q0 -193 -95 -357q-94 -163 -258 -258q-164 -96 -356 -96h-479q-51 0 -85 34t-34 85zM324 117h360q197 0 335 139q138 140 138 336q0 92 -33 176q-74 -150 -216 -240 t-314 -90h-270v-321zM324 674h270q136 0 236 90q102 90 118 223q-122 80 -264 80h-360v-393zM324 1303h360q84 0 164 -19q-103 103 -254 105h-270v-86z" />
<glyph unicode="C" horiz-adv-x="1513" d="M-8 754q0 236 119 442q118 198 313 313q206 119 442 119q162 0 314 -57q147 -57 264 -162q40 -34 40 -88q0 -43 -30 -78q-33 -37 -81 -39h-6q-44 0 -79 29q-86 77 -192 117q-110 43 -230 43q-174 0 -323 -86q-143 -86 -230 -230q-86 -151 -86 -323q0 -171 86 -322 q85 -144 230 -229q152 -87 323 -88q120 0 230 43q108 44 192 118q34 30 78 30h8q50 -3 81 -40q30 -34 30 -79q0 -53 -39 -87q-119 -104 -266 -161q-150 -56 -314 -58q-237 0 -442 119q-198 117 -313 313q-119 206 -119 441z" />
<glyph unicode="D" horiz-adv-x="1390" d="M102 0v1507q0 51 34 85t85 34h305q216 0 386 -66.5t274 -187.5q211 -241 211 -618t-215 -619q-107 -121 -275.5 -187.5t-380.5 -66.5h-305q-51 0 -85 34t-34 85zM340 119h186q143 0 257.5 37t185.5 100q70 62 113 147q79 154 79 351q0 206 -79 357q-44 85 -114 144 q-72 63 -185.5 99.5t-256.5 36.5h-186v-1272z" />
<glyph unicode="E" horiz-adv-x="1372" d="M86 0v1507q0 51 33 85t84 34h921q78 0 109 -73q11 -27 11 -50q0 -43 -36 -80l-721 -718h637q48 0 83 -35q34 -34 34 -84t-34 -84q-33 -35 -83 -35h-805v-348h805q48 0 83 -35q34 -34 34 -84t-34 -84q-33 -35 -83 -35h-921q-51 0 -84 34t-33 85zM319 870l521 519h-521 v-519z" />
<glyph unicode="F" horiz-adv-x="1372" d="M86 0v1507q0 51 33 85t84 34h921q78 0 109 -73q11 -27 11 -50q0 -43 -36 -80l-721 -718h637q48 0 83 -35q34 -34 34 -84t-34 -84q-33 -35 -83 -35h-805v-467q0 -49 -34 -84t-82 -35t-83 35q-34 34 -34 84zM319 870l521 519h-521v-519z" />
<glyph unicode="G" horiz-adv-x="1847" d="M41 753q0 237 116 440q117 203 319 318q202 117 439 117q150 0 303 -54q153 -53 275 -165q39 -35 39 -88q0 -45 -30 -79q-32 -37 -81 -38h-5q-47 0 -81 31q-78 71 -190 114q-112 44 -230 44q-264 0 -452 -188q-187 -187 -187 -452q0 -264 187 -451t452 -187q171 0 310 88 l-482 467q-37 36 -37 79q0 26 10 50q30 73 107 73h2h828q51 0 85 -33.5t34 -84.5q0 -281 -166 -510q-16 -24 -37 -47l117 -113q35 -34 35 -82q0 -49 -32 -84q-35 -35 -83 -36h-3q-47 0 -81 34l-123 119q-214 -154 -484 -154q-237 0 -440 117q-201 117 -318 317 q-116 202 -116 438zM1116 637l285 -275l14 21q84 115 109 254h-408z" />
<glyph unicode="H" horiz-adv-x="1509" d="M156 0v1507q0 49 34.5 83t83.5 34q50 0 84 -34q35 -35 35 -83v-633l283 285q35 35 83 35t83 -37l276 -280v630q0 48 35 83q34 34 84 34t84 -34q35 -35 35 -83v-1507q0 -49 -35 -84t-84 -35t-84 35t-35 84v471h-725v-471q0 -49 -35 -84t-84 -35t-84 35q-34 34 -34 84z M557 709h399l-198 198z" />
<glyph unicode="I" horiz-adv-x="811" d="M49 0q0 50 34 84q35 35 83 35h121v1270h-121q-49 0 -83 34.5t-34 83.5q0 50 34 84q35 35 83 35h479q48 0 83 -35q34 -34 34 -84q0 -49 -34 -83.5t-83 -34.5h-121v-1270h121q48 0 83 -35q34 -34 34 -84t-34 -84q-35 -35 -83 -35h-479q-48 0 -83 35q-34 34 -34 84z" />
<glyph unicode="J" horiz-adv-x="1216" d="M132 1503q0 23 11 50q31 73 109 73h756q51 0 84.5 -33.5t33.5 -85.5v-1130q0 -224 -142 -360t-355 -136q-206 0 -351 145t-145 351q0 49 35 84t83 35t83 -35t35 -84q0 -107 75 -183q77 -77 185 -77q112 0 186 65q74 66 74 195v325l-721 721q-36 37 -36 80zM537 1389 l352 -353v353h-352z" />
<glyph unicode="K" horiz-adv-x="1622" d="M188 0v1507q0 83 81 112q24 8 45 8q51 0 87 -48l340 -444l385 448q33 39 81 42h9q42 0 77 -29q40 -34 42 -88q0 -44 -28 -76l-420 -488l669 -872q24 -32 24 -71q0 -11 -1 -16q-6 -48 -45 -78q-31 -25 -71 -25q-11 0 -16 1q-47 6 -79 45l-637 834l-305 -356v-406 q0 -49 -35 -84t-84 -35t-84 35t-35 84zM426 766l158 186l-158 207v-393z" />
<glyph unicode="L" horiz-adv-x="1249" d="M188 0v1507q0 49 35 84t84 35t84 -35t35 -84v-739l684 -684q36 -38 36 -80q0 -23 -11 -50q-31 -73 -109 -73h-719q-51 0 -85 34t-34 85zM426 119h315l-315 315v-315z" />
<glyph unicode="M" horiz-adv-x="1708" d="M109 0v1507q0 76 68 108q27 12 52 12q39 0 74 -30l549 -464l549 464q35 30 73 30q25 0 52 -12q68 -32 67 -108v-1507q0 -50 -34 -84q-33 -35 -83 -35q-49 0 -84 35q-34 34 -34 84v393l-506 430l-508 -430v-393q0 -50 -34 -84q-35 -35 -83 -35q-49 0 -84 35q-34 34 -34 84 zM344 702l326 277l-326 274v-551zM1034 979l324 -277v551z" />
<glyph unicode="N" horiz-adv-x="1505" d="M109 0v1507q0 41 22.5 71t61.5 42q21 6 39 6q54 0 92 -53l817 -1192v1126q0 50 34 84q35 35 84 35q50 0 83 -35q34 -34 34 -84v-1507q0 -119 -63 -119h-1086q-51 0 -84.5 34t-33.5 85zM344 119h692l-692 1007v-1007z" />
<glyph unicode="O" horiz-adv-x="1855" d="M25 753q0 237 116 440q117 203 319 318q202 117 439 117q239 0 438 -117q200 -115 319 -318q118 -202 118 -440t-118 -438q-119 -201 -319 -317q-199 -117 -438 -117q-237 0 -439 117q-201 116 -319 317q-116 202 -116 438zM260 753q0 -264 187 -451t452 -187 q264 0 450 187q187 187 187 451q0 265 -187 452q-186 188 -450 188t-452 -188q-187 -187 -187 -452z" />
<glyph unicode="P" horiz-adv-x="1323" d="M135 0v1507q0 51 34 85t85 34h389q246 0 420 -174t174 -420t-174 -420t-420 -174h-270v-438q0 -49 -35 -84t-84 -35t-84 35t-35 84zM373 676h270q147 0 251 104q105 105 105 252q0 148 -104 252q-103 105 -252 105h-270v-713z" />
<glyph unicode="Q" d="M-25 754q0 238 117 439q117 203 318 318q202 117 439 117q238 0 439 -117q201 -115 318 -318q118 -202 118 -439q0 -203 -89 -398q-88 -192 -307 -334q-218 -140 -478 -140h-7q-256 0 -472 138q-218 140 -307 334q-89 196 -89 400zM211 754q0 -252 174 -439l371 549 q34 52 95 52h2q63 -2 97 -52l365 -547q172 184 172 437q0 264 -187 451q-186 188 -450 188t-452 -188q-187 -187 -187 -451zM575 178q129 -63 275 -63q145 0 274 63l-272 410z" />
<glyph unicode="R" horiz-adv-x="1443" d="M131 0v1507q0 41 21.5 71t60.5 42q4 0 6 2q18 5 33 5q7 0 10 -1h373q246 0 420 -174t174 -420q0 -136 -59 -257q-58 -120 -160 -202l338 -507q19 -30 19 -62q0 -10 -2 -28q-9 -48 -50 -74q-31 -20 -65 -20q-8 0 -24 2q-48 9 -75 50l-350 529q-81 -23 -166 -23h-270v-440 q0 -49 -34 -83t-83 -34t-83 34t-34 83zM365 676h294l-294 442v-442zM467 1391l412 -621q114 105 114 259q0 149 -105 256q-103 106 -253 106h-168z" />
<glyph unicode="S" horiz-adv-x="1304" d="M82 0q0 49 35 84t84 35h610l-186 173l-166 153l-130 127q-73 73 -111 122q-32 41 -73 107q-63 106 -63 231q0 245 173 420q173 174 419 174h377q78 0 108 -73q11 -27 11 -50q0 -42 -35 -80l-664 -661q60 -63 304 -288l409 -390q35 -37 35 -78q0 -25 -11 -52 q-31 -73 -108 -73h-899q-49 0 -84 35t-35 84zM317 1016q2 -29 15 -62l434 437h-92q-146 0 -250 -103q-105 -102 -107 -248v-24z" />
<glyph unicode="T" horiz-adv-x="1536" d="M24 1025q0 11 1 16q6 49 45 77l620 481q33 27 72 27t72 -27l620 -481q39 -28 45 -77q1 -5 1 -16q0 -39 -24 -71q-30 -39 -78 -45q-5 -1 -16 -1q-39 0 -71 26l-430 334v-1268q0 -49 -35 -84t-84 -35t-84 35t-35 84v1268l-430 -334q-32 -26 -71 -26q-11 0 -16 1 q-48 6 -78 45q-24 30 -24 65v6z" />
<glyph unicode="U" horiz-adv-x="1353" d="M45 479v1030q0 49 35 84t84 35q48 0 83 -35q34 -34 34 -84v-1030q0 -144 115 -253t280 -109t280 101q115 100 115 261v1030q0 49 35 84t83 35t83 -35t35 -84v-1030q0 -169 -86 -308q-85 -137 -231 -214q-143 -76 -314 -76q-170 0 -316 81q-144 80 -230 219 q-85 137 -85 298z" />
<glyph unicode="V" horiz-adv-x="1353" d="M45 1508q0 28 13 54q23 44 68 59q20 6 38 6q26 0 52 -12q45 -23 58 -67l402 -1183l401 1183q16 45 61 67q24 12 46 12h6q18 0 38 -6q46 -15 67 -59q11 -24 13 -51q0 -17 -8 -38l-514 -1512q-27 -80 -111 -80q-83 0 -110 80l-514 1512q-6 18 -6 35z" />
<glyph unicode="W" horiz-adv-x="1708" d="M109 0v1507q0 50 34 84q35 35 84 35q48 0 83 -35q34 -34 34 -84v-393l508 -430l506 430v393q0 50 34 84q35 35 84 35q50 0 83 -35q34 -34 34 -84v-1507q0 -77 -67 -108q-27 -12 -52 -12q-38 0 -73 30l-549 465l-549 -465q-35 -30 -74 -30q-25 0 -52 12q-68 32 -68 108z M344 254l326 274l-326 277v-551zM1034 528l324 -274v551z" />
<glyph unicode="X" horiz-adv-x="1705" d="M103 1q0 36 26 71l576 719l-515 641q-26 34 -26 73q0 9 1 14q4 48 44 78q33 26 73 27q9 0 14 -1q47 -4 79 -44l481 -600l479 600q32 40 80 44q5 1 14 1q41 0 73 -27q39 -32 43 -78q1 -5 1 -14q0 -39 -26 -73l-512 -639l577 -721q26 -35 27 -71q0 -25 -14 -53 q-31 -67 -105 -67h-1272q-74 0 -105 67q-13 27 -13 53zM467 117h780l-391 487z" />
<glyph unicode="Y" horiz-adv-x="1533" d="M-18 1505q2 27 13 53q31 68 103 68h4h1356q76 0 107 -70q12 -28 11 -51q0 -41 -30 -75l-661 -744v-686q0 -50 -34 -84q-35 -35 -83 -35t-83 35q-34 34 -34 84v688l-639 744q-30 34 -30 73zM358 1389l412 -480l426 480h-838z" />
<glyph unicode="Z" horiz-adv-x="1691" d="M90 2q0 38 27 72l600 757l-459 605q-25 34 -25 70q0 25 14 55q32 65 103 65h2h1049q73 0 105 -66q13 -27 13 -54q0 -37 -26 -72l-1040 -1315h1034q49 0 84 -35t35 -84t-35 -84t-84 -35h-1278q-75 0 -106 67q-13 27 -13 54zM590 1389l276 -367l291 367h-567z" />
<glyph unicode="[" horiz-adv-x="751" d="M152 -104v1712q0 51 33.5 83.5t84.5 32.5h271q49 0 83.5 -33.5t34.5 -82.5t-35 -84t-83 -35h-152v-1475h148q49 0 83 -34q35 -35 35 -83t-35 -83t-83 -35h-267q-51 0 -84.5 33t-33.5 84z" />
<glyph unicode="\" horiz-adv-x="888" d="M58 1544q2 26 13 50q21 45 67 60q20 6 38 6q26 2 52 -12q46 -23 59 -69l540 -1591q7 -18 7 -39q0 -25 -12 -50q-21 -45 -67 -60q-19 -6 -38 -6q-26 -2 -52 12q-46 23 -59 69l-540 1591q-6 16 -8 39z" />
<glyph unicode="]" horiz-adv-x="751" d="M78 1608q0 48 35 82t84 34h270q51 0 85 -32.5t34 -83.5v-1712q0 -51 -34 -84t-85 -33h-266q-49 0 -84 35t-35 83t35 83q34 34 84 34h147v1475h-151q-50 0 -85 35q-34 34 -34 84z" />
<glyph unicode="^" horiz-adv-x="731" d="M35 1823q0 49 35 84l217 217q37 35 84 35t84 -35l217 -217q33 -35 33 -84t-34 -83t-83 -34q-50 0 -84 33l-133 135l-133 -135q-34 -33 -85 -33q-50 0 -84 34t-34 83z" />
<glyph unicode="_" horiz-adv-x="1046" d="M-57 0q0 49 35 84t83 35h842q48 0 83 -35q34 -34 34 -84t-34 -84q-35 -35 -83 -35h-842q-48 0 -83 35t-35 84z" />
<glyph unicode="`" horiz-adv-x="884" d="M-107 2051q0 24 10 48q30 74 109 74h310q51 0 84.5 -34t33.5 -85v-299q0 -78 -71 -107q-27 -11 -50 -11q-44 0 -79 34l-310 299q-38 37 -37 81z" />
<glyph unicode="a" d="M-61 1q0 28 14 54l792 1508q32 60 104 62h2q68 0 103 -62l795 -1508q14 -26 14 -54q0 -18 -6 -36q-13 -47 -57 -69q-26 -14 -54 -14q-16 0 -36 5q-47 14 -70 58l-258 489l-332 -500q-34 -50 -97 -52h-2q-61 0 -95 52l-338 500l-256 -489q-22 -43 -70 -58q-16 -5 -31 -5 h-5q-28 0 -54 14q-44 22 -57 69q-6 18 -6 36zM543 670l309 -459l305 459l-307 585z" />
<glyph unicode="b" horiz-adv-x="1439" d="M86 0v1507q0 51 34 85t85 34h389q226 0 396 -153q168 -151 194 -375q97 -97 153 -230q56 -132 56 -276q0 -193 -95 -357q-94 -163 -258 -258q-164 -96 -356 -96h-479q-51 0 -85 34t-34 85zM324 119h360q197 0 335 138t138 335q0 92 -33 176q-74 -150 -216 -240t-314 -90 h-270v-319zM324 676h270q135 0 236 89q101 88 118 222q-122 80 -264 80h-360v-391zM324 1303h360q84 0 164 -19q-103 103 -254 105h-270v-86z" />
<glyph unicode="c" horiz-adv-x="1513" d="M-8 754q0 236 119 442q118 198 313 313q206 119 442 119q162 0 314 -57q147 -57 264 -162q40 -34 40 -88q0 -43 -30 -78q-33 -37 -81 -39h-6q-44 0 -79 29q-86 77 -192 117q-110 43 -230 43q-174 0 -323 -86q-143 -86 -230 -230q-86 -151 -86 -323q0 -171 86 -322 q85 -144 230 -229q152 -87 323 -88q120 0 230 43q108 44 192 118q34 30 78 30h8q50 -3 81 -40q30 -34 30 -79q0 -53 -39 -87q-119 -104 -266 -161q-150 -56 -314 -58q-237 0 -442 119q-198 117 -313 313q-119 206 -119 441z" />
<glyph unicode="d" horiz-adv-x="1390" d="M102 0v1507q0 51 34 85t85 34h305q216 0 386 -66.5t274 -187.5q211 -241 211 -618t-215 -619q-107 -121 -275.5 -187.5t-380.5 -66.5h-305q-51 0 -85 34t-34 85zM340 119h186q143 0 257.5 37t185.5 100q70 62 113 147q79 154 79 351q0 206 -79 357q-44 85 -114 144 q-72 63 -185.5 99.5t-256.5 36.5h-186v-1272z" />
<glyph unicode="e" horiz-adv-x="1372" d="M86 0v1507q0 51 33 85t84 34h921q78 0 109 -73q11 -27 11 -50q0 -43 -36 -80l-721 -718h637q48 0 83 -35q34 -34 34 -84t-34 -84q-33 -35 -83 -35h-805v-348h805q48 0 83 -35q34 -34 34 -84t-34 -84q-33 -35 -83 -35h-921q-51 0 -84 34t-33 85zM319 870l521 519h-521 v-519z" />
<glyph unicode="f" horiz-adv-x="1372" d="M86 0v1507q0 51 33 85t84 34h921q78 0 109 -73q11 -27 11 -50q0 -43 -36 -80l-721 -718h637q48 0 83 -35q34 -34 34 -84t-34 -84q-33 -35 -83 -35h-805v-467q0 -49 -34 -84t-82 -35t-83 35q-34 34 -34 84zM319 870l521 519h-521v-519z" />
<glyph unicode="g" horiz-adv-x="1847" d="M41 753q0 237 116 440q117 203 319 318q202 117 439 117q150 0 303 -54q153 -53 275 -165q39 -35 39 -88q0 -45 -30 -79q-32 -37 -81 -38h-5q-47 0 -81 31q-78 71 -190 114q-112 44 -230 44q-264 0 -452 -188q-187 -187 -187 -452q0 -264 187 -451t452 -187q171 0 310 88 l-482 467q-37 36 -37 79q0 26 10 50q30 73 107 73h2h828q51 0 83.5 -33.5t32.5 -84.5q0 -281 -163 -510q-16 -24 -37 -47l117 -113q35 -34 35 -82q0 -49 -32 -84q-35 -35 -83 -36h-3q-47 0 -81 34l-123 119q-214 -154 -484 -154q-237 0 -440 117q-201 117 -318 317 q-116 202 -116 438zM1116 637l285 -275l14 21q84 115 109 254h-408z" />
<glyph unicode="h" horiz-adv-x="1509" d="M156 0v1507q0 50 34 84q35 35 84 35t84 -35t35 -84v-633l283 285q35 35 83 35t83 -37l276 -280v630q0 49 35 84t84 35t84 -35t35 -84v-1507q0 -49 -35 -84t-84 -35t-84 35t-35 84v471h-725v-471q0 -49 -35 -84t-84 -35t-84 35q-34 34 -34 84zM557 709h399l-198 198z" />
<glyph unicode="i" horiz-adv-x="811" d="M49 0q0 50 34 84q35 35 83 35h121v1270h-121q-49 0 -83 34.5t-34 83.5q0 50 34 84q35 35 83 35h479q48 0 83 -35q34 -34 34 -84q0 -49 -34 -83.5t-83 -34.5h-121v-1270h121q48 0 83 -35q34 -34 34 -84t-34 -84q-35 -35 -83 -35h-479q-48 0 -83 35q-34 34 -34 84z" />
<glyph unicode="j" horiz-adv-x="1216" d="M132 1503q0 23 11 50q31 73 109 73h756q51 0 84.5 -33.5t33.5 -85.5v-1130q0 -224 -142 -360t-355 -136q-206 0 -351 145t-145 351q0 49 35 84t83 35t83 -35t35 -84q0 -107 75 -183q77 -77 185 -77q112 0 186 65q74 66 74 195v325l-721 721q-36 37 -36 80zM537 1389 l352 -353v353h-352z" />
<glyph unicode="k" horiz-adv-x="1622" d="M188 0v1507q0 83 81 112q24 8 45 8q51 0 87 -48l340 -444l385 448q33 39 81 42h9q42 0 77 -29q40 -34 42 -88q0 -44 -28 -76l-420 -488l669 -872q24 -32 24 -71q0 -11 -1 -16q-6 -48 -45 -78q-31 -25 -71 -25q-11 0 -16 1q-47 6 -79 45l-637 834l-305 -356v-406 q0 -49 -35 -84t-84 -35t-84 35t-35 84zM426 766l158 186l-158 207v-393z" />
<glyph unicode="l" horiz-adv-x="1249" d="M188 0v1507q0 49 35 84t84 35t84 -35t35 -84v-739l684 -684q36 -38 36 -80q0 -23 -11 -50q-31 -73 -109 -73h-719q-51 0 -85 34t-34 85zM426 119h315l-315 315v-315z" />
<glyph unicode="m" horiz-adv-x="1708" d="M109 0v1507q0 76 68 108q27 12 52 12q39 0 74 -30l549 -464l549 464q35 30 73 30q25 0 52 -12q68 -32 67 -108v-1507q0 -50 -34 -84q-33 -35 -83 -35q-49 0 -84 35q-34 34 -34 84v393l-506 430l-508 -430v-393q0 -50 -34 -84q-35 -35 -83 -35q-49 0 -84 35q-34 34 -34 84 zM344 702l326 277l-326 274v-551zM1034 979l324 -277v551z" />
<glyph unicode="n" horiz-adv-x="1505" d="M109 0v1507q0 41 22.5 71t61.5 42q21 6 39 6q54 0 92 -53l819 -1192v1126q0 49 34 84t82 35q50 0 83 -35q34 -34 34 -84v-1507q0 -119 -131 -119h-1018q-51 0 -84.5 34t-33.5 85zM344 119h692l-692 1007v-1007z" />
<glyph unicode="o" horiz-adv-x="1855" d="M25 753q0 237 116 440q117 203 319 318q202 117 439 117q239 0 438 -117q200 -115 319 -318q118 -202 118 -440t-118 -438q-119 -201 -319 -317q-199 -117 -438 -117q-237 0 -439 117q-201 116 -319 317q-116 202 -116 438zM260 753q0 -264 187 -451t452 -187 q264 0 450 187q187 187 187 451q0 265 -187 452q-186 188 -450 188t-452 -188q-187 -187 -187 -452z" />
<glyph unicode="p" horiz-adv-x="1323" d="M135 0v1507q0 51 34 85t85 34h389q246 0 420 -174t174 -420t-174 -420t-420 -174h-270v-438q0 -49 -35 -84t-84 -35t-84 35t-35 84zM373 676h270q147 0 251 104q105 105 105 252q0 148 -104 252q-103 105 -252 105h-270v-713z" />
<glyph unicode="q" d="M-25 754q0 238 117 439q117 203 318 318q202 117 439 117q238 0 439 -117q201 -115 318 -318q118 -202 118 -439q0 -192 -89 -383q-103 -220 -316 -355q-211 -134 -465 -134h-4q-162 1 -308 51.5t-274 162t-204 274.5q-89 191 -89 384zM211 754q0 -252 174 -439l371 549 q34 52 95 52h2q63 -2 97 -52l365 -547q172 184 172 437q0 264 -187 451q-186 188 -450 188t-452 -188q-187 -187 -187 -451zM575 178q129 -63 275 -63q145 0 274 63l-272 410z" />
<glyph unicode="r" horiz-adv-x="1443" d="M131 0v1507q0 41 21.5 71t60.5 42q4 0 6 2q18 5 33 5q7 0 10 -1h373q246 0 420 -174t174 -420q0 -136 -59 -257q-58 -120 -160 -202l338 -507q19 -30 19 -62q0 -10 -2 -28q-9 -48 -50 -74q-31 -20 -65 -20q-8 0 -24 2q-48 9 -75 50l-350 529q-78 -25 -166 -25h-270v-438 q0 -50 -34 -84q-35 -35 -83 -35t-83 35q-34 34 -34 84zM365 676h294l-294 442v-442zM467 1389l412 -619q114 105 114 259q0 150 -105 255q-104 105 -253 105h-168z" />
<glyph unicode="s" horiz-adv-x="1304" d="M82 0q0 49 35 84t84 35h610l-186 173l-166 153l-130 127q-73 73 -111 122q-32 41 -73 107q-63 106 -63 231q0 245 173 420q173 174 419 174h377q78 0 108 -73q11 -27 11 -50q0 -42 -35 -80l-664 -661q60 -63 304 -288l409 -390q35 -37 35 -78q0 -25 -11 -52 q-31 -73 -108 -73h-899q-49 0 -84 35t-35 84zM317 1016q2 -29 15 -62l434 435h-92q-145 0 -250 -102q-105 -101 -107 -247v-24z" />
<glyph unicode="t" horiz-adv-x="1536" d="M24 1025q0 11 1 16q6 49 45 77l620 481q33 27 72 27t72 -27l620 -481q39 -28 45 -77q1 -5 1 -16q0 -39 -24 -71q-30 -39 -78 -45q-5 -1 -16 -1q-39 0 -71 26l-430 334v-1268q0 -49 -35 -84t-84 -35t-84 35t-35 84v1268l-430 -334q-32 -26 -71 -26q-11 0 -16 1 q-48 6 -78 45q-24 30 -24 65v6z" />
<glyph unicode="u" horiz-adv-x="1353" d="M45 479v1030q0 49 35 84t84 35q48 0 83 -35q34 -34 34 -84v-1030q0 -144 115 -253t280 -109t280 101q115 100 115 261v1030q0 49 35 84t83 35t83 -35t35 -84v-1030q0 -169 -86 -308q-85 -137 -231 -214q-143 -76 -314 -76q-170 0 -316 81q-144 80 -230 219 q-85 137 -85 298z" />
<glyph unicode="v" horiz-adv-x="1353" d="M45 1508q0 28 13 54q23 44 68 59q20 6 38 6q26 0 52 -12q45 -23 58 -67l402 -1183l401 1183q16 45 61 67q24 12 46 12h6q18 0 38 -6q46 -15 67 -59q11 -24 13 -51q0 -17 -8 -38l-514 -1512q-27 -80 -111 -80q-83 0 -110 80l-514 1512q-6 18 -6 35z" />
<glyph unicode="w" horiz-adv-x="1708" d="M109 0v1507q0 50 34 84q35 35 84 35q48 0 83 -35q34 -34 34 -84v-393l508 -430l506 430v393q0 50 34 84q35 35 84 35q50 0 83 -35q34 -34 34 -84v-1507q0 -77 -67 -108q-27 -12 -52 -12q-38 0 -73 30l-549 465l-549 -465q-35 -30 -74 -30q-25 0 -52 12q-68 32 -68 108z M344 254l326 274l-326 277v-551zM1034 528l324 -274v551z" />
<glyph unicode="x" horiz-adv-x="1705" d="M103 1q0 36 26 71l576 719l-515 641q-26 34 -26 73q0 9 1 14q4 48 44 78q33 26 73 27q9 0 14 -1q47 -4 79 -44l481 -600l479 600q32 40 80 44q5 1 14 1q41 0 73 -27q39 -32 43 -78q1 -5 1 -14q0 -39 -26 -73l-512 -639l577 -721q26 -35 27 -71q0 -25 -14 -53 q-31 -67 -105 -67h-1272q-74 0 -105 67q-13 27 -13 53zM467 117h780l-391 487z" />
<glyph unicode="y" horiz-adv-x="1533" d="M-18 1505q2 27 13 53q31 68 103 68h4h1356q76 0 107 -70q12 -28 11 -51q0 -41 -30 -75l-661 -744v-686q0 -50 -34 -84q-35 -35 -83 -35t-83 35q-34 34 -34 84v688l-639 744q-30 34 -30 73zM358 1389l412 -480l426 480h-838z" />
<glyph unicode="z" horiz-adv-x="1691" d="M90 2q0 38 27 72l600 757l-459 605q-25 34 -25 70q0 25 14 55q32 65 103 65h2h1049q73 0 105 -66q13 -27 13 -54q0 -37 -26 -72l-1040 -1315h1034q49 0 84 -35t35 -84t-35 -84t-84 -35h-1278q-75 0 -106 67q-13 27 -13 54zM590 1389l276 -367l291 367h-567z" />
<glyph unicode="{" horiz-adv-x="628" d="M-5 801q0 8 1 13q4 45 32 74.5t72 33.5h8q19 0 39 14.5t23 46.5v13v40q0 27 0.5 63.5t0.5 90.5v114q0 60 0.5 140t0.5 164q2 49 37 82.5t83 33.5t83 -35q34 -34 33 -83q0 -112 -1 -197q-2 -370 -4 -426q0 -111 -63 -184q70 -79 70 -181v-633q0 -48 -1 -65l-1 -24 q0 -49 -34 -83t-83 -34t-84 35t-35 84q4 623 4 720q0 23 -45 50q-27 16 -51 24q-44 12 -66 45q-19 28 -19 64z" />
<glyph unicode="|" horiz-adv-x="512" d="M139 0v1507q0 50 34 84q35 35 83 35t83 -35q34 -34 34 -84v-1507q0 -50 -34 -84q-35 -35 -83 -35t-83 35q-34 34 -34 84z" />
<glyph unicode="}" horiz-adv-x="628" d="M246 -15v633q-2 101 69 181q-63 73 -63 184q-1 26 -3 426q-1 85 -1 197q-2 50 32 83q35 35 83 35q49 0 83.5 -33.5t36.5 -82.5q0 -84 0.5 -164t0.5 -140v-114q0 -54 0.5 -90.5t0.5 -63.5v-40v-13q3 -32 23 -46.5t40 -14.5h7q44 -4 72 -33.5t32 -74.5q1 -4 1 -13 q0 -36 -19 -64q-23 -33 -66 -45q-24 -8 -51 -24q-45 -27 -45 -50q0 -97 4 -720q0 -49 -35 -84t-84 -35t-82.5 34t-33.5 83l-1 24q-1 17 -1 65z" />
<glyph unicode="~" horiz-adv-x="813" d="M47 881q0 93 55 157q21 26 45 43q29 19 58 29q39 14 78 14q35 0 49 -6q65 -22 88 -39q11 -7 22 -18q32 -29 62 -68q28 -38 31 -41l10 -8h2q3 0 4 4q6 8 6 19v15q0 42 27 75q32 38 79 42q7 1 13 0q39 0 73 -26q38 -32 42 -80q2 -16 2 -26q0 -95 -58 -166q-49 -61 -121 -82 q-31 -10 -67 -10q-44 0 -86 14q-24 13 -29 14q-22 12 -67 51q-15 17 -52 66q-20 25 -26 31l-2 2l-2 -6v-2q3 -15 2 -26q0 -34 -20 -63q-28 -39 -76 -50q-16 -2 -23 -2q-35 0 -65 21q-40 28 -50 77q-4 20 -4 45z" />
<glyph unicode="&#xa1;" horiz-adv-x="565" d="M51 1634q0 48 35 83q34 34 84 34q49 0 82 -33l6 -6l4 6q35 33 83 33t83 -34q35 -35 35 -83q0 -49 -35 -84l-4 -4l4 -4q35 -35 35 -83t-35 -83t-84 -35t-84 35l-2 4l-4 -4q-35 -35 -84 -35q-48 0 -83 35q-34 35 -34 83t33 83l4 4l-4 4q-35 35 -35 84zM139 0v1102 q0 50 34 84q35 35 83 35t83 -35q34 -34 34 -84v-1102q0 -50 -34 -84q-35 -35 -83 -35t-83 35q-34 34 -34 84z" />
<glyph unicode="&#xa2;" horiz-adv-x="1064" d="M-12 500q0 166 80 309q79 140 215 223q90 53 186 74v43q0 49 35 84t83 35t83 -35t35 -84v-43q57 -12 98 -29q103 -41 182 -114q37 -34 37 -88q0 -47 -31 -79q-33 -37 -81 -38h-5q-45 0 -80 30q-48 44 -108 70q-62 25 -129 25q-99 0 -182 -52q-83 -50 -132 -137 q-51 -90 -51 -195q0 -104 51 -194q49 -87 132 -137q78 -46 165 -51q15 4 31 0q60 2 115 24q62 26 108 70q34 31 80 31h5q46 -1 82 -37q32 -34 32 -79q0 -53 -37 -87q-83 -77 -182 -117q-47 -17 -100 -28v-84q0 -48 -35 -83q-34 -34 -83 -34t-83 34q-35 33 -35 83v84 q-95 19 -186 73q-136 83 -215 223q-80 145 -80 310z" />
<glyph unicode="&#xa3;" horiz-adv-x="1495" d="M20 164q0 77 41 145q53 87 152 121q48 17 104 19h15v202h-117q-49 0 -83 34t-34 83t34 83t83 34h117v393q10 110 78 199q79 109 211 147q55 16 118 16q67 0 133 -20q108 -38 183 -119q77 -83 102 -190q14 -53 14 -107q0 -49 -35 -84t-82 -35q-48 0 -83 35t-35 84 q0 25 -6 49q-12 49 -48 88t-83 54q-27 10 -60 10q-27 0 -53 -6q-55 -17 -88 -62q-27 -34 -33 -77v-375h234q49 0 82.5 -34t33.5 -83t-33.5 -83t-82.5 -34h-234v-295l51 -39q142 -118 146 -120l555 327q30 18 60 18q27 0 53 -13q57 -29 63 -91q4 -25 4 -57q0 -181 -115 -318 q-134 -161 -344 -180q-36 -2 -51 -2q-145 0 -282 74l-3 2q-71 38 -149 104q-2 -15 -12 -34q-7 -17 -21 -33q-29 -34 -33 -37l-10 -10q-13 -13 -26 -21t-29 -16q-58 -22 -88 -27q-22 -2 -31 -2h-4q-99 1 -178 68q-78 64 -96 166q-5 27 -5 49zM256 164q0 -2 2 -8q2 -15 15 -26 t30 -13q2 2 4 2l10 2q1 0 5 2l8 8v80q-8 2 -13 2q-15 0 -26 -4q-18 -6 -29 -23q-6 -10 -6 -22z" />
<glyph unicode="&#xa4;" horiz-adv-x="700" d="M37 903q0 49 35 84q34 33 80 35h5q42 0 76 -29q57 23 115 23q64 0 121 -25q35 30 80 30h3q49 -2 81 -34q35 -33 35 -81t-33 -83q47 -112 0 -231q30 -34 30 -80v-3q-1 -48 -34 -81t-80 -34h-3q-44 0 -79 30q-56 -25 -121 -25q-58 0 -115 23q-34 -29 -75 -29h-5 q-45 1 -79 35t-35 78v6q0 41 27 74q-25 56 -25 121q0 64 25 120q-29 34 -29 76z" />
<glyph unicode="&#xa5;" horiz-adv-x="1533" d="M-18 1505q2 27 13 53q32 70 107 68h1356q76 0 107 -70q12 -28 11 -51q0 -41 -30 -75l-517 -582h38q48 0 83 -35q34 -34 34 -84t-34 -84q-35 -35 -83 -35h-182v-12h182q49 0 83 -34t34 -83t-34 -82.5t-83 -33.5h-182v-365q0 -50 -34 -84q-35 -35 -83 -35t-83 35 q-34 34 -34 84v365h-145q-49 0 -83 33.5t-34 82.5t34 83t83 34h145v12h-145q-48 0 -83 35q-34 34 -34 84t34 84q35 35 83 35h7l-501 584q-30 34 -30 73zM358 1389l412 -480l426 480h-838z" />
<glyph unicode="&#xa6;" horiz-adv-x="540" d="M152 -37v565q0 50 34 84q35 35 84 35t84 -35t35 -84v-565q0 -49 -35 -84t-84 -35t-84 35q-34 34 -34 84zM152 963v565q0 50 34 84q35 35 84 35t84 -35t35 -84v-565q0 -49 -35 -84t-84 -35t-84 35q-34 34 -34 84z" />
<glyph unicode="&#xa7;" horiz-adv-x="1304" d="M-33 711q0 271 201 440q44 206 206 340q164 135 376 135h376q78 0 109 -73q11 -27 11 -49q0 -43 -36 -79l-659 -665q69 -74 301 -288l408 -388q36 -38 35 -80q0 -23 -11 -50q-31 -73 -108 -73h-228l123 -119q36 -38 36 -79q0 -23 -11 -50q-32 -72 -109 -71h-901 q-48 0 -82 34q-35 33 -35 83q0 48 35 83q34 33 82 33h612l-186 175l-166 154l-130 127q-73 73 -111 122q-33 44 -72 107q-66 109 -66 231zM205 745l31 31q-7 11 -19 33q-8 -32 -12 -64zM301 506q16 -21 48 -53l50 -53q19 -20 66 -64l66 -64l83 -76q59 -55 86 -77h187 l-189 174l-184 172q-81 78 -129 127zM393 1016q1 -30 17 -66l434 441h-94q-146 0 -250 -103q-105 -102 -107 -248v-24z" />
<glyph unicode="&#xa8;" horiz-adv-x="851" d="M-51 1801q0 48 33 83l6 4l-4 4q-35 35 -35 84q0 48 35 83q34 34 82 34q50 0 84 -33l4 -4l4 4q34 33 83 33q48 0 82 -34q35 -35 35 -83q0 -50 -34 -84l-5 -4l5 -4q35 -36 34.5 -83t-34.5 -83q-33 -35 -82 -35t-84 35l-4 4l-4 -4q-35 -35 -85 -35q-49 0 -82 35 q-34 35 -34 83zM514 1801q0 48 35 83l4 4l-4 4q-35 35 -35 84q0 48 35 83q35 34 83 34t83 -33l4 -4l4 4q35 33 84 33t83 -34t34 -83t-35 -84l-2 -4l4 -4q35 -35 35 -83t-35 -83t-84 -35t-84 35l-4 4l-4 -4q-35 -35 -83 -35t-83 35t-35 83z" />
<glyph unicode="&#xa9;" horiz-adv-x="493" d="M-47 1340q0 111 80 191q79 79 193 79q115 0 194 -79q80 -80 80 -191q0 -110 -80 -190q-79 -79 -194 -79q-114 0 -193 79q-80 80 -80 190zM14 1341q0 -85 62 -147q62 -61 150 -61t149 61q63 62 63 147q0 86 -63 146q-61 61 -149 61t-150 -61q-62 -60 -62 -146zM121 1276 q-37 62 0 125q13 28 43 45q28 18 61 18q21 0 45 -8q21 -8 37 -24q12 -10 12 -22q0 -11 -10 -21q-20 -23 -43 -3q-17 17 -41 17q-34 0 -51 -33q-18 -31 0 -65q18 -31 51 -31q25 0 41 16q24 20 43 -2q10 -10 10 -21t-12 -22q-17 -17 -37 -24q-22 -7 -45 -9q-32 0 -61 17 q-30 19 -43 47z" />
<glyph unicode="&#xaa;" horiz-adv-x="612" d="M-55 1076q0 28 14 54l98 187l9 16l127 242q33 63 104 63q73 0 104 -63l234 -445q16 -27 15 -55q0 -15 -5 -35q-13 -46 -58 -69q-28 -14 -55 -14q-18 0 -35 6q-47 13 -69 57l-12 20l-21 -30q-35 -51 -97 -53h-2q-60 0 -95 53l-23 32l-10 -22q-22 -43 -70 -57 q-18 -6 -36 -6q-28 0 -54 14q-44 23 -57 69q-6 18 -6 36z" />
<glyph unicode="&#xab;" horiz-adv-x="641" d="M-46 638q0 42 32 79l196 221q36 42 83 42q22 0 46 -9q58 -23 74 -78l80 92q36 42 83 42q22 0 47 -9q77 -29 77 -109v-510q0 -80 -74 -109q-24 -10 -48 -10q-44 0 -81 37l-86 89q-17 -51 -68 -72q-27 -11 -49 -11q-42 0 -80 35l-196 197q-36 36 -36 83z" />
<glyph unicode="&#xac;" horiz-adv-x="790" d="M-37 819q0 49 35 84t84 35h590q51 0 85 -34t34 -85v-237q0 -49 -35 -84t-84 -35q-50 0 -84 34q-35 35 -35 85v118h-471q-49 0 -84 35t-35 84z" />
<glyph unicode="&#xad;" horiz-adv-x="790" d="M-37 819q0 49 35 84t84 35h590q49 0 84 -35t35 -84t-35 -84t-84 -35h-590q-49 0 -84 35t-35 84z" />
<glyph unicode="&#xae;" horiz-adv-x="493" d="M-47 1340q0 111 80 191q79 79 193 79q115 0 194 -79q80 -80 80 -191q0 -110 -80 -190q-79 -79 -194 -79q-114 0 -193 79q-80 80 -80 190zM14 1341q0 -85 62 -147q62 -61 150 -61t149 61q63 62 63 147q0 86 -63 146q-61 61 -149 61t-150 -61q-62 -60 -62 -146zM152 1255 v185q0 12 9 21t21 9h47q37 0 63.5 -25.5t26.5 -62.5q0 -36 -22 -59l33 -51q8 -12 7 -20q0 -13 -14 -22q-10 -7 -19 -7q-13 0 -23 16l-39 55q-8 -2 -13 -2h-16v-37q0 -12 -9 -21t-22 -9q-12 0 -21 9t-9 21zM213 1354h16q3 0 13 2v2q16 6 16 24q0 10 -8.5 18.5t-20.5 8.5h-16 v-55z" />
<glyph unicode="&#xaf;" horiz-adv-x="604" d="M16 1659q0 49 35 84t84 35h320q48 0 83 -35t35 -84t-35 -84t-83 -35h-320q-49 0 -84 35t-35 84z" />
<glyph unicode="&#xb0;" horiz-adv-x="491" d="M33 448q0 81 59 140q61 59 141 59q82 0 141 -59q60 -58 60 -140t-60 -140q-58 -58 -141 -58q-82 0 -141 58q-59 59 -59 140zM188 448.5q0 -18.5 13 -33.5q14 -14 32.5 -14t31.5 14q14 15 14 33.5t-14 32.5q-13 15 -31.5 15t-32.5 -15q-13 -14 -13 -32.5z" />
<glyph unicode="&#xb1;" horiz-adv-x="755" d="M-41 278q0 49 35 84t84 35h160v158q0 49 34.5 83t83.5 34q50 0 84 -34q35 -35 35 -83v-158h158q48 0 83 -35q34 -34 34 -84q0 -49 -34 -82.5t-83 -33.5h-158v-150h96q49 0 83 -33.5t34 -82.5q0 -50 -33.5 -83.5t-83.5 -33.5h-448q-50 0 -84 34q-35 33 -35 83q0 48 35 82 t84 34h115v150h-160q-49 0 -84 34t-35 82z" />
<glyph unicode="&#xb2;" horiz-adv-x="612" d="M75 1143q0 42 36 78l174 168h-66q-51 0 -85 33.5t-34 84.5q0 131 75 211t198 80q117 0 190 -76q74 -76 74 -192q0 -5 -2 -31v-6q-7 -73 -62 -143q-29 -39 -86 -95h31q49 0 84 -35t35 -82q0 -48 -35 -83t-84 -35h-323q-80 0 -109 74q-11 27 -11 49z" />
<glyph unicode="&#xb3;" horiz-adv-x="612" d="M55 1302q0 33 19 61q26 38 67 50q-2 26 2 45q-35 35 -32 82q0 115 82 191q76 70 178 69h18q93 -8 160 -69q67 -62 80 -152q6 -30 4 -43q-6 -65 -10 -78q38 -63 39 -139v-4q0 -125 -93 -211q-85 -82 -209 -82h-6q-109 1 -196 76q-83 74 -101 182q-2 14 -2 22zM315 1274 q17 -15 45 -17q26 0 43 15h-6q-22 -2 -30 -2q-17 0 -43 2q-6 2 -9 2z" />
<glyph unicode="&#xb4;" horiz-adv-x="718" d="M-102 1563v309q0 51 32.5 85t83.5 34h299q77 0 109 -72q11 -27 11 -49q0 -42 -36 -80l-297 -309q-36 -38 -81 -38q-24 0 -48 10q-73 30 -73 110z" />
<glyph unicode="&#xb5;" horiz-adv-x="1353" d="M45 -414v1923q0 49 35 84t84 35q48 0 83 -35q34 -34 34 -84v-1030q0 -144 115 -253t280 -109t280 101q115 100 115 261v1030q0 49 35 84t83 35t83 -35t35 -84v-1030q0 -169 -86 -308q-85 -137 -231 -214q-143 -76 -314 -76q-221 0 -395 135v-430q0 -49 -34 -83.5 t-83 -34.5t-84 35t-35 83z" />
<glyph unicode="&#xb6;" horiz-adv-x="1363" d="M41 1032q0 245 173 420q172 174 419 174h160q51 0 83.5 -33.5t32.5 -85.5v-1507q0 -50 -34 -84q-33 -35 -83 -35q-48 0 -82 35t-34 84v446q-21 -8 -43 -8q-247 0 -419 174q-173 175 -173 420zM274 1032q0 -147 105 -252q107 -104 254 -104q22 0 43 -8v721h-43 q-147 0 -253 -105q-106 -103 -106 -252zM1036 0v1507q0 50 34 84q35 35 83 35t83 -35q34 -34 34 -84v-1507q0 -50 -34 -84q-35 -35 -83 -35t-83 35q-34 34 -34 84z" />
<glyph unicode="&#xb7;" horiz-adv-x="471" d="M14 737q0 49 35 84l4 4l-4 4q-35 35 -35 83t35 83t83 35t83 -35l4 -4l4 4q35 35 84 35q48 0 83 -35q34 -34 34 -83q0 -48 -35 -83l-4 -4l6 -4q33 -35 33 -84t-34 -83q-34 -33 -83 -33t-84 32l-4 6l-4 -6q-35 -33 -84 -33q-49 1 -83 34q-34 34 -34 83z" />
<glyph unicode="&#xb8;" horiz-adv-x="1513" d="M512 -516q0 12 1 19q8 49 46 77q32 23 68 23q12 0 19 -1q49 -8 77 -46q17 -24 47 -35l8 -2q9 -4 29 -4q8 -2 18 2q30 5 49 24q21 21 25 47q2 8 2 13q0 23 -12 39q-13 22 -37 24h-10l-13 -4q-13 -5 -18 -14q-35 -51 -89 -53q-18 0 -42 8q-39 12 -60.5 41.5t-21.5 70.5v289 q0 49 34 83t83 34t82.5 -34t33.5 -83v-102h17q8 0 24 -2q133 -12 211 -123q53 -78 54 -174q0 -33 -4 -58q-18 -98 -93 -170q-70 -70 -168 -88q-33 -7 -55 -6h-10q-61 4 -94 12q-21 7 -29 11q-92 35 -149 114q-23 32 -23 68z" />
<glyph unicode="&#xb9;" horiz-adv-x="434" d="M51 1447q0 37 25 69l119 157q37 48 88 49q18 0 44 -8q81 -27 81 -110v-430q37 -10 61.5 -42t24.5 -71q0 -49 -35 -84t-84 -35h-172q-48 0 -83 35q-34 34 -34 84q0 39 23.5 70.5t62.5 42.5v153h-2q-74 0 -105 66q-12 26 -14 54z" />
<glyph unicode="&#xba;" horiz-adv-x="491" d="M33 285q0 81 59 140q59 58 141 58q83 0 141 -58q60 -59 60 -140q0 -83 -60 -141q-58 -58 -141 -58q-82 0 -141 58q-59 59 -59 141zM188 284.5q0 -18.5 13 -32.5q14 -14 32.5 -14t31.5 14q14 14 14 32.5t-14 32.5q-13 15 -31.5 15t-32.5 -15q-13 -14 -13 -32.5z" />
<glyph unicode="&#xbb;" horiz-adv-x="641" d="M-57 399v510q-2 80 76 109q25 9 47 9q48 0 84 -42l79 -92q16 55 74 78q24 9 46 9q47 0 83 -42l197 -221q32 -37 32 -79q0 -47 -36 -83l-197 -197q-38 -35 -80 -35q-22 0 -49 11q-51 21 -68 72l-86 -89q-36 -37 -80 -37q-25 0 -49 10q-73 28 -73 109z" />
<glyph unicode="&#xbc;" horiz-adv-x="1214" d="M60 0q0 39 26 74l946 1179q32 40 79 44q5 1 14 1q39 0 73 -26q40 -32 44 -79q1 -5 1 -14q0 -39 -26 -73l-947 -1180q-32 -40 -79 -44q-7 -1 -13 0q-39 0 -74 26q-40 32 -44 79q-1 7 0 13zM162 1160q0 36 24 69l119 157q37 48 89 49q19 0 43 -8q81 -27 81 -110v-430 q37 -10 61.5 -42t24.5 -71q0 -49 -35 -84t-84 -35h-172q-48 0 -82 35t-34 84q0 40 24 71.5t62 41.5v153h-2q-75 0 -106 66q-13 27 -13 54zM593 187q0 37 28 71l299 367q36 46 85 46q19 0 45 -8q79 -28 78 -112v-539q0 -48 -35 -83t-82 -35q-48 0 -83 35t-35 83v54h-180 q-74 -2 -107 67q-13 27 -13 54z" />
<glyph unicode="&#xbd;" horiz-adv-x="1214" d="M60 0q0 39 26 74l946 1179q32 40 79 44q5 1 14 1q39 0 73 -26q40 -32 44 -79q1 -5 1 -14q0 -39 -26 -73l-373 -465q50 21 112 21q118 0 191 -76q74 -77 74 -193q0 -5 -2 -31v-6q-7 -73 -62 -143q-26 -36 -86 -94h31q49 0 84 -35t35 -83t-35 -83t-84 -35h-324 q-79 0 -108 74q-11 27 -11 49q0 41 35 78l174 170h-65q-51 0 -85 33t-34 84q0 41 8 81l-422 -526q-32 -40 -79 -44q-7 -1 -13 0q-39 0 -74 26q-40 32 -44 79q-1 7 0 13zM162 1160q0 36 24 69l119 157q37 48 89 49q19 0 43 -8q81 -27 81 -110v-430q37 -10 61.5 -42t24.5 -71 q0 -49 -35 -84t-84 -35h-172q-48 0 -82 35t-34 84q0 40 24 71.5t62 41.5v153h-2q-75 0 -106 66q-13 27 -13 54z" />
<glyph unicode="&#xbe;" horiz-adv-x="1214" d="M55 940q0 32 19 60q26 38 67 51q-2 26 2 45q-35 35 -32 82q0 115 82 190q76 70 178 70h18q91 -7 160 -70q67 -62 80 -151q6 -30 4 -43q-6 -65 -10 -78q37 -63 39 -140v-4q0 -126 -93 -211q-85 -82 -209 -82h-6q-109 1 -196 76q-83 74 -101 183q-2 14 -2 22zM60 0 q0 39 26 74l946 1179q32 40 79 44q5 1 14 1q39 0 73 -26q40 -32 44 -79q1 -5 1 -14q0 -39 -26 -73l-947 -1180q-32 -40 -79 -44q-7 -1 -13 0q-39 0 -74 26q-40 32 -44 79q-1 7 0 13zM315 911q17 -16 45 -16q26 0 43 14h-6q-22 -2 -30 -2q-17 0 -43 2q-6 2 -9 2zM593 187 q0 37 28 71l299 367q36 46 85 46q19 0 45 -8q79 -28 78 -112v-539q0 -48 -35 -83t-82 -35q-48 0 -83 35t-35 83v54h-180q-74 -2 -107 67q-13 27 -13 54z" />
<glyph unicode="&#xbf;" horiz-adv-x="991" d="M-41 0q0 36 27 70l391 503v570q0 49 33 84q9 9 14 12q-16 -2 -25 -2q-48 0 -83 35q-33 35 -33 83t34 83l5 4l-7 4q-33 34 -33 84q1 49 34 83q34 34 83 34t84 -33l4 -6l5 6q34 33 84 33q49 0 82 -34q34 -34 34 -83t-35 -84l-4 -4l4 -4q35 -35 35 -83t-35 -83t-83 -35h-9 l11 -10q34 -34 34 -84v-611q0 -41 -24 -71l-15 -21l359 -358q36 -38 35 -80q0 -22 -11 -49q-32 -72 -108 -72h-768q-74 0 -106 66q-13 26 -13 53zM319 115h244l-137 139zM469 1260q16 2 24 2h10q-8 6 -11 10l-5 4l-4 -4q-9 -9 -14 -12z" />
<glyph unicode="&#xc0;" d="M-61 1q0 28 14 54l340 647q6 17 16 31l436 830q32 60 104 62h2q68 0 103 -62l795 -1508q14 -26 14 -54q0 -18 -6 -36q-13 -47 -57 -69q-26 -14 -54 -14q-16 0 -36 5q-47 14 -70 58l-258 489l-332 -500q-34 -50 -97 -52h-2q-61 0 -95 52l-338 500l-256 -489 q-22 -43 -70 -58q-19 -6 -36 -5q-28 0 -54 14q-44 22 -57 69q-6 18 -6 36zM347 2168q0 24 10 48q30 74 108 74h311q50 0 83.5 -34t33.5 -83v-299q0 -78 -72 -109q-27 -11 -50 -11q-43 0 -77 34l-309 299q-38 36 -38 81zM543 670l309 -459l305 459l-307 585z" />
<glyph unicode="&#xc1;" d="M-61 1q0 28 14 54l340 647q6 17 16 31l436 830q32 60 104 62h2q68 0 103 -62l795 -1508q14 -26 14 -54q0 -18 -6 -36q-13 -47 -57 -69q-26 -14 -54 -14q-16 0 -36 5q-47 14 -70 58l-258 489l-332 -500q-34 -50 -97 -52h-2q-61 0 -95 52l-338 500l-256 -489 q-22 -43 -70 -58q-19 -6 -36 -5q-28 0 -54 14q-44 22 -57 69q-6 18 -6 36zM543 670l309 -459l305 459l-307 585zM731 1798v309q0 51 34 84t85 33h299q79 0 107 -72q11 -27 11 -49q0 -43 -34 -78l-299 -309q-36 -38 -81 -38q-21 0 -48 11q-74 29 -74 109z" />
<glyph unicode="&#xc2;" d="M-61 1q0 28 14 54l340 647q6 17 16 31l436 830q32 60 104 62h2q68 0 103 -62l795 -1508q14 -26 14 -54q0 -18 -6 -36q-13 -47 -57 -69q-26 -14 -54 -14q-16 0 -36 5q-47 14 -70 58l-258 489l-332 -500q-34 -50 -97 -52h-2q-61 0 -95 52l-338 500l-256 -489 q-22 -43 -70 -58q-19 -6 -36 -5q-28 0 -54 14q-44 22 -57 69q-6 18 -6 36zM514 1797q0 48 35 83l217 217q37 37 84 37t82 -37l217 -217q35 -35 35 -82.5t-34 -83.5q-35 -35 -83 -35q-49 0 -84 35l-133 133l-135 -133q-35 -35 -83 -35t-83 35t-35 83zM543 670l309 -459 l305 459l-307 585z" />
<glyph unicode="&#xc3;" d="M-61 1q0 28 14 54l340 647q6 17 16 31l436 830q32 60 104 62h2q68 0 103 -62l795 -1508q14 -26 14 -54q0 -18 -6 -36q-13 -47 -57 -69q-26 -14 -54 -14q-16 0 -36 5q-47 14 -70 58l-258 489l-332 -500q-34 -50 -97 -52h-2q-61 0 -95 52l-338 500l-256 -489 q-22 -43 -70 -58q-19 -6 -36 -5q-28 0 -54 14q-44 22 -57 69q-6 18 -6 36zM477 1851q0 94 55 158q20 24 46 43q26 17 55 31q40 14 78 14q35 0 51 -6q65 -26 86 -39q12 -8 24 -18q28 -27 60 -70q27 -35 31 -39q9 -9 12 -10q2 0 6 4q6 7 6 20v3q-1 5 -1 16q0 39 26 71 q32 38 80 42h11q41 0 76 -27q38 -32 42 -80q2 -16 2 -25q0 -93 -60 -167q-47 -59 -121 -82q-29 -9 -67 -11q-42 0 -84 17l-29 12q-21 13 -67 53q-21 19 -54 64q-17 25 -24 30l-4 3v-9q2 -14 2 -21q0 -36 -22 -67q-29 -42 -76 -49q-14 -2 -21 -2q-36 0 -67 22q-41 29 -48 74 q-4 20 -4 45zM543 670l309 -459l305 459l-307 585z" />
<glyph unicode="&#xc4;" d="M-61 1q0 28 14 54l340 647q6 17 16 31l436 830q32 60 104 62h2q68 0 103 -62l795 -1508q14 -26 14 -54q0 -18 -6 -36q-13 -47 -57 -69q-26 -14 -54 -14q-16 0 -36 5q-47 14 -70 58l-258 489l-332 -500q-34 -50 -97 -52h-2q-61 0 -95 52l-338 500l-256 -489 q-22 -43 -70 -58q-19 -6 -36 -5q-28 0 -54 14q-44 22 -57 69q-6 18 -6 36zM375 1797.5q0 47.5 35 82.5l4 6l-4 2q-35 35 -35 84q0 50 34 84q35 35 84 35q50 0 82 -35l5 -4l4 4q35 35 84 35t82 -35q34 -34 34 -84t-34 -84l-2 -2l4 -6q35 -35 34.5 -83t-35.5 -83t-84 -35 q-48 0 -83 35l-4 4l-5 -4q-35 -35 -83 -35t-83 35q-34 36 -34 83.5zM543 670l309 -459l305 459l-307 585zM940 1797q0 48 35 83l4 6l-4 2q-33 34 -33 84t34 84q35 35 83 35q49 0 84 -35l4 -4l2 4q35 35 84 35t84 -35t35 -84t-35 -84l-4 -2l4 -6q35 -35 35 -83t-35 -83 t-83 -35t-83 35l-4 4l-6 -4q-33 -35 -82 -35t-84 35t-35 83z" />
<glyph unicode="&#xc5;" d="M-61 1q0 28 14 54l340 647q6 17 16 31l436 830q32 60 104 62h2q68 0 103 -62l795 -1508q14 -26 14 -54q0 -18 -6 -36q-13 -47 -57 -69q-26 -14 -54 -14q-16 0 -36 5q-47 14 -70 58l-258 489l-332 -500q-34 -50 -97 -52h-2q-61 0 -95 52l-338 500l-256 -489 q-22 -43 -70 -58q-19 -6 -36 -5q-28 0 -54 14q-44 22 -57 69q-6 18 -6 36zM543 670l309 -459l305 459l-307 585zM653 1932q0 83 58 141q59 59 142 59q82 0 141 -59t59 -141t-59 -141q-58 -58 -141 -58q-84 0 -142 58t-58 141zM807 1932.5q0 -19.5 13 -33.5q14 -13 33 -13 t32 13q14 14 14 33.5t-14 32.5q-13 13 -32 13t-33 -13q-13 -13 -13 -32.5z" />
<glyph unicode="&#xc6;" horiz-adv-x="2502" d="M-61 1q0 28 14 54l340 647q6 17 16 31l436 830q32 60 104 62h2q68 0 103 -62l224 -428v372q0 51 33.5 85t84.5 34h605q73 0 104 -64q15 -28 15 -56q0 -34 -23 -66l-471 -662h422q49 0 82.5 -33.5t33.5 -83.5q0 -49 -33.5 -82.5t-82.5 -33.5h-535v-426h805q48 0 83 -35 q34 -34 34 -84t-34 -84q-35 -35 -83 -35h-922q-51 0 -84.5 34t-33.5 85v276l-228 -342q-34 -50 -97 -52h-2q-61 0 -95 52l-338 500l-256 -489q-22 -43 -70 -58q-19 -6 -36 -5q-28 0 -54 14q-44 22 -57 69q-6 18 -6 36zM543 670l309 -459l305 459l-307 585zM1413 1028 l258 361h-258v-361z" />
<glyph unicode="&#xc7;" horiz-adv-x="1513" d="M-8 754q0 236 119 442q118 198 313 313q206 119 442 119q162 0 314 -57q147 -57 264 -162q40 -34 40 -88q0 -43 -30 -78q-33 -37 -81 -39h-6q-44 0 -79 29q-86 77 -192 117q-110 43 -230 43q-174 0 -323 -86q-143 -86 -230 -230q-86 -151 -86 -323q0 -171 86 -322 q85 -144 230 -229q152 -87 323 -88q120 0 230 43q108 44 192 118q34 30 78 30h8q50 -3 81 -40q30 -34 30 -79q0 -53 -39 -87q-119 -104 -266 -161q-119 -44 -241 -54q87 -28 144 -110q53 -78 54 -174q0 -33 -4 -58q-18 -98 -93 -170q-70 -70 -168 -88q-33 -7 -55 -6h-10 q-61 4 -94 12q-21 7 -29 11q-92 35 -149 114q-23 32 -23 68q0 12 1 19q8 49 46 77q32 23 68 23q12 0 19 -1q49 -8 77 -46q17 -24 47 -35l8 -2q9 -4 29 -4q8 -2 18 2q30 5 49 24q21 21 25 47q2 8 2 13q0 23 -12 39q-13 22 -37 24h-10l-13 -4q-13 -5 -18 -14q-35 -51 -89 -53 q-18 0 -42 8q-39 12 -60.5 41.5t-21.5 70.5v209q-90 28 -174 78q-198 117 -313 313q-119 206 -119 441z" />
<glyph unicode="&#xc8;" horiz-adv-x="1372" d="M86 0v1507q0 51 33 85t84 34h921q78 0 109 -73q11 -27 11 -50q0 -43 -36 -80l-721 -718h637q48 0 83 -35q34 -34 34 -84t-34 -84q-33 -35 -83 -35h-805v-348h805q48 0 83 -35q34 -34 34 -84t-34 -84q-33 -35 -83 -35h-921q-51 0 -84 34t-33 85zM161 2168q0 24 10 48 q30 74 110 74h309q51 0 85 -34t34 -83v-299q0 -78 -73 -109q-28 -11 -51 -11q-43 0 -77 34l-309 299q-38 36 -38 81zM319 870l521 519h-521v-519z" />
<glyph unicode="&#xc9;" horiz-adv-x="1372" d="M86 0v1507q0 51 33 85t84 34h921q78 0 109 -73q11 -27 11 -50q0 -43 -36 -80l-721 -718h637q48 0 83 -35q34 -34 34 -84t-34 -84q-33 -35 -83 -35h-805v-348h805q48 0 83 -35q34 -34 34 -84t-34 -84q-33 -35 -83 -35h-921q-51 0 -84 34t-33 85zM319 870l521 519h-521 v-519zM545 1798v309q0 51 33.5 84t85.5 33h299q78 0 108 -72q11 -27 11 -49q0 -41 -35 -78l-299 -309q-36 -38 -81 -38q-22 0 -49 11q-73 28 -73 109z" />
<glyph unicode="&#xca;" horiz-adv-x="1372" d="M86 0v1507q0 51 33 85t84 34h921q78 0 109 -73q11 -27 11 -50q0 -43 -36 -80l-721 -718h637q48 0 83 -35q34 -34 34 -84t-34 -84q-33 -35 -83 -35h-805v-348h805q48 0 83 -35q34 -34 34 -84t-34 -84q-33 -35 -83 -35h-921q-51 0 -84 34t-33 85zM319 870l521 519h-521 v-519zM328 1797q0 48 34 83l218 217q37 37 84 37t84 -37l217 -217q35 -35 34.5 -83t-35.5 -83t-84 -35q-48 0 -83 35l-133 133l-134 -133q-35 -35 -84 -35t-84 35q-34 35 -34 83z" />
<glyph unicode="&#xcb;" horiz-adv-x="1372" d="M86 0v1507q0 51 33 85t84 34h921q78 0 109 -73q11 -27 11 -50q0 -43 -36 -80l-721 -718h637q48 0 83 -35q34 -34 34 -84t-34 -84q-33 -35 -83 -35h-805v-348h805q48 0 83 -35q34 -34 34 -84t-34 -84q-33 -35 -83 -35h-921q-51 0 -84 34t-33 85zM188 1797q0 48 35 83l4 6 l-4 2q-33 34 -33 84t34 84q35 35 83 35q49 0 84 -35l4 -4l4 4q33 35 82 35t84 -35t35 -84t-35 -84l-4 -2l4 -6q35 -35 35 -83t-35 -83t-83 -35t-83 35l-4 4l-6 -4q-33 -35 -82 -35t-84 35t-35 83zM319 870l521 519h-521v-519zM756 1797q0 48 32 83l7 6l-4 2q-35 35 -35 84 q0 50 34 84q35 35 83 35t83 -35l5 -4l4 4q35 35 83 35q47 0 82 -35t35 -84t-35 -84l-4 -2l4 -6q35 -35 35 -82.5t-34 -83.5q-33 -35 -83 -35q-48 0 -83 35l-4 4l-5 -4q-35 -35 -84 -35q-48 0 -83 35q-33 35 -33 83z" />
<glyph unicode="&#xcc;" horiz-adv-x="811" d="M-97 2168q0 24 10 48q30 74 110 74h309q51 0 85 -34t34 -83v-299q0 -78 -73 -109q-28 -11 -51 -11q-43 0 -77 34l-309 299q-38 36 -38 81zM49 0q0 50 34 84q35 35 83 35h121v1270h-121q-49 0 -83 34.5t-34 83.5q0 50 34 84q35 35 83 35h479q48 0 83 -35q34 -34 34 -84 q0 -49 -34 -83.5t-83 -34.5h-121v-1270h121q48 0 83 -35q34 -34 34 -84t-34 -84q-35 -35 -83 -35h-479q-48 0 -83 35q-34 34 -34 84z" />
<glyph unicode="&#xcd;" horiz-adv-x="811" d="M49 0q0 50 34 84q35 35 83 35h121v1270h-121q-49 0 -83 34.5t-34 83.5q0 50 34 84q35 35 83 35h479q48 0 83 -35q34 -34 34 -84q0 -49 -34 -83.5t-83 -34.5h-121v-1270h121q48 0 83 -35q34 -34 34 -84t-34 -84q-35 -35 -83 -35h-479q-48 0 -83 35q-34 34 -34 84z M287 1798v309q0 51 33.5 84t85.5 33h299q78 0 108 -72q11 -27 11 -49q0 -42 -36 -78l-299 -309q-36 -38 -80 -38q-22 0 -49 11q-73 28 -73 109z" />
<glyph unicode="&#xce;" horiz-adv-x="811" d="M49 0q0 50 34 84q35 35 83 35h121v1270h-121q-49 0 -83 34.5t-34 83.5q0 50 34 84q35 35 83 35h479q48 0 83 -35q34 -34 34 -84q0 -49 -34 -83.5t-83 -34.5h-121v-1270h121q48 0 83 -35q34 -34 34 -84t-34 -84q-35 -35 -83 -35h-479q-48 0 -83 35q-34 34 -34 84zM70 1797 q0 48 34 83l218 217q37 37 84 37t83 -37l218 -217q35 -35 34.5 -83t-35.5 -83t-84 -35q-48 0 -83 35l-133 133l-134 -133q-35 -35 -84 -35t-84 35q-34 35 -34 83z" />
<glyph unicode="&#xcf;" horiz-adv-x="811" d="M-70 1797q0 48 35 83l4 6l-4 2q-33 34 -33 84t34 84q35 35 83 35q49 0 84 -35l4 -4l4 4q33 35 82 35t84 -35t35 -84t-35 -84l-4 -2l4 -6q35 -35 35 -83t-35 -83t-83 -35t-83 35l-4 4l-6 -4q-33 -35 -82 -35t-84 35t-35 83zM49 0q0 50 34 84q35 35 83 35h121v1270h-121 q-49 0 -83 34.5t-34 83.5q0 50 34 84q35 35 83 35h479q48 0 83 -35q34 -34 34 -84q0 -49 -34 -83.5t-83 -34.5h-121v-1270h121q48 0 83 -35q34 -34 34 -84t-34 -84q-35 -35 -83 -35h-479q-48 0 -83 35q-34 34 -34 84zM497 1972q2 51 35 84q35 35 83 35t83 -35l4 -4l5 4 q35 35 83 35q47 0 82 -35t35 -84t-35 -84l-4 -2l4 -6q35 -35 35 -82.5t-34 -83.5q-33 -35 -83 -35q-48 0 -83 35l-5 4l-4 -4q-35 -35 -84 -35q-48 0 -83 35q-33 35 -33 83t32 83l7 6l-5 2q-35 35 -35 84z" />
<glyph unicode="&#xd0;" horiz-adv-x="1538" d="M-8 762q0 50 34 84q35 35 85 35h41v626q0 51 33.5 85t84.5 34h305q216 0 386.5 -66.5t274.5 -187.5q210 -244 210 -618q0 -377 -215 -619q-107 -121 -275 -187.5t-381 -66.5h-305q-51 0 -84.5 34t-33.5 85v643h-41q-49 0 -84 35t-35 84zM389 119h186q143 0 257.5 37 t185.5 100q70 62 113 147q79 151 79 351q0 208 -79 357q-43 85 -114 144q-72 63 -185.5 99.5t-256.5 36.5h-186v-510h170q48 0 83 -35q34 -34 34 -84t-34 -84q-35 -35 -83 -35h-170v-524z" />
<glyph unicode="&#xd1;" horiz-adv-x="1505" d="M109 0v1507q0 41 22.5 71t61.5 42q21 6 39 6q54 0 92 -53l819 -1192v1126q0 49 34 84t82 35q50 0 83 -35q34 -34 34 -84v-1507q0 -83 -76 -111q-2 -1 -6 -2t-6 -2q-19 -5 -32 -4h-1029q-51 0 -84.5 34t-33.5 85zM344 119h692l-692 1007v-1007zM371 1851q0 94 55 158 q21 26 45 43q26 17 55 31q40 14 80 14q36 0 49 -6q65 -25 88 -39l23 -18q30 -28 59 -70l33 -39q7 -9 10 -10h2l4 4q5 7 7 20v3q-1 5 -1 15q0 40 26 72q31 37 80 42h11q41 0 75 -27q38 -32 42 -80q2 -16 2 -25q0 -93 -57 -167q-51 -60 -121 -82q-29 -9 -68 -11q-44 0 -86 17 l-28 12q-19 12 -68 53q-19 19 -51 64q-18 25 -27 30q0 1 -2 3q-2 -2 -2 -7v-2q2 -14 2 -21q0 -35 -20 -67q-28 -42 -75 -49q-14 -2 -22 -2q-36 0 -67 22q-42 29 -49 74q-4 20 -4 45z" />
<glyph unicode="&#xd2;" horiz-adv-x="1855" d="M25 753q0 237 116 440q117 203 319 318q202 117 439 117q239 0 438 -117q200 -115 319 -318q118 -202 118 -440t-118 -438q-119 -201 -319 -317q-199 -117 -438 -117q-237 0 -439 117q-201 116 -319 317q-116 202 -116 438zM260 753q0 -264 187 -451t452 -187 q264 0 450 187q187 187 187 451q0 265 -187 452q-186 188 -450 188t-452 -188q-187 -187 -187 -452zM396 2168q2 25 11 48q30 74 107 74h311q50 0 83.5 -34t33.5 -83v-299q0 -78 -72 -109q-27 -11 -50 -11q-43 0 -77 34l-309 299q-38 36 -38 81z" />
<glyph unicode="&#xd3;" horiz-adv-x="1855" d="M25 753q0 237 116 440q117 203 319 318q202 117 439 117q239 0 438 -117q200 -115 319 -318q118 -202 118 -440t-118 -438q-119 -201 -319 -317q-199 -117 -438 -117q-237 0 -439 117q-201 116 -319 317q-116 202 -116 438zM260 753q0 -264 187 -451t452 -187 q264 0 450 187q187 187 187 451q0 265 -187 452q-186 188 -450 188t-452 -188q-187 -187 -187 -452zM780 1798v309q0 51 34 84t85 33h299q78 0 108 -72q11 -28 10 -49q0 -43 -34 -78l-299 -309q-36 -38 -81 -38q-21 0 -48 11q-74 29 -74 109z" />
<glyph unicode="&#xd4;" horiz-adv-x="1855" d="M25 753q0 237 116 440q117 203 319 318q202 117 439 117q239 0 438 -117q200 -115 319 -318q118 -202 118 -440t-118 -438q-119 -201 -319 -317q-199 -117 -438 -117q-237 0 -439 117q-201 116 -319 317q-116 202 -116 438zM260 753q0 -264 187 -451t452 -187 q264 0 450 187q187 187 187 451q0 265 -187 452q-186 188 -450 188t-452 -188q-187 -187 -187 -452zM563 1797q0 48 35 83l217 217q37 37 84 37t82 -37l217 -217q35 -35 35 -82.5t-34 -83.5q-35 -35 -83 -35q-49 0 -84 35l-133 133l-135 -133q-35 -35 -83 -35t-83 35t-35 83 z" />
<glyph unicode="&#xd5;" horiz-adv-x="1855" d="M25 753q0 237 116 440q117 203 319 318q202 117 439 117q239 0 438 -117q200 -115 319 -318q118 -202 118 -440t-118 -438q-119 -201 -319 -317q-199 -117 -438 -117q-237 0 -439 117q-201 116 -319 317q-116 202 -116 438zM260 753q0 -264 187 -451t452 -187 q264 0 450 187q187 187 187 451q0 265 -187 452q-186 188 -450 188t-452 -188q-187 -187 -187 -452zM526 1851q0 93 56 158q21 26 45 43q26 17 55 31q40 14 78 14q34 0 51 -6q65 -26 86 -39q9 -6 25 -18q30 -28 59 -70q27 -35 31 -39q9 -9 12 -10q2 0 6 4q6 7 6 20v3 q-1 5 -1 16q0 39 26 71q32 38 80 42h11q42 0 76 -27q38 -32 42 -80q2 -16 2 -25q0 -93 -60 -167q-48 -60 -120 -82q-29 -9 -68 -11q-42 0 -84 17l-29 12q-21 13 -67 53q-22 20 -53 64q-17 26 -25 30l-4 3v-9q2 -14 2 -21q0 -36 -22 -67q-29 -42 -75 -49q-14 -2 -22 -2 q-37 0 -66 22q-40 28 -49 74q-4 20 -4 45z" />
<glyph unicode="&#xd6;" horiz-adv-x="1855" d="M25 753q0 237 116 440q117 203 319 318q202 117 439 117q239 0 438 -117q200 -115 319 -318q118 -202 118 -440t-118 -438q-119 -201 -319 -317q-199 -117 -438 -117q-237 0 -439 117q-201 116 -319 317q-116 202 -116 438zM260 753q0 -264 187 -451t452 -187 q264 0 450 187q187 187 187 451q0 265 -187 452q-186 188 -450 188t-452 -188q-187 -187 -187 -452zM424 1797q0 48 35 83l4 6l-4 2q-35 35 -35 84t35 84t84 35t82 -35l4 -4l4 4q35 35 84 35q48 0 83 -35q34 -34 34 -84q0 -49 -35 -84l-2 -2l4 -6q35 -35 35 -83t-35 -83 t-84 -35t-84 35l-4 4l-4 -4q-35 -35 -83 -35t-83 35t-35 83zM989 1797q0 48 35 83l4 6l-4 2q-33 34 -33 84t34 84q35 35 83 35q49 0 84 -35l4 -4l2 4q35 35 84 35t84 -35t35 -84t-35 -84l-4 -2l4 -6q35 -35 35 -83t-35 -83t-83 -35t-83 35l-4 4l-6 -4q-33 -35 -82 -35 t-84 35t-35 83z" />
<glyph unicode="&#xd7;" horiz-adv-x="755" d="M39 3q0 48 35 83l112 115l-112 112q-35 35 -35 84t35 84t83 35t83 -35l114 -114l111 112q35 35 84 35t84 -35t35 -84t-35 -84l-113 -110l113 -113q35 -35 35 -83t-35 -83t-84 -35t-84 35l-111 111l-114 -113q-35 -35 -83 -35t-83 35t-35 83z" />
<glyph unicode="&#xd8;" horiz-adv-x="1531" d="M25 760q0 235 94 433q95 201 260 317q166 118 365 118q93 0 177 -25q17 29 49 45q26 14 52 12q18 0 38 -6q46 -15 67 -60q11 -24 13 -50q0 -21 -7 -39l-3 -9q153 -117 241 -303q95 -201 95 -433q0 -234 -94 -432t-261 -317q-167 -117 -366 -117q-81 0 -153 19 q-15 -46 -58 -68q-26 -14 -53 -12q-19 0 -38 6q-46 15 -67 60q-12 25 -12 50q0 21 7 39l8 24q-165 116 -260 316q-94 198 -94 432zM260 761q0 -265 144 -449q22 -28 56 -62l383 1130q-45 13 -98 13q-196 0 -341 -184q-144 -183 -144 -448zM667 137q40 -8 78 -8 q197 0 340 183q144 184 144 449t-144 448q-18 24 -38 44z" />
<glyph unicode="&#xd9;" horiz-adv-x="1353" d="M45 479v1030q0 49 35 84t84 35q48 0 83 -35q34 -34 34 -84v-1030q0 -144 115 -253t280 -109t280 101q115 100 115 261v1030q0 49 35 84t83 35t83 -35t35 -84v-1030q0 -169 -86 -308q-85 -137 -231 -214q-143 -76 -314 -76q-170 0 -316 81q-144 80 -230 219 q-85 137 -85 298zM173 2168q0 24 10 48q30 74 110 74h309q51 0 85 -34t34 -83v-299q0 -78 -72 -109q-27 -11 -50 -11q-42 0 -79 34l-309 299q-38 36 -38 81z" />
<glyph unicode="&#xda;" horiz-adv-x="1353" d="M45 479v1030q0 49 35 84t84 35q48 0 83 -35q34 -34 34 -84v-1030q0 -144 115 -253t280 -109t280 101q115 100 115 261v1030q0 49 35 84t83 35t83 -35t35 -84v-1030q0 -169 -86 -308q-85 -137 -231 -214q-143 -76 -314 -76q-170 0 -316 81q-144 80 -230 219 q-85 137 -85 298zM559 1798v309q0 51 33 84t84 33h299q78 0 108 -72q11 -27 11 -49q0 -41 -35 -78l-297 -309q-36 -38 -81 -38q-21 0 -48 11q-74 29 -74 109z" />
<glyph unicode="&#xdb;" horiz-adv-x="1353" d="M45 479v1030q0 49 35 84t84 35q48 0 83 -35q34 -34 34 -84v-1030q0 -144 115 -253t280 -109t280 101q115 100 115 261v1030q0 49 35 84t83 35t83 -35t35 -84v-1030q0 -169 -86 -308q-85 -137 -231 -214q-143 -76 -314 -76q-170 0 -316 81q-144 80 -230 219 q-85 137 -85 298zM342 1797q0 48 33 83l219 217q35 37 82 37t84 -37l217 -217q35 -35 35 -83t-35 -83t-84 -35t-82 35l-135 133l-133 -133q-35 -35 -84 -35q-48 0 -83 35q-34 35 -34 83z" />
<glyph unicode="&#xdc;" horiz-adv-x="1353" d="M45 479v1030q0 49 35 84t84 35q48 0 83 -35q34 -34 34 -84v-1030q0 -144 115 -253t280 -109t280 101q115 100 115 261v1030q0 49 35 84t83 35t83 -35t35 -84v-1030q0 -169 -86 -308q-85 -137 -231 -214q-143 -76 -314 -76q-170 0 -316 81q-144 80 -230 219 q-85 137 -85 298zM203 1797q0 48 33 83l6 6l-4 2q-35 35 -35 84q0 50 33 84q35 35 83 35q49 0 84 -35l5 -4l4 4q35 35 83 35q47 0 82 -35t35 -84q0 -50 -34 -84l-5 -2l5 -6q35 -36 34.5 -83t-34.5 -83q-33 -35 -83 -35q-48 0 -83 35l-4 4l-5 -4q-35 -35 -84 -35 q-48 0 -83 35q-33 35 -33 83zM768 1797.5q0 47.5 35 82.5l4 6l-4 2q-35 35 -35 84t35 84t83 35t83 -35l4 -4l4 4q35 35 84 35q48 0 83 -35q34 -34 34 -84q0 -49 -35 -84l-4 -2l6 -6q33 -35 33 -83t-34 -83q-35 -35 -83 -35q-49 0 -84 35l-4 4l-4 -4q-35 -35 -84 -35 q-48 0 -83 35q-34 36 -34 83.5z" />
<glyph unicode="&#xdd;" horiz-adv-x="1533" d="M-18 1505q2 27 13 53q32 70 107 68h1356q76 0 107 -70q12 -28 11 -51q0 -41 -30 -75l-661 -744v-686q0 -50 -34 -84q-35 -35 -83 -35t-83 35q-34 34 -34 84v688l-639 744q-30 34 -30 73zM358 1389l412 -480l426 480h-838zM662 1798v309q0 51 33.5 84t84.5 33h299 q78 0 108 -72q11 -28 10 -49q0 -43 -34 -78l-299 -309q-36 -38 -81 -38q-21 0 -48 11q-73 28 -73 109z" />
<glyph unicode="&#xde;" horiz-adv-x="1323" d="M135 -184v1837q0 48 35 82t84 34t84 -34t35 -82v-27h143q246 0 420 -174t174 -420t-174 -420t-420 -174h-143v-622q0 -49 -35 -84t-84 -35t-84 35t-35 84zM373 676h143q147 0 251 104q105 105 105 252q0 148 -104 252q-104 105 -252 105h-143v-713z" />
<glyph unicode="&#xdf;" horiz-adv-x="1439" d="M49 18q0 30 18 59q25 42 72 54q13 4 29 4q30 0 59 -18q9 -4 23 -4h8q3 1 6 4h2l2 2v2q-2 10 -2 18v1159q0 3 2 13q7 69 43 133q39 53 51 65q5 7 19 19q40 35 88 57q84 41 178 41q5 0 17 -2q160 -4 280 -111q130 -112 143 -274l3 -33q0 -135 -82 -235q-54 -59 -101 -86 q131 -38 228 -121l4 -4q79 -71 125 -171q47 -102 47 -210q0 -4 -2 -14q-1 -95 -46 -195q-42 -94 -124 -166q-143 -123 -336 -123q-13 0 -43 2q-159 12 -287 119q-14 -22 -55 -65q-18 -12 -23 -17q-18 -12 -71 -33q-36 -10 -74 -10q-78 0 -141 39q-44 26 -56 72q-4 13 -4 30z M502 342l354 311q-48 15 -104 17h-9q-8 -2 -19 -2h-48q-59 5 -103 26q-24 13 -28 19q-25 18 -43 43v-414zM502 987q20 24 43 41q37 27 86 37q31 6 78 6h28q8 2 11 2q39 6 75 45q31 37 31 88v13q-6 69 -63 118q-57 50 -136 54h-8q-41 0 -78 -19q-12 -5 -32 -20q-1 -4 -7 -6 q-8 -10 -14 -21q-9 -12 -14 -35v-303zM653 160q57 -37 127 -43h23q103 0 180 65q88 76 92 191v6q0 67 -33 125z" />
<glyph unicode="&#xe0;" d="M-61 1q0 28 14 54l340 647q6 17 16 31l436 830q32 60 104 62h2q68 0 103 -62l795 -1508q14 -26 14 -54q0 -18 -6 -36q-13 -47 -57 -69q-26 -14 -54 -14q-16 0 -36 5q-47 14 -70 58l-258 489l-332 -500q-34 -50 -97 -52h-2q-61 0 -95 52l-338 500l-256 -489 q-22 -43 -70 -58q-19 -6 -36 -5q-28 0 -54 14q-44 22 -57 69q-6 18 -6 36zM347 2168q0 24 10 48q30 74 108 74h311q50 0 83.5 -34t33.5 -83v-299q0 -78 -72 -109q-27 -11 -50 -11q-43 0 -77 34l-309 299q-38 36 -38 81zM543 670l309 -459l305 459l-307 585z" />
<glyph unicode="&#xe1;" d="M-61 1q0 28 14 54l340 647q6 17 16 31l436 830q32 60 104 62h2q68 0 103 -62l795 -1508q14 -26 14 -54q0 -18 -6 -36q-13 -47 -57 -69q-26 -14 -54 -14q-16 0 -36 5q-47 14 -70 58l-258 489l-332 -500q-34 -50 -97 -52h-2q-61 0 -95 52l-338 500l-256 -489 q-22 -43 -70 -58q-19 -6 -36 -5q-28 0 -54 14q-44 22 -57 69q-6 18 -6 36zM543 670l309 -459l305 459l-307 585zM731 1798v309q0 51 34 84t85 33h299q79 0 107 -72q11 -27 11 -49q0 -43 -34 -78l-299 -309q-36 -38 -81 -38q-21 0 -48 11q-74 29 -74 109z" />
<glyph unicode="&#xe2;" d="M-61 1q0 28 14 54l340 647q6 17 16 31l436 830q32 60 104 62h2q68 0 103 -62l795 -1508q14 -26 14 -54q0 -18 -6 -36q-13 -47 -57 -69q-26 -14 -54 -14q-16 0 -36 5q-47 14 -70 58l-258 489l-332 -500q-34 -50 -97 -52h-2q-61 0 -95 52l-338 500l-256 -489 q-22 -43 -70 -58q-19 -6 -36 -5q-28 0 -54 14q-44 22 -57 69q-6 18 -6 36zM514 1797q0 48 35 83l217 217q37 37 84 37t82 -37l217 -217q35 -35 35 -82.5t-34 -83.5q-35 -35 -83 -35q-49 0 -84 35l-133 133l-135 -133q-35 -35 -83 -35t-83 35t-35 83zM543 670l309 -459 l305 459l-307 585z" />
<glyph unicode="&#xe3;" d="M-61 1q0 28 14 54l340 647q6 17 16 31l436 830q32 60 104 62h2q68 0 103 -62l795 -1508q14 -26 14 -54q0 -18 -6 -36q-13 -47 -57 -69q-26 -14 -54 -14q-16 0 -36 5q-47 14 -70 58l-258 489l-332 -500q-34 -50 -97 -52h-2q-61 0 -95 52l-338 500l-256 -489 q-22 -43 -70 -58q-19 -6 -36 -5q-28 0 -54 14q-44 22 -57 69q-6 18 -6 36zM477 1851q0 94 55 158q20 24 46 43q26 17 55 31q40 14 78 14q35 0 51 -6q65 -26 86 -39q12 -8 24 -18q28 -27 60 -70q27 -35 31 -39q9 -9 12 -10q2 0 6 4q6 7 6 20v3q-1 5 -1 16q0 39 26 71 q32 38 80 42h11q41 0 76 -27q38 -32 42 -80q2 -16 2 -25q0 -93 -60 -167q-47 -59 -121 -82q-29 -9 -67 -11q-42 0 -84 17l-29 12q-21 13 -67 53q-21 19 -54 64q-17 25 -24 30l-4 3v-9q2 -14 2 -21q0 -36 -22 -67q-29 -42 -76 -49q-14 -2 -21 -2q-36 0 -67 22q-41 29 -48 74 q-4 20 -4 45zM543 670l309 -459l305 459l-307 585z" />
<glyph unicode="&#xe4;" d="M-61 1q0 28 14 54l340 647q6 17 16 31l436 830q32 60 104 62h2q68 0 103 -62l795 -1508q14 -26 14 -54q0 -18 -6 -36q-13 -47 -57 -69q-26 -14 -54 -14q-16 0 -36 5q-47 14 -70 58l-258 489l-332 -500q-34 -50 -97 -52h-2q-61 0 -95 52l-338 500l-256 -489 q-22 -43 -70 -58q-19 -6 -36 -5q-28 0 -54 14q-44 22 -57 69q-6 18 -6 36zM375 1797.5q0 47.5 35 82.5l4 6l-4 2q-35 35 -35 84q0 50 34 84q35 35 84 35q50 0 82 -35l5 -4l4 4q35 35 84 35t82 -35q34 -34 34 -84t-34 -84l-2 -2l4 -6q35 -35 34.5 -83t-35.5 -83t-84 -35 q-48 0 -83 35l-4 4l-5 -4q-35 -35 -83 -35t-83 35q-34 36 -34 83.5zM543 670l309 -459l305 459l-307 585zM940 1797q0 48 35 83l4 6l-4 2q-33 34 -33 84t34 84q35 35 83 35q49 0 84 -35l4 -4l2 4q35 35 84 35t84 -35t35 -84t-35 -84l-4 -2l4 -6q35 -35 35 -83t-35 -83 t-83 -35t-83 35l-4 4l-6 -4q-33 -35 -82 -35t-84 35t-35 83z" />
<glyph unicode="&#xe5;" d="M-61 1q0 28 14 54l340 647q6 17 16 31l436 830q32 60 104 62h2q68 0 103 -62l795 -1508q14 -26 14 -54q0 -18 -6 -36q-13 -47 -57 -69q-26 -14 -54 -14q-16 0 -36 5q-47 14 -70 58l-258 489l-332 -500q-34 -50 -97 -52h-2q-61 0 -95 52l-338 500l-256 -489 q-22 -43 -70 -58q-19 -6 -36 -5q-28 0 -54 14q-44 22 -57 69q-6 18 -6 36zM543 670l309 -459l305 459l-307 585zM655 1928q0 83 58 141q59 59 142 59q82 0 141 -59t59 -141t-59 -141q-58 -58 -141 -58q-84 0 -142 58t-58 141zM809 1928.5q0 -19.5 13 -33.5q14 -13 33 -13 t32 13q14 14 14 33.5t-14 32.5q-13 13 -32 13t-33 -13q-13 -13 -13 -32.5z" />
<glyph unicode="&#xe6;" horiz-adv-x="2502" d="M-61 1q0 28 14 54l340 647q6 17 16 31l436 830q32 60 104 62h2q68 0 103 -62l226 -428v372q0 51 32.5 85t83.5 34h605q73 0 104 -64q15 -28 15 -56q0 -34 -23 -66l-471 -662h422q49 0 82.5 -33.5t33.5 -83.5q0 -49 -33.5 -82.5t-82.5 -33.5h-535v-426h805q48 0 83 -35 q34 -34 34 -84t-34 -84q-35 -35 -83 -35h-922q-51 0 -83.5 34t-32.5 85v276l-230 -342q-34 -50 -97 -52h-2q-61 0 -95 52l-338 500l-256 -489q-22 -43 -70 -58q-19 -6 -36 -5q-28 0 -54 14q-44 22 -57 69q-6 18 -6 36zM543 670l309 -459l305 459l-307 585zM1413 1028 l258 361h-258v-361z" />
<glyph unicode="&#xe7;" horiz-adv-x="1513" d="M-8 754q0 236 119 442q118 198 313 313q206 119 442 119q162 0 314 -57q147 -57 264 -162q40 -34 40 -88q0 -43 -30 -78q-33 -37 -81 -39h-6q-44 0 -79 29q-86 77 -192 117q-110 43 -230 43q-174 0 -323 -86q-143 -86 -230 -230q-86 -151 -86 -323q0 -171 86 -322 q85 -144 230 -229q152 -87 323 -88q120 0 230 43q108 44 192 118q34 30 78 30h8q50 -3 81 -40q30 -34 30 -79q0 -53 -39 -87q-119 -104 -266 -161q-119 -44 -241 -54q87 -28 144 -110q53 -78 54 -174q0 -33 -4 -58q-18 -98 -93 -170q-70 -70 -168 -88q-33 -7 -55 -6h-10 q-61 4 -94 12q-21 7 -29 11q-92 35 -149 114q-23 32 -23 68q0 12 1 19q8 49 46 77q32 23 68 23q12 0 19 -1q49 -8 77 -46q17 -24 47 -35l8 -2q9 -4 29 -4q8 -2 18 2q30 5 49 24q21 21 25 47q2 8 2 13q0 23 -12 39q-13 22 -37 24h-10l-13 -4q-13 -5 -18 -14q-35 -51 -89 -53 q-18 0 -42 8q-39 12 -60.5 41.5t-21.5 70.5v209q-90 28 -174 78q-198 117 -313 313q-119 206 -119 441z" />
<glyph unicode="&#xe8;" horiz-adv-x="1372" d="M86 0v1507q0 51 33 85t84 34h921q78 0 109 -73q11 -27 11 -50q0 -43 -36 -80l-721 -718h637q48 0 83 -35q34 -34 34 -84t-34 -84q-33 -35 -83 -35h-805v-348h805q48 0 83 -35q34 -34 34 -84t-34 -84q-33 -35 -83 -35h-921q-51 0 -84 34t-33 85zM161 2168q0 24 10 48 q30 74 110 74h309q51 0 85 -34t34 -83v-299q0 -78 -73 -109q-28 -11 -51 -11q-43 0 -77 34l-309 299q-38 36 -38 81zM319 870l521 519h-521v-519z" />
<glyph unicode="&#xe9;" horiz-adv-x="1372" d="M86 0v1507q0 51 33 85t84 34h921q78 0 109 -73q11 -27 11 -50q0 -43 -36 -80l-721 -718h637q48 0 83 -35q34 -34 34 -84t-34 -84q-33 -35 -83 -35h-805v-348h805q48 0 83 -35q34 -34 34 -84t-34 -84q-33 -35 -83 -35h-921q-51 0 -84 34t-33 85zM319 870l521 519h-521 v-519zM545 1798v309q0 51 33.5 84t85.5 33h299q78 0 108 -72q11 -27 11 -49q0 -41 -35 -78l-299 -309q-36 -38 -81 -38q-22 0 -49 11q-73 28 -73 109z" />
<glyph unicode="&#xea;" horiz-adv-x="1372" d="M86 0v1507q0 51 33 85t84 34h921q78 0 109 -73q11 -27 11 -50q0 -43 -36 -80l-721 -718h637q48 0 83 -35q34 -34 34 -84t-34 -84q-33 -35 -83 -35h-805v-348h805q48 0 83 -35q34 -34 34 -84t-34 -84q-33 -35 -83 -35h-921q-51 0 -84 34t-33 85zM319 870l521 519h-521 v-519zM328 1797q0 48 34 83l218 217q37 37 84 37t84 -37l217 -217q35 -35 34.5 -83t-35.5 -83t-84 -35q-48 0 -83 35l-133 133l-134 -133q-35 -35 -84 -35t-84 35q-34 35 -34 83z" />
<glyph unicode="&#xeb;" horiz-adv-x="1372" d="M86 0v1507q0 51 33 85t84 34h921q78 0 109 -73q11 -27 11 -50q0 -43 -36 -80l-721 -718h637q48 0 83 -35q34 -34 34 -84t-34 -84q-33 -35 -83 -35h-805v-348h805q48 0 83 -35q34 -34 34 -84t-34 -84q-33 -35 -83 -35h-921q-51 0 -84 34t-33 85zM188 1797q0 48 35 83l4 6 l-4 2q-33 34 -33 84t34 84q35 35 83 35q49 0 84 -35l4 -4l4 4q33 35 82 35t84 -35t35 -84t-35 -84l-4 -2l4 -6q35 -35 35 -83t-35 -83t-83 -35t-83 35l-4 4l-6 -4q-33 -35 -82 -35t-84 35t-35 83zM319 870l521 519h-521v-519zM756 1797q0 48 32 83l7 6l-4 2q-35 35 -35 84 q0 50 34 84q35 35 83 35t83 -35l5 -4l4 4q35 35 83 35q47 0 82 -35t35 -84t-35 -84l-4 -2l4 -6q35 -35 35 -82.5t-34 -83.5q-33 -35 -83 -35q-48 0 -83 35l-4 4l-5 -4q-35 -35 -84 -35q-48 0 -83 35q-33 35 -33 83z" />
<glyph unicode="&#xec;" horiz-adv-x="811" d="M-97 2168q0 24 10 48q30 74 110 74h309q51 0 85 -34t34 -83v-299q0 -78 -73 -109q-28 -11 -51 -11q-43 0 -77 34l-309 299q-38 36 -38 81zM49 0q0 50 34 84q35 35 83 35h121v1270h-121q-49 0 -83 34.5t-34 83.5q0 50 34 84q35 35 83 35h479q48 0 83 -35q34 -34 34 -84 q0 -49 -34 -83.5t-83 -34.5h-121v-1270h121q48 0 83 -35q34 -34 34 -84t-34 -84q-35 -35 -83 -35h-479q-48 0 -83 35q-34 34 -34 84z" />
<glyph unicode="&#xed;" horiz-adv-x="811" d="M49 0q0 50 34 84q35 35 83 35h121v1270h-121q-49 0 -83 34.5t-34 83.5q0 50 34 84q35 35 83 35h479q48 0 83 -35q34 -34 34 -84q0 -49 -34 -83.5t-83 -34.5h-121v-1270h121q48 0 83 -35q34 -34 34 -84t-34 -84q-35 -35 -83 -35h-479q-48 0 -83 35q-34 34 -34 84z M287 1798v309q0 51 33.5 84t85.5 33h299q78 0 108 -72q11 -27 11 -49q0 -42 -36 -78l-299 -309q-36 -38 -80 -38q-22 0 -49 11q-73 28 -73 109z" />
<glyph unicode="&#xee;" horiz-adv-x="811" d="M49 0q0 50 34 84q35 35 83 35h121v1270h-121q-49 0 -83 34.5t-34 83.5q0 50 34 84q35 35 83 35h479q48 0 83 -35q34 -34 34 -84q0 -49 -34 -83.5t-83 -34.5h-121v-1270h121q48 0 83 -35q34 -34 34 -84t-34 -84q-35 -35 -83 -35h-479q-48 0 -83 35q-34 34 -34 84zM70 1797 q0 48 34 83l218 217q37 37 84 37t83 -37l218 -217q35 -35 34.5 -83t-35.5 -83t-84 -35q-48 0 -83 35l-133 133l-134 -133q-35 -35 -84 -35t-84 35q-34 35 -34 83z" />
<glyph unicode="&#xef;" horiz-adv-x="811" d="M-70 1797q0 48 35 83l4 6l-4 2q-33 34 -33 84t34 84q35 35 83 35q49 0 84 -35l4 -4l4 4q33 35 82 35t84 -35t35 -84t-35 -84l-4 -2l4 -6q35 -35 35 -83t-35 -83t-83 -35t-83 35l-4 4l-6 -4q-33 -35 -82 -35t-84 35t-35 83zM49 0q0 50 34 84q35 35 83 35h121v1270h-121 q-49 0 -83 34.5t-34 83.5q0 50 34 84q35 35 83 35h479q48 0 83 -35q34 -34 34 -84q0 -49 -34 -83.5t-83 -34.5h-121v-1270h121q48 0 83 -35q34 -34 34 -84t-34 -84q-35 -35 -83 -35h-479q-48 0 -83 35q-34 34 -34 84zM497 1972q2 51 35 84q35 35 83 35t83 -35l4 -4l5 4 q35 35 83 35q47 0 82 -35t35 -84t-35 -84l-4 -2l4 -6q35 -35 35 -82.5t-34 -83.5q-33 -35 -83 -35q-48 0 -83 35l-5 4l-4 -4q-35 -35 -84 -35q-48 0 -83 35q-33 35 -33 83t32 83l7 6l-5 2q-35 35 -35 84z" />
<glyph unicode="&#xf0;" horiz-adv-x="1538" d="M-8 762q0 50 34 84q35 35 85 35h41v626q0 51 33.5 85t84.5 34h305q216 0 386.5 -66.5t274.5 -187.5q210 -244 210 -618q0 -377 -215 -619q-107 -121 -275 -187.5t-381 -66.5h-305q-51 0 -84.5 34t-33.5 85v643h-41q-49 0 -84 35t-35 84zM389 119h186q143 0 257.5 37 t185.5 100q70 62 113 147q79 151 79 351q0 208 -79 357q-43 85 -114 144q-72 63 -185.5 99.5t-256.5 36.5h-186v-510h170q48 0 83 -35q34 -34 34 -84t-34 -84q-35 -35 -83 -35h-170v-524z" />
<glyph unicode="&#xf1;" horiz-adv-x="1505" d="M109 0v1507q0 41 22.5 71t61.5 42q21 6 39 6q54 0 92 -53l819 -1192v1126q0 49 34 84t82 35q50 0 83 -35q34 -34 34 -84v-1507q0 -83 -76 -111q-2 -1 -6 -2t-6 -2q-19 -5 -32 -4h-1029q-51 0 -84.5 34t-33.5 85zM344 119h692l-692 1007v-1007zM371 1851q0 94 55 158 q21 26 45 43q26 17 55 31q40 14 80 14q36 0 49 -6q65 -25 88 -39l23 -18q30 -28 59 -70l33 -39q7 -9 10 -10h2l4 4q5 7 7 20v3q-1 5 -1 15q0 40 26 72q31 37 80 42h11q41 0 75 -27q38 -32 42 -80q2 -16 2 -25q0 -93 -57 -167q-51 -60 -121 -82q-29 -9 -68 -11q-44 0 -86 17 l-28 12q-19 12 -68 53q-19 19 -51 64q-18 25 -27 30q0 1 -2 3q-2 -2 -2 -7v-2q2 -14 2 -21q0 -35 -20 -67q-28 -42 -75 -49q-14 -2 -22 -2q-36 0 -67 22q-42 29 -49 74q-4 20 -4 45z" />
<glyph unicode="&#xf2;" horiz-adv-x="1855" d="M25 753q0 237 116 440q117 203 319 318q202 117 439 117q239 0 438 -117q200 -115 319 -318q118 -202 118 -440t-118 -438q-119 -201 -319 -317q-199 -117 -438 -117q-237 0 -439 117q-201 116 -319 317q-116 202 -116 438zM260 753q0 -264 187 -451t452 -187 q264 0 450 187q187 187 187 451q0 265 -187 452q-186 188 -450 188t-452 -188q-187 -187 -187 -452zM396 2168q2 25 11 48q30 74 107 74h311q50 0 83.5 -34t33.5 -83v-299q0 -78 -72 -109q-27 -11 -50 -11q-43 0 -77 34l-309 299q-38 36 -38 81z" />
<glyph unicode="&#xf3;" horiz-adv-x="1855" d="M25 753q0 237 116 440q117 203 319 318q202 117 439 117q239 0 438 -117q200 -115 319 -318q118 -202 118 -440t-118 -438q-119 -201 -319 -317q-199 -117 -438 -117q-237 0 -439 117q-201 116 -319 317q-116 202 -116 438zM260 753q0 -264 187 -451t452 -187 q264 0 450 187q187 187 187 451q0 265 -187 452q-186 188 -450 188t-452 -188q-187 -187 -187 -452zM780 1798v309q0 51 34 84t85 33h299q78 0 108 -72q11 -28 10 -49q0 -43 -34 -78l-299 -309q-36 -38 -81 -38q-21 0 -48 11q-74 29 -74 109z" />
<glyph unicode="&#xf4;" horiz-adv-x="1855" d="M25 753q0 237 116 440q117 203 319 318q202 117 439 117q239 0 438 -117q200 -115 319 -318q118 -202 118 -440t-118 -438q-119 -201 -319 -317q-199 -117 -438 -117q-237 0 -439 117q-201 116 -319 317q-116 202 -116 438zM260 753q0 -264 187 -451t452 -187 q264 0 450 187q187 187 187 451q0 265 -187 452q-186 188 -450 188t-452 -188q-187 -187 -187 -452zM563 1797q0 48 35 83l217 217q37 37 84 37t82 -37l217 -217q35 -35 35 -82.5t-34 -83.5q-35 -35 -83 -35q-49 0 -84 35l-133 133l-135 -133q-35 -35 -83 -35t-83 35t-35 83 z" />
<glyph unicode="&#xf5;" horiz-adv-x="1855" d="M25 753q0 237 116 440q117 203 319 318q202 117 439 117q239 0 438 -117q200 -115 319 -318q118 -202 118 -440t-118 -438q-119 -201 -319 -317q-199 -117 -438 -117q-237 0 -439 117q-201 116 -319 317q-116 202 -116 438zM260 753q0 -264 187 -451t452 -187 q264 0 450 187q187 187 187 451q0 265 -187 452q-186 188 -450 188t-452 -188q-187 -187 -187 -452zM526 1851q0 93 56 158q21 26 45 43q26 17 55 31q40 14 78 14q34 0 51 -6q65 -26 86 -39q9 -6 25 -18q30 -28 59 -70q27 -35 31 -39q9 -9 12 -10q2 0 6 4q6 7 6 20v3 q-1 5 -1 16q0 39 26 71q32 38 80 42h11q42 0 76 -27q38 -32 42 -80q2 -16 2 -25q0 -93 -60 -167q-48 -60 -120 -82q-29 -9 -68 -11q-42 0 -84 17l-29 12q-21 13 -67 53q-22 20 -53 64q-17 26 -25 30l-4 3v-9q2 -14 2 -21q0 -36 -22 -67q-29 -42 -75 -49q-14 -2 -22 -2 q-37 0 -66 22q-40 28 -49 74q-4 20 -4 45z" />
<glyph unicode="&#xf6;" horiz-adv-x="1855" d="M25 753q0 237 116 440q117 203 319 318q202 117 439 117q239 0 438 -117q200 -115 319 -318q118 -202 118 -440t-118 -438q-119 -201 -319 -317q-199 -117 -438 -117q-237 0 -439 117q-201 116 -319 317q-116 202 -116 438zM260 753q0 -264 187 -451t452 -187 q264 0 450 187q187 187 187 451q0 265 -187 452q-186 188 -450 188t-452 -188q-187 -187 -187 -452zM424 1797q0 48 35 83l4 6l-4 2q-35 35 -35 84t35 84t84 35t82 -35l4 -4l4 4q35 35 84 35q48 0 83 -35q34 -34 34 -84q0 -49 -35 -84l-2 -2l4 -6q35 -35 35 -83t-35 -83 t-84 -35t-84 35l-4 4l-4 -4q-35 -35 -83 -35t-83 35t-35 83zM989 1797q0 48 35 83l4 6l-4 2q-33 34 -33 84t34 84q35 35 83 35q49 0 84 -35l4 -4l2 4q35 35 84 35t84 -35t35 -84t-35 -84l-4 -2l4 -6q35 -35 35 -83t-35 -83t-83 -35t-83 35l-4 4l-6 -4q-33 -35 -82 -35 t-84 35t-35 83z" />
<glyph unicode="&#xf7;" horiz-adv-x="620" d="M-33 538q0 50 35 83q34 34 84 34h449q49 0 82.5 -33.5t33.5 -83.5q0 -49 -33.5 -82.5t-82.5 -33.5h-449q-49 0 -84 34t-35 82zM104 -6q0 49 35 84l4 4l-4 4q-35 35 -35 83t35 83t83 35t83 -35l4 -4l4 4q35 35 84 35q48 0 83 -35q34 -36 34 -83.5t-35 -82.5l-4 -4l6 -4 q33 -34 33 -84q0 -49 -34 -83t-83 -34t-84 33l-4 6l-4 -6q-35 -33 -84 -33t-83 34t-34 83zM104 928q0 49 35 84l4 4l-4 4q-35 35 -35 83t35 83t83 35t83 -35l4 -4l4 4q35 35 84 35q48 0 83 -35q34 -36 34 -83.5t-35 -82.5l-4 -4l6 -4q33 -34 33 -84q0 -49 -34 -83t-83 -34 t-84 33l-4 6l-4 -6q-35 -33 -84 -33t-83 34t-34 83z" />
<glyph unicode="&#xf8;" horiz-adv-x="1531" d="M25 760q0 235 94 433q95 201 260 317q166 118 365 118q93 0 177 -25q17 29 49 45q26 14 52 12q18 0 38 -6q46 -15 67 -60q11 -24 13 -50q0 -21 -7 -39l-3 -9q153 -117 241 -303q95 -201 95 -433q0 -234 -94 -432t-261 -317q-167 -117 -366 -117q-81 0 -153 19 q-15 -46 -58 -68q-26 -14 -53 -12q-19 0 -38 6q-46 15 -67 60q-12 25 -12 50q0 21 7 39l8 24q-165 116 -260 316q-94 198 -94 432zM260 761q0 -265 144 -449q22 -28 56 -62l383 1130q-45 13 -98 13q-196 0 -341 -184q-144 -183 -144 -448zM667 137q40 -8 78 -8 q197 0 340 183q144 184 144 449t-144 448q-18 24 -38 44z" />
<glyph unicode="&#xf9;" horiz-adv-x="1353" d="M45 479v1030q0 49 35 84t84 35q48 0 83 -35q34 -34 34 -84v-1030q0 -144 115 -253t280 -109t280 101q115 100 115 261v1030q0 49 35 84t83 35t83 -35t35 -84v-1030q0 -169 -86 -308q-85 -137 -231 -214q-143 -76 -314 -76q-170 0 -316 81q-144 80 -230 219 q-85 137 -85 298zM173 2168q0 24 10 48q30 74 110 74h309q51 0 85 -34t34 -83v-299q0 -78 -72 -109q-27 -11 -50 -11q-42 0 -79 34l-309 299q-38 36 -38 81z" />
<glyph unicode="&#xfa;" horiz-adv-x="1353" d="M45 479v1030q0 49 35 84t84 35q48 0 83 -35q34 -34 34 -84v-1030q0 -144 115 -253t280 -109t280 101q115 100 115 261v1030q0 49 35 84t83 35t83 -35t35 -84v-1030q0 -169 -86 -308q-85 -137 -231 -214q-143 -76 -314 -76q-170 0 -316 81q-144 80 -230 219 q-85 137 -85 298zM559 1798v309q0 51 33 84t84 33h299q78 0 108 -72q11 -27 11 -49q0 -41 -35 -78l-297 -309q-36 -38 -81 -38q-21 0 -48 11q-74 29 -74 109z" />
<glyph unicode="&#xfb;" horiz-adv-x="1353" d="M45 479v1030q0 49 35 84t84 35q48 0 83 -35q34 -34 34 -84v-1030q0 -144 115 -253t280 -109t280 101q115 100 115 261v1030q0 49 35 84t83 35t83 -35t35 -84v-1030q0 -169 -86 -308q-85 -137 -231 -214q-143 -76 -314 -76q-170 0 -316 81q-144 80 -230 219 q-85 137 -85 298zM342 1797q0 48 33 83l219 217q35 37 82 37t84 -37l217 -217q35 -35 35 -83t-35 -83t-84 -35t-82 35l-135 133l-133 -133q-35 -35 -84 -35q-48 0 -83 35q-34 35 -34 83z" />
<glyph unicode="&#xfc;" horiz-adv-x="1353" d="M45 479v1030q0 49 35 84t84 35q48 0 83 -35q34 -34 34 -84v-1030q0 -144 115 -253t280 -109t280 101q115 100 115 261v1030q0 49 35 84t83 35t83 -35t35 -84v-1030q0 -169 -86 -308q-85 -137 -231 -214q-143 -76 -314 -76q-170 0 -316 81q-144 80 -230 219 q-85 137 -85 298zM203 1797q0 48 33 83l6 6l-4 2q-35 35 -35 84q0 50 33 84q35 35 83 35q49 0 84 -35l5 -4l4 4q35 35 83 35q47 0 82 -35t35 -84q0 -50 -34 -84l-5 -2l5 -6q35 -36 34.5 -83t-34.5 -83q-33 -35 -83 -35q-48 0 -83 35l-4 4l-5 -4q-35 -35 -84 -35 q-48 0 -83 35q-33 35 -33 83zM768 1797.5q0 47.5 35 82.5l4 6l-4 2q-35 35 -35 84t35 84t83 35t83 -35l4 -4l4 4q35 35 84 35q48 0 83 -35q34 -34 34 -84q0 -49 -35 -84l-4 -2l6 -6q33 -35 33 -83t-34 -83q-35 -35 -83 -35q-49 0 -84 35l-4 4l-4 -4q-35 -35 -84 -35 q-48 0 -83 35q-34 36 -34 83.5z" />
<glyph unicode="&#xfd;" horiz-adv-x="1533" d="M-18 1505q2 27 13 53q32 70 107 68h1356q76 0 107 -70q12 -28 11 -51q0 -41 -30 -75l-661 -744v-686q0 -50 -34 -84q-35 -35 -83 -35t-83 35q-34 34 -34 84v688l-639 744q-30 34 -30 73zM358 1389l412 -480l426 480h-838zM662 1798v309q0 51 33.5 84t84.5 33h299 q78 0 108 -72q11 -28 10 -49q0 -43 -34 -78l-299 -309q-36 -38 -81 -38q-21 0 -48 11q-73 28 -73 109z" />
<glyph unicode="&#xfe;" horiz-adv-x="1323" d="M135 -184v1837q0 48 35 82t84 34t84 -34t35 -82v-27h143q246 0 420 -174t174 -420t-174 -420t-420 -174h-143v-622q0 -49 -35 -84t-84 -35t-84 35t-35 84zM373 676h143q147 0 251 104q105 105 105 252q0 148 -104 252q-104 105 -252 105h-143v-713z" />
<glyph unicode="&#xff;" horiz-adv-x="1533" d="M-18 1505q2 27 13 53q32 70 107 68h1356q76 0 107 -70q12 -28 11 -51q0 -41 -30 -75l-661 -744v-686q0 -50 -34 -84q-35 -35 -83 -35t-83 35q-34 34 -34 84v688l-639 744q-30 34 -30 73zM305 1797q0 48 35 83l4 6l-4 2q-35 35 -35 84t35 84t84 35t82 -35l4 -4l4 4 q35 35 84 35q48 0 83 -35q34 -34 34 -84t-33 -84l-4 -2l4 -6q35 -35 35 -83t-35 -83t-84 -35t-82 35l-6 4l-4 -4q-35 -35 -83 -35t-83 35t-35 83zM358 1389l412 -480l426 480h-838zM870 1797q0 48 35 83l4 6l-4 2q-33 34 -33 84t34 84q35 35 83 35q49 0 84 -35l4 -4l4 4 q33 35 82 35t84 -35t35 -84t-35 -84l-4 -2l4 -6q35 -35 35 -83t-35 -83t-83 -35t-83 35l-4 4l-6 -4q-33 -35 -82 -35t-84 35t-35 83z" />
<glyph unicode="&#x152;" horiz-adv-x="3227" d="M25 753q0 237 116 440q117 203 319 318q202 117 439 117q239 0 438 -117q200 -115 319 -318q118 -202 118 -440t-118 -438q-119 -201 -319 -317q-199 -117 -438 -117q-237 0 -439 117q-201 116 -319 317q-116 202 -116 438zM260 753q0 -264 187 -451t452 -187 q264 0 450 187q187 187 187 451q0 265 -187 452q-186 188 -450 188t-452 -188q-187 -187 -187 -452zM1941 0v1507q0 51 33 85t84 34h921q78 0 109 -73q11 -27 11 -50q0 -43 -36 -80l-721 -718h637q48 0 83 -35q34 -34 34 -84t-34 -84q-33 -35 -83 -35h-805v-348h805 q48 0 83 -35q34 -34 34 -84t-34 -84q-33 -35 -83 -35h-921q-51 0 -84 34t-33 85zM2174 870l521 519h-521v-519z" />
<glyph unicode="&#x153;" horiz-adv-x="3227" d="M25 753q0 237 116 440q117 203 319 318q202 117 439 117q239 0 438 -117q200 -115 319 -318q118 -202 118 -440t-118 -438q-119 -201 -319 -317q-199 -117 -438 -117q-237 0 -439 117q-201 116 -319 317q-116 202 -116 438zM260 753q0 -264 187 -451t452 -187 q264 0 450 187q187 187 187 451q0 265 -187 452q-186 188 -450 188t-452 -188q-187 -187 -187 -452zM1941 0v1507q0 51 33 85t84 34h921q78 0 109 -73q11 -27 11 -50q0 -43 -36 -80l-721 -718h637q48 0 83 -35q34 -34 34 -84t-34 -84q-33 -35 -83 -35h-805v-348h805 q48 0 83 -35q34 -34 34 -84t-34 -84q-33 -35 -83 -35h-921q-51 0 -84 34t-33 85zM2174 870l521 519h-521v-519z" />
<glyph unicode="&#x178;" horiz-adv-x="1533" d="M-18 1505q2 27 13 53q32 70 107 68h1356q76 0 107 -70q12 -28 11 -51q0 -41 -30 -75l-661 -744v-686q0 -50 -34 -84q-35 -35 -83 -35t-83 35q-34 34 -34 84v688l-639 744q-30 34 -30 73zM293 1869q0 48 33 83l6 4l-4 4q-35 35 -35 84t34 83t83 34q50 0 84 -33l4 -4l4 4 q34 33 83 33q48 0 82 -34q35 -35 35 -83q0 -50 -34 -84l-5 -4l5 -4q35 -36 34.5 -83t-34.5 -83q-33 -35 -82 -35t-84 35l-4 4l-4 -4q-35 -35 -85 -35q-48 0 -83 35q-33 35 -33 83zM358 1389l412 -480l426 480h-838zM858 1869q0 48 35 83l4 4l-4 4q-35 35 -35 84q0 48 35 83 q35 34 83 34t83 -33l4 -4l4 4q35 33 84 33t83 -34t34 -83t-35 -84l-2 -4l4 -4q35 -35 35 -83t-35 -83t-84 -35t-84 35l-4 4l-4 -4q-35 -35 -83 -35t-83 35t-35 83z" />
<glyph unicode="&#x2c6;" horiz-adv-x="731" d="M35 1823q0 49 35 84l217 217q37 35 84 35t84 -35l217 -217q33 -35 33 -84t-34 -83t-83 -34q-50 0 -84 33l-133 135l-133 -135q-34 -33 -85 -33q-50 0 -84 34t-34 83z" />
<glyph unicode="&#x2dc;" horiz-adv-x="659" d="M-373 295q0 93 55 157q21 26 45 43q29 19 58 29q39 14 78 14q35 0 49 -6q65 -22 88 -39q11 -7 22 -18q32 -29 62 -68q28 -38 31 -41l10 -8h2q3 0 4 4q6 8 6 19v15q0 42 27 75q32 38 79 42q7 1 13 0q39 0 73 -26q38 -32 42 -80q2 -16 2 -26q0 -95 -58 -166 q-49 -61 -121 -82q-31 -10 -67 -10q-44 0 -86 14q-24 13 -29 14q-22 12 -67 51q-15 17 -52 66q-20 25 -26 31l-2 2l-2 -6v-2q3 -15 2 -26q0 -34 -20 -63q-28 -39 -76 -50q-16 -2 -23 -2q-35 0 -65 21q-40 28 -50 77q-4 20 -4 45z" />
<glyph unicode="&#x2000;" horiz-adv-x="1145" />
<glyph unicode="&#x2001;" horiz-adv-x="2290" />
<glyph unicode="&#x2002;" horiz-adv-x="1145" />
<glyph unicode="&#x2003;" horiz-adv-x="2290" />
<glyph unicode="&#x2004;" horiz-adv-x="763" />
<glyph unicode="&#x2005;" horiz-adv-x="572" />
<glyph unicode="&#x2006;" horiz-adv-x="381" />
<glyph unicode="&#x2007;" horiz-adv-x="381" />
<glyph unicode="&#x2008;" horiz-adv-x="286" />
<glyph unicode="&#x2009;" horiz-adv-x="458" />
<glyph unicode="&#x200a;" horiz-adv-x="127" />
<glyph unicode="&#x2010;" horiz-adv-x="671" d="M-8 596q0 49 34 83t85 34h448q49 0 83 -34t34 -83t-34 -83t-83 -34h-448q-50 0 -84 34q-35 35 -35 83z" />
<glyph unicode="&#x2011;" horiz-adv-x="671" d="M-8 596q0 49 34 83t85 34h448q49 0 83 -34t34 -83t-34 -83t-83 -34h-448q-50 0 -84 34q-35 35 -35 83z" />
<glyph unicode="&#x2012;" horiz-adv-x="671" d="M-8 596q0 49 34 83t85 34h448q49 0 83 -34t34 -83t-34 -83t-83 -34h-448q-50 0 -84 34q-35 35 -35 83z" />
<glyph unicode="&#x2013;" horiz-adv-x="1024" d="M-8 479v234h1036v-234h-1036z" />
<glyph unicode="&#x2014;" horiz-adv-x="2048" d="M-8 479v234h2060v-234h-2060z" />
<glyph unicode="&#x2018;" horiz-adv-x="884" d="M-107 2051q0 24 10 48q30 74 109 74h310q51 0 84.5 -34t33.5 -85v-299q0 -78 -71 -107q-27 -11 -50 -11q-44 0 -79 34l-310 299q-38 37 -37 81z" />
<glyph unicode="&#x2019;" horiz-adv-x="718" d="M-102 1563v309q0 51 32.5 85t83.5 34h299q77 0 109 -72q11 -27 11 -49q0 -42 -36 -80l-297 -309q-36 -38 -81 -38q-24 0 -48 10q-73 30 -73 110z" />
<glyph unicode="&#x201c;" horiz-adv-x="745" d="M53 1432v227q0 49 35 84t84 35t84 -35t35 -84v-227q0 -48 -35 -83q-34 -34 -84 -34t-84 34q-35 35 -35 83zM430 1432v227q0 50 34 84q35 35 83 35t83 -35q34 -34 34 -84v-227q0 -49 -34 -83t-83 -34t-83 34t-34 83z" />
<glyph unicode="&#x201d;" horiz-adv-x="745" d="M53 1432v227q0 49 35 84t84 35t84 -35t35 -84v-227q0 -48 -35 -83q-34 -34 -84 -34t-84 34q-35 35 -35 83zM430 1432v227q0 50 34 84q35 35 83 35t83 -35q34 -34 34 -84v-227q0 -49 -34 -83t-83 -34t-83 34t-34 83z" />
<glyph unicode="&#x2026;" horiz-adv-x="1413" d="M14 -24q0 48 35 83l4 4l-4 5q-35 35 -35 83q0 47 35 82t83 35t83 -35l4 -4l4 4q35 35 84 35q48 0 83 -35q34 -34 34 -83q0 -47 -35 -82l-4 -5l6 -4q33 -35 33 -84t-34 -82q-34 -34 -83 -34t-84 32l-4 7l-4 -7q-35 -33 -84 -32q-49 0 -83 34q-34 33 -34 83zM485 -24 q0 48 35 83l4 4l-4 5q-35 35 -35 83q0 47 35 82t83 35t83 -35l4 -4l4 4q35 35 84 35q48 0 83 -35q34 -34 34 -83q0 -47 -35 -82l-4 -5l6 -4q33 -35 33 -84t-34 -82q-34 -34 -83 -34t-84 32l-4 7l-4 -7q-35 -33 -84 -32q-49 0 -83 34q-34 33 -34 83zM956 -24q0 48 35 83l4 4 l-4 5q-35 35 -35 83q0 47 35 82t83 35t83 -35l4 -4l4 4q35 35 84 35q48 0 83 -35q34 -34 34 -83q0 -47 -35 -82l-4 -5l6 -4q33 -35 33 -84t-34 -82q-34 -34 -83 -34t-84 32l-4 7l-4 -7q-35 -33 -84 -32q-49 0 -83 34q-34 33 -34 83z" />
<glyph unicode="&#x202f;" horiz-adv-x="458" />
<glyph unicode="&#x2039;" horiz-adv-x="641" d="M34 638q0 42 32 79l196 221q36 42 83 42q22 0 46 -9q76 -28 76 -111v-418q0 -78 -72 -108q-27 -11 -49 -11q-42 0 -80 35l-196 197q-36 36 -36 83z" />
<glyph unicode="&#x203a;" horiz-adv-x="641" d="M135 442v418q0 83 76 111q24 9 46 9q47 0 83 -42l197 -221q32 -37 31 -79q0 -47 -36 -83l-196 -197q-38 -36 -80 -35q-22 0 -49 11q-72 30 -72 108z" />
<glyph unicode="&#x205f;" horiz-adv-x="572" />
<glyph unicode="&#x2122;" horiz-adv-x="3244" d="M24 1025q0 11 1 16q6 49 45 77l620 481q33 27 72 27t72 -27l620 -481q39 -28 45 -77q1 -5 1 -16q0 -39 -24 -71q-30 -39 -78 -45q-5 -1 -16 -1q-39 0 -71 26l-430 334v-1268q0 -49 -35 -84t-84 -35t-84 35t-35 84v1268l-430 -334q-32 -26 -71 -26q-11 0 -16 1 q-48 6 -78 45q-26 32 -24 71zM1645 0v1507q0 76 68 108q27 12 52 12q39 0 74 -30l549 -464l549 464q35 30 73 30q25 0 52 -12q68 -32 67 -108v-1507q0 -50 -34 -84q-33 -35 -83 -35q-49 0 -84 35q-34 34 -34 84v393l-506 430l-508 -430v-393q0 -50 -34 -84q-35 -35 -83 -35 q-49 0 -84 35q-34 34 -34 84zM1880 702l326 277l-326 274v-551zM2570 979l324 -277v551z" />
<glyph unicode="&#xe000;" horiz-adv-x="1625" d="M0 1625h1625v-1625h-1625v1625z" />
<glyph unicode="&#xfb01;" horiz-adv-x="2183" d="M86 0v1507q0 51 33 85t84 34h921q78 0 109 -73q11 -27 11 -50q0 -43 -36 -80l-721 -718h637q48 0 83 -35q34 -34 34 -84t-34 -84q-33 -35 -83 -35h-805v-467q0 -49 -34 -84t-82 -35t-83 35q-34 34 -34 84zM319 870l521 519h-521v-519zM1421 0q0 50 34 84q35 35 83 35h121 v1270h-121q-49 0 -83 34.5t-34 83.5q0 50 34 84q35 35 83 35h479q48 0 83 -35q34 -34 34 -84q0 -49 -34 -83.5t-83 -34.5h-121v-1270h121q48 0 83 -35q34 -34 34 -84t-34 -84q-35 -35 -83 -35h-479q-48 0 -83 35q-34 34 -34 84z" />
<glyph unicode="&#xfb02;" horiz-adv-x="2621" d="M86 0v1507q0 51 33 85t84 34h921q78 0 109 -73q11 -27 11 -50q0 -43 -36 -80l-721 -718h637q48 0 83 -35q34 -34 34 -84t-34 -84q-33 -35 -83 -35h-805v-467q0 -49 -34 -84t-82 -35t-83 35q-34 34 -34 84zM319 870l521 519h-521v-519zM1560 0v1507q0 49 35 84t84 35 t84 -35t35 -84v-739l684 -684q36 -38 36 -80q0 -23 -11 -50q-31 -73 -109 -73h-719q-51 0 -85 34t-34 85zM1798 119h315l-315 315v-315z" />
<glyph unicode="&#xfb03;" horiz-adv-x="3555" d="M86 0v1507q0 51 33 85t84 34h921q78 0 109 -73q11 -27 11 -50q0 -43 -36 -80l-721 -718h637q48 0 83 -35q34 -34 34 -84t-34 -84q-33 -35 -83 -35h-805v-467q0 -49 -34 -84t-82 -35t-83 35q-34 34 -34 84zM319 870l521 519h-521v-519zM1458 0v1507q0 51 33 85t84 34h921 q78 0 109 -73q11 -27 11 -50q0 -43 -36 -80l-721 -718h637q48 0 83 -35q34 -34 34 -84t-34 -84q-33 -35 -83 -35h-805v-467q0 -49 -34 -84t-82 -35t-83 35q-34 34 -34 84zM1691 870l521 519h-521v-519zM2793 0q0 50 34 84q35 35 83 35h121v1270h-121q-49 0 -83 34.5 t-34 83.5q0 50 34 84q35 35 83 35h479q48 0 83 -35q34 -34 34 -84q0 -49 -34 -83.5t-83 -34.5h-121v-1270h121q48 0 83 -35q34 -34 34 -84t-34 -84q-35 -35 -83 -35h-479q-48 0 -83 35q-34 34 -34 84z" />
<glyph unicode="&#xfb04;" horiz-adv-x="3993" d="M86 0v1507q0 51 33 85t84 34h921q78 0 109 -73q11 -27 11 -50q0 -43 -36 -80l-721 -718h637q48 0 83 -35q34 -34 34 -84t-34 -84q-33 -35 -83 -35h-805v-467q0 -49 -34 -84t-82 -35t-83 35q-34 34 -34 84zM319 870l521 519h-521v-519zM1458 0v1507q0 51 33 85t84 34h921 q78 0 109 -73q11 -27 11 -50q0 -43 -36 -80l-721 -718h637q48 0 83 -35q34 -34 34 -84t-34 -84q-33 -35 -83 -35h-805v-467q0 -49 -34 -84t-82 -35t-83 35q-34 34 -34 84zM1691 870l521 519h-521v-519zM2932 0v1507q0 49 35 84t84 35t84 -35t35 -84v-739l684 -684 q36 -38 36 -80q0 -23 -11 -50q-31 -73 -109 -73h-719q-51 0 -85 34t-34 85zM3170 119h315l-315 315v-315z" />
</font>
</defs>
</svg>
