<?xml version="1.0" standalone="no"?>
<!DOCTYPE svg PUBLIC "-//W3C//DTD SVG 1.1//EN" "http://www.w3.org/Graphics/SVG/1.1/DTD/svg11.dtd" >
<svg xmlns="http://www.w3.org/2000/svg">
<metadata></metadata>
<defs>
<font id="just_vectorregular" horiz-adv-x="1705" >
<font-face units-per-em="2048" ascent="1536" descent="-512" />
<missing-glyph horiz-adv-x="1024" />
<glyph horiz-adv-x="1024" />
<glyph horiz-adv-x="1024" />
<glyph unicode="&#xd;" horiz-adv-x="682" />
<glyph unicode=" "  horiz-adv-x="1024" />
<glyph unicode="&#x09;" horiz-adv-x="1024" />
<glyph unicode="&#xa0;" horiz-adv-x="1024" />
<glyph unicode="!" horiz-adv-x="1707" d="M200 205.5q0 13.5 14 32.5t50 44q9 21 19 42t19 38t15 29.5t7 16.5t6 31.5t14 68.5t21.5 92t28.5 103t34.5 90.5t35 64.5t29.5 40.5t17 17.5q8 6 10.5 9.5t-4.5 7.5q-4 2 -21 19.5t-35 51.5t-30 84.5t-5 118.5q2 16 8 10t11 -43q2 -18 11 -46.5t25 -58t39.5 -55.5 t56.5 -39q3 -1 19.5 6t59 18t117 23t193.5 21q1 21 2.5 41t3.5 37q2 19 5 37q-7 5 -12 13q-5 6 -9 15.5t-5 22.5q-8 -13 -14 -17t-16 -2q-5 1 -8 12.5t-3.5 28.5t0 36.5t1.5 37.5q1 17 10.5 29.5t21.5 21t24.5 13t20.5 5.5q10 5 20 7t18 3q9 1 17 1q16 13 42 22 q22 8 57 10.5t87 -5.5q31 2 63 -2q27 -3 59.5 -12.5t63.5 -29.5q46 3 69 -39q6 -11 13.5 -28t12 -36.5t4.5 -39t-8 -34.5q-3 -3 -7 0.5t-8 9.5t-8 16q-4 -12 -8 -23q-4 -9 -10 -18.5t-14 -15.5q1 -32 -4 -58.5t-12 -47.5t-14 -36t-11 -22q-4 -8 -2.5 -16t5.5 -16q1 -3 6 -20 t11.5 -42.5t13.5 -56t13 -60t10 -56t3 -42.5q-1 -25 -7.5 -51.5t-15.5 -50t-19.5 -42.5t-20.5 -29q2 -21 -1 -39.5t-8.5 -34.5t-12 -29t-11.5 -21q-5 -9 -11.5 -27.5t-13.5 -40t-13 -43.5t-9 -37q-6 -29 -7 -57t5 -37q3 -5 11 -14t15.5 -19.5t13 -21t4.5 -17.5 q-1 -8 -8.5 -15.5t-17 -13.5t-20.5 -10t-18 -4t-17.5 2.5t-21 7.5t-19 12.5t-12.5 17.5q-8 20 -8.5 50t4.5 50q3 10 11.5 48t15 88.5t8.5 105t-9 98.5q-26 -12 -58 -18t-60 -9q-33 -4 -66 -3q-6 -30 -13 -59q-6 -25 -14 -53t-17 -51q-3 -5 -4.5 -24t-2 -44t-0.5 -52.5v-50.5 t3 -50t7 -50q4 -27 11 -55q8 -6 14 -14q5 -7 9.5 -16t2.5 -19q-4 -20 -25 -31t-43 -11q-11 0 -23.5 4t-22.5 12t-16.5 18.5t-6.5 24.5t0.5 35.5t1.5 46.5t1.5 50.5t-0.5 48.5q-2 46 -3 78t-9 61q-3 14 -9.5 39t-13 54.5t-12 61.5t-6.5 61q-5 0 -13 4q-4 2 -6 4 q-14 -16 -28 -31q-12 -13 -25.5 -28t-25.5 -26q1 -8 4 -18.5t5 -20.5t4 -18t2 -11q0 -13 23 -21q5 -2 15 -7.5t19 -13t16 -16t6 -17.5q0 -9 -9.5 -14t-24.5 -6t-33.5 2t-36.5 11q-3 1 -8 12.5t-11 27.5t-12 35.5t-11.5 37t-10 30.5t-5.5 18q-4 14 -6 23t3 21q3 6 7.5 17.5 t8.5 25t6.5 28t1.5 25.5t-10.5 24.5t-23.5 25t-30 19t-30 7.5q-11 0 -23.5 -7t-26.5 -17.5t-27.5 -22.5t-25.5 -21q-14 -11 -29 -24t-27.5 -25t-22.5 -21t-14 -12q-3 -2 -11.5 -15t-20 -33t-24.5 -44t-25.5 -47.5t-22 -43.5t-13.5 -31q-3 -7 -7.5 -25.5t-15 -37t-28 -32.5 t-45.5 -13q-13 1 -23 8.5t-10 21z" />
<glyph unicode="&#x22;" horiz-adv-x="1707" d="M86 522.5q-3 24.5 3 48t20 40.5t36 19q12 3 17.5 -1.5t9 -10.5t7 -11.5t12.5 -6.5q81 19 155.5 44.5t155.5 44.5q-6 33 3.5 63t22.5 55t24 44t8 31.5t-26 16.5t-77 0q-8 24 -5 45t12.5 36t24 23t29.5 7q25 -3 31.5 -18t8 -34.5t5 -38t23.5 -28.5q18 10 34 22t32.5 23.5 t35.5 21.5t42 15q3 18 -1 28.5t-6 23.5q-2 7 -9.5 8t-16.5 0.5t-17 0t-11 6.5v53q9 8 24.5 11.5t31.5 2.5t30 -6.5t20 -15.5q4 -26 -7.5 -34.5t-29.5 -10.5q2 -17 9.5 -27.5t12.5 -24.5q37 15 88 15h102q8 7 11.5 18.5t4.5 26.5q2 10 -4 13t-13.5 4t-12.5 4.5t-1 15.5 q3 30 21 38t39 1.5t37.5 -24t16.5 -38.5q-8 -8 -23 -7.5t-30 0.5q-5 -13 -7 -27t-8 -25q12 -10 29.5 -15t36 -9.5t35.5 -10.5t28 -17q24 9 29.5 21.5t6 27.5t1.5 31t16 31q22 3 37 -2t24.5 -15t16.5 -23t13 -26q-5 -5 -14 -7t-19.5 -2t-21.5 1t-21 0q-11 -8 -16 -21.5 t-14 -23.5q5 -12 14 -20t18 -15.5t17 -17t11 -22.5q59 16 119.5 29t123.5 24q8 9 12.5 21.5l9 25t11.5 22.5t21 13q44 -8 61.5 -43t21.5 -84q-12 -21 -31.5 -28t-40 -3t-38.5 16t-27 30q-59 -9 -115.5 -20.5t-112.5 -24.5q-2 -6 -1.5 -18t1 -26t-0.5 -28t-6 -25 q19 -13 32.5 -10.5t26 10.5t25.5 16t30 7q10 -10 14.5 -31t1.5 -42t-14.5 -35.5t-32.5 -11.5q-24 2 -30 22t-7 46q-9 -2 -15 -1.5t-10.5 2.5l-9 4t-11.5 2q-13 -8 -23.5 -18.5t-20.5 -21t-21 -20t-26 -15.5q2 -25 15 -31.5t30.5 -7t36 -1t32.5 -12.5q-2 -41 -29.5 -57 t-69.5 -18q-2 17 -1 32t-1 28.5t-9.5 24.5t-26.5 20q-19 -3 -34 -10t-28.5 -15t-27 -15.5t-31.5 -11.5q-1 -17 4.5 -28.5t10.5 -24.5q5 -3 15.5 -2.5t22.5 1t22.5 -1.5t15.5 -12q0 -21 -13.5 -38.5t-32 -28t-39.5 -11.5t-37 11q-1 13 2 21t8.5 14t11 11.5t9.5 13.5 q-11 12 -17.5 27.5t-13.5 32.5q-35 -14 -70 -28.5t-81 -16.5q0 -7 -2 -11.5l-4 -9t-3 -10t1 -14.5q-1 -11 4.5 -14.5t12.5 -5.5t13.5 -5t7.5 -12q4 -26 -10.5 -40.5t-35.5 -18.5t-41 3.5t-27 25.5q-1 17 7.5 25.5t17.5 17t14 20t-1 34.5q-14 6 -32.5 7.5t-37.5 2t-36.5 3 t-30.5 9.5q-8 -3 -12 -8.5t-8 -12.5t-8 -13t-10 -10q1 -8 5.5 -13.5t9 -10.5t7 -11.5t1.5 -17.5q-19 -7 -40.5 -7.5t-39 6.5t-28 22t-6.5 39q11 12 25 15t28 5.5t26.5 8.5t19.5 24q-23 26 -44.5 53t-31.5 66q-43 -9 -82 -22t-77 -27t-75.5 -28.5t-76.5 -27.5q-8 -19 -12 -41 t-19 -33q-12 -3 -19 -3.5t-13.5 0t-14.5 1.5t-21 2q-11 17 -14 41.5zM675.5 792q-0.5 -24 8 -49t22.5 -46t32 -35.5t37 -16.5q26 -3 55.5 8t53.5 30.5t39 44.5t12 51q-3 25 -26 47t-55 36t-68 16.5t-64 -10.5q-24 -11 -35 -31.5t-11.5 -44.5zM1036.5 779q5.5 -22 23 -37.5 t50.5 -14.5q13 7 17.5 23t5.5 36t-0.5 41.5t-0.5 40.5q-23 19 -43 16t-33.5 -19t-19 -40t0 -46z" />
<glyph unicode="#" horiz-adv-x="1707" d="M200 209l214 1126h730l-44 -215h-485l-76 -387h450l-45 -181h-441l-67 -343h-236zM1037 334q0 30 11.5 56t31 45.5t45.5 30.5t56 11t57 -11t46.5 -30.5t31 -45.5t11.5 -56t-11.5 -56t-31 -45.5t-46.5 -30.5t-57 -11t-56 11t-45.5 30.5t-31 45.5t-11.5 56zM1126 587 l102 744h259l-196 -744h-165z" />
<glyph unicode="$" d="M301 901v65q13 118 62.5 206.5t121.5 147t158.5 87.5t172.5 29q64 0 133.5 -17t134.5 -54.5t120.5 -97.5t91.5 -147q6 -14 13 -30t11 -31q0 -2 4 -13t8.5 -25.5t8.5 -29t4 -21.5v-71q0 -65 -25.5 -130.5t-63.5 -131.5t-81.5 -132t-79.5 -132q-7 -13 -20 -27t-21 -28 q-12 -21 -25 -43l-26 -44q-45 -76 -89.5 -154t-90.5 -156q-74 120 -147.5 239t-145.5 240q-33 57 -70 115t-69.5 116.5t-56.5 116.5t-31 114q-1 9 -1.5 23t-0.5 16zM638 901.5q0 -5.5 0.5 -12.5t1.5 -14.5t3 -13.5q13 -35 33 -59t43.5 -39t49.5 -22t51 -7q40 0 76 15.5 t63 41.5t42.5 61.5t15.5 75.5t-15 75.5t-40.5 62t-60.5 41.5t-75 15q-33 0 -66.5 -10.5t-60.5 -31.5t-44 -53.5t-17 -76.5v-42v-6.5z" />
<glyph unicode="%" horiz-adv-x="1707" d="M186 746q-6 100 37 186.5t126.5 149t202 96t262.5 26.5q89 -4 177 -27t168 -61t148.5 -91t117.5 -117t75.5 -138t22.5 -155q-4 -89 -50.5 -170.5t-129.5 -143.5t-199 -99t-260 -38q-62 0 -112.5 4.5t-91 12.5t-73 18t-58.5 20q-7 3 -7 6q1 2 10 1q63 -15 106.5 -11.5 t68 17t30.5 34t-4 39.5q-12 21 -54.5 34t-100 28t-122.5 37t-123 62l1 3q3 7 6 13l4 10t4 8q3 8 10 8h187q7 0 11 -10q2 -3 5 -10.5t6 -15.5l8 -20t10 -17q5 -6 13.5 -11.5t20.5 -5.5q6 -1 21.5 4.5t22.5 25.5q2 7 2 12t-1 9q-1 2 -1 3.5t-1 3.5q-1 1 -1 2t-1 2t-15 33.5 t-35.5 80t-46 102.5t-45.5 102.5t-35.5 79l-14.5 31.5q-2 6 -5.5 10.5t-10.5 4.5q-4 0 -6 -1t-4 -3q-1 -2 -4 -5l-3 -6q-1 -1 -9.5 -20.5t-22.5 -50.5t-31.5 -70t-35.5 -79.5t-35 -79t-30 -67.5l-7 -16q-15 17 -20 24q-4 5 -7 9q-13 17 -25 39.5t-22 47t-16.5 50.5t-7.5 50z M410.5 595q-0.5 3 0.5 5l54 128l1 1l1 2q0 4 5 4q4 0 4 -4l1 -2l1 -1l54 -128q4 -8 -5 -8h-111q-5 0 -5.5 3zM728 469q0 -47 49 -47t49 47v404q0 47 -49 47q-23 0 -36 -11t-13 -36v-404zM920 469q0 -47 49 -47t49 47v189l94 -193q6 -11 17.5 -21t25.5 -9q16 -1 28 9t19 22 l95 191v-188q0 -25 12.5 -36t35.5 -11t36.5 11t13.5 36v404q0 25 -12.5 36t-35.5 11q-25 0 -38 -13q-6 -6 -12 -18l-141 -314l-139 314q-6 13 -13 18q-12 13 -36 13q-48 0 -48 -47v-404z" />
<glyph unicode="&#x26;" horiz-adv-x="1707" d="M105 510v204q0 14 10 23.5t24 9.5h360l-157 -271h-203q-14 0 -24 10t-10 24zM222 31l15 133q2 14 11.5 19t21.5 -2l90 -51q12 -8 12 -18t-11 -18l-115 -77q-11 -8 -18.5 -4t-5.5 18zM284 240.5q-4 13.5 3 25.5l411 712q8 12 21 16t26 -3l89 -50q12 -8 15.5 -21.5 t-3.5 -25.5l-411 -713q-7 -12 -20.5 -15.5t-25.5 3.5l-89 51q-12 7 -16 20.5zM702 476l156 271h90l127 -271h-373zM806.5 1305q-2.5 25 8.5 31q8 4 22 -10.5t32.5 -41t40.5 -62.5t44.5 -75t46 -78.5t44.5 -72.5t48.5 -81.5t57 -103t59 -109.5t54 -101t42 -79t23.5 -42 q8 -15 5.5 -28t-11 -24t-19.5 -19t-20 -11q-9 -4 -16.5 -7t-15.5 -4.5t-18 0.5t-23 9q-9 4 -28 38t-44 84t-53 110t-53.5 117.5t-47 106t-32.5 74.5q-12 26 -29.5 65.5t-36.5 83t-37 88t-29.5 81t-14 61.5zM1252 747h318q14 0 24 -9.5t10 -23.5v-204q0 -14 -10 -24t-24 -10 h-181q-2 17 -9 32q-5 6 -13 22t-21 39q-18 35 -42.5 81t-51.5 97zM1269 320q4 14 18 21l51 26q13 7 27.5 2.5t22.5 -18.5l42 -81q7 -14 2.5 -29t-17.5 -23l-36 -22q-13 -8 -28 -4t-23 17l-54 84q-9 13 -5 27zM1372.5 115.5q-2.5 15.5 1 27t10.5 19t12 12.5q29 16 50 16.5 t35 -9t23 -28t14 -39.5q11 -50 6 -126q-4 13 -20 21.5t-37 17.5t-42 21t-36 32q-14 20 -16.5 35.5z" />
<glyph unicode="'" horiz-adv-x="1707" d="M163.5 339.5q-3.5 35.5 0.5 68.5t13.5 61.5t19 50t17 34.5t8.5 15l656 757q149 110 257 110q38 0 68 -12.5t52.5 -33.5t38.5 -47.5t26.5 -54.5t15.5 -55t6 -49q0 -1 -0.5 -23.5t-1 -60.5t-1.5 -88t-2 -105q-1 -48 5 -80t14 -52q9 -23 20 -35q19 -11 31.5 -28.5 t16.5 -39.5q3 -23 -2.5 -44.5t-14 -38.5t-17 -28.5t-10.5 -13.5l-8 -9l-12 -1q-29 -18 -35 -264q0 -20 -0.5 -35.5t-1.5 -24.5q-1 -60 -11 -103t-24.5 -72.5t-31.5 -48t-33 -30.5q-108 -59 -198 -59q-49 0 -87.5 14.5t-67 36.5t-47.5 46.5t-31 44.5q-13 22 -26.5 34.5 t-27.5 19.5t-27.5 9t-26.5 2q-21 0 -44.5 -4t-48.5 -9q-23 -5 -46 -8.5t-47 -5.5l-4 -1l-4 1q-244 45 -308 189q-15 35 -18.5 70.5zM220.5 377q-2.5 -43 15.5 -85q49 -114 261 -155q21 2 42 5.5t41 8.5q26 5 52 9.5t52 4.5q53 0 91 -23t67 -71q9 -16 24.5 -36t38 -37 t52.5 -29t68 -12q75 0 166 50q11 8 23.5 22.5t23.5 38.5t18.5 60t8.5 88q1 10 1.5 24.5t0.5 33.5q1 60 4.5 114t11 96.5t21.5 70.5t37 36q9 12 18.5 32.5t6.5 39.5q-1 6 -5 14t-18 17q-4 3 -15 14.5t-22 36t-19.5 64.5t-7.5 99q1 56 2 105.5t2 87.5q1 44 1 82q0 1 -1.5 16.5 t-6.5 37t-15 46.5t-26.5 46.5t-41 35.5t-58.5 14q-87 0 -220 -97l-647 -747l-11.5 -22.5t-22.5 -57.5t-13.5 -78zM372 362.5q2 -11.5 17 -15.5q12 -8 24 -13q11 -5 23 -6.5t25 3.5q10 9 40.5 41t86 69t140 71t204.5 48q-2 -63 -1.5 -132.5t1.5 -129.5q1 -70 3 -137 q26 -24 55 -35q25 -9 56 -4.5t63 39.5v63t-0.5 84.5t-0.5 93t-0.5 88t-0.5 69.5v38q5 -1 24 3.5t64 10.5q12 4 17 9q5 4 2 9.5t-21 11.5q-38 -3 -66 -3h-29v429q-6 31 -21 48q-13 14 -37 15.5t-66 -27.5l-585 -687q-11 -16 -15 -30q-4 -12 -2 -23.5zM733 636q3 5 13 13 l200 223v-234q-38 -2 -73 -5q-30 -2 -61.5 -4.5t-51.5 -3.5q-20 -2 -24.5 2t-2.5 9z" />
<glyph unicode="(" horiz-adv-x="1707" d="M162 838q-3 49 7.5 93t32 78t52 54.5t66.5 23.5t69 -13.5t59 -47t43 -72.5t20 -91t-7.5 -93t-32 -78t-52 -54.5t-66.5 -23.5t-69 13.5t-59 47t-43 72.5t-20 91zM255 184q0 38 9.5 71t30 64.5t52.5 64t77 70.5q45 37 79.5 70.5t62.5 64t50.5 60t42.5 58.5q40 58 91 79.5 t101 21.5q25 0 49.5 -3t48 -12t45.5 -26t43 -46q42 -58 77 -100t67 -75t62 -60t62 -55q49 -43 80.5 -77t49 -65t24 -62.5t6.5 -69.5t-13.5 -83t-41.5 -83.5t-72.5 -64.5t-105.5 -26q-62 0 -110.5 8t-92.5 17.5t-86.5 17.5t-91.5 8t-90.5 -5.5t-84 -12.5t-90.5 -12.5 t-109 -5.5q-62 0 -104.5 28t-68.5 69t-37.5 87.5t-11.5 84.5zM511 1201q0 49 13.5 91.5t36.5 74.5t54 50.5t66 18.5t66 -18.5t54 -50.5t36.5 -74.5t13.5 -91.5q0 -48 -13.5 -91t-36.5 -75t-54 -50.5t-66 -18.5t-66 18.5t-54 50.5t-36.5 75t-13.5 91zM938 1125q-3 45 9 93 t36.5 86t55 63.5t66 35.5t70.5 1q6 -2 19.5 -11t29.5 -25.5t31.5 -40t26 -53.5t13 -66t-7.5 -77q-12 -48 -36.5 -86t-55 -63.5t-66 -35.5t-70.5 -1t-61.5 35t-41.5 63t-18 82zM1220 736q-1 54 12.5 98.5t37.5 76t56 48.5t69 18q6 0 21.5 -4.5t35.5 -15t42 -28t40 -43.5 t30 -62t13 -83q1 -54 -12 -94.5t-37 -67t-56 -39.5t-69 -14q-37 0 -70 12t-57.5 38t-39.5 66t-16 94z" />
<glyph unicode=")" horiz-adv-x="1707" d="M184 261v20q0 10 1.5 19.5t3.5 19.5q23 149 78 286q26 66 59.5 126.5t75.5 117.5q40 53 87 99.5t102 84.5q28 19 57.5 35t61.5 29q34 13 65 20q8 2 16.5 3.5t16.5 3.5q4 1 8 1t9 1t9.5 1h9.5h65q4 0 8 -1l8 -2q17 -3 33.5 -7t32.5 -9q59 -17 116 -48q52 -29 96.5 -66 t83.5 -82q84 -98 142 -209q68 -133 101 -280q2 -5 3 -11t3 -13q5 -17 9 -33.5t7 -32.5t5.5 -31.5t0.5 -31.5q-2 -14 -7 -25.5t-13 -22.5q-19 -25 -43 -46q-91 -80 -203 -125q-63 -25 -129 -39.5t-134 -21.5q-73 -8 -146 -8.5t-146 6.5q-63 5 -125.5 16t-122.5 31 q-52 17 -101 41t-93 58q-41 32 -74 71l-16 20t-15 21q-2 4 -4 6q-2 3 -2 8zM279.5 305q0.5 -1 0.5 -3q3 -5 3 -6q13 -24 28 -42q33 -42 77.5 -71t94.5 -48q60 -23 122 -35.5t125 -17.5q69 -7 139 -7.5t140 4.5q68 5 134.5 17.5t129.5 36.5q52 21 101.5 53t78.5 82q2 3 4 7 q17 34 6 67.5t-28 63.5q-18 33 -35.5 66t-37.5 65q-16 26 -34 50.5t-38 48.5q-20 25 -40.5 48t-42.5 46q-26 26 -52.5 50t-55.5 46l-8 6t-6 6q-8 6 -14 10q-15 7 -30 2q-16 -5 -28 -18.5t-23 -24.5q-27 -29 -50.5 -60t-46.5 -62q-22 -29 -45 -56.5t-51 -50.5 q-10 -8 -21.5 -16t-25.5 -9q-21 0 -36 7q-18 9 -32.5 23t-28.5 29q-12 13 -25.5 28.5t-29 27.5t-33.5 18t-38 -1q-28 -10 -50.5 -31.5t-40.5 -44.5q-11 -14 -21 -29l-20 -30q-9 -15 -18.5 -30t-18.5 -30q-19 -30 -36 -61.5t-28 -65.5q-4 -9 -6.5 -17.5t-4.5 -18.5 q-1 -5 -2 -9.5t-1 -9.5q-1 -2 -0.5 -3z" />
<glyph unicode="*" horiz-adv-x="1707" d="M167 145v885h427q82 -2 139 -24.5t91 -70.5q40 -55 40 -134q0 -81 -41 -131q-23 -27 -67 -51q67 -22 102 -77q35 -53 35 -130q0 -78 -39 -141q-14 -21 -29 -38.5t-34 -31.5q-22 -17 -46.5 -28t-53.5 -16q-57 -12 -125 -12h-399zM371 299h187q29 0 51.5 3.5t38.5 11.5 q58 28 58 111q0 70 -56 94q-30 14 -89 16h-190v-236zM371 681h188q56 0 94 23q35 21 35 77q0 61 -47 81q-42 15 -105 15h-165v-196zM961 482q0 166 87 253q87 88 227 88q80 0 149 -29q68 -31 109 -94q20 -29 32.5 -61.5t18.5 -69.5q7 -44 6 -126h-462q5 -96 67 -134 q18 -12 41 -17.5t50 -5.5q57 0 91 28q21 18 35 44h169q-6 -56 -62 -115q-84 -93 -238 -93q-126 0 -223 78q-97 79 -97 254zM1096 905v88h356v-88h-356zM1132 553h285q-3 65 -44 100q-38 34 -98 34q-32 0 -56.5 -9.5t-42.5 -26.5q-18 -18 -28.5 -43t-15.5 -55z" />
<glyph unicode="+" horiz-adv-x="1707" d="M127 490v741h252v-362q91 51 203 79.5t238 28.5q144 0 270 -37t220.5 -101.5t149 -150.5t54.5 -185q0 -98 -54.5 -184t-149 -150.5t-220.5 -102t-270 -37.5q-141 0 -265.5 36t-218 98.5t-149 146.5t-59.5 180h-1zM379 503q0 -66 34.5 -123.5t94.5 -100t140 -67.5t172 -25 q91 0 171.5 25t140.5 67.5t95 100t35 123.5t-35 123.5t-95 100t-140.5 67.5t-171.5 25q-92 0 -172 -25t-140 -67.5t-94.5 -100t-34.5 -123.5zM529 503q0 43 23 81.5t62.5 67t92.5 45t113 16.5q61 0 114 -16.5t92.5 -45t62.5 -67t23 -81.5t-23 -81t-62.5 -66t-92.5 -44.5 t-114 -16.5q-60 0 -113 16.5t-92.5 44.5t-62.5 66t-23 81z" />
<glyph unicode="," horiz-adv-x="1707" d="M196 317v494q0 88 33.5 165t91.5 135t135.5 91.5t165.5 33.5h297q41 -5 89.5 -24t94.5 -50t85 -71t61 -87q6 -13 11 -22.5t9.5 -24t8.5 -36.5t9 -61q5 -40 10.5 -69.5t24.5 -45.5q12 -12 39 -15t56 -3.5t54 -2t34 -8.5l20 -15l10 -23l5 -19l-3 -342q-1 -88 -34.5 -165.5 t-91 -135t-134.5 -91t-165 -33.5h-490q-88 0 -165.5 33.5t-135.5 91t-91.5 135t-33.5 165.5zM546 322q0 -34 23 -57.5t58 -23.5h480q35 0 58 23.5t23 57.5t-23 57t-58 23h-480q-35 0 -58 -23t-23 -57zM546 808q0 -33 23 -57.5t58 -24.5h236q34 0 57.5 24.5t23.5 57.5 t-23.5 57t-57.5 24h-236q-35 0 -58 -24t-23 -57z" />
<glyph unicode="-" horiz-adv-x="1707" d="M200 257v662q0 22 8 41.5t22.5 33.5t33.5 22.5t41 8.5h1128q45 0 75.5 -30.5t30.5 -75.5v-662q0 -22 -8.5 -41t-22.5 -33.5t-33.5 -22.5t-41.5 -8h-933q-11 -45 -39 -69.5t-57 -36.5q-34 -14 -74 -18q23 41 25.5 75.5t0.5 48.5h-51q-22 0 -41 8t-33.5 22.5t-22.5 33.5 t-8 41zM372 466q0 -21 14.5 -35.5t35.5 -14.5t35.5 14.5t14.5 35.5t-14.5 35.5t-35.5 14.5t-35.5 -14.5t-14.5 -35.5zM776 313q13 -38 45.5 -62.5t74.5 -24.5q26 0 49 10t40 27t27 40.5t10 49.5v10zM1272 466q0 -21 14.5 -35.5t35.5 -14.5q20 0 35 14.5t15 35.5t-15 35.5 t-35 14.5q-21 0 -35.5 -14.5t-14.5 -35.5z" />
<glyph unicode="." horiz-adv-x="1707" d="M219 -100l249 1274q7 22 23 40q14 15 38.5 27.5t64.5 12.5h889v-852q0 -23 -15 -45t-44 -36q-16 -8 -76.5 -30t-148.5 -53t-194.5 -68.5t-215.5 -74.5q-256 -88 -570 -195zM730 454q30 -25 69 -42q33 -15 80.5 -24t107.5 0q60 10 95 35.5t55 53.5q23 32 32 70 q11 39 15 84q3 38 -2 89t-25 108q-14 38 -38 58.5t-51.5 28.5t-56 5t-52 -12t-38.5 -22t-15 -25l-10 2v252l-166 -26v-635zM896 517v246q5 8 16 14q9 5 24.5 8t40.5 1q25 -3 36 -20.5t15 -38.5t3 -40t-1 -25t1 -19.5t-0.5 -31t-6 -37.5t-14.5 -38q-11 -18 -30 -23.5 t-38 -4.5q-22 1 -46 9z" />
<glyph unicode="/" horiz-adv-x="1707" d="M166 402q0 -83 32 -156.5t87.5 -128t130 -86t159.5 -31.5h188h6v216h-117q-60 -2 -108 16q-20 8 -40 21t-35.5 33.5t-25.5 49t-10 66.5t10 66.5t25.5 49t35.5 34t40 21.5q48 18 108 17h117v216h-6h-188q-85 0 -159.5 -32t-130 -86.5t-87.5 -128t-32 -157.5zM681 1083 q0 60 33.5 112t91.5 91t136 61.5t167 22.5q88 0 166 -22.5t136 -61.5t91.5 -91t33.5 -112q0 -46 -20 -87.5t-56 -76.5t-85.5 -61.5t-109.5 -42.5l-128 -130v112q-7 -1 -13.5 -1.5t-14.5 -0.5q-89 0 -167 22.5t-136 61.5t-91.5 91.5t-33.5 112.5z" />
<glyph unicode="0" d="M158 369q0 65 51 112q52 47 123 47t123 -47q51 -47 51 -112q0 -68 -53 -115q102 -113 260 -113q118 0 188 64q74 62 74 157q0 59 -39 113q-44 61 -96 96q-29 18 -75 40t-112 44q-63 25 -111 46.5t-83 41.5q-69 38 -119 97q-48 54 -74 110q-23 59 -22 117q0 152 131 256 q129 105 315 107q122 0 252 -50q104 -44 180 -118q59 -50 60 -121q0 -67 -52 -113q-52 -47 -122 -47q-71 0 -123 47q-51 46 -51 113q0 34 16 65q-51 25 -141 25q-111 0 -181 -45q-70 -51 -69 -121q0 -64 61 -113q28 -23 79.5 -50t127.5 -56q72 -29 127.5 -55.5t97.5 -51.5 q82 -51 133 -110q27 -31 46.5 -61.5t31.5 -65.5q2 -6 2 -8q-54 -43 -87.5 -104.5t-33.5 -133.5q0 -42 12.5 -80.5t35.5 -73.5q-18 -20 -39 -39q-140 -123 -332 -122q-195 0 -336 96q-146 95 -223 287l4 2q-8 21 -8 43zM1145 256q0 -79 58 -131q59 -53 143 -53q83 0 142 53 q58 52 58 131q0 78 -58 132q-59 54 -142 54q-85 0 -143 -54t-58 -132z" />
<glyph unicode="1" d="M168 870q0 43 13.5 74t29.5 53q20 24 43 41h305l68 64v211q0 19 0.5 38.5t12 35.5t39.5 26t83 10t94 -16t66 -37q14 -11 26.5 -24t22.5 -27h194q28 0 66 -8.5t75 -22t66 -30.5t39 -33q11 -17 31 -43q22 -26 43 -96q11 -34 20 -82.5t17 -111.5t12 -148.5t4 -194.5 t-13.5 -193t-36 -147t-51 -107.5t-57.5 -74.5q-67 -72 -155 -90h-174q-40 0 -82.5 10t-77.5 35.5t-57.5 69.5t-22.5 112q0 69 40 103q40 35 87 52q57 20 127 23v-117q-6 0 -16 2q-8 0 -19.5 1t-21.5 1q-25 0 -42.5 -14t-17.5 -55q0 -23 8.5 -40.5t18.5 -29.5q11 -12 29 -27 h167q29 0 46.5 13.5t25.5 29.5q7 18 12 44v137q0 55 -55 100q-56 45 -156 45q-51 0 -92 24.5t-69 53.5q-35 35 -62 80q-1 -16 -1.5 -31t-0.5 -29v-108q0 -4 -5.5 -16t-19.5 -27t-39 -30.5t-65 -25.5t-95.5 -12.5t-131.5 8.5q-48 6 -86 29t-68 56.5t-52.5 75.5t-37.5 86 q-15 45 -24.5 90t-15.5 85.5t-8.5 73.5t-2.5 55zM233 1104l326 303v-244l-67 -59h-259zM1100 707q10 0 45 -6l74 -11q22 -4 46 -7.5t50 -6.5q-13 17 -25 33t-24 30q-23 23 -46.5 43.5t-45.5 20.5q-23 0 -37.5 -15.5t-22.5 -33.5q-4 -11 -7.5 -22.5t-6.5 -24.5z" />
<glyph unicode="2" d="M203 622q0 68 16 133t51 122q54 87 140.5 135.5t189.5 50.5q39 0 76 -9.5t70 -21.5l64 -22q15 -5 28 -7.5t24 -3.5q24 0 57 12t73 26t85 24t92 6q18 0 53 -5.5t76 -21.5t84 -45t78 -75q-2 -1 -15.5 -9t-32.5 -24t-41 -39t-40.5 -54.5t-30.5 -70.5t-12 -86q0 -85 34 -143 t73 -92.5t72 -50.5l34 -15q0 -2 -6 -21t-19 -48.5t-33.5 -67t-49.5 -76.5q-24 -34 -50.5 -66.5t-57 -58t-65 -41.5t-73.5 -16q-41 0 -70 9t-56.5 20.5t-59 20.5t-76.5 9q-46 0 -79 -9t-61.5 -20t-56.5 -20.5t-65 -11.5q-39 -2 -74 14.5t-66 43.5t-59 61.5t-53 68.5 q-34 46 -64.5 104t-53.5 122t-36.5 132.5t-13.5 136.5zM850 1083q-10 65 17 127q28 61 69 105q44 47 108 77q33 16 64.5 24.5t60.5 10.5q8 -66 -16 -127.5t-66 -109.5t-105 -79q-66 -32 -132 -28z" />
<glyph unicode="3" d="M52 709.5q1 202.5 1 408.5q-4 53 15.5 103.5t55.5 91.5t85 69.5t104 38.5q57 6 113 4t113 0q-29 -33 -54.5 -68.5t-46 -74t-34 -79.5t-17.5 -85q-8 -68 5 -133t43 -124.5t75 -112t100 -93.5q28 -17 27 -45q-1 -14 -1.5 -27.5t-0.5 -27.5q-8 -63 -17.5 -126.5 t-13.5 -127.5q45 23 86.5 48.5t82.5 53.5q81 55 171 99q179 -33 365 -10q188 24 344 118v-295q5 -86 -47 -160q-49 -73 -136 -108q-39 -18 -80 -23.5t-83 -3.5h-955q-59 1 -113.5 24t-95.5 61.5t-65.5 89t-24.5 106.5q-2 206 -1 408.5zM641 1036q-4 -73 35 -141 q39 -67 100 -111q66 -47 144.5 -72t160.5 -28t163 14t153 54q81 41 136 111q57 72 58 159q2 79 -41 145q-44 67 -108 111q-75 51 -163 73.5t-181 18.5q-102 -2 -198.5 -36.5t-168.5 -104.5q-42 -39 -66 -87.5t-24 -105.5z" />
<glyph unicode="4" d="M158 582q0 -138 92 -256q2 -2 3 -4.5t5 -4.5v-2q96 -120 263 -191q165 -69 360 -69h32h2l275 -106q7 -4 24 -4q19 0 35 8q29 18 29 51v135l6 4l42 25l44 27q79 52 137 129q13 17 13 34q0 29 -27 50q-19 10 -37 10q-35 0 -53 -25q-50 -63 -107 -100l-75 -45 q-24 -13 -41 -27q-29 -17 -29 -49v-80l-199 78q-11 6 -24 6h-4q-5 -1 -10.5 -1.5t-11.5 -0.5h-21q-82 0 -159.5 15t-146 43.5t-124.5 69t-95 91.5l-6 6l-2 2q-61 85 -61 181q0 87 46.5 160t127.5 128t186.5 87t229.5 32q179 0 329 -71h4q75 -38 115 -89q43 -49 43 -108 q0 -48 -27.5 -90.5t-78.5 -77.5q-57 -39 -130 -59.5t-155 -20.5q-43 0 -82 6q-57 8 -109 25.5t-100 42.5h-2q-91 49 -140.5 119t-49.5 151q0 6 1 12.5t1 12.5q-77 -51 -117 -117q23 -85 85 -157t159 -126l4 -2h2q111 -58 248 -78h2q49 -6 98 -6q103 0 195 26t165 75 q78 54 119 120t41 144q0 93 -60 172.5t-171 130.5l-4 2q-87 42 -183.5 61t-201.5 19q-142 0 -270.5 -38t-231.5 -110q-105 -76 -161 -171.5t-56 -204.5zM457 1055q184 94 411 94q61 12 131 12q159 0 285 -61h4q86 -44 119 -111q81 -69 115 -155q24 49 24 102q0 82 -53 152 t-150 118l-4 2q-155 72 -340 72q-126 0 -238.5 -34t-203.5 -97q-29 -23 -54.5 -45.5t-45.5 -48.5zM578 885q46 -101 158 -175q112 -73 263 -92l-2 -10l2 10q43 -6 86 -6q119 0 215 37q23 35 23 72q0 33 -18 63q-45 -27 -101 -40t-119 -13h-33q-19 0 -34 4q-57 8 -107.5 25.5 t-91.5 42t-72.5 56t-50.5 67.5q-59 -13 -118 -41zM637 1249q35 36 78 68q78 55 177.5 85t211.5 30q81 0 157 -15.5t142 -48.5q18 -6 28.5 -21.5t10.5 -31.5q0 -9 -4 -17q-6 -24 -35 -38q-8 -2 -15 -3t-12 -2q-17 0 -28 7q-42 20 -90 32.5t-97 16.5q-42 8 -82 11t-82 3 q-195 0 -360 -76z" />
<glyph unicode="5" d="M203 -41l708 1477h306l-707 -1477h-307zM993 182q0 -48 20 -90.5t54.5 -74t80.5 -50t99 -18.5t99.5 18.5t81 50t54 74t19.5 90.5q0 49 -19.5 92t-54 75t-81 50.5t-99.5 18.5t-99 -18.5t-80.5 -50.5t-54.5 -75t-20 -92z" />
<glyph unicode="6" d="M104 669q0 105 27 202t76.5 181.5t119 154t154 119t181.5 76.5t202 27t202 -27t181.5 -76.5t154 -119t119 -154t76.5 -181.5t27 -202t-27 -202t-76.5 -181.5t-119 -154t-154 -119t-181.5 -76.5t-202 -27q-158 0 -296 59.5t-241.5 163t-163 241.5t-59.5 296zM421 532 q0 -40 15.5 -75.5t41.5 -61.5t61.5 -41.5t75.5 -15.5t75 15t61.5 41t42 61t15.5 75l1 277q0 19 13 32.5t33 13.5q19 0 32.5 -13.5t13.5 -32.5v-54l59 -27l89 26v62q-1 39 -17 73t-42 59.5t-61 40.5t-74 15t-74 -14.5t-61 -40t-42 -59.5t-17 -73v-281q0 -19 -13.5 -32.5 t-32.5 -13.5q-20 0 -33 13.5t-13 32.5v119h-149v-121zM902 531q0 -40 15.5 -75t42 -61.5t61.5 -41.5t75 -15t75.5 15.5t62 41.5t42 61.5t15.5 75.5v121h-149v-125q0 -19 -13.5 -32.5t-32.5 -13.5q-20 0 -33 13.5t-13 32.5v123l-89 -27l-59 28v-121z" />
<glyph unicode="7" d="M89 497v553h276v276h156v-829h-432zM245 635h120v276h-120v-276zM555 497v553h156v-553h-156zM555 1170v156h156v-156h-156zM779 221v156h259v120h-259v553h415v-829h-415zM935 635h103v276h-103v-276zM1228 221v156h277v120h-277v553h415v-829h-415zM1384 635h121v276 h-121v-276z" />
<glyph unicode="8" d="M317 1413h162l13 -180h16l8 4q63 99 162 149t233 50q105 0 192 -38.5t150 -108t98 -166t35 -212.5q0 -144 -44 -249.5t-115.5 -173.5t-163 -101t-186.5 -33q-56 0 -107 10.5t-95 31.5t-80 51t-60 69l-3 4h-18l-4 -10v-563h-182v1132q0 98 -3 177t-8 157zM510 799 q0 -55 10 -82q29 -104 118 -169t204 -65q81 0 147 30t112.5 85t71.5 132.5t25 172.5q0 88 -25.5 161.5t-71.5 126.5t-110.5 82.5t-142.5 29.5q-117 0 -206 -68q-90 -68 -118 -176q-14 -47 -14 -78v-182z" />
<glyph unicode="9" d="M53 100l43 215q0 46 32 60l75 28l266 99q7 4 12 4v2v2l2 2q37 16 67 35.5t40 36.5q12 23 26 12l2 -2l13 33q5 14 10 32q5 10 10 -4l-4 23l-4 39l-12 12q-13 14 -17 42t-10 38q-6 9 -20 19q-12 12 -25 51q-6 20 -12 43.5t-9 44t-2.5 34t7.5 13.5h8q-2 4 -3 7t-3 11 q-2 16 -9.5 38t-7.5 36q0 17 2 46.5t6.5 61.5t11.5 61.5t17 45.5q20 31 51.5 55.5t79.5 34.5q19 4 56 7.5t76.5 4.5t75.5 -1.5t54 -10.5q12 -4 27.5 -11t32.5 -18q27 -16 49.5 -34.5t36.5 -38.5q10 -16 16 -43t10 -57t5.5 -58t1.5 -45q-2 -25 -6.5 -54.5t-8.5 -45.5 q8 8 19 8q6 0 8 -8t1.5 -20.5t-4 -29t-8.5 -33.5l-14 -44q-7 -21 -13.5 -33t-12 -18.5t-10 -10.5t-7.5 -8q-8 -11 -11 -38q-3 -28 -17 -42l-11 -12l-4 -47v-13q0 -2 1.5 -1t3 2.5t3 2.5t1.5 -2q1 -2 3.5 -8.5t5.5 -15.5t6.5 -18.5t6.5 -16.5q2 -4 2 -7t6 1h2q7 1 21 -12v-2 q2 -2 2 -5h2q10 -16 40 -34.5t64 -32.5q7 -5 15 -6l266 -99l74 -28q31 -12 30 -60l60 -215h-1600z" />
<glyph unicode=":" horiz-adv-x="1707" d="M100 592q0 71 26.5 133t72.5 108.5t107.5 73.5t131.5 27q1 0 1 -1q0 4 -0.5 8.5t-0.5 9.5q0 79 30 149t82 122.5t121.5 82.5t148.5 30q70 0 133 -24t112.5 -66t83.5 -99.5t46 -124.5q6 0 12 0.5t11 0.5q79 0 149 -30.5t122 -83t82 -122.5t30 -150t-30 -150t-82 -122 t-122 -82.5t-149 -30.5q-4 0 -7.5 0.5t-8.5 0.5h-752q-3 0 -5.5 -0.5t-6.5 -0.5q-2 0 -5.5 0.5t-5.5 0.5h-8q-67 4 -125 32t-101 74t-68 106t-25 128z" />
<glyph unicode=";" horiz-adv-x="1707" d="M144 1164l628 -204v-896l-624 212zM260 1253l590 174l577 -174l-577 -188zM927 61l2 902l629 195v-882z" />
<glyph unicode="&#x3c;" horiz-adv-x="1707" d="M170 683q0 136 51.5 260.5t150.5 224.5q97 97 217.5 147.5t262.5 50.5t265 -50.5t222 -149.5q97 -97 147 -220t50 -263q0 -141 -49.5 -263t-145.5 -216q-102 -100 -227.5 -152t-261.5 -52t-259 51.5t-223 150.5q-99 99 -149.5 221.5t-50.5 259.5zM294 683q0 -110 43 -211 t124 -182t181 -123t212 -42q110 0 213 42.5t186 124.5q79 78 119 176.5t40 214.5q0 114 -41 215t-120 180q-80 81 -180.5 122.5t-216.5 41.5t-215 -41t-178 -121q-81 -82 -124 -183.5t-43 -213.5zM464 683q0 -51 15 -90.5t42 -66.5t64.5 -41t82.5 -14q58 0 105 29t75 78 l-86 43q-14 -35 -35 -47t-48 -12q-48 0 -70 35t-22 86t20.5 86t71.5 35q13 0 36 -10.5t39 -44.5l91 48q-29 53 -76 75.5t-105 22.5q-42 0 -78.5 -14.5t-63.5 -41.5t-42.5 -66.5t-15.5 -89.5zM858 683q0 50 15.5 89.5t42.5 66.5t63.5 41.5t78.5 14.5q58 0 105.5 -22.5 t76.5 -75.5l-91 -48q-8 17 -18.5 27.5t-21 16.5t-20 8.5t-16.5 2.5q-50 0 -71 -35t-21 -86t22 -86t70 -35q27 0 48.5 12t35.5 47l85 -43q-27 -49 -74.5 -78t-105.5 -29q-45 0 -82.5 14t-64.5 41t-42 66.5t-15 90.5z" />
<glyph unicode="=" horiz-adv-x="1707" d="M86 668q0 106 27.5 204t77.5 183.5t120 155.5t155.5 120t183.5 77.5t204 27.5t204 -27.5t183.5 -77.5t155.5 -120t120 -155.5t77.5 -183.5t27.5 -204q0 -118 -33.5 -225t-93.5 -198l112 -271l-269 98q-100 -81 -223 -126.5t-261 -45.5q-106 0 -204 27.5t-183.5 77.5 t-155.5 120t-120 155.5t-77.5 183.5t-27.5 204zM380 778l105 -446q8 -31 32 -48t52 -11l717 169q28 7 42.5 33t6.5 57l-104 445q-8 32 -32.5 49t-51.5 10l-155 -36q-34 25 -75 39t-86 14q-79 0 -143.5 -41t-98.5 -107l-160 -37q-28 -7 -42 -33t-7 -57zM676 662 q0 40 15.5 75.5t41.5 61.5t61.5 41.5t75.5 15.5t75 -15.5t61 -41.5t41.5 -61.5t15.5 -75.5t-15.5 -75t-41.5 -61.5t-61 -41.5t-75 -15t-75.5 15t-61.5 41.5t-41.5 61.5t-15.5 75zM746 662q0 -26 9.5 -48t26.5 -39t39.5 -26.5t48.5 -9.5q25 0 47.5 9.5t39.5 26.5t26.5 39 t9.5 48t-9.5 48.5t-26.5 39.5t-39.5 26.5t-47.5 9.5q-26 0 -48.5 -9.5t-39.5 -26.5t-26.5 -39.5t-9.5 -48.5z" />
<glyph unicode="&#x3e;" horiz-adv-x="1707" d="M253 600l336 314l56 -41v136h-267l464 427l464 -427h-269v-547l58 51l336 -306h-172v-307h-307v307h-187l221 197v674h189l-333 306l-333 -306h187v-262l223 -216h-189v-700h-307v700h-170z" />
<glyph unicode="?" horiz-adv-x="1707" d="M179 1132q0 20 13.5 34t33.5 14t34.5 -14t14.5 -34t-14.5 -34.5t-34.5 -14.5t-33.5 14.5t-13.5 34.5zM212 952q0 13 8.5 21.5t21.5 8.5t21.5 -8.5t8.5 -21.5t-8.5 -22.5t-21.5 -9.5t-21.5 9.5t-8.5 22.5zM219 291q0 17 11.5 29t28.5 12t29 -12t12 -29t-12 -29t-29 -12 t-28.5 12t-11.5 29zM230 63q0 18 12.5 30.5t29.5 12.5q18 0 30.5 -12.5t12.5 -30.5q0 -17 -12.5 -29.5t-30.5 -12.5q-17 0 -29.5 12.5t-12.5 29.5zM251 693q0 124 47 234t128.5 191.5t190.5 129t233 47.5q83 0 159.5 -21.5t143.5 -61t121.5 -94t93.5 -121.5t60.5 -144 t21.5 -160t-21.5 -160t-60.5 -144t-93.5 -122t-121.5 -94.5t-143.5 -61t-159.5 -21.5q-124 0 -233 47.5t-190.5 129t-128.5 191.5t-47 235zM277 1297q0 25 17.5 42.5t42.5 17.5q26 0 43 -17.5t17 -42.5t-17 -43t-43 -18q-25 0 -42.5 18t-17.5 43zM310 693 q0 -113 42.5 -211.5t116 -172.5t171.5 -116.5t210 -42.5t210.5 42.5t171.5 116.5t115.5 172.5t42.5 211.5q0 112 -42.5 210.5t-115.5 172t-171.5 116t-210.5 42.5t-210 -42.5t-171.5 -116t-116 -172t-42.5 -210.5zM338 173q0 23 15.5 39.5t38.5 16.5t39 -16.5t16 -39.5 t-16 -39t-39 -16t-38.5 16t-15.5 39zM394 607h132q13 -39 36 -77t53 -70t66.5 -56t75.5 -37v-133q-79 16 -139.5 44.5t-105 73t-73.5 107.5t-45 148zM394 788q32 149 118.5 240t244.5 122v-132q-39 -13 -75.5 -33.5t-66.5 -49t-53 -65.5t-36 -82h-132zM578 693 q0 57 21.5 106.5t58.5 87t86.5 59.5t105.5 22q57 0 106.5 -22t87 -59.5t59 -87t21.5 -106.5t-21.5 -107t-59 -87.5t-87 -59t-106.5 -21.5q-56 0 -105.5 21.5t-86.5 59t-58.5 87.5t-21.5 107zM637 693q0 -44 17 -83t46 -68t67.5 -46t82.5 -17t83 17t68 46t45.5 68t16.5 83 t-16.5 82.5t-45.5 67.5t-68 45.5t-83 16.5t-82.5 -16.5t-67.5 -45.5t-46 -67.5t-17 -82.5zM954 234v133q40 13 74.5 37t62.5 56t49.5 70t34.5 77h132q-15 -85 -47 -148t-77 -107.5t-103 -73t-126 -44.5zM954 1018v132q136 -31 229 -122.5t124 -239.5h-132 q-26 91 -83.5 147.5t-137.5 82.5zM1224 85q0 35 25 60t60 25q17 0 32.5 -6.5t27 -18t18 -27t6.5 -33.5t-6.5 -33.5t-18 -27t-27 -18t-32.5 -6.5q-35 0 -60 25t-25 60zM1404 274q0 28 19 47.5t47 19.5q27 0 46.5 -19.5t19.5 -47.5t-19.5 -47t-46.5 -19q-28 0 -47 19t-19 47z M1409 519q0 16 11.5 27.5t27.5 11.5q17 0 28.5 -11.5t11.5 -27.5q0 -17 -11.5 -28t-28.5 -11q-16 0 -27.5 11t-11.5 28zM1441 1031q0 12 9 20.5t20 8.5q12 0 20.5 -8.5t8.5 -20.5q0 -11 -8.5 -19.5t-20.5 -8.5q-11 0 -20 8.5t-9 19.5z" />
<glyph unicode="@" horiz-adv-x="1707" d="M115 994.5q0 8.5 23 15.5l215 56q24 6 46 27.5t27 45.5l56 216q7 24 15.5 24t14.5 -24l57 -216q6 -24 27 -45.5t45 -27.5l216 -56q23 -7 23 -15.5t-23 -15.5l-216 -56q-24 -7 -45 -28t-27 -45l-26 -98q-19 -22 -36 -45t-32 -49l-49 192q-5 24 -27 45t-46 28l-215 56 q-23 7 -23 15.5zM432 251.5q9 -54.5 43.5 -90t103.5 -36.5q38 0 81 27t85 81l12 12v-5.5t-2 -5.5q0 -19 5.5 -38t16 -34.5t26.5 -25t36 -9.5q48 0 106.5 44t141.5 137q46 51 73 94q2 8 4.5 12.5t2.5 8.5q0 16 -12 16q-7 0 -10.5 -2t-8.5 -8q-11 -12 -29 -34.5t-47 -51.5 q-99 -99 -142 -99l-7 1q-16 3 -20.5 15t-4.5 26q0 18 4.5 34t9.5 32q37 112 86.5 218.5t95.5 214.5q26 59 53 115.5t48 116.5q8 21 13.5 44.5t5.5 45.5q0 38 -21.5 60t-52.5 29l-6 1q-7 0 -6.5 -9t-4.5 -35q-4 -18 -9.5 -35.5t-11.5 -35.5q-25 -82 -62 -156.5t-73 -147.5 l-15 -28v11q-4 21 -16.5 37.5t-29.5 28t-38 17.5t-42 6q-29 0 -56 -8.5t-51.5 -22.5t-47.5 -32.5t-43 -38.5q-53 -52 -93 -118.5t-61 -130.5q-19 -62 -29 -127.5t-1 -120zM569 324q1 50 13 100t32.5 98t48.5 92.5t61 83.5q10 12 21 24t23 22t26 16.5t31 6.5q57 0 55 -67 q0 -44 -9.5 -86t-25 -83.5t-36 -81t-42.5 -76.5q-20 -37 -47 -66.5t-50 -49.5t-46 -20q-26 0 -41.5 24.5t-13.5 62.5zM700 1233.5q0 3.5 9 5.5l80 22q9 2 17 9.5t12 17.5l20 81q2 9 5.5 9t5.5 -9l22 -81q1 -10 9.5 -17.5t16.5 -9.5l81 -22q9 -2 9 -5.5t-9 -5.5l-81 -22 q-8 -2 -16.5 -10t-9.5 -16l-22 -81q-2 -10 -5.5 -10t-5.5 10l-20 81q-4 8 -12 16t-17 10l-80 22q-9 2 -9 5.5zM1125 557q0 5 14 9l128 34q14 2 26.5 15t16.5 27l34 128q3 14 8 14t9 -14l33 -128q4 -14 16.5 -27t26.5 -15l128 -34q14 -4 14 -9t-14 -9l-128 -34 q-14 -3 -26.5 -15.5t-16.5 -26.5l-33 -128q-4 -15 -9 -15t-8 15l-34 128q-4 14 -16.5 26.5t-26.5 15.5l-128 34q-14 4 -14 9z" />
<glyph unicode="A" d="M213 168q75 16 130 37t97.5 53.5t78 79t71.5 113.5v13t-1 13q0 66 9 132q7 58 22.5 111.5t40 100t57.5 83t75 59.5q14 -4 30.5 -10.5t33.5 -14.5l71 -33l63 -29q14 -7 25 -11.5t18 -6.5q-4 -16 11.5 -32.5t62.5 -26.5q19 -4 47.5 -7t63 1.5t74.5 20.5t81 50 q13 -17 24 -34l22 -34l38 -61l35 -57q-31 -26 -64 -48.5t-69 -39.5q-31 -16 -66 -27.5t-77 -19.5q-32 -7 -71 -7q-52 0 -104 13v-20t-1 -16l-3 -42q62 -28 124 -67.5t117.5 -87.5t100 -103t70.5 -115l-56 -41l-42 -32l-46 -36l-65 -50q-78 139 -174 218t-225 109 q-37 -45 -87.5 -92.5t-114.5 -91t-143 -80.5t-173 -61q-11 20 -20.5 37.5t-16.5 31.5l-27 53q-12 25 -22.5 49.5t-24.5 55.5zM840 1214q0 44 18 82.5t49 67.5t72 46t88 17t89 -17t73.5 -46t50 -67.5t18.5 -82.5t-18.5 -82t-50 -66.5t-73.5 -45t-89 -16.5t-88 16.5t-72 45 t-49 66.5t-18 82z" />
<glyph unicode="B" d="M51 117l117 108v170l375 -346h-185l-116 -108zM147 688v266q136 0 262.5 -33.5t237.5 -94t202 -145t156.5 -187.5t101.5 -220.5t36 -244.5h-289q0 132 -51.5 252.5t-153.5 216.5q-100 93 -229.5 141.5t-272.5 48.5zM147 1161v269q206 0 398 -50.5t359 -142.5t305 -220 t236.5 -284t153 -334t54.5 -370h-287q0 155 -44 299.5t-124 270t-191.5 229t-247 178t-290.5 115t-322 40.5z" />
<glyph unicode="C" d="M167 1187q0 30 24 35q13 4 30.5 3t33.5 1t27.5 10t14.5 30q4 28 -1.5 49.5t-7 39.5t8 33.5t43.5 30.5q19 9 35 9q9 0 15 -3q19 -8 29.5 -31.5t13.5 -58.5q1 -11 1 -21t1 -21v-14t-1 -15q42 9 82 9q33 0 65 -6q58 -10 111.5 -35.5t102 -60.5t90 -75.5t75.5 -80.5t59.5 -75 t41.5 -59q23 5 45.5 7.5t42.5 2.5q81 0 151.5 -28.5t123.5 -78t83.5 -115t30.5 -139.5t-30.5 -139t-83.5 -114.5t-123.5 -78t-151.5 -28.5h-8q-50 -101 -155 -166q-104 -63 -232 -63q-89 0 -166.5 31t-135 84.5t-91 125.5t-33.5 154q0 66 21 125t59.5 107.5t91.5 85 t116 57.5v10.5t1 10.5q0 90 -16 161q-17 82 -48 140.5t-73 87.5q-38 26 -77 26h-12q-25 -2 -47.5 -3t-43.5 -2h-16q-32 0 -57 3q-31 4 -47 16q-13 10 -13 26zM418 336q0 -65 26.5 -121.5t72 -98.5t107 -66.5t130.5 -24.5q47 0 90 11.5t80.5 32.5t68 50t51.5 65h-2 q10 16 18 32.5t13 33.5h2q12 39 12 86q0 104 -65 184t-164 111v-2q-17 5 -35.5 8.5t-40.5 5.5v2q-10 2 -28 2q-69 0 -130.5 -24.5t-107 -67t-72 -99t-26.5 -120.5zM492 1204q47 -34 82 -77.5t59.5 -90.5t39.5 -94.5t24 -88.5t13 -73.5t5 -48.5h39q35 0 71 -6q66 92 176 137 q-60 87 -117 148.5t-109.5 101.5t-100.5 61t-88 27q-38 5 -67 6q-8 0 -14.5 -0.5t-12.5 -1.5zM580 457q0 29 21.5 48t51.5 19q31 0 52.5 -19t21.5 -48t-21.5 -49.5t-52.5 -20.5t-52 20.5t-21 49.5zM903 707q125 -44 200 -143q77 -100 77 -228q0 -51 -13 -94q61 3 114.5 26.5 t93.5 62t63.5 89.5t23.5 110q0 60 -25 112.5t-67.5 92t-99.5 62t-121 22.5q-76 0 -139.5 -30.5t-106.5 -81.5z" />
<glyph unicode="D" d="M51 513v25q2 49 17.5 102t51.5 104t96 96.5t151 80.5l-95 178l230 24l78 -145q6 0 12 2q75 13 143 19t130 7h17q57 0 109.5 -3.5t100.5 -10.5q103 -14 184.5 -39.5t142.5 -56.5q145 -72 234 -180l-735 -199l-170 324q50 8 91 8h9h19q28 -1 55 -3.5t53 -6.5l72 -125 l249 61q-45 26 -93.5 48.5t-102.5 39.5q-46 14 -99 24.5t-114 15.5q-29 3 -58 3q-96 0 -198 -28l203 -383l-736 -199q-48 114 -47 217zM284 585q0 -33 13 -62l246 62l-111 211q-39 -24 -65.5 -47.5t-43 -47t-25 -45.5t-11.5 -43q-3 -14 -3 -28z" />
<glyph unicode="E" d="M184 502l127 -53q-22 81 -22 161q0 11 0.5 22.5t1.5 22.5q2 43 13 90t34.5 92t61.5 86.5t94 75.5q10 14 18.5 30.5t15.5 35.5q11 29 19 70q3 19 2 34q0 25 -4 48l143 -70q59 39 105 82q42 39 75 90t37 111q42 -23 82 -56t82 -76q36 -36 76 -84t81 -109.5t82.5 -138 t80.5 -169.5q26 11 49 30q20 16 37.5 38t27.5 53q15 -111 15 -212q0 -148 -31 -272q-15 -60 -39.5 -119.5t-60.5 -114t-85.5 -101t-114.5 -81t-147.5 -54t-185.5 -19.5l-60 -3q-127 0 -239 44q-59 23 -117.5 62t-108.5 100t-88 148t-57 206zM433 520q0 -86 20 -164 q12 -54 38 -106.5t71.5 -94t111.5 -67t157 -25.5q9 -1 19 -1q3 0 7 -1q6 0 13 1q75 0 142 26q35 14 70.5 37t66 59.5t53.5 88.5t33 124l-76 -30q14 50 14 94q0 8 -0.5 15.5t-1.5 15.5q-2 27 -9 54.5t-21.5 53.5t-36.5 50.5t-55 45.5q-12 17 -21 41q-8 18 -12 41t2 49 l-86 -43q-19 11 -34.5 23.5t-29.5 26.5q-25 23 -44 54.5t-23 67.5q-23 -14 -48 -34t-51 -45q-43 -43 -92.5 -116.5t-97.5 -185.5q-7 4 -14 9t-15 10q-12 10 -24.5 22.5t-16.5 30.5q-9 -68 -9 -127z" />
<glyph unicode="F" d="M479 686v252h162v205q0 7 1 22t3 38q5 48 35 96q31 51 100 91q70 40 201 40h246v-261h-180q-28 0 -50 -21q-22 -19 -22 -38v-172h252l-9 -95l-10 -81l-12 -76h-223v-743h-332v743h-162z" />
<glyph unicode="G" d="M415 224q0 39 10 75q16 66 67 120q51 52 135 60q-36 13 -55 52q-20 41 -20 90q0 48 14 90q15 42 48 59q-86 51 -131 123t-53 149q-1 9 -1.5 18t-0.5 19q0 59 21 116q27 75 85.5 131t149.5 85q58 19 132 19q18 0 36.5 -1.5t38.5 -3.5q39 -4 86 -16t98 -19q14 -2 28 -3 t28 -1q24 0 50 3q55 6 107 36v-223q-25 -4 -47 -10t-49 -10q19 -48 19 -104v-9.5t-1 -9.5q-3 -45 -18.5 -91t-41 -86.5t-60.5 -73t-78 -50.5q-31 -12 -68 -18.5t-69.5 -16t-55 -26.5t-24.5 -50q-2 -24 13 -43.5t41 -35t60.5 -28t72.5 -22.5l100 -29q48 -14 88 -29.5 t59 -35.5q31 -34 43 -84q10 -37 10 -81v-10.5t-1 -10.5q-3 -54 -22.5 -105t-54.5 -86q-25 -25 -63 -44.5t-84.5 -32.5t-99.5 -20t-108 -8h-13q-34 0 -66.5 2.5t-64.5 7.5q-70 11 -128.5 34.5t-95.5 60.5q-46 46 -59 115q-3 16 -4.5 31t-2.5 31zM651 259q0 -26 13 -56 q10 -29 41.5 -46.5t74.5 -24.5l28 -4h17h12h16.5t16.5 1q48 4 85.5 19.5t61.5 41.5q20 23 20 56q0 8 -1 12q-4 39 -29.5 62.5t-64.5 32.5q-27 7 -62 7h-11t-11 -1q-47 -3 -88 -13q-75 -18 -103 -46q-16 -15 -16 -41zM675 1079q1 -52 36 -121q21 -17 51 -24.5t62.5 -7.5 t63.5 8.5t52 23.5q34 64 34 115q0 7 -0.5 13t-1.5 12q-11 57 -52 86.5t-95 32.5h-7q-49 0 -87 -26q-41 -29 -53 -86q-3 -14 -3 -26z" />
<glyph unicode="H" d="M203 1198v27q28 48 86 64q58 18 131 30l97 15q17 2 33 3.5t30 1.5h13t12 -1q40 -3 71 -20.5t45 -55.5q6 -16 8 -38t-8 -38q-9 -14 -28 -20t-40 -10.5t-39.5 -10t-25.5 -17.5q-6 -11 -6 -38v-58q0 -22 -0.5 -42t-1.5 -40l-5 -76l-3 -75v-16q0 -32 3 -68q0 -6 1.5 -18.5 t3.5 -25t5.5 -22.5t8.5 -12q8 -4 18 -4t19.5 2.5t19 5.5t15.5 4l87 19q40 8 79.5 15t81.5 12l96 11q6 1 14 2t19 2l43 2q22 1 40.5 4t24.5 9q15 12 15 36.5t-4 47.5l-5 26q-4 34 -6 64t-2 58.5t2 57.5t6 62q2 12 4 28.5t3 33.5t-1 31t-8 20q-11 10 -36 12q-26 1 -36 6 q-19 6 -37 18.5t-31.5 30t-19.5 39t0 45.5q4 12 21.5 22.5t34.5 18.5q55 27 117 36.5t128 21.5h111q14 0 30.5 -16.5t30 -39t20.5 -47.5t1 -41q-4 -10 -19.5 -18.5t-33.5 -16t-34.5 -14.5t-23.5 -14q-12 -14 -16 -41t-5 -59q-1 -16 -1 -32.5t1 -33.5t1 -33.5v-30.5v-614v-31 v-36q0 -17 2 -30.5t6 -17.5q8 -8 32 -6q27 2 38 -2q14 -4 29.5 -18.5t24.5 -32.5q11 -21 11 -41.5t-10 -36.5q-3 -5 -11 -9t-18.5 -8t-22.5 -8t-22 -10q-46 -19 -122 -39q-62 -15 -119 -15h-13t-12 1q-18 2 -41.5 14.5t-43.5 31t-32 40t-8 41.5q2 16 15.5 25.5t35.5 19.5 q7 2 17 3t23 2q27 2 38 11q8 8 9 24.5t-0.5 37t-4 42t-2.5 38.5q0 20 1 36.5t-1 41.5q0 9 0.5 20.5t0.5 22t-0.5 19t-2.5 11.5q-7 7 -28.5 7.5t-47 -1t-49.5 -4t-35 -2.5l-81 -11q-27 -4 -52 -8t-49 -9t-49 -11.5t-53 -15.5l-64 -17q-42 -11 -55 -30q-6 -8 -8 -23t-2 -33 t1.5 -38t3.5 -38l5 -42q1 -8 0.5 -18t-2.5 -23q-4 -24 4 -35q6 -6 17.5 -9t23.5 -3h23q8 0 18 -2q23 -8 49 -37q23 -26 23 -54q0 -36 -39 -58q-25 -15 -60 -26t-72.5 -18.5t-74 -12t-64.5 -5.5q-15 -1 -25 -1.5t-18 -0.5t-16.5 1t-18.5 3q-33 10 -64 43q-28 28 -28 56 q0 29 32 46l54 25q10 4 22.5 5t16.5 7q10 10 7 47q-2 19 -3.5 35.5t-3.5 30.5q-10 85 -13 178t-5 180q0 26 -0.5 49.5t-1.5 45.5l-4 87q-2 43 -3 88t-1 99v33v35q0 17 -1.5 30.5t-5.5 18.5q-5 5 -14 7.5t-19.5 4.5l-21 4t-18.5 6q-31 10 -48.5 30.5t-33.5 55.5z" />
<glyph unicode="I" d="M52 826q0 38 18 77q38 87 135 137q65 31 135 31q31 0 63 -6l56 -16l-17 20q-39 65 -39 130q0 23 5 48q18 89 88 129q39 19 87 19q25 0 48 -4q85 -23 141 -99l25 -39l10 -14l6 14v4q0 47 40 84t87 60q63 29 126 29q35 0 73 -9q104 -26 153 -100l8 -10q36 -56 36 -117 q0 -38 -13 -76l-27 -53l76 14q27 2 53.5 1t51.5 -5q46 -11 81 -31q37 -19 37 -53v-4q0 -27 14 -57q8 -18 7 -35q0 -16 -4 -29q-39 -88 -142 -133q18 -8 39 -16t37 -19q18 -13 35 -31l29 -36l12 -17q26 -44 31 -91q1 -5 1 -10v-10q0 -36 -12 -73q-33 -100 -124 -145 q-53 -27 -111 -27q-42 0 -90 14q-38 7 -74 31q7 -40 7 -76t-7 -69q-22 -69 -82 -101q-35 -22 -79 -22q-24 0 -54 8q-35 8 -65.5 28.5t-65.5 55.5l-2 -12q-33 -100 -127 -146q-25 -11 -49.5 -17.5t-50.5 -7.5q-5 -1 -10.5 -1h-10.5q-43 0 -84 10q-68 17 -102 47l-28 32 q-13 14 -25 31q-30 54 -32 113q0 38 13 74l12 29l41 61q-42 -11 -83 -13h-8q-17 0 -35 1.5t-35 5.5q-20 2 -38 10t-32 18q-13 7 -23 19l-18 22q-22 34 -22 73q0 18 6 38q10 25 24.5 47.5t38.5 42.5l35 27l-16 4q-62 7 -105 45q-14 10 -28.5 24.5t-24.5 30.5q-26 46 -26 91z M151 827q2 -27 15 -49q28 -48 88 -55l22 -4l332 37q7 32 37 63l-203 135l-63 23q-11 2 -21 3.5t-20 0.5q-43 0 -86 -20q-35 -12 -56.5 -36t-33.5 -53q-5 -11 -7.5 -22.5t-3.5 -22.5zM473 178q0 -38 21 -72q28 -52 98 -69q22 -6 45 -6q41 0 84 20q31 12 52.5 35t33.5 51l6 21 v84q0 61 -11 118t-16 111q-43 5 -75 23l-193 -209q-29 -26 -35 -60zM504 1223q-1 -11 -1 -21q0 -18 4 -34q7 -26 21 -56l13 -22l204 -203l35 10l-47 248q-4 18 -10 34.5t-16 32.5q-40 75 -105 91q-15 7 -27 6q-14 0 -24 -9q-43 -22 -47 -77zM684 676q0 -58 45 -98 q46 -41 109 -41q59 0 106 41q45 39 45 98q0 55 -45 100q-43 37 -106 37q-62 0 -109 -37q-23 -23 -34 -47t-11 -53zM891 471l35 -182l26 -70q41 -79 105 -92q5 -1 9.5 -1h8.5h9q12 1 26 9q39 15 45 76q1 4 1 8v9q0 45 -28 91l-12 21l-59 68l-96 90l-31 -15zM895 1208l2 -84 l23 -237q18 -8 34.5 -16.5t32.5 -20.5l207 231q5 7 9.5 15t8.5 16l17 33l6 45q0 42 -18 74q-32 53 -103 69q-29 8 -53 8q-41 0 -78 -18q-31 -16 -53.5 -39.5t-32.5 -54.5zM1040 571l242 -182q26 -26 61 -33q28 -9 55 -9q38 0 75 20q64 27 77 90l9 41q0 55 -35 90 q-14 25 -37 39t-49 22l-23 2l-92 -2l-260 -20l-6 -25zM1047 778l4 -6l6 -16l282 32q20 4 40 7.5t36 11.5q83 33 109 90l4 21l-10 28q-18 39 -80 45l-27 2q-49 0 -94 -18l-29 -10l-231 -177z" />
<glyph unicode="J" d="M152 1126q0 28 6 48q8 60 31 103.5t55.5 73.5t70.5 48t76 26q48 6 85 7h9q32 0 59 -4q30 -4 54.5 -11.5t46.5 -17.5q56 -27 93.5 -66.5t69.5 -92.5l48 -79q37 81 83 142t112 92q26 11 51 19t51 12q21 4 48 6t59 2h30q76 -20 136.5 -58.5t95.5 -107.5q34 -59 34 -130v-9.5 t-1 -9.5q-2 -60 -25.5 -124t-62 -130t-90 -132t-109.5 -129q-76 -84 -143 -171.5t-121 -173t-92 -166t-54 -148.5q-2 3 -4.5 9t-6.5 15l-16 40l-15 40l-9 23q-16 37 -31.5 65.5t-38.5 64.5l-56 86l-89 130q-23 33 -52.5 71t-64.5 80l-71 84l-68 84q-33 42 -55.5 77.5 t-42.5 62.5q-63 90 -78 172q-8 46 -8 77z" />
<glyph unicode="K" d="M123 406h438v350v14q0 43 -17.5 80t-47 64.5t-69.5 43t-85 15.5t-85 -15.5t-69.5 -43t-47 -64.5t-17.5 -80q0 -4 1 -7t1 -7h-2v-350zM182 1149q0 -61 47 -106q47 -44 113 -44q68 0 115 44t47 106q0 61 -47 105t-115 44q-66 0 -113 -44t-47 -105zM465 252h534v430h-2 q2 6 2 16q0 51 -21 96.5t-57.5 79t-85.5 53t-104 19.5t-103.5 -19.5t-84.5 -53t-57 -78.5t-21 -97v-16v-430zM537 1161q0 -76 56 -129t138 -53q81 0 139 53q58 52 58 129t-58 129q-58 53 -139 53q-82 0 -138 -53t-56 -129zM854 -55h729v585h-2q1 5 1.5 10.5t0.5 12.5 q0 71 -28.5 132.5t-78 107.5t-116 72t-141.5 26q-76 0 -142.5 -26t-116 -72t-78 -107.5t-28.5 -132.5v-23v-585zM950 1186q0 51 21 96t57.5 79t85.5 53.5t105 19.5q55 0 103.5 -19.5t84.5 -53.5t57 -79t21 -96q0 -52 -21 -97.5t-57 -79.5t-84.5 -53.5t-103.5 -19.5 q-56 0 -104.5 19.5t-85.5 53.5t-58 79.5t-21 97.5z" />
<glyph unicode="L" d="M51 683q0 92 37.5 173.5t102.5 142t152 96t185 35.5q151 0 265.5 -71.5t177.5 -205.5q1 -5 17 -38l37 -80l48 -106l53 -114q16 -36 32.5 -64.5t38.5 -48.5t52.5 -31.5t75.5 -13.5h15q80 0 129 40q53 43 55 108q0 30 -11.5 50.5t-32.5 35.5t-51.5 26t-68.5 23 q-142 44 -213 97q-72 55 -72 157q0 51 17.5 92.5t51 71t81.5 45.5t108 16q154 0 232 -129l-103 -49q-29 39 -61 54.5t-74 15.5q-55 0 -91 -32t-36 -81q0 -26 9 -44.5t25.5 -32t39.5 -23t52 -18.5l85 -25q62 -18 107.5 -40t75.5 -51.5t44.5 -68.5t14.5 -92 q0 -57 -24.5 -105.5t-67.5 -83t-101.5 -54t-126.5 -19.5q-125 0 -198 55q-73 56 -119 156l-17 36l-153 326q-38 87 -124 139q-87 54 -194 54q-71 0 -133.5 -25.5t-110 -70t-75 -103.5t-27.5 -125q0 -67 28 -126.5t75 -103.5t110 -70t133 -26q51 0 97.5 12.5t86 35.5t71.5 55 t53 71l63 -133q-66 -75 -161.5 -118t-209.5 -43q-98 0 -185 35t-152 95t-102.5 141.5t-37.5 174.5z" />
<glyph unicode="M" d="M51 290v786q0 23 16.5 38.5t41.5 15.5h1488q23 0 40.5 -15.5t17.5 -38.5v-786q0 -23 -17.5 -38t-40.5 -15h-1488q-25 0 -41.5 15t-16.5 38zM188 680q1 -44 17 -89q6 -2 10 -2q16 0 30.5 5t22.5 9q0 30 -4 47q-4 11 2 27q10 -12 18.5 -25.5t18.5 -25.5q4 -10 10 -17.5 t11 -15.5h10q14 0 24 2q6 0 12.5 1t14.5 1l4 -2q10 16 11 38.5t1 47.5q0 20 2.5 40.5t12.5 37.5q12 -48 26.5 -94.5t34.5 -94.5q22 5 31 9q11 4 18 4q2 0 6 -4q-12 31 -20 64.5t-14 68.5q-10 43 -21.5 85t-27.5 77q-2 0 -4.5 -1.5t-4.5 -1.5q-6 0 -11 -1t-9 -1 q-6 2 -11.5 -2t-11.5 -4h-2q-2 0 -2 4t-2 4q-27 -35 -39 -76t-24 -89q-6 10 -12.5 22t-12.5 23q-10 20 -22.5 40.5t-24.5 36.5h-12q-16 0 -28.5 -2t-25.5 -6l-2 -41v-51v-48zM546 655q0 -27 7 -51q10 -36 45 -48q9 -4 37 -4q23 0 44.5 4t37.5 10q-6 11 -23 13q-12 0 -26 -5 q-15 -4 -27 -4h-6q-14 2 -25 17q-9 13 -9 33q0 8 1.5 16t3.5 18q11 -4 27 -4h31h4q4 0 7 -1t7 -1q6 21 6 46v9.5t-1 9.5q-3 35 -9 58l-19 6q-12 6 -30 6h-8q-15 -2 -28 -11.5t-22.5 -24.5t-15.5 -34t-8 -38q-1 -5 -1 -10v-10zM602 679h8q4 0 6 -2q2 0 4.5 -1t6.5 -1l6 2 q6 26 -4 59q-24 -27 -25 -55zM713 618q3 -15 13 -26t24.5 -18.5t31.5 -11.5t35 -4q40 2 62 19q-2 9 -21 16q-12 -19 -41 -21q-30 0 -47 23q-16 19 -4 47q10 -2 21.5 -3t21.5 -1q8 0 15 1t14 1q-2 23 0 40t6 34q4 14 5 29.5t3 31.5q-26 19 -61 23q-78 -58 -78 -174v-6z M768 667q4 30 16 49q4 7 9 20l2 8l2 -8q4 -16 3 -37.5t-7 -35.5h-9q-12 0 -16 4zM868 685q10 -6 25.5 -7t32.5 -1l12 -4q2 -12 2 -24.5t2 -26.5q2 -18 3 -37t1 -39h17q6 0 13 1t15 1q0 16 -1 29.5t-1 27.5q0 17 -0.5 35.5t0.5 38.5q15 4 33 4q33 0 47 8q-12 6 -18 17 q-10 10 -18.5 16t-20.5 10q-4 0 -4 -10q0 -4 -1 -9t-10 -5h-6v2q2 20 1 41.5t-3 46.5q-4 35 -4 68.5t6 62.5q-8 10 -21.5 15t-37.5 5h-2q-2 0 -3 3t-3 6q-10 -27 -10 -61v-16q2 -20 4 -40.5t6 -42.5q4 -25 6 -47.5t-2 -44.5h-21q-8 2 -16 2q-12 0 -19 -6q-4 -7 -4 -19z M1084 717v-9q0 -9 1 -19q0 -83 29 -112q15 -16 41 -17q18 0 39 8l4 6l14 18q5 7 17 15q1 7 10 17q12 20 21.5 41.5t5.5 54.5l-22 17q-10 8 -25 10h-5q-2 0 -3 -2.5t-3 -0.5v-18q0 -18 -1.5 -39t-7 -40.5t-16.5 -34.5t-30 -21q-6 45 -6 92q-1 6 -1.5 12t-0.5 11v18 q-8 4 -15 6q-20 14 -43 17q-3 -16 -3 -30zM1284 593q16 -18 21.5 -46t9.5 -56q4 -23 6 -44.5t10 -37.5q4 0 9.5 -1t13.5 -1h14q8 0 13.5 -0.5t9.5 -1.5q-18 40 -18 113v20.5t1 21.5q48 10 85.5 38t58.5 67q11 24 16 60q1 4 1 11q0 33 -19 68q-40 22 -73 22h-3q-40 0 -74 -34 q-15 -17 -25.5 -42t-16.5 -52t-9.5 -53t-5.5 -44q-4 0 -6 -2zM1376 615q29 8 51.5 30t32.5 48q6 16 8 40v5q0 22 -14 45l-2 2l-2 -2q-18 -15 -30 -34.5t-20.5 -41.5t-14 -45.5t-9.5 -46.5z" />
<glyph unicode="N" d="M432 477q0 42 33 74q32 31 80 31t80 -31q34 -31 34 -74q0 -4 -1 -9t-1 -9l140 -94v313l-195 133q-23 -14 -57 -14q-47 0 -80 30q-33 31 -33 74q0 22 9 42t24 34t35.5 22.5t44.5 8.5q48 0 80 -31q34 -31 34 -76q0 -4 -1 -8t-1 -8l140 -97v295l-197 134q-28 -13 -55 -15 q-24 0 -44.5 8.5t-35.5 22.5t-24 33.5t-9 42.5q0 43 33 73q32 31 80 31t80 -31q34 -30 34 -73q0 -4 -1 -10.5t-1 -10.5l140 -94v236h110v-447l142 94q-2 8 -2 17q0 43 33 73q34 31 81 31q48 0 80 -31q33 -30 33 -73q0 -23 -9 -42.5t-24 -33.5t-35.5 -22.5t-44.5 -8.5 q-33 0 -59 17l-195 -132v-292l142 94q-2 6 -2 12q0 44 33 76q34 31 81 31q24 0 44.5 -8.5t35.5 -22.5t24 -34t9 -42q0 -43 -33 -74q-33 -30 -80 -30q-33 0 -61 16l-193 -131v-311l142 94q-2 6 -2 12q0 42 33 74q34 31 81 31q48 0 80 -31q33 -32 33 -74q0 -23 -9 -42 t-24 -33.5t-35.5 -22.5t-44.5 -8q-36 0 -61 16l-193 -129v-102h-4h-96h-10v313l-195 131q-30 -14 -57 -14q-48 0 -80 31q-33 31 -33 75z" />
<glyph unicode="O" d="M51 551q0 35 9 70q29 108 128 200q100 93 253 155q153 64 343 79v235l244 146v-387q115 -14 232 -49t237 -99l156 98v-274h-451l137 80q-82 35 -160.5 57.5t-150.5 34.5v-674l-244 -145q-149 25 -263.5 58.5t-198.5 78.5q-166 88 -229 193q-42 70 -42 143zM296 549 q0 -61 38 -119q47 -72 157.5 -128t292.5 -79v684q-107 -8 -192.5 -38t-148 -74.5t-99 -99.5t-45.5 -113q-3 -17 -3 -33z" />
<glyph unicode="P" d="M72 113l309 1325h702q75 0 155 -27q79 -27 136.5 -82t82.5 -140q13 -40 13 -91q0 -49 -14 -111q-25 -102 -79 -183t-129.5 -137.5t-170 -86t-200.5 -29.5h-293l-101 -438h-411zM231 -51l19 71h344l102 441h293q105 0 200 29.5t171.5 85t131 136.5t77.5 183q12 57 12 105 q0 9 -0.5 18t-1.5 17q-6 60 -29 114q48 -54 71 -136q10 -36 10 -82q0 -52 -13 -108q-25 -102 -79 -183t-129.5 -137t-170.5 -86t-201 -30h-295l-100 -438h-412zM643 805h133l66 272h202q12 0 27 -4q-14 42 -49.5 68t-89.5 26h-201zM844 805q39 2 76 16.5t67 39t52 57 t32 69.5q2 8 2 17h-182z" />
<glyph unicode="Q" d="M102 717v28q8 141 66.5 249t150.5 194q91 85 218 147.5t301 83.5q73 9 154 9q45 0 95 -3q189 -12 315.5 -86t176.5 -217q25 -71 25 -160q0 -14 -0.5 -28.5t-1.5 -28.5q-5 -62 -14.5 -122t-23.5 -120t-27 -119t-24 -120q-20 -118 -38.5 -234.5t-40.5 -248.5h-211h-9 q-52 0 -88.5 12.5t-60 34t-36 50.5t-16.5 63q-3 23 -3 47.5t3 49.5q5 51 15 100.5t21 92.5q-20 -12 -38.5 -25.5t-38 -28t-40.5 -27.5t-45 -23q-72 -29 -142 -35q-42 -3 -81 -3q-110 0 -198 24q-123 34 -205 101.5t-124 164.5q-35 83 -35 173v5zM595 696q15 -70 81 -106 q19 -10 39 -17t42 -11q14 -2 27 -4h17h11h16t16 1q43 4 81.5 15.5t63.5 27.5q51 34 89 103q37 69 51 146q6 34 6 67q0 40 -9 78q-17 70 -71 104q-16 10 -37 17t-49 11q-38 4 -66 6h-13.5t-12.5 -1q-48 -4 -81.5 -17.5t-60.5 -32.5q-47 -33 -86 -101t-54 -141q-9 -37 -9 -73 t9 -72z" />
<glyph unicode="R" d="M51 846q0 37 16.5 70.5t43.5 60.5q29 27 63 42t76 15h2h16q40 0 78 -12q36 -13 64 -33q4 2 9 4t11 4q87 48 184.5 69t196.5 28q0 45 8 90.5t33 87.5q20 35 51.5 59.5t73.5 34.5h2q31 6 61 6q79 0 162 -33q33 49 92 72h2q36 10 70 10q39 0 72 -14h2q49 -18 82 -61 q32 -45 32 -94q0 -13 -2 -21q-4 -35 -20 -62.5t-41 -48.5q-56 -45 -125 -45h-23q-70 6 -118 55q-23 23 -37 51.5t-14 63.5v6q-33 12 -66 21.5t-68 9.5h-18q-58 -6 -80 -51q-18 -31 -23.5 -67t-5.5 -72q99 -6 192.5 -29t180.5 -68l2 -2q4 0 8 -4q18 13 27 17q50 32 113 32h4 q24 0 53 -6h2q60 -16 107 -63q45 -47 51 -109v-10q0 -55 -33 -100q-32 -44 -78 -66q2 -10 3 -21.5t1 -23.5q0 -118 -80 -215q-70 -86 -170 -138.5t-209 -78.5q-60 -12 -117.5 -19.5t-117.5 -7.5q-181 0 -346 62q-87 33 -163.5 85t-127.5 130q-27 42 -41 88t-14 94 q0 10 1 21.5t3 21.5q-49 27 -76 66q-36 48 -37 98zM156 846q0 -24 14 -41q11 -19 23 -27q23 45 55 83t74 71q-14 4 -26.5 8t-27.5 4h-8h-2q-38 -5 -70 -29q-29 -28 -32 -63v-6zM262 635q0 -31 8 -57q18 -63 66 -117q48 -48 108 -86l15 -7l14 -8q87 -45 184 -65.5t197 -20.5 h34q8 0 17 0.5t17 1.5q100 8 196 37t178 84q55 38 90 86q41 51 54 109q4 9 4 21v24q0 42 -14.5 79.5t-38.5 71.5q-51 66 -125 109t-156 66l-32 8l-31 8q-97 20 -193 20q-135 0 -258 -36q-82 -23 -155.5 -67t-125.5 -110q-53 -67 -53 -151zM504 717q0 -33 18 -58 q20 -25 51 -32q13 -6 31 -6q38 0 70 26q33 27 33 66v2v4q0 38 -31 63q-33 27 -72 27q-10 0 -20 -2q-27 -4 -47.5 -21.5t-28.5 -42.5q-4 -5 -4 -13v-13zM551 467q0 -12 6 -25q6 -10 18 -16q115 -72 252 -72h15q66 0 128 12.5t120 39.5q8 4 17 8t19 10q9 4 17 12q10 10 12 21 q2 6 2 10q0 7 -4 18q-6 15 -20 21q-18 8 -27 8q-12 0 -25 -6q-108 -60 -237 -62q-97 0 -178 37q-14 5 -29 19q-4 2 -9 4l-10 4q-11 4 -18 4t-18 -4h-2q-13 -5 -23 -18q-6 -11 -6 -25zM999 715q0 31 19 53q17 24 47 35q18 6 35 6q31 0 59 -16q30 -20 37 -48q6 -17 6 -30 q0 -31 -18 -56q-26 -28 -51 -32h-3q-17 -6 -28 -6q-38 0 -66 22q-29 18 -35 53v2q-2 8 -2 17zM1274 1247q0 -32 26 -55q28 -23 60 -23h6q33 0 59 23q24 21 29 55v4q0 35 -29 58q-24 24 -58 24h-3q-7 0 -12.5 -0.5t-10.5 -1.5q-30 -6 -47 -28q-20 -22 -20 -52v-4zM1384 932 q42 -33 74.5 -70.5t54.5 -85.5q15 13 25 29q12 19 12 45q0 19 -10 39q-7 13 -18 23t-25 18q-30 14 -59 14t-54 -12z" />
<glyph unicode="S" d="M51 720q0 40 16.5 75t45 61.5t66.5 42t81 15.5q77 0 132 -43q56 -43 73 -108l428 -133q31 29 73 46t91 17l63 183v10q0 51 21 96t57 79t84.5 53.5t103.5 19.5t103.5 -19.5t85 -53.5t57.5 -79t21 -96q0 -81 -50 -146q-49 -62 -128 -88l-181 -141q4 -17 4 -35 q0 -47 -18.5 -87t-51 -69t-75.5 -46t-92 -17q-86 0 -150 48q-63 48 -80 122l-444 139q-56 -39 -127 -39q-43 0 -81 15t-66.5 41t-45 61t-16.5 76zM119 720q0 -55 43 -95t102 -40q20 0 43 6l-69 22q-41 20 -56 63q-6 17 -5 32q0 26 13 49q23 41 69 53q18 5 34 5q28 0 53 -13 l45 -17q-18 33 -51.5 52.5t-75.5 19.5q-59 0 -102 -40t-43 -97zM872 413q16 -45 57 -74t95 -29q66 0 112 43t46 103q0 61 -46 104t-112 43q-16 0 -35 -4l88 -29q41 -20 56 -62q6 -17 5 -32q0 -24 -14 -49q-22 -38 -68 -52q-18 -5 -34 -5q-27 0 -53 14zM1178 886 q0 -41 16.5 -76t45 -61t66 -41t80.5 -15q42 0 80 15t66 41t44.5 61t16.5 76q0 39 -16.5 73.5t-44.5 60.5t-65.5 41t-80.5 15t-80.5 -15t-66 -41t-45 -60.5t-16.5 -73.5zM1237 884q0 57 43 97t104 40q62 0 105 -40q45 -41 45 -97t-44 -97q-43 -40 -106 -40q-61 0 -104 39 q-43 40 -43 98z" />
<glyph unicode="T" d="M346 823v211q48 16 98 36t84 46q35 29 61.5 59.5t47.5 69.5q40 72 57 189h230v-344h374v-267h-374v-381q0 -66 1 -103.5t7 -55.5q18 -41 61 -66q58 -29 123 -29q122 0 244 74v-235q-51 -23 -98.5 -38.5t-87.5 -25.5q-84 -18 -183 -18q-27 0 -50 2t-43 5t-40 8t-41 11 q-85 26 -145 74q-59 47 -82 100q-25 54 -25 158v520h-219z" />
<glyph unicode="U" d="M51 231v476l443 -113v123h-11q-79 0 -148.5 28t-121 76.5t-81.5 113.5t-30 138t30.5 138t83.5 114t123 77t150 28q73 0 137.5 -24t115.5 -65t84.5 -97t43.5 -120h13q10 64 43.5 119.5t84.5 97t116.5 65.5t138.5 24q80 0 150.5 -28t123 -77t83 -114t30.5 -138 q0 -74 -30.5 -139t-83 -113t-123 -76t-150.5 -28h-312l193 -529h-653v166zM379 1073q0 -42 31 -71t79 -29q45 0 77 29q32 30 32 71t-32 71t-77 30q-48 0 -79 -29.5t-31 -71.5zM1165 1073q0 -42 30.5 -71t78.5 -29q22 0 42 8t34.5 21.5t23 31.5t8.5 39q0 41 -32 71t-76 30 q-48 0 -78.5 -29.5t-30.5 -71.5z" />
<glyph unicode="V" d="M51 1225h340l236 -594l233 594h328l-389 -909h-350zM1321 1068q0 -63 49 -109q49 -45 117 -45q70 0 118 45q48 46 48 109q0 66 -49 109q-49 44 -117 44q-67 0 -117 -44q-49 -43 -49 -109z" />
<glyph unicode="W" d="M51 1397v30l10 3h207h162l14 -3v-28q0 -6 -9 -9.5t-17 -3.5l-49 -2q-47 -5 -47 -28q0 -20 10 -41q6 -17 14.5 -38t19.5 -45l47 -106l53 -118l54 -119l133 -291l9 -2l161 328l-14 28l-10 23q-7 12 -8 20l-111 222q-5 16 -10 24q-4 10 -9.5 19.5t-7.5 15.5l-28 58 q-15 32 -29 40.5t-39 11.5q-18 1 -18 11v30v5h280l2 -5v-30q0 -10 -10 -11l-14 -2q-21 -2 -30 -7.5t-9 -17t7.5 -29t20.5 -44.5l107 -221l117 240q8 16 11.5 26.5t3.5 17.5t-2 11t-5 8q-4 4 -16.5 10t-38.5 6l-13 2l-8 5q-2 2 -2 8v28l2 5h266l2 -5v-28q0 -12 -12 -13 q-17 -1 -28 -3t-16 -4q-10 -4 -24 -23q-6 -10 -18 -28.5t-25 -41.5l-153 -291v-2q0 -4 -4 -8l186 -387l12 -4l291 711q5 17 7 33q0 17 -11 28q-10 8 -21.5 13t-35.5 5l-31 2q-9 0 -14 5q-4 2 -9.5 3t-5.5 5v28l25 7h330l2 -7v-28q0 -12 -13 -13q-60 -1 -96 -28 q-30 -24 -47 -72l-147 -342l-62 -141l-59 -137l-53 -123l-41 -97q-26 -48 -50 -48h-3q-26 3 -48 51l-36 76l-45 100l-48 108l-47 105l-49 -105l-53 -108l-49 -100l-39 -76q-28 -51 -53 -53h-3q-24 3 -47 50l-85 196l-103 227l-104 227q-25 56 -46.5 104t-38.5 90 q-27 67 -40 78q-18 17 -76 18q-23 0 -23 11z" />
<glyph unicode="X" d="M96 395h353l278 426l-209 340h-352l207 -340zM678 528l555 906h375l-555 -906l358 -583h-375z" />
<glyph unicode="Y" d="M51 1141v93h715v-7h2l-2 -16v-70h-215l79 -101l82 -101l73 -91l57 -71l288 244h-172l-22 90h625l-5 -6h3l-46 -60h-2l-16 -24h-117q-10 -4 -19.5 -5.5t-17.5 -3.5q-9 -1 -43 -23l-77 -53l-96 -70q-36 -28 -71 -56t-62.5 -52.5t-46.5 -44.5t-23 -32q-1 -6 -1.5 -25.5 t-0.5 -46t0.5 -57.5t1.5 -58.5t2 -49.5t2 -30q10 -2 41 -2h69q37 0 70 -1t45 -3l-2 -65q-12 0 -53.5 1t-98.5 1h-114h-107q-17 0 -47 -0.5t-66 -1.5t-74 -1.5t-71 -0.5h-67l12 61h42h45.5t47.5 2.5t41.5 7.5t28.5 15q3 3 5.5 21t3.5 43t1 54t-0.5 56t-1.5 48t-2 30 q-4 8 -30 41t-64 81l-85 101l-92 101l-81 86q-19 19 -33 32t-25 20h-213zM1430 347l49 -4l51 -2l16 96l-55 2l-61 6v-98zM1444 924l2 -413l96 -9l111 404q-4 0 -20 1t-37.5 2.5t-46 3.5t-46.5 4t-38 4t-21 3z" />
<glyph unicode="Z" d="M51 766v377h105v-375h485v375h111h96v188v99h487h4h109v-291h94h111v-451h-92v-479v-100h-699h-106v555h-303v-175h79v-102h107v-281h-107h-266h-108v281h108v-178h266v178h-266v102h78v175h-188v102h-105zM156 1143v98h110v-98h-110zM266 1241v102h266v-102h-266z M532 1143v98h109v-98h-109zM752 768h112v-102v-2v-455h250v280h96v-280h242v557h90v272h-94v-178h-109h-4h-381h-106v178h-96v-270zM954 963h381v368h-381v-368z" />
<glyph unicode="[" horiz-adv-x="1707" d="M407 1311q0 26 9.5 48.5t26 39.5t39 27t47.5 10t47.5 -10t39 -27t26 -39.5t9.5 -48.5t-9.5 -48.5t-26 -39.5t-39 -27t-47.5 -10t-47.5 10t-39 27t-26 39.5t-9.5 48.5zM432 -79v1135q37 -39 76.5 -75.5t87 -64.5t104.5 -44.5t129 -15.5q70 1 126 19t102.5 45.5t85 62.5 t74.5 70v-1132h-190l-3 138v317q1 91 2 179.5t2 177.5q-20 -5 -42.5 -14t-48.5 -16q-38 -10 -81 -12.5t-85 1.5t-80.5 15t-67.5 28v-84t1 -84v-592q0 -14 -0.5 -27t-0.5 -27h-191zM1004 1311q0 26 9.5 48.5t26.5 39.5t39 27t48 10q25 0 47.5 -10t39 -27t26 -39.5t9.5 -48.5 t-9.5 -48.5t-26 -39.5t-39 -27t-47.5 -10q-26 0 -48 10t-39 27t-26.5 39.5t-9.5 48.5z" />
<glyph unicode="\" horiz-adv-x="1707" d="M0 1118l326 -267l517 315l-326 270zM24 547l497 -291l288 249l-486 294zM347 204l496 -304v578l-329 -270l-167 90v-94zM885 -100l496 304v94l-167 -90l-329 270v-578zM885 1166l326 270l517 -318l-326 -267zM919 505l288 -249l497 291l-299 252z" />
<glyph unicode="]" horiz-adv-x="1707" d="M200 575q0 94 22 171.5t56 139.5t75.5 109t80.5 80t70 52.5t45 26.5q24 13 45.5 24t43 23t45 27t51.5 37q13 11 25.5 25t22.5 33.5t17.5 47t11.5 65.5q19 -24 40.5 -48.5t42.5 -47t41 -41t37 -29.5q27 -18 54.5 -32t55.5 -26.5t56.5 -26t57.5 -31.5q12 -7 41 -27 t66.5 -53.5t77.5 -81t73 -110.5t54.5 -142.5t21.5 -176.5t-24.5 -182t-68 -156.5t-104.5 -127.5t-134 -95.5t-156.5 -60t-171.5 -20.5t-172 22.5t-158.5 63.5t-137 99.5t-108 131.5t-70.5 158t-25 179zM481 392q-3 -95 64 -142q11 -7 22.5 -13t27.5 -10t38.5 -6.5t55.5 -2.5 q36 0 75 13.5t78 33t76.5 43t71.5 43t63 32.5t50 12q17 -1 36.5 -13.5t40.5 -31t42 -40t40 -40.5t36.5 -32t30.5 -14q31 -2 51.5 13.5t46.5 53.5q13 19 22.5 43t15.5 48.5t9 47t3 39.5t-4.5 38t-15 39.5t-29 31t-45.5 12.5q-17 0 -39.5 -10.5t-48 -26.5t-52.5 -34.5 t-52.5 -34.5t-49 -27t-41.5 -11q-32 0 -71 26t-85.5 58t-101 58t-118.5 26q-51 -1 -95 -19.5t-77 -49.5t-52 -70.5t-19 -82.5zM791 70.5q-1 -8.5 7 -16.5q24 -22 55 -33t64.5 -15t67 -3t63.5 4t56.5 11.5t47.5 19t34 19t16 11.5q8 8 7.5 14t-1.5 11q-2 5 -6.5 8.5 t-14.5 -4.5q-22 -17 -70 -32.5t-119 -15.5q-35 0 -61 3.5t-46 9t-34.5 13.5t-25.5 17q-3 2 -4 2.5t-7 0.5q-7 0 -12 -3t-10 -8q-6 -5 -7 -13.5zM938 153q7 -8 15 -3.5t27 19.5q9 8 17.5 15t19 12t23.5 8t33 3q19 0 31 -3.5t19.5 -8.5t11.5 -12l8 -14q8 -14 11 -17.5t11 1.5 q19 10 11 29q-4 11 -12 27.5t-21 25.5q-14 9 -31.5 11t-34.5 2q-18 0 -30.5 -0.5t-30.5 -8.5q-19 -8 -37.5 -22.5t-30.5 -25.5q-23 -20 -10 -38z" />
<glyph unicode="^" horiz-adv-x="1707" d="M61 365q0 27 19 46.5t47 19.5q10 0 22 -5l583 669q-8 9 -13.5 21.5t-5.5 26.5q0 29 21 50t50 21t49.5 -20.5t20.5 -50.5l552 -182q11 41 44 68t78 27q25 0 48 -10t40 -27.5t27 -40.5t10 -49t-10 -48.5t-27 -39.5t-40 -27t-48 -10q-9 0 -16.5 0.5t-15.5 2.5l-66 -326 q26 -18 26 -50q0 -27 -18.5 -46t-44.5 -19q-14 0 -25.5 5.5t-19.5 13.5l-406 -168q2 -8 3.5 -16t1.5 -18q0 -24 -9 -45.5t-25 -37.5t-37.5 -25.5t-45.5 -9.5t-45.5 9.5t-37.5 25.5t-25 37.5t-9 45.5v13t2 12l-530 127q-8 -17 -24 -27t-34 -10q-28 0 -47 19.5t-19 47.5z M163 419q5 -2 7 -5l383 156q-2 10 -2 18q0 30 20.5 51t50.5 21q13 0 26 -5l97 427v1zM184 395q8 -13 8 -30v-6.5t-1 -7.5l530 -127q6 20 19.5 35.5t30.5 26.5l-115 241q-15 -9 -34 -9q-20 0 -35 8.5t-24 22.5zM663 646q13 -9 21 -23l116 46l-16 402q-6 0 -12 1t-12 3z M671 537l114 -244q8 3 14.5 4.5t13.5 3.5l-13 345l-109 -45q1 -3 1 -13q0 -14 -5.5 -28t-15.5 -23zM805 1075l17 -396l252 103l-248 303q-5 -3 -10 -5.5t-11 -4.5zM823 655l13 -353q36 -3 66 -25l308 339l-121 147zM838 1096l253 -308l313 125q-1 5 -1 8.5v7.5q0 10 1 14 l-551 183q-5 -17 -15 -30zM913 265q17 -15 22 -31l403 165q-9 15 -9 32q0 15 8 29l-116 142zM1105 770l116 -142l206 228q-7 8 -11.5 17t-8.5 19zM1232 615l115 -141q8 10 20 15.5t26 5.5q6 0 11 -1.5t10 -3.5l67 322q-14 5 -24 12.5t-20 17.5z" />
<glyph unicode="_" horiz-adv-x="1707" d="M210 -53q-4 28 4.5 43.5t24 23t35.5 10t41 5t40.5 8t32.5 18.5q3 3 9 16t12 29.5t11 35.5t7 34q5 43 6 100t-0.5 121.5t-3.5 135t-2 142.5q0 67 1.5 135t3 132t0.5 121t-5 103q-2 17 -6.5 37.5t-10 39t-11.5 33t-11 20.5q-16 18 -43 23.5t-52 11.5t-41.5 19t-10.5 46 q9 15 23.5 20.5t31 6t33 -1.5t28.5 -2q105 0 229 -2t250 -2t246.5 4t219.5 16q9 1 21 4t24.5 3t25 -4.5t22.5 -18.5q4 -14 2.5 -27.5t-5.5 -28.5t-7.5 -31.5t-4.5 -35.5q-2 -26 2.5 -63t4 -69.5t-11.5 -53t-42 -13.5q-16 3 -22 18.5t-8.5 35.5t-4.5 40.5t-11 35.5 q-16 27 -62 43.5t-105.5 25.5t-124.5 12.5t-119 3.5q-31 0 -67.5 -1t-71.5 -6.5t-66 -16.5t-51 -30q-5 -53 -7 -114t-2 -124t2 -124t7 -114q36 -6 86 -11t104.5 -7.5t108 -2t97.5 5.5q22 2 49.5 7t42.5 16q24 16 30.5 38t9.5 45.5t9 45.5t29 40q29 0 40 -14.5t13 -36.5 t-2 -49t-5 -54q-2 -39 -2 -83t2 -78q1 -26 6 -52.5t5.5 -48.5t-6 -38t-28.5 -22q-21 7 -32.5 18.5t-18.5 25.5t-11 30t-10 31.5t-16 30t-28 25.5q-41 25 -97 29t-118.5 -0.5t-127 -11t-122.5 -2.5q-10 -29 -13.5 -61.5t-4 -67.5t1 -72t1.5 -75q0 -34 -3 -70t-3.5 -71.5 t3.5 -68t18 -58.5q11 -21 35 -34t56 -21t69.5 -10.5t76.5 -2.5t75.5 2t67.5 4q53 4 106 12t98 22.5t79 36t50 52.5q13 26 14.5 49t2.5 44.5t7.5 41.5t29.5 41q36 -7 53 -21.5t21.5 -34.5t-0.5 -44.5t-13.5 -51t-17.5 -54.5t-12 -54q-3 -21 -1 -42t3 -40.5t-2 -37.5t-15 -34 q-16 -10 -32.5 -11t-34 3t-36 9t-37.5 7q-47 4 -100 4.5t-109.5 -0.5t-115 -2.5t-116.5 -1.5q-114 0 -225.5 2t-208.5 -2q-25 -1 -50 -5t-49 -5.5t-46.5 2t-40.5 15.5z" />
<glyph unicode="`" horiz-adv-x="1707" d="M91 156v1024q0 51 21 97t56.5 81.5t81.5 56.5t97 21h1024q51 0 97 -21t81.5 -56.5t56.5 -81.5t21 -97v-1024q0 -51 -21 -97t-56.5 -81.5t-81.5 -56.5t-97 -21h-273v580h256v256h-256v102q0 31 16 50t33 19h207v256h-207q-60 0 -112.5 -27t-91.5 -72t-61.5 -104.5 t-22.5 -123.5v-100h-188v-256h188v-580h-512q-51 0 -97 21t-81.5 56.5t-56.5 81.5t-21 97z" />
<glyph unicode="a" d="M52 353q0 4 3 7q4 6 12 6q6 0 13 -4q169 -93 370.5 -144.5t419.5 -51.5q138 0 279.5 24.5t284.5 75.5q10 4 20 7t21 8q10 4 20 2t14 -9q2 -3 4 -11q0 -12 -12 -19q-16 -12 -33.5 -21.5t-33.5 -19.5q-128 -71 -283 -109q-152 -37 -299 -37q-231 0 -432 75t-359 208 q-9 7 -9 13zM494 748q0 99 49.5 164t134.5 98q43 18 91.5 27.5t102.5 15.5q35 4 67 6t60 6v22q0 29 -1 60t-19 55q-16 23 -42 33t-52 10h-13q-45 -4 -81.5 -27.5t-47.5 -70.5q-2 -10 -9 -18.5t-19 -12.5l-168 21q-10 2 -19.5 9t-5.5 23q14 66 49 111t83 73t104.5 42 t113.5 18h35q63 0 135 -18q72 -16 125 -62q46 -40 60 -90t14 -107v-77v-250q0 -56 20 -88q20 -30 46 -59q8 -10 8 -21.5t-10 -19.5q-13 -11 -29 -24.5t-36 -29.5q-20 -15 -36.5 -28.5t-29.5 -24.5q-19 -12 -44 -2q-41 34 -57 54l-41 50q-42 -42 -80 -66t-80 -36 q-56 -12 -122 -12q-110 0 -183 61t-73 185zM743 776q0 -54 28 -85.5t77 -31.5q8 0 14 1.5t10 1.5q63 14 95 71q29 44 30 83q1 20 1.5 42t0.5 45v33q-33 0 -65.5 -2t-61.5 -8q-26 -8 -49 -20.5t-42 -29.5q-38 -35 -38 -100zM1354 335q0 6 10 13q32 20 70 33q17 4 35 6.5 t35 4.5q11 1 21 1.5t20 0.5h13t13 -1q63 -5 78 -18q2 -4 4 -10.5t1 -16.5v-8q0 -20 -6 -49t-19.5 -59t-33.5 -58.5t-47 -48.5q-7 -7 -13 -7q-2 0 -5 1q-8 4 -4 16l19 46l16 42t12.5 39.5t5 33.5t-5.5 23q-12 16 -54 18h-17q-34 0 -68 -3q-18 -4 -35 -4t-31 -4q-14 0 -14 9z " />
<glyph unicode="b" d="M51 414v549q0 96 40 182t109 150.5t161.5 101.5t197.5 37h354q49 -6 106.5 -28t112 -55.5t100.5 -77.5t73 -95l14 -26q4 -9 8.5 -19t8 -25t7.5 -36.5t9 -53.5q6 -45 12 -78t29 -51q15 -12 47 -15.5t67 -4.5t65 -2t40 -9l22 -16l15 -27l4 -20l-4 -381q0 -97 -40 -182.5 t-109 -149.5t-161.5 -100.5t-197.5 -36.5h-582q-105 0 -197.5 36.5t-161.5 100t-109 149t-40 183.5zM467 422q0 -18 7.5 -34.5t21 -29t31 -19.5t38.5 -7h572q42 0 69 26.5t27 63.5t-27 62.5t-69 25.5h-572q-42 0 -70 -25.5t-28 -62.5zM467 958q0 -18 7.5 -34.5t21 -29 t31 -19.5t38.5 -7h281q21 0 38.5 7.5t31 19.5t21 28.5t7.5 34.5t-7.5 34.5t-21 29t-31 20t-38.5 7.5h-281q-21 0 -38.5 -7.5t-31 -20t-21 -29t-7.5 -34.5z" />
<glyph unicode="c" d="M51 686q0 111 35 221q37 103 102 195q66 91 153.5 159t199.5 111q72 29 149 44.5t162 15.5q119 0 238 -35q57 -16 108.5 -40t99.5 -54q197 -122 291 -326q62 -138 64 -291q0 -119 -37 -221q-16 -54 -42 -102t-58 -93q-66 -91 -155 -159t-198 -111q-150 -57 -311 -57 q-130 0 -238 32q-57 16 -110 40t-101 55q-97 60 -170 142t-118 185q-62 135 -64 289zM160 686h692v-643q104 0 205 29q49 14 94.5 34.5t87.5 47.5q85 51 148 122.5t102 159.5q27 57 41 120.5t14 129.5h-692v643q-102 0 -207 -29q-49 -14 -93.5 -34t-86.5 -45 q-85 -54 -147.5 -125.5t-104.5 -159.5q-53 -118 -53 -250z" />
<glyph unicode="d" d="M51 688q0 103 28.5 198t80.5 178t125.5 151.5t162.5 117t191.5 75t212.5 26.5t212.5 -26.5t191.5 -75t162.5 -117t125.5 -151.5t80.5 -178t28.5 -198t-28.5 -198t-80.5 -178t-125.5 -150.5t-162.5 -116t-191.5 -74.5t-212.5 -26q-167 0 -311.5 58t-255.5 158 q-109 102 -171.5 237.5t-62.5 289.5zM227 688q0 -106 39.5 -201.5t108.5 -171.5q27 35 68.5 84t105.5 103q66 55 152.5 106t197.5 86q-10 20 -17.5 40t-17.5 38q-84 -25 -166 -40t-155.5 -23t-136.5 -10.5t-109 -2.5h-68q-2 -2 -2 -8zM246 829q10 0 22.5 -1t28.5 -1h10 q86 0 218 12q131 13 274 54q-70 124 -129 202t-92 113q-124 -56 -210 -155q-88 -100 -122 -224zM481 221q78 -54 172 -83t199 -29q119 0 223 36q-25 121 -56.5 226.5t-68.5 199.5q-105 -33 -184 -81.5t-139 -102.5q-57 -49 -93 -94t-53 -72zM721 1255q42 -49 97 -127 t118 -190q88 35 167 84.5t140 118.5q-82 60 -180.5 94.5t-210.5 34.5q-35 0 -66.5 -4t-64.5 -11zM997 817q10 -23 21.5 -44t21.5 -46q42 8 87.5 11t93.5 3q123 0 256 -26q-4 94 -39 178t-95 154q-75 -78 -162 -133t-184 -97zM1092 600q33 -87 62 -183.5t52 -205.5 q100 66 169 159.5t91 211.5q-69 14 -128.5 21t-116.5 7h-2q-35 0 -66 -3t-61 -7z" />
<glyph unicode="e" d="M51 540q0 37 9.5 70.5t43 59t99 40.5t176.5 15t170 -15q38 -6 67 -18v197h123v-218h2q20 27 43 37.5t58 10.5q51 0 80 -29q35 24 80 28q27 3 57 3h15h30v34q0 27 -8.5 43.5t-40.5 16.5q-18 0 -27.5 -5.5t-14 -14.5t-5 -20.5t-0.5 -23.5h-123q0 75 47 101q20 16 50 22 t65 6q16 0 29.5 -1t25.5 -3l-29 56h176l115 -248l125 248h164l-215 -385v-203h-162v203l-52 96v-111q0 -9 1 -18.5t2 -19.5l4 -40h-115l-6 56h-2q-20 -31 -46.5 -46.5t-68.5 -15.5q-10 0 -17.5 0.5t-12.5 1.5q-2 -29 -7 -58.5t-18 -53t-36 -38t-62 -14.5q-37 0 -62.5 12.5 t-42.5 43.5h-2v-45h-117v84q-14 -6 -30.5 -11.5t-34.5 -9.5q-35 -6 -78 -10t-94 -4q-109 0 -173.5 14t-99 39.5t-45 61.5t-10.5 79zM279 520q0 -17 1.5 -36t11 -35.5t30 -27t57.5 -10.5q58 0 78 21q20 23 20 45h72h2h65v43h-337zM279 577h204q0 13 -1 28t-10 27.5 t-30.5 20.5t-62.5 8q-39 0 -59.5 -9t-29.5 -22.5t-10 -28t-1 -24.5zM739 508q0 -78 9.5 -114t39.5 -36q35 0 44.5 36t9.5 114q0 31 -1.5 55.5t-5.5 44.5q-6 39 -47 39q-37 0 -43 -39t-6 -100zM995 585q0 -12 1.5 -23.5t6.5 -20.5t14.5 -15t24.5 -6q27 0 40.5 15.5t18.5 36.5 q4 16 4 37q0 9 -0.5 26t-0.5 22q-24 -2 -44 -3t-34.5 -7t-22.5 -20t-8 -42z" />
<glyph unicode="f" d="M184 -49l668 1485l668 -1487h-250v2h-348v233l276 129l-31 62l-245 -113v84l161 80l-34 63l-127 -63v152h-174v-238l-130 82l-40 -57l170 -109v-260v-45h-564z" />
<glyph unicode="g" d="M328 225q0 53 34 120q34 66 127 118q49 27 105 43.5t110 26.5t103 14t84 6q-12 13 -23 27t-19.5 29.5t-14 34t-5.5 42.5q0 25 6.5 42t14.5 34q-16 -2 -33.5 -3t-34.5 -1q-84 0 -149 26.5t-109 69.5t-67 98.5t-23 112.5q0 69 33 138t100 124q90 70 191 88q98 19 186 19 h434l-135 -70h-131l44 -36q19 -16 38 -38.5t34 -51t24.5 -63.5t9.5 -75q0 -78 -32.5 -133.5t-79.5 -93.5l-65 -50q-10 -10 -20.5 -20t-19 -21.5t-14 -25t-5.5 -29.5q0 -17 5.5 -29.5t14 -23t18 -18t17.5 -13.5l76 -55q35 -27 67 -54.5t56 -59.5t38.5 -71t14.5 -88 q0 -69 -35.5 -135.5t-105.5 -118.5t-173.5 -84t-238.5 -32q-114 0 -199 23.5t-141.5 62.5t-84 89.5t-27.5 104.5zM514 266q0 -53 26 -96.5t74 -75.5t116 -49.5t153 -17.5q154 0 231 59q78 60 78 152q0 37 -13.5 67t-41 59.5t-71 60.5t-103.5 71q-6 1 -11.5 1.5t-10.5 0.5 h-26q-8 0 -31 -1t-54 -4.5t-67 -9.5t-69 -16q-18 -6 -48 -19t-59.5 -36t-51 -58.5t-21.5 -87.5zM618 1161q0 -49 16 -109.5t48 -113.5t81.5 -89t117.5 -36q42 0 80 15t63 40q37 34 45 75q4 20 6 36.5t2 30.5q0 35 -7.5 75t-22 80t-37 77t-52 65.5t-66.5 45.5t-81 17 q-42 0 -81.5 -18.5t-65.5 -46.5q-27 -31 -36.5 -68t-9.5 -76z" />
<glyph unicode="h" d="M53 864q0 115 62.5 216.5t171 177t254 119.5t311.5 44t311.5 -44t254.5 -119.5t172 -177t63 -216.5q0 -77 -28.5 -148.5t-81 -133.5t-125.5 -113t-162 -87.5t-191.5 -56.5t-212.5 -20q-127 0 -254 29q-23 -11 -48.5 -23t-53.5 -23l-107 -44q-51 -20 -95 -32.5t-71 -12.5 q41 57 63.5 122.5t35.5 124.5q-126 78 -197.5 185t-71.5 233zM457 926q0 -39 12 -70q1 -12 16 -35q22 -40 58 -65q20 -20 44 -41t51 -41l101 -76l113 -76l113 76l101 76q27 20 51 41t46 41q38 32 58 65q9 13 16 35l8 34q4 15 4 36q0 47 -19 88t-52 71.5t-77 48t-93 17.5 q-47 0 -77 -15.5t-47.5 -38t-24.5 -48.5t-7 -48q0 22 -12 48t-33 48.5t-49.5 38t-61.5 15.5q-49 0 -92.5 -17.5t-76 -48t-51.5 -71.5t-19 -88z" />
<glyph unicode="i" d="M51 688q0 102 28.5 197t81 177.5t125.5 150.5t162 117t191.5 75.5t212.5 26.5t212.5 -26.5t191.5 -75.5t162 -117t125.5 -150.5t81 -177.5t28.5 -197q0 -103 -28.5 -198t-80.5 -178t-125.5 -151.5t-162.5 -116.5q-90 -50 -192 -76q-99 -26 -204 -25h-8 q-167 0 -311.5 57.5t-255.5 159.5q-109 103 -171.5 238.5t-62.5 289.5zM211 688q0 -123 50 -231.5t137 -189.5t203.5 -128t250.5 -47q89 0 171 21.5t153.5 60.5t129.5 93t99.5 120.5t64.5 142.5t23 158t-23 158t-64.5 142t-99.5 120t-129.5 93t-153.5 60t-171 21 q-134 0 -250.5 -46.5t-203.5 -127.5t-137 -189t-50 -231zM505 426q0 40 30 75q33 38 83 44q33 2 62 -6v446l465 74v-2v-565v-5v-10q0 -40 -29 -75q-33 -38 -86 -44q-5 -1 -9 -1h-8q-42 0 -73 25q-43 33 -43 87q0 40 30 75q35 38 85 44q33 1 61 -6v309l-321 -55v-387v-5v-10 q0 -40 -29 -75q-33 -38 -84 -44q-5 -1 -9 -1h-9q-42 0 -73 25q-37 30 -42 77q0 7 -1 10z" />
<glyph unicode="j" d="M51 874q0 67 28.5 126t77 103t114 69.5t139.5 25.5q119 0 211 -62q93 -63 127 -157l92 82l215 -195l598 570v-516l-367 -263l49 -47l-497 -448l-435 391q-73 0 -137 25.5t-112 69.5t-75.5 102.5t-27.5 123.5zM102 874q0 -57 24 -107t65.5 -87t97 -58.5t119.5 -21.5 q20 0 42.5 2.5t45.5 7.5l301 -248l802 586v385l-790 -758l-125 185q29 53 29 114q0 57 -24 107.5t-65.5 88t-97 59.5t-118.5 22t-119 -22t-97.5 -59.5t-65.5 -88t-24 -107.5z" />
<glyph unicode="k" d="M51 776q7 34 23 63.5t38.5 54.5t50.5 45.5t59 37.5l87 45l-43 43q-18 18 -36.5 39.5t-33.5 46t-26 52.5t-14 59q-1 5 -1 15q0 25 11 50q13 29 43 47q27 14 51 11t44.5 -14t39 -26.5t35.5 -25.5q16 35 38 66t64 47q8 2 16.5 2t16.5 2q74 -8 80 -105q1 -5 1 -11v-11 q0 -14 -1 -28t-3 -28q-8 -58 -24.5 -113t-25.5 -96q138 -29 246 -95t178 -181q33 -54 57.5 -115t28.5 -139q0 -10 -4.5 -25.5t0.5 -25.5q5 -12 17 -24l23 -23q15 -15 33.5 -30.5t37.5 -30t39 -26.5t38 -18q28 -9 60 -8h13q29 1 59.5 7t60 13.5t57.5 14.5t53 12q25 6 45 6 q14 0 26 -3q29 -8 42 -38q0 -8 1 -14t1 -12q-6 -23 -19.5 -41t-32.5 -33t-41.5 -27.5t-46.5 -23.5q-68 -33 -154 -56.5t-180 -39.5t-191 -23.5t-185 -7.5q-35 -29 -80.5 -46.5t-99.5 -29.5q-29 -4 -55.5 -6t-53.5 -6q-34 -2 -68 -2t-69 2q-70 4 -109 39q-18 16 -28.5 44.5 t-3.5 57.5q12 47 64 75q53 29 112 42q-4 16 -13.5 29.5t-15.5 29.5q-22 51 -22 113v23q2 37 9.5 67t18.5 55l-63 15q-4 -16 -5.5 -28.5t-11.5 -23.5q-16 -20 -42.5 -26.5t-52 1t-43 28.5t-15.5 55q3 30 31.5 55.5t62.5 45.5l41 24q16 9 43 22l47 25q23 12 43 27.5t25 31.5 q3 9 2.5 20.5t-3 22.5t-6 21t-6.5 16q-11 -2 -15 -9l-9 -13q-18 -18 -40 -37l-44 -37l-62 -46q-32 -23 -71 -34q-10 -2 -19 -3.5t-19 -1.5q-26 0 -47 10q-38 17 -55 58q0 18 -4 33zM93 776q0 -9 1 -14q6 -27 28.5 -39t55.5 -6q35 8 71 33.5t70 54.5l30 25q7 5 14.5 12.5 l15.5 15.5q6 7 12.5 15.5t14.5 18.5q16 21 32 21q16 -1 30 -31q15 -28 19 -44q5 -23 5 -40q0 -21 -6 -34q-10 -28 -29 -45q-27 -23 -64.5 -41.5t-79.5 -40.5q-13 -6 -33 -17t-38.5 -24.5t-31 -28.5t-11.5 -30q0 -19 10 -28t23.5 -10.5t27 3.5t19.5 16q6 15 -2 35t6 29 q12 10 31 3q10 -4 17.5 -6t12.5 -4l64 -12q11 11 23 28t26.5 32.5t32.5 27t42 11.5q22 0 38 -14.5t23.5 -34t5.5 -40t-17 -32.5q-26 -25 -64 -25h-6l-78 4q-19 -28 -26 -67q-6 -30 -6 -62v-23q3 -45 17.5 -84.5t39.5 -66.5q37 3 71 3q23 0 43 -1.5t39 -3.5q-40 52 -47 111 q-3 20 -2 36q0 39 12 77q18 54 62.5 93t110.5 48q10 1 19.5 1.5t19.5 0.5q34 0 64 -8q35 -8 62.5 -21t47.5 -25.5t32 -23.5t17 -15q-5 64 -19 117.5t-36.5 98.5t-52.5 83t-66 72q-57 54 -131.5 90.5t-167.5 53.5q-16 2 -28.5 4t-16.5 12q-2 4 2 18.5t8 26.5l33 110 q13 49 18 119q0 30 -5 59.5t-25 40.5q-5 3 -12 3q-10 0 -22 -6q-36 -17 -53 -49q-17 -31 -30 -62q8 -6 17 -18.5t18 -28.5t16.5 -35t11.5 -37q3 -15 3 -28q0 -22 -7 -37q-12 -29 -57 -29q-33 0 -46.5 25.5t-16.5 60.5q-1 6 -1 12v11q0 11 1 23t3 24q6 36 12 53 q-16 12 -25 24.5t-26 22.5q-5 4 -12 9t-17 10q-18 12 -47 1q-8 -2 -14 -7.5t-10.5 -13t-7.5 -15t-4 -13.5q-2 -14 0 -29.5t6 -27.5q12 -53 53 -103q40 -48 74 -75q10 -9 32 -19q21 -7 19 -24q0 -12 -28 -21q-26 -7 -46 -18q-45 -19 -74 -41q-35 -23 -66.5 -47.5t-49.5 -52.5 q-10 -11 -19 -33q-5 -15 -5 -27zM276 66q0 -15 6 -27t15 -20.5t19.5 -14t19.5 -8.5q37 -10 89.5 -10t109.5 4t109 17t85 34q-78 10 -147.5 34t-118.5 72q-13 12 -17 20q-3 6 -11 6q-6 0 -9 -1l-52 -17q-41 -13 -69.5 -35t-28.5 -54zM386 1160q2 -20 8 -36t20 -16q21 2 19 22 q-2 22 -7 37q-6 18 -15.5 32.5t-15.5 29.5q0 2 -2 2q-5 -11 -7 -31q-2 -13 -1 -25q0 -7 1 -15zM457 557h55q29 0 45 16q4 14 -1 27.5t-15 20.5q-33 0 -51.5 -20.5t-32.5 -43.5zM494 180q48 -51 122.5 -75.5t165.5 -28.5q29 23 38 68q3 13 3 25q0 32 -18 62 q-10 16 -20.5 24.5t-6.5 20.5q3 7 9 9.5t14 3t17 0t18 0.5q38 2 65 16t46 35.5t31.5 48t20.5 53.5l-50 41q-26 20 -54.5 36t-64.5 22q-18 3 -37 3t-41 -3q-55 -8 -91 -42t-50 -79q-8 -30 -8 -58q0 -18 3 -36q7 -48 41 -88q7 -9 18 -18t21.5 -17t18.5 -15.5t8 -13.5 q-2 -16 -15.5 -15t-27.5 5q-41 10 -87 15q-26 3 -51 3q-10 0 -19.5 -0.5t-18.5 -1.5zM840 76q94 2 195.5 11.5t198.5 29t182 49t145 70.5q16 10 35 29q15 15 15 29q0 6 -1 9q-4 13 -21.5 13.5t-38.5 -4.5t-42 -12t-33 -9q-35 -8 -78 -15.5t-82 -11.5q-7 -1 -13 -1h-11 q-40 0 -67 10q-30 10 -54 25.5t-46 33.5t-42 37.5t-42 38.5q-4 3 -5 3h-1t-2 -1q-22 -57 -64 -104q-41 -44 -126 -56q21 -29 21 -64v-6v-9t-1 -9q-6 -48 -20 -76l-2 -6q-2 -2 -2 -3t2 -1z" />
<glyph unicode="l" d="M51 1262q0 36 13.5 66.5t39 52t61.5 34t81 12.5q44 0 78.5 -12.5t59.5 -34.5t38.5 -52t15.5 -66q0 -70 -52 -118q-53 -48 -142 -48h-2q-88 0 -140 48q-51 48 -51 118zM72 4v961h342v-961h-342zM604 4q1 123 1.5 234t0.5 213v171v155q0 72 -1 121.5t-1 66.5h344v-136 l-2 -4h2v4q16 25 41 52.5t62 51t87.5 39t118.5 15.5q85 0 157.5 -26t125.5 -79.5t83 -134.5t30 -192v-551h-344v514q0 49 -9.5 89t-30.5 68.5t-54 44t-80 15.5q-72 0 -115 -37q-42 -34 -62 -80q-6 -16 -8 -35.5t-2 -41.5v-537h-344z" />
<glyph unicode="m" d="M51 614h932l289 824l358 -1022h-227l-11 31l-17 50l-20 60l-24 66l-59 168l-60 -168l-23 -66l-21 -60q-9 -28 -17 -49.5t-10 -31.5h-424l151 -105l191 -127q-3 -10 -9.5 -30t-17.5 -49l-43 -123zM893 362h289l90 256l90 -256h291l-236 -157l90 -256l-235 157l-234 -157 l88 256z" />
<glyph unicode="n" d="M51 504q0 -68 28 -128.5t77 -105.5t114 -71.5t140 -26.5q74 0 139.5 26.5t114 71.5t76.5 105.5t28 128.5t-28 128t-76.5 105t-114 71t-139.5 26q-75 0 -140 -26t-114 -71t-77 -105t-28 -128zM934 504q0 68 28.5 128t78 105t114.5 71t139 26t139.5 -26t114 -71t77 -105 t28.5 -128t-28.5 -128.5t-77 -105.5t-114 -71.5t-139.5 -26.5t-139 26.5t-114.5 71.5t-78 105.5t-28.5 128.5z" />
<glyph unicode="o" d="M106 236q0 66 62 119.5t174 95.5q-23 98 -23 200q0 100 35 217q17 58 40 113t51 109q57 108 129 198q74 90 149 139q-26 -67 -26 -115v-12t1 -12q7 -57 33 -105q13 -24 26.5 -48t27.5 -47q31 -48 41 -105q4 -20 4 -46q0 -42 -12 -91q-20 -79 -93 -191q42 -11 79 -11 q30 0 62 8q66 17 111 63.5t62 119.5q7 34 9 75q0 21 -2.5 43.5t-7.5 45.5q66 -35 126.5 -75.5t107 -96t74.5 -131t28 -180.5q0 -32 -6 -65q106 -42 168.5 -97t62.5 -118q0 -62 -59 -116t-160.5 -94t-237.5 -62.5t-290 -22.5q-155 0 -290.5 22.5t-237 62.5t-160 94t-58.5 116 zM451 485h2q0 -10 -1 -15q0 -117 60 -199q63 -87 166 -124h2q10 -4 18 -6.5t13 -3.5h4q6 -2 14 -4t19 -4h4q8 -2 14 -2t14 -2h8q8 0 16.5 -1t16.5 -1q12 2 24.5 2t22.5 2h15q8 2 16 3t16 3q7 0 13 2q44 7 80 23q2 0 4 1t4 1l31 14q2 0 3 1t3 1q36 19 63 41h2q69 53 100 125 q28 62 28 129v8t-1 8q-4 66 -37.5 126t-99.5 108q-16 -70 -43 -130t-64.5 -103.5t-86.5 -68t-109 -24.5q-42 0 -81.5 18t-72.5 50.5t-56.5 78t-33.5 100.5q-6 31 -6 64q0 46 12 99q-59 -90 -85.5 -169t-30.5 -151z" />
<glyph unicode="p" d="M51 686q0 105 30.5 204t87.5 185.5t137.5 157t180.5 117.5l25 -21l55 -46l71 -59l71 -60l55 -48q24 -21 27 -22q-4 -1 -57 -47l-129 -110l-167 -140l-167 -142l-131 -111l-58 -50q-31 93 -31 192zM111 412l25 21l58 49l74 64l77 64l63 54q14 11 22 18.5t10 9.5v-643 q-114 63 -197.5 156t-131.5 207zM524 6v356h1049q-47 -88 -115 -161.5t-151.5 -127.5t-180 -87t-200.5 -41h-148q-66 4 -128.5 20.5t-125.5 40.5zM573 1384q69 23 138 36.5t141 13.5q173 0 332 -68v-498q-6 6 -54 45l-113 95l-141 119l-141 120l-111 94zM1268 442v881 q88 -51 159 -120t121.5 -151t77.5 -175t27 -191q0 -61 -11.5 -122.5t-33.5 -121.5h-340z" />
<glyph unicode="q" d="M51 696q0 102 28.5 197t81 177.5t125.5 150.5t162 117t191.5 75.5t212.5 26.5t212.5 -26.5t191.5 -75.5t162 -117t125.5 -150.5t81 -177.5t28.5 -197q0 -103 -28.5 -198t-80.5 -178t-125.5 -151t-162.5 -116.5t-191.5 -75t-212.5 -26.5q-167 0 -311.5 58t-255.5 160 q-109 102 -171.5 237.5t-62.5 289.5zM299 696q0 -97 32 -166q30 -63 80 -63h2h7q18 2 47 0h11q22 0 48 6q23 6 45 20t41 41t33 70t22 108q2 22 3.5 47t1.5 53q0 26 -1 53.5t-3 58.5q152 -23 248 -78q98 -57 149 -115q62 -66 94 -149q17 -32 39 -58q16 -23 38.5 -40t45.5 -17 q15 0 30.5 13t29 33.5t25 46.5t20 51.5t13.5 48t5 36.5q-4 106 -48 199.5t-117.5 163.5t-173 110.5t-214.5 40.5q-114 0 -215 -40.5t-176 -110.5t-118.5 -163.5t-43.5 -199.5z" />
<glyph unicode="r" d="M51 141q0 42 17.5 76.5t46.5 63.5q29 27 67.5 42t81.5 15q45 0 84 -15t68 -42q61 -57 61 -140q0 -84 -61 -139q-62 -57 -152 -57q-88 0 -149 57q-29 27 -46.5 62t-17.5 77zM53 641v283q109 0 212.5 -19.5t198 -56.5t179 -90.5t156.5 -120.5q72 -68 128 -145.5t98 -167.5 q83 -178 83 -381h-307q0 142 -56.5 268t-162.5 225t-242 152t-287 53zM53 1147v285q332 0 622 -117q291 -118 509 -322q219 -203 344 -472q125 -270 125 -578h-305q-1 166 -47.5 319.5t-131 287.5t-203 244t-262 188.5t-308.5 121.5t-343 43z" />
<glyph unicode="s" d="M51 1008q0 87 35.5 163t96.5 132.5t142.5 89t174.5 32.5q66 0 125 -16t110 -45q29 4 58.5 6t58.5 2q102 0 197 -24.5t177.5 -69.5t150.5 -108.5t116.5 -140t75 -164.5t26.5 -183q0 -26 -2.5 -53t-7.5 -56q33 -48 50.5 -103.5t17.5 -115.5q0 -86 -35.5 -162t-96.5 -132.5 t-142.5 -89.5t-174.5 -33q-132 0 -235 63q-29 -4 -58.5 -6t-58.5 -2q-103 0 -197.5 24.5t-177 69.5t-150.5 108t-116.5 139.5t-75 165t-26.5 183.5q0 29 3 54.5t7 51.5q-68 103 -68 220zM453 489q0 -58 43 -114q45 -60 110 -92q49 -25 110 -37t136 -13q119 0 215 35 q92 41 137 99q47 62 47 143q0 65 -26 111q-27 45 -76 75q-23 14 -52 27.5t-65 24.5q-72 18 -153 36l-59 14q-25 5 -38 9q-16 4 -29.5 9t-27.5 11q-28 12 -45 31q-14 17 -14 43q0 38 45 70q51 28 120 28h5q85 0 120 -26q20 -16 36.5 -34.5t27.5 -41.5q19 -31 41 -49 q18 -15 55 -17q39 0 66 27q27 26 26 57q0 37 -20 72q-19 32 -66 70q-23 16 -50.5 29.5t-61.5 23.5q-35 10 -73.5 15t-86.5 5q-119 0 -201 -30q-89 -32 -133 -86q-45 -53 -45 -127q0 -78 43 -127q44 -53 117 -80q70 -29 180 -51q42 -10 73 -16.5t56 -14.5q47 -12 76 -41 q31 -25 31 -65q0 -54 -56 -89q-52 -34 -138 -34h-5q-73 0 -105 16q-42 19 -61 45q-24 30 -41 68q-14 35 -39 53q-23 18 -55 18q-42 0 -68 -22q-27 -26 -26 -58z" />
<glyph unicode="t" d="M51 702q57 -51 133.5 -78.5t157.5 -27.5t160.5 29.5t142.5 91.5q-6 -1 -12 -1.5t-12 -0.5q-21 0 -42 8t-34 22.5t-13.5 32t14.5 35t50 31.5q-8 -1 -15.5 -1.5t-15.5 -0.5q-11 0 -22 1t-21 3q-51 9 -80 35t-45 53q20 18 44.5 27.5t66.5 11.5q-92 19 -131 59q-38 38 -49 90 q27 4 54.5 9.5t43.5 1.5q-78 39 -109 91q-27 46 -27 86q0 7 1 11q70 -24 129 -46.5t108.5 -43.5t91.5 -41t80 -39q30 -13 58 -36l63 -54q22 52 46.5 105t54.5 101t67 88t84 66q-2 -23 -24 -45q52 45 125 56q-5 -23 -33 -38q-14 -7 -27 -12.5t-24 -9.5q8 2 31.5 10t49.5 15.5 t48 9.5t26 -8q6 -12 -7 -20.5t-31.5 -14.5t-37 -10t-24.5 -6l-37 -13q5 1 11 1h11q45 0 90 -14q39 -12 75 -35.5t66 -54.5t52.5 -68t34.5 -77l4 -16q1 -4 2 -8.5t2 -9.5q21 -8 48.5 -8t54.5 4t50.5 11t35.5 13q-16 -39 -61 -65.5t-114 -30.5q35 -14 86 -20q12 -1 24 -1.5 t23 -0.5q27 0 50 3q-29 -27 -74 -47t-117 -20q-25 -92 -82 -170.5t-136.5 -139t-178 -101.5t-206.5 -59q-83 -15 -166 -15q-63 0 -126 9q-146 20 -280 88q-136 71 -236 199z" />
<glyph unicode="u" d="M255 501q1 -20 2 -34.5t3 -22.5q6 -30 38 -50q20 -13 41 -13q12 0 21 4l293 96q31 10 54.5 35t27.5 49q4 22 -17 48q-20 26 -48 38l-312 113q-29 12 -59 -12q-29 -23 -39 -66q-2 -28 -3 -53.5t-1 -50.5q-1 -14 -1 -27.5v-27.5v-26zM394 1292q0 12 12 28q13 18 51 46 q23 17 52.5 29t61 20.5t63.5 12.5t60 5h15q29 0 49 -3q48 -8 72 -31t24 -53l4 -517q0 -31 -14.5 -55t-36.5 -29q-10 -2 -23 1.5t-25.5 11t-24 18.5t-19.5 25l-291 442q-9 13 -19 23q-11 12 -11 26zM497 90q0 -10 3 -20q4 -18 13 -32.5t26 -21.5l213 -67q8 -4 19 -4q5 0 15 2 q14 3 28 9.5t25 16t18 20.5t7 23l8 320q0 31 -15 53.5t-38 24.5q-12 2 -25.5 -1.5t-27 -11t-26.5 -17.5t-23 -22l-205 -227q-10 -11 -13 -30zM993 696q0 -22 11 -39q17 -23 48 -32q10 -3 20 -4.5t20 -2.5q12 0 24 3l285 49q39 10 45 45q3 15 3 28q0 16 -5 33q-5 12 -21 36 l-35 50q-19 27 -42 50.5t-39 35.5q-31 26 -60 26h-6q-32 -3 -55 -26l-164 -182q-24 -24 -28 -54q-1 -4 -1 -8v-8zM1010 420q2 -25 18 -51l162 -277q7 -12 25 -18q15 -4 32 -6q4 0 5 1q19 1 38 9t27 20q28 37 51 72q20 29 38.5 60.5t27.5 50.5q6 16 6 32q0 21 -10 37 q-20 32 -50 39l-256 70q-27 7 -56 7h-7q-32 -2 -41 -11q-10 -9 -10 -28v-7z" />
<glyph unicode="v" d="M51 1087l118 98l116 97q156 124 237 135q5 1 11 1h11q167 0 208 -240q23 -138 38 -223t25 -119q56 -227 119 -228q49 0 151 148q99 150 107 225q1 8 1.5 14.5t0.5 13.5q0 99 -109 99q-54 0 -118 -23q112 347 434 349h18q231 -6 233 -264v-17t-1 -18q-11 -221 -326 -596 q-325 -394 -553 -396q-140 0 -235 242l-66 221l-65 221q-72 240 -154 240q-19 0 -125 -70z" />
<glyph unicode="w" d="M51 688q0 102 28.5 197t81 177.5t125.5 150.5t162 117t191.5 75.5t212.5 26.5t212.5 -26.5t191.5 -75.5t162 -117t125.5 -150.5t81 -177.5t28.5 -197q0 -103 -28.5 -198t-80.5 -178t-125.5 -151.5t-162.5 -116.5q-90 -50 -192 -76q-99 -26 -204 -25h-8h-8 q-106 -1 -204 25q-102 26 -191.5 75t-163 117.5t-125.5 151.5t-80.5 178t-28.5 198zM113 688q0 -102 30 -196t85 -174.5t131.5 -143.5t168.5 -104l-352 897q-63 -134 -63 -279zM233 1065q14 0 26.5 -1t23.5 -1q29 0 63.5 1t63.5 3q34 1 69 6q14 0 22.5 -8t9.5 -18.5 t-6 -19.5t-22 -11q-6 0 -12 -0.5t-12 -1.5q-12 -2 -27.5 -3t-32.5 -1l269 -744l161 451l-114 293q-16 0 -30.5 1t-25.5 3q-6 1 -11.5 1.5t-10.5 0.5q-15 0 -21.5 9t-6 19.5t8.5 19.5t23 9q34 -4 70 -6q29 -2 62.5 -3t62.5 -1t63.5 1t65.5 3q34 1 69 6q14 0 22.5 -8 t9.5 -18.5t-6 -19.5t-22 -11q-6 0 -12.5 -0.5t-13.5 -1.5q-12 -2 -26.5 -3t-31.5 -1l267 -740l73 230q28 68 41.5 123t14.5 100q0 31 -5.5 58t-14.5 50t-19.5 42.5t-20.5 37.5q-29 43 -51 81t-22 81q0 47 34 84t90 37h9q-99 87 -225.5 133.5t-272.5 46.5q-195 0 -357 -84 q-162 -85 -262 -225zM643 29q105 -29 209 -29q66 0 126 10t120 29l-6 10l-228 578zM1223 94q82 45 149.5 107.5t116 139t75.5 164.5t27 183q0 178 -92 330q6 -35 6 -72q0 -54 -12 -112.5t-45 -133.5z" />
<glyph unicode="x" d="M51 1434h156l211 -674l143 454l-69 220h153l213 -672l213 672h154h364v-68l-188 -348q57 -16 107.5 -48t78.5 -77q29 -45 47.5 -98t18.5 -113q0 -76 -19.5 -138t-62.5 -116q-86 -102 -219 -102q-102 0 -178 61t-113 164l121 47q25 -60 69 -98q43 -37 103 -37q63 0 102 63 q43 62 43 156q0 49 -11 97t-34 77q-27 33 -67.5 58.5t-98.5 25.5h-100v25l248 346h-248h-14l-302 -928h-14l-221 686l-219 -686h-15z" />
<glyph unicode="y" d="M184 139v439q0 39 17.5 74t47.5 61.5t69.5 41.5t84.5 15h897q45 0 85 -15t70 -41.5t47.5 -61.5t17.5 -74v-439q0 -40 -17.5 -75t-47.5 -61t-70 -41t-85 -15h-897q-45 0 -84.5 15t-69.5 41t-47.5 61t-17.5 75zM276 555h95v-465h92v463h110v70h-297v-68zM385 1436h107 l61 -201l61 201h107l-115 -269v-313h-98v313zM555 485l2 -245q0 -29 -1 -48.5t1 -29.5q2 -16 4 -34.5t19 -29.5q16 -10 37.5 -10t42 7t38 19.5t25.5 26.5l-2 -49l76 -2v395h-92v-247q0 -27 1 -41.5t-4 -18.5q-5 -17 -24 -24q-18 -7 -29 22q-2 4 -1 19.5t1 40.5l-2 249h-92z M713 1018v108q0 57 10 91q12 36 39 53q28 20 69 20q36 0 62 -12q25 -10 41 -35q12 -18 18 -41q6 -26 6 -67v-105q0 -57 -6 -82q-1 -22 -20 -51q-18 -26 -39 -33q-26 -12 -57 -12q-34 0 -60 10q-25 7 -37 29q-13 18 -20 45q-6 27 -6 82zM795 963q0 -16 12 -28.5t29 -12.5 q16 0 28.5 12t12.5 29v217q0 18 -12.5 30.5t-28.5 12.5t-28.5 -12.5t-12.5 -30.5v-217zM852 94l76 2l6 33q37 -31 66.5 -37.5t50.5 5.5t32 40t11 66v205q0 58 -42 84q-14 8 -32 8q-33 0 -76 -31v154h-92v-529zM942 186v232q0 12 12.5 21.5t28.5 9.5t28.5 -9.5t12.5 -21.5 v-232q0 -12 -12.5 -21t-28.5 -9t-28.5 9t-12.5 21zM1016 955v44v275h86v-318q0 -12 9 -21t24 -9q14 0 24 9t10 21v318h80v-408h-102l2 33q-7 -10 -13.5 -18t-13.5 -13q-16 -10 -35 -10q-24 0 -38 10q-12 8 -23 27q-4 8 -5 16.5t-3 16.5q-1 5 -1.5 12t-0.5 15zM1149 229 q0 -78 41 -111q37 -31 80 -31h8q48 3 83 40q27 27 27 71q-1 7 -1.5 15t-2.5 16h-69v-10v-35q0 -16 -11.5 -25t-27.5 -9h-14q-16 0 -26.5 9t-10.5 25v4v39v52h159v55q0 31 -1 59.5t-5 44.5q-4 27 -24.5 43.5t-47.5 22.5q-17 4 -34 4q-11 0 -22 -2q-29 -4 -50 -19 q-27 -18 -39 -49q-12 -32 -12 -86v-123zM1225 346l2 49q0 16 12 26.5t29 10.5h4q18 0 30.5 -10t12.5 -27l-2 -49h-88z" />
<glyph unicode="z" d="M309 506q0 38 12 83.5t38.5 85.5t67 66.5t97.5 26.5q35 0 62.5 -12.5t66.5 -42.5q26 19 53 40.5t56 46.5l112 102q55 52 101.5 102.5t75.5 87.5q-112 31 -197.5 51t-140.5 20q-23 0 -55 -9t-74 -32q-70 16 -70 109q0 39 16 75.5t44 64.5t66 44.5t81 16.5q66 0 140 -14 t174 -47l157 -52q25 35 44 54.5t42 19.5q24 0 44.5 -12.5t36.5 -31t25 -41t9 -42.5q0 -47 -40 -99.5t-136 -111.5q-56 -74 -107.5 -132.5t-105.5 -111.5t-114 -104t-132 -109q48 -66 86.5 -118t70 -92t56 -68.5t44.5 -48.5q39 -39 67 -50q27 -10 59 -10q93 0 209 61 q16 -10 30.5 -32.5t14.5 -53.5q0 -43 -32 -86t-84 -78t-118.5 -57t-134.5 -22q-42 1 -77.5 8t-69 27t-67.5 55t-74 91t-88 136t-109 189q-17 -14 -38 -27.5t-45 -24.5q-47 -22 -83 -22q-15 0 -27 6t-20.5 20.5t-13.5 40t-5 64.5z" />
<glyph unicode="{" horiz-adv-x="1707" d="M300 244v20v124q0 6 2 12q2 5 4 11t7 11q149 176 296 349.5t296 349.5q-114 -23 -188 -24t-118.5 9t-65 24.5t-26.5 23.5l-1 1l-3 6q-5 13 -5.5 31t1.5 28q5 46 26.5 88t47.5 78q5 5 9 10.5t8 10.5q5 5 15.5 8t25.5 -5q11 -6 20.5 -11t11.5 -6q53 -21 110 -28.5t114 -9.5 q102 -5 202.5 4.5t200.5 29.5q9 2 15 0q5 -2 9.5 -6.5t2.5 -15.5l-15 -129q0 -5 -5 -11.5t-11.5 -12.5t-12.5 -12l-9 -9q-61 -71 -122 -141.5t-122 -141.5l-288 -333q-46 -55 -91 -106q-8 -10 -13 -16t-7 -12t-2.5 -14t-0.5 -22q60 3 119 -19.5t110 -54.5q44 -28 88 -54 q38 -22 81 -43.5t79 -33.5q38 -11 77.5 -16t77.5 -2t73 15.5t65 36.5q7 -35 6 -75t-10.5 -79t-28 -74t-45.5 -60.5t-62.5 -38.5t-80.5 -8q-67 8 -130.5 38.5t-120.5 63.5q-30 18 -58 38.5t-56 41.5t-56.5 41t-59.5 36q-40 21 -79 32.5t-78 17t-80 7t-84 1.5h-47 q-4 1 -9.5 5.5t-8.5 20.5z" />
<glyph unicode="|" horiz-adv-x="1707" d="M100 606v274h274v137q0 85 29 159.5t79 130t117 88t143 32.5h232v-270h-232q-17 0 -34 -10.5t-30.5 -29.5t-22 -44.5t-8.5 -55.5v-137h411v137q0 85 29 159.5t79 130t117 88t143 32.5h232v-270h-232q-17 0 -34 -10.5t-30.5 -29.5t-22 -44.5t-8.5 -55.5v-137h274v-274 h-274v-684h-273v684h-411v-684h-273v684h-274z" />
<glyph unicode="}" horiz-adv-x="1707" d="M200 438v921l77 77h998l77 -77v-606l230 529v-460l-230 -461v-384l-77 -77h-921l-77 77v153h845v231h-845zM430 591h692v615h-692v-615z" />
<glyph unicode="~" horiz-adv-x="1707" d="M186.5 895.5q1.5 34.5 10 68.5t30 56t58.5 26.5t95 -20.5q35 -46 56 -99.5t38 -110t35 -112t48 -104.5q29 -51 79 -82t107 -40q53 -9 105 -0.5t100 30.5t90.5 55.5t75.5 73.5q41 53 63.5 114t38.5 124t32.5 126.5t45.5 121.5q9 23 26.5 34.5t38.5 15.5t44 1.5t42 -7.5 q26 -11 41.5 -31.5t24.5 -46t12 -53t3 -52.5q-3 -119 -43.5 -234.5t-110.5 -213t-167 -170t-213 -105.5q-70 -20 -144 -22.5t-146.5 10.5t-141 41t-128.5 70.5t-108.5 97.5t-81.5 123q-13 24 -20.5 49t-12 50.5t-8 51.5t-7.5 52q-1 2 -1 3.5t-1 3.5q-2 12 -4.5 41t-1 63.5z M556 975.5q-4 44.5 3 88t25.5 83.5t48.5 72q21 22 51 24t51 -23q34 -30 58 -69t36 -83.5t11.5 -91t-13.5 -89.5q-10 -26 -30 -43.5t-45 -26t-53 -8t-52.5 9.5t-44 27t-28.5 45q-14 40 -18 84.5zM879.5 1133.5q1.5 39.5 11 76.5t29.5 67t56 47q34 5 59 -10t42.5 -40t27.5 -56 t14 -58q6 -41 8 -88.5t-7.5 -91.5t-33 -80t-68.5 -54q-40 1 -65.5 23t-40.5 53.5t-22 68.5t-10 68q-2 35 -0.5 74.5z" />
<glyph unicode="&#xa2;" d="M100 501q0 88 23.5 169t66.5 151.5t103.5 128.5t134 99.5t158 64t175.5 22.5q54 0 105.5 -8t100.5 -23v-384q-59 28 -121 38q-27 4 -57 4.5t-62.5 -5.5t-66 -19t-66.5 -37q-67 -48 -97 -94t-41 -83q-12 -43 -5 -82q6 -59 35 -105q12 -20 31 -39t45.5 -33.5t62 -23.5 t82.5 -9q52 0 95 11t78 28.5t62.5 40t47.5 46.5q48 55 74 127v580q41 -20 78 -44.5t73 -53.5q90 -55 183 -87t199 -29q7 0 13 -4q5 -4 9.5 -14t4.5 -30q0 -22 -8.5 -46t-30.5 -48q-17 -24 -42 -46q-21 -19 -52.5 -40t-74.5 -35q3 -21 5 -43t2 -45q0 -132 -52 -247.5 t-142 -201.5t-210.5 -136t-257.5 -50q-91 0 -175.5 22.5t-158 64t-134 99.5t-103.5 128.5t-66.5 151.5t-23.5 169z" />
<glyph unicode="&#xa3;" d="M100 233q91 -1 172.5 -15.5t151.5 -38t129.5 -53.5t107.5 -61q113 -73 196 -165q82 92 196 165q48 31 107.5 61t130 53.5t151.5 38t173 15.5v201q-154 -11 -297 -45q-61 -15 -125 -36t-125 -50.5t-115.5 -68t-95.5 -87.5q-41 49 -95 87.5t-115 68t-125 50.5t-125 36 q-143 34 -297 45v-201zM146 726q1 36 9 78q13 45 35.5 73t45 44t41.5 22t25 7q35 82 93 151t132 119t162.5 77.5t185.5 27.5t186 -27.5t163.5 -77.5t132 -119.5t92.5 -152.5q3 0 9 -2v297q-25 10 -40.5 32t-15.5 50q0 38 26.5 64t64.5 26t64.5 -26t26.5 -64q0 -32 -20 -55.5 t-50 -31.5v-320q22 -16 43 -43t34 -71q8 -42 9 -78q1 -31 -4.5 -61.5t-24.5 -44.5q-8 -9 -21 -20q-11 -9 -29.5 -20t-44.5 -21q-4 -15 -9 -30.5t-10 -29.5q-20 -4 -41 -7.5t-44 -8.5q33 57 50.5 120.5t17.5 132.5q0 111 -45 208t-122 169.5t-181 114.5t-222 42t-222 -42 t-181 -114.5t-122 -169.5t-45 -208q0 -71 18.5 -136t52.5 -123q-20 5 -38 8.5t-36 6.5q-7 16 -12 32t-10 33h-1q-28 10 -47 21.5t-31 20.5q-14 11 -22 21q-19 14 -24.5 44.5t-3.5 61.5zM361 644q0 103 39.5 194t108.5 158.5t161 106.5t197 39t197 -39t160.5 -106.5 t108.5 -158.5t40 -194q0 -48 -8.5 -92.5t-25.5 -86.5q-62 -14 -129 -35t-131 -51t-121.5 -69.5t-100.5 -91.5q-41 49 -95.5 88t-115.5 68.5t-125 50.5t-125 36q-17 42 -26 88t-9 95zM515 723q0 -23 16.5 -39.5t39.5 -16.5q24 0 40.5 16.5t16.5 39.5t-16.5 39.5t-40.5 16.5 q-23 0 -39.5 -16.5t-16.5 -39.5zM588 864q0 -36 25.5 -61t61.5 -25q37 0 62.5 25t25.5 61t-25.5 61t-62.5 25q-36 0 -61.5 -25t-25.5 -61z" />
<glyph unicode="&#xa5;" d="M300 105l113 152q46 -47 104 -84q50 -32 118.5 -57.5t151.5 -25.5q64 0 121.5 21.5t100.5 59.5t68 90.5t25 115.5q0 67 -26.5 119.5t-72.5 88t-108 54t-132 18.5q-31 0 -57 -1t-34 -3l-50 111l374 443q9 11 19 21t19 18q10 9 20 17v4q-13 -2 -27 -3q-12 -2 -26 -2.5 t-25 -0.5h-428v-193h-189v368h937v-148l-407 -470q72 -8 148.5 -35.5t140.5 -79t105 -130t41 -187.5q0 -97 -37.5 -185t-106 -155t-165.5 -106.5t-217 -39.5q-59 0 -112 9t-99 23t-85 32.5t-71 37.5q-75 45 -131 103z" />
<glyph unicode="&#xa7;" horiz-adv-x="1707" d="M167 732q0 94 24 181.5t68 163.5t105 138t136 106.5t161 69t179 24.5t179 -24.5t161 -69t136.5 -106.5t105.5 -138t68 -163.5t24 -181.5q0 -92 -23 -177t-65 -159.5t-101 -136.5t-131 -107q15 -35 43.5 -59t57.5 -39q33 -18 72 -28v-116q-78 -15 -136 -8t-101.5 29.5 t-75 58t-55.5 79.5q-38 -9 -77.5 -14t-81.5 -5q-93 0 -179 24.5t-161 68.5t-136 106.5t-105 138t-68 163t-24 181.5zM502 642q0 -88 27 -165.5t73.5 -135t109 -91t133.5 -33.5q41 0 80 11q-26 45 -55.5 69t-54.5 36q-30 14 -58 17v134q55 3 104 -7t91.5 -28.5t78 -44.5 t63.5 -56q45 58 70 133t25 161v176q0 88 -27 165.5t-73.5 135.5t-109.5 91.5t-134 33.5t-133.5 -33.5t-109 -91.5t-73.5 -135.5t-27 -165.5v-176z" />
<glyph unicode="&#xa8;" horiz-adv-x="1707" d="M96 457q0 40 16.5 73.5t45.5 58.5v-264q-29 24 -45.5 58t-16.5 74zM223 291v331q24 8 48 8q12 0 17 -1v-345h-17q-12 0 -24.5 2t-23.5 5zM354 284v326q3 -2 6.5 -4t6.5 -4q12 65 53 118v-436h-66zM485 284v496q29 19 65 33v-529h-65zM615 284v542q6 0 12 0.5t12 0.5 q21 0 41 -3v-540h-65zM713 284v533q37 -11 69 -29l14 20t16 19v-543h-99zM845 284v576q43 38 99.5 60t120.5 22t121.5 -23t102 -62.5t73 -93.5t34.5 -116q18 8 35 12t38 4q40 0 73.5 -15t58.5 -41t39 -60t14 -73q0 -37 -11.5 -70t-34.5 -58.5t-58.5 -41.5t-84.5 -19v-1h-620 z" />
<glyph unicode="&#xa9;" horiz-adv-x="1707" d="M96 922q-2 13 4 28q3 9 19 4.5t39 -17t52 -30.5t60 -35.5t61 -31.5t55 -20q37 -9 86 -15.5t97.5 -11t92.5 -6t71 -0.5q28 1 50 -3.5t40.5 -13.5t34.5 -21.5t31 -26.5q2 -2 8 -6v28q0 13 15.5 23t38.5 16t49 9t47 3h251q7 0 29 6t52.5 16t64.5 23t66.5 28t58.5 30.5 t39 30.5q20 22 38.5 29.5t28 -0.5t7.5 -32t-23 -65q-23 -44 -57 -74t-75 -54t-87 -44.5t-92 -44.5v-250q0 -9 -4 -30.5t-14 -48.5t-26.5 -55.5t-41 -52.5t-58 -39.5t-76.5 -15.5q-65 0 -109 16.5t-71 39t-39 46.5t-12 39v233q-26 6 -50 18v-251q0 -16 -11.5 -33.5t-32 -32.5 t-48 -24.5t-59.5 -9.5t-75 20t-81.5 50.5t-65.5 65.5t-27 65v271q-65 26 -121 53q-24 11 -48.5 24t-46.5 26t-39 26.5t-27 25.5q-20 24 -34.5 42t-23.5 32.5t-11 27.5zM493 1052q0 36 14 68t38 56t56 38t68 14t68 -14t56 -38t37.5 -56t13.5 -68t-13.5 -68t-37.5 -56t-56 -38 t-68 -14t-68 14t-56 38t-38 56t-14 68zM955 1052q0 36 14 68t37.5 56t55.5 38t68 14t68 -14t56 -38t38 -56t14 -68t-14 -68t-38 -56t-56 -38t-68 -14t-68 14t-55.5 38t-37.5 56t-14 68z" />
<glyph unicode="&#xaa;" d="M136 683q0 143 54 268.5t148 219.5t219.5 148t268.5 54t268.5 -54t219.5 -148t148 -219.5t54 -268.5t-54 -268.5t-148 -219.5t-219.5 -148t-268.5 -54t-268.5 54t-219.5 148t-148 219.5t-54 268.5zM341 593h2q7 -94 48 -175.5t106 -141.5t149.5 -94.5t179.5 -34.5 t179.5 34.5t149.5 94.5t105.5 141.5t48.5 175.5h2v180h-970v-180zM395 612v110h851v-110h-851zM571 970q0 -37 26 -63t64 -26q37 0 63.5 26t26.5 63q0 38 -26.5 64t-63.5 26q-38 0 -64 -26t-26 -64zM912 970q0 -37 26.5 -63t63.5 -26q38 0 64 26t26 63q0 38 -26 64t-64 26 q-37 0 -63.5 -26t-26.5 -64z" />
<glyph unicode="&#xad;" horiz-adv-x="1707" d="M200 257v662q0 22 8 41.5t22.5 33.5t33.5 22.5t41 8.5h1128q45 0 75.5 -30.5t30.5 -75.5v-662q0 -22 -8.5 -41t-22.5 -33.5t-33.5 -22.5t-41.5 -8h-933q-11 -45 -39 -69.5t-57 -36.5q-34 -14 -74 -18q23 41 25.5 75.5t0.5 48.5h-51q-22 0 -41 8t-33.5 22.5t-22.5 33.5 t-8 41zM372 466q0 -21 14.5 -35.5t35.5 -14.5t35.5 14.5t14.5 35.5t-14.5 35.5t-35.5 14.5t-35.5 -14.5t-14.5 -35.5zM776 313q13 -38 45.5 -62.5t74.5 -24.5q26 0 49 10t40 27t27 40.5t10 49.5v10zM1272 466q0 -21 14.5 -35.5t35.5 -14.5q20 0 35 14.5t15 35.5t-15 35.5 t-35 14.5q-21 0 -35.5 -14.5t-14.5 -35.5z" />
<glyph unicode="&#xae;" horiz-adv-x="1707" d="M100 646v62q4 68 19 129t37 117q28 72 70 137t93 108q0 -35 1 -66t5 -52q11 -65 43.5 -130t77.5 -110q36 -35 82 -62t96 -53q99 -53 194 -101t193 -100q31 -17 62.5 -36t58 -42.5t46.5 -51t29 -60.5q13 -47 7.5 -92t-21.5 -84.5t-39 -72.5t-45 -56q-41 -43 -93.5 -71 t-116.5 -38h-101q-156 17 -278 77.5t-207 153.5q-42 46 -79 99t-65 114t-46.5 131t-22.5 150zM585 1211q1 15 6.5 34t13 38t17.5 36.5t22 30.5q34 38 87 57t112 29h38q150 -12 276 -64t221 -141t156 -213t81 -280v-119q-3 0 -3 -6q-7 -89 -31.5 -165t-57.5 -136 q-11 -21 -24.5 -40.5t-28.5 -33.5q7 124 -27 212.5t-94 154.5q-34 36 -76 63t-90 52l-186 96t-184 96q-44 23 -87 48.5t-76 59t-51.5 80t-13.5 111.5z" />
<glyph unicode="&#xb0;" horiz-adv-x="1707" d="M100 639q0 110 27.5 212t77.5 190.5t120 161t155.5 124.5t183.5 80.5t204 28.5t204 -28.5t183.5 -80.5t155.5 -124.5t120 -161t77.5 -190.5t27.5 -212q0 -8 -0.5 -15.5t-0.5 -15.5q-4 106 -33.5 204.5t-80.5 183.5t-120.5 154.5t-153.5 119.5t-180 77t-199 27 q-104 0 -199.5 -27t-179.5 -77t-153.5 -119.5t-120 -154.5t-80 -183.5t-33.5 -204.5q-1 8 -1.5 15.5t-0.5 15.5zM381 640q0 -8 0.5 -15t1.5 -15q6 99 46 185.5t105 150.5t151 101t183 37t183 -37t151 -101t105 -150.5t46 -185.5q1 8 1.5 15t0.5 15q0 70 -17.5 134.5 t-49 120.5t-76 102t-98.5 79t-116.5 51t-129.5 18t-129.5 -18t-116.5 -51t-98.5 -79t-76 -102t-49 -120.5t-17.5 -134.5zM636 341q0 -91 18 -171.5t49.5 -140.5t74 -94.5t90.5 -34.5t90 34.5t73.5 94.5t50 140.5t18.5 171.5t-18.5 142t-50 75t-73.5 29t-90 5t-90.5 -5 t-74 -29t-49.5 -75t-18 -142zM709 771q0 -34 12.5 -64t34 -52.5t50.5 -35.5t62 -13t62 13t50.5 35.5t34 52.5t12.5 64t-12.5 64t-34 52.5t-50.5 35.5t-62 13t-62 -13t-50.5 -35.5t-34 -52.5t-12.5 -64z" />
<glyph unicode="&#xb1;" horiz-adv-x="1707" d="M100 798q0 40 15.5 76t42 62t62 41.5t76.5 15.5q35 0 66.5 -11.5t56.5 -31.5t43 -47.5t26 -60.5l402 -136q30 29 69 46.5t84 18.5l61 183q0 2 -0.5 5.5t-0.5 5.5q0 52 20 97.5t54 79.5t79.5 53.5t97.5 19.5t98 -19.5t80 -53.5t53.5 -79.5t19.5 -97.5q0 -41 -12.5 -78 t-35 -68t-53 -54t-67.5 -36l-169 -144q3 -17 3 -35q0 -46 -17.5 -86t-47.5 -70t-70.5 -47.5t-86.5 -17.5q-40 0 -75.5 13t-64.5 36t-49 54.5t-28 68.5l-417 141q-26 -19 -55.5 -29.5t-63.5 -10.5q-41 0 -76.5 15.5t-62 42t-42 62t-15.5 76.5zM162 798q0 -28 10.5 -53 t29.5 -43.5t43.5 -29t53.5 -10.5q11 0 21 1t20 5l-66 22q-20 10 -33 26.5t-19 36.5t-4.5 41t12.5 41q11 19 28 32.5t36.5 19.5t41 4t41.5 -12l43 -14q-18 32 -50 51t-71 19q-29 0 -53.5 -10.5t-43.5 -29.5t-29.5 -44t-10.5 -53zM872 487q14 -45 53 -74.5t89 -29.5 q31 0 58 11.5t47 32t31.5 47.5t11.5 57t-11.5 57t-31.5 47.5t-47 32t-58 11.5q-19 0 -34 -4l84 -28q19 -11 32.5 -27.5t19.5 -36t4 -41t-12 -40.5q-11 -20 -27.5 -33.5t-36.5 -19.5t-41.5 -4.5t-41.5 12.5zM1158 965q0 -41 15.5 -76.5t42 -61.5t62 -41.5t76.5 -15.5 q40 0 75.5 15.5t62 41.5t42 61.5t15.5 76.5q0 40 -15.5 75.5t-42 61.5t-62 41.5t-75.5 15.5q-41 0 -76.5 -15.5t-62 -41.5t-42 -61.5t-15.5 -75.5zM1214 963q0 29 11 54.5t30 44t44.5 29.5t54.5 11q28 0 53.5 -11t44 -29.5t29.5 -44t11 -54.5t-11 -54t-29.5 -43.5t-44 -29.5 t-53.5 -11q-29 0 -54.5 11t-44.5 29.5t-30 43.5t-11 54z" />
<glyph unicode="&#xb2;" />
<glyph unicode="&#xb3;" />
<glyph unicode="&#xb4;" horiz-adv-x="1707" d="M101 467q-6 110 16.5 220.5t68.5 204.5q14 28 26 45t23 25q11 10 23 13h1269q30 -5 54 -20q20 -13 37.5 -37.5t17.5 -67.5q0 -21 -12 -73t-37.5 -123t-65 -154.5t-94 -167t-124.5 -161.5t-156.5 -138.5t-190.5 -96.5t-226 -36q-163 0 -279.5 47t-192 126t-113.5 181.5 t-44 212.5zM248.5 542q-3.5 -77 11 -153t53.5 -142q36 -60 86 -98t106.5 -59t114.5 -29t110 -8q93 0 173 26.5t148 72t124.5 104.5t102 123.5t80.5 131t60.5 126t41 107.5t22.5 77h-1164q-29 -57 -47.5 -129.5t-22 -149.5zM424 1321q0 24 11.5 44.5t32 36.5t47.5 25t58 9 t58 -9t47 -25t31.5 -36.5t11.5 -44.5t-11.5 -45t-31.5 -36.5t-47 -24.5t-58 -9t-58 9t-47.5 24.5t-32 36.5t-11.5 45zM1092 1321q0 -24 11.5 -45t32 -36.5t47.5 -24.5t58 -9t58 9t47 24.5t31.5 36.5t11.5 45t-11.5 44.5t-31.5 36.5t-47 25t-58 9t-58 -9t-47.5 -25t-32 -36.5 t-11.5 -44.5z" />
<glyph unicode="&#xb5;" horiz-adv-x="1707" d="M134 934q0 28 10.5 52.5t29 43t43 29t52.5 10.5q37 0 67 -18t48 -48l227 97q-1 6 -1.5 11.5t-0.5 10.5q0 21 8 39.5t21.5 32t31.5 21.5t39 8t39 -8t31.5 -21.5t21.5 -32t8 -39.5q0 -10 -1 -15l360 -113q14 19 34.5 30t44.5 11q21 0 39.5 -8t32 -22t21.5 -32t8 -39 q0 -36 -22 -63l73 -140q19 6 40 6q28 0 52.5 -10.5t42.5 -29t28.5 -43t10.5 -52.5t-10.5 -52.5t-28.5 -43t-42.5 -29t-52.5 -10.5q-39 0 -70.5 19.5t-48.5 51.5l-355 -129q-7 -38 -26.5 -70.5t-47.5 -56t-63.5 -37t-75.5 -13.5q-45 0 -84.5 17t-69 46.5t-46.5 69t-17 84.5 q0 25 5.5 48.5t15.5 44.5l-222 274q-31 -17 -65 -17q-28 0 -52.5 10.5t-43 29t-29 43t-10.5 52.5zM401 910l198 -218q-5 17 -7.5 35t-2.5 36q0 53 19.5 100t53 83t79 58.5t98.5 25.5l-61 20q-14 -13 -31.5 -20.5t-37.5 -7.5q-23 0 -41.5 9t-32.5 24l-232 -125q0 -5 -0.5 -10 t-1.5 -10zM626 626h1q0 1 -1 2v-2zM660 763q0 -59 31 -105q32 8 61 8q54 0 99 -23.5t74 -62.5q56 21 91.5 70.5t35.5 112.5q0 41 -15.5 77t-42 62.5t-62.5 42t-76 15.5q-41 0 -76.5 -15.5t-62 -42t-42 -62.5t-15.5 -77zM987 530l324 116q5 17 15 31t22 25l-77 134 q-12 -3 -24 -3q-20 0 -37.5 7.5t-31 20t-21.5 29.5t-9 37l-119 39q43 -36 68.5 -88.5t25.5 -114.5q0 -75 -37.5 -136.5t-98.5 -96.5z" />
<glyph unicode="&#xb6;" horiz-adv-x="1707" d="M300 126q0 23 11.5 40.5t30.5 26.5v316q0 48 31.5 81t77.5 37v153q7 80 36 150q12 30 30 61t43.5 60t59 53t76.5 41q51 20 97 28t87 10q41 -2 87.5 -10t97.5 -28q43 -17 76.5 -41t59 -53t43.5 -60t30 -61q28 -70 36 -150v-153q46 -4 77.5 -37t31.5 -81v-316 q18 -9 29.5 -26.5t11.5 -40.5q0 -31 -21 -52.5t-52 -21.5t-52.5 21.5t-21.5 52.5q0 23 11.5 40.5t30.5 26.5v211q-21 -11 -45 -12v-73q0 -5 0.5 -9t0.5 -9t-0.5 -9.5t-0.5 -9.5v-2q-4 -46 -22.5 -86.5t-48.5 -71.5t-69.5 -51t-84.5 -25v-2h-409v2q-45 5 -84.5 25t-69.5 51 t-48.5 71.5t-22.5 86.5v2q-1 5 -1 9.5v9.5v9t1 9v73q-26 2 -45 12v-211q18 -9 29.5 -26.5t11.5 -40.5q0 -31 -21.5 -52.5t-51.5 -21.5q-31 0 -52.5 21.5t-21.5 52.5zM582 812q0 -35 11 -55.5t25 -30.5q16 -12 37 -15q10 -3 24 -4t29 -0.5t29 1.5t23 3q8 1 26 3t36.5 4 t34.5 3.5t21 2.5l2 -1l2 1q5 -1 21 -2.5t35 -3.5t36.5 -4t26.5 -3q9 -2 22.5 -3t28.5 -1.5t29 0.5t24 4q20 4 37 15q14 10 25.5 30t11.5 56q-1 30 -9 61q-7 26 -22 55.5t-43 53.5q-27 23 -59 38t-62.5 23t-57 11.5t-42.5 3.5h-2h-2h-2h-2q-16 0 -42.5 -3.5t-57 -11.5 t-62.5 -23t-59 -38q-28 -24 -42.5 -53.5t-21.5 -55.5q-8 -31 -9 -61zM631 823q0 23 16 39.5t39 16.5t39 -16.5t16 -39.5t-16 -39.5t-39 -16.5t-39 16.5t-16 39.5zM696 28h361q-10 -28 -28 -51.5t-41.5 -40.5t-52 -26.5t-59.5 -9.5q-63 0 -111.5 35.5t-68.5 92.5zM803 1362 q0 31 21.5 52.5t51.5 21.5q31 0 52.5 -21.5t21.5 -52.5q0 -22 -11.5 -39.5t-29.5 -27.5v-74h-70v77q-16 9 -26 26t-10 38zM932 515q0 -15 10.5 -25.5t25.5 -10.5q14 0 24.5 10.5t10.5 25.5t-10.5 25.5t-24.5 10.5q-15 0 -25.5 -10.5t-10.5 -25.5zM1012 823q0 23 16 39.5 t39 16.5t39 -16.5t16 -39.5t-16 -39.5t-39 -16.5t-39 16.5t-16 39.5zM1020 515q0 -15 10.5 -25.5t24.5 -10.5q15 0 25.5 10.5t10.5 25.5t-10.5 25.5t-25.5 10.5q-14 0 -24.5 -10.5t-10.5 -25.5zM1107 515q0 -15 10.5 -25.5t24.5 -10.5q15 0 25.5 10.5t10.5 25.5t-10.5 25.5 t-25.5 10.5q-14 0 -24.5 -10.5t-10.5 -25.5z" />
<glyph unicode="&#xb9;" />
<glyph unicode="&#xba;" d="M400 412v1024h293v-1024q0 -45 17 -85t47 -70t70 -47t85 -17t85 17t70 47t47 70t17 85t-17 85t-47 70t-70 47t-85 17h-146v293h146q106 0 199 -40.5t162.5 -110t110 -162.5t40.5 -199t-40.5 -199t-110 -162.5t-162.5 -110t-199 -40.5t-199 40.5t-162.5 110t-110 162.5 t-40.5 199z" />
<glyph unicode="&#xc3;" />
<glyph unicode="&#xc4;" d="M0 761q36 12 78 18.5t88 8.5t94.5 2h96.5q-15 46 -19.5 103t2.5 112.5t26 103t52 74.5q-9 23 -12.5 52t-1.5 58t9.5 55t19.5 44q36 -2 65 -10t54.5 -20t48.5 -26.5t45 -29.5q57 16 118 23.5t138 2.5q32 -2 64 -11t57 -7q12 1 24 7.5t24.5 15t24.5 17t24 13.5 q30 13 58 18.5t63 6.5q8 -19 14.5 -43t9 -50t1 -52t-9.5 -49q33 -28 54.5 -74t31.5 -100.5t7.5 -114.5t-18.5 -115q46 -4 96 -4.5t98.5 -2t93 -7t80.5 -19.5q-33 4 -72 10t-81 10.5t-86.5 6.5t-87.5 -1q-8 -1 -17.5 -1.5t-17.5 -3t-13 -8t-4 -17.5q100 -8 196.5 -19.5 t178.5 -37.5q-81 14 -177 30.5t-198 18.5q-42 -83 -124 -125t-199 -51q6 -14 14.5 -24t16.5 -21.5t15 -26t10 -36.5q4 -33 2 -71.5t-3.5 -76t0 -70.5t12.5 -55q5 -11 12 -17t14 -11l14 -10t13 -14q-14 -17 -37 -17.5t-45 9t-39.5 26t-21.5 34.5q-7 30 -4.5 67t5 73.5 t-1 68.5t-22.5 53q1 -33 -1.5 -71.5t-4.5 -77.5t-0.5 -76t10.5 -67q3 -12 9.5 -20.5t11.5 -16t8.5 -16t0.5 -18.5q-44 -5 -69 11t-37.5 45.5t-15 69t-2.5 82.5t-0.5 86.5t-7.5 79.5q-10 -1 -13.5 -7.5t-4 -15.5t1 -18t1.5 -15q0 -36 1 -74.5t0 -75.5t-6 -69.5t-18.5 -56 t-37.5 -35.5t-62 -7q-2 11 1 19t8 15.5t11 15t9 17.5q10 30 11 66.5t-1.5 75.5t-4.5 78.5t3 75.5q-22 -17 -24 -51t1 -74.5t4.5 -81t-11.5 -70.5q-8 -17 -23.5 -29t-35 -18t-41 -6t-40.5 8q3 13 10 19.5t15.5 11.5t17 11t14.5 18q7 16 8.5 36t0 42t-3 46t1.5 48 q-81 -17 -141 1.5t-92 69.5q-14 23 -20.5 48t-23.5 46q-9 10 -19 16.5l-20 13t-18 15t-12 22.5q33 8 57 1t43 -22.5t35 -36t34 -39t39.5 -31.5t51.5 -14q14 -1 25 1t21.5 5l21 6t23.5 6q6 32 21 56.5t38 41.5q-56 7 -106.5 20.5t-93 34.5t-76 51.5t-54.5 72.5 q-206 -11 -376 -52q79 29 173 40.5t199 15.5q-3 18 -16.5 26t-32 10t-39 0.5t-36.5 -2.5q-31 -2 -65 -4.5t-67.5 -5.5t-64 -7.5t-55.5 -8.5z" />
<glyph unicode="&#xc5;" d="M400 898q0 224 110 379q107 155 313 159q117 0 215 -63q97 -64 139 -191h4v229h72v-1037q0 -17 -1.5 -44.5t-3.5 -65.5q-8 -79 -46 -162q-38 -86 -125 -143q-89 -59 -247 -59q-161 0 -264 76q-107 78 -118 264h72q15 -143 102 -206q86 -64 210 -64q127 1 200 53 q72 46 105 113q32 69 40 132q2 29 3 51t1 36v252h-4q-105 -247 -354 -250q-214 3 -319 157q-104 152 -104 384zM472 898q0 -195 90 -330q90 -138 261 -141q181 3 268 145q88 134 88 326q0 191 -88 327q-87 137 -268 141q-177 -4 -263 -145q-88 -140 -88 -323z" />
<glyph unicode="&#xc6;" horiz-adv-x="3410" d="M823 701q0 124 30 221t89.5 164.5t146.5 103t201 35.5q104 0 183 -20t139 -64t104 -115t77 -173l68 -205q19 -57 46 -105t67.5 -83t97 -54.5t135.5 -19.5q106 0 163 25t57 80q0 48 -31.5 79.5t-109.5 51.5l-142 32q-130 31 -185.5 98.5t-55.5 173.5q0 87 31 144.5t82 92 t117 48.5t137 14q161 0 253 -62.5t103 -199.5l-204 -26q-8 67 -48 96t-115 29q-71 0 -108.5 -29t-37.5 -81q0 -48 24 -76t91 -44l136 -32q67 -16 118 -41t85.5 -61t52 -84.5t17.5 -111.5q0 -77 -31 -131t-87.5 -88t-136 -49.5t-175.5 -15.5q-136 0 -230 28.5t-158 78 t-103.5 115t-64.5 140.5l-63 210q-20 57 -42 106t-55 84.5t-80 56t-116 20.5q-47 0 -93 -18t-82.5 -58.5t-59 -107t-22.5 -162.5q0 -75 18.5 -135t51.5 -102t78 -65t98 -23q61 0 111.5 18.5t86.5 41.5q42 26 75 61l63 -178q-35 -31 -85 -56q-43 -21 -107.5 -38t-153.5 -17 q-108 0 -192 31t-141.5 92t-87.5 151.5t-30 208.5z" />
<glyph unicode="&#xc7;" d="M100 709q0 72 19.5 137.5t55.5 125.5l425 -429l-296 -247q-95 81 -149.5 186.5t-54.5 226.5zM208 1020q49 66 117.5 119.5t151 92t177.5 59.5t198 21q142 0 267 -39t225 -108l-701 -586zM262 10q42 61 71 119t48 110q-8 5 -16.5 10.5t-16.5 11.5l53 45l138 109h5l95 84 l1 3l7 7l328 274l456 -460q-52 -50 -116.5 -90t-138 -68.5t-155.5 -43.5t-169 -15q-52 0 -102.5 5.5t-98.5 16.5q-40 -33 -87 -63.5t-97.5 -50t-103 -23t-101.5 18.5zM1019 820l371 310q100 -82 157 -189.5t57 -231.5q0 -97 -35.5 -184.5t-99.5 -161.5z" />
<glyph unicode="&#xc9;" d="M100 773q0 83 27 160.5t76.5 144.5t118.5 122t153 94.5t181 61t202 21.5q104 0 201 -21.5t181 -61t153 -94.5t118.5 -122t76.5 -144.5t27 -160.5q0 -106 -43.5 -201.5t-120 -172.5t-181.5 -132t-228 -79q-38 -50 -84 -100.5t-98.5 -95t-110.5 -79t-121 -51.5 q32 86 48 167t22 154q-128 22 -237.5 76t-189.5 132t-125.5 175.5t-45.5 206.5zM1054 1173q52 -31 95 -73.5t73.5 -93.5t47 -110t16.5 -123q0 -58 -14 -112t-39.5 -102t-61.5 -89t-81 -73q7 -1 14 -1.5t15 -0.5t16.5 0.5t16.5 1.5t15 1.5t15 2.5q64 12 119 47t95.5 86 t63.5 116t23 137q0 81 -28.5 153t-78 125t-116 84t-141.5 31q-36 0 -65 -7z" />
<glyph unicode="&#xd1;" d="M307 920q10 96 45.5 174t89 138t121.5 102.5t142.5 67t152 31.5t150.5 -3q36 -5 83.5 -22t89 -46.5t69 -73t25.5 -101.5q-2 -52 -29 -87t-65 -51.5t-79.5 -13t-73.5 29.5t-47 75t1 124q-70 14 -125 -15.5t-93.5 -86t-60 -133.5t-24 -158.5t14 -159t53.5 -137t95.5 -92 t139.5 -22.5q11 27 13.5 63.5t1.5 76t-3 79.5t1 75h382q-8 -64 -8.5 -129.5t1.5 -130.5t2.5 -127t-7 -119t-25 -106.5t-52.5 -89.5t-84.5 -68.5t-105.5 -44t-115 -18t-112 9.5t-96.5 39t-68.5 70t-28 103.5t24 138.5q-107 51 -188 103.5t-132 123.5t-70.5 169.5t-4.5 241.5z M829.5 216.5q-1.5 -24.5 9.5 -47.5t41 -40q69 14 96 69.5t19 147.5q-5 15 -26 12q-24 -2 -48 -15.5t-43.5 -33t-33 -44t-15 -49z" />
<glyph unicode="&#xd6;" d="M100 -100v1536h1536v-1536h-1536zM464 1214l336 -664v-377h136v377l335 664h-148l-255 -500l-246 500h-158z" />
<glyph unicode="&#xd8;" d="M147 763q0 -53 20 -104t60 -92q40 -40 90.5 -60t103.5 -20t103.5 20t90.5 60l435 441q10 10 15 22.5t5 25.5t-5 26t-15 23q-20 20 -48.5 20t-48.5 -20q-5 -5 -9 -12l-426 -428q-20 -20 -45.5 -30.5t-51.5 -10.5t-51.5 10.5t-45.5 30.5t-30.5 45.5t-10.5 52t10.5 52 t30.5 45.5l415 419q-20 20 -45.5 30t-52 10t-52 -10t-45.5 -30l-317 -321q-40 -41 -60 -91.5t-20 -103.5zM350 763q0 13 5 26t15 23q3 3 6 5.5t6 4.5l427 429q40 40 91 60.5t104 20.5t103.5 -20.5t90.5 -60.5q20 -20 18.5 -48.5t-21.5 -48.5t-48 -20t-49 20l-6 8 q-20 17 -44.5 25t-49.5 7t-49 -11.5t-43 -29.5l-436 -438q-22 -21 -50.5 -21t-49.5 21q-10 10 -15 22.5t-5 25.5zM496 324q0 -29 20 -49q3 -2 5.5 -4.5t5.5 -4.5q40 -37 90 -55t101 -17t100 21.5t88 59.5l435 440q10 10 15 22.5t5 25.5t-5 26t-15 23t-22.5 15t-25.5 5 t-26 -5t-23 -15q-2 -2 -4.5 -5t-4.5 -7l-426 -428q-20 -20 -45 -30.5t-51.5 -10.5t-52 10.5t-45.5 30.5l-2 1q-10 10 -22.5 15t-25.5 5t-26 -5t-23 -15q-20 -20 -20 -49zM642 470.5q0 -28.5 20 -48.5q20 -21 48.5 -21t50.5 21l437 439q20 20 45 30t51.5 10t52 -10t45.5 -30 q20 -21 30 -46.5t10 -52t-10 -52t-30 -45.5l-414 -418q20 -20 45.5 -30.5t51.5 -10.5t51.5 10.5t45.5 30.5l316 320q40 41 60.5 92t20.5 104t-20.5 103.5t-60.5 91.5q-40 40 -90.5 60.5t-103 20.5t-103 -20.5t-90.5 -60.5l-428 -429q-3 -3 -11 -9q-20 -21 -20 -49.5z" />
<glyph unicode="&#xdc;" d="M3 340v276h55v232h-55v276h417v-196q20 8 43 13t49 5q44 0 81.5 -17t64.5 -47t42.5 -70.5t15.5 -87.5v-108h57v-75h-56v-128h56v-73h-770zM78 413h292v128h-23v116q10 43 25 63.5t32 20.5t21 -22t4 -51v-127h-25v-128h295v128h-57v183q0 31 -10 58t-27 47t-41 31t-52 11 q-29 0 -54.5 -9t-46.5 -23.5t-37.5 -33.5t-26.5 -39v284h-269v-127h55v-382h-55v-128zM643 340v276h57v45h-57v274h105v144h313v-463h55v-276h-473zM717 413h326v128h-57v321h-269v-128h57v-193h-57v-128zM821 896h165v110h-165v-110zM986 541v75q3 11 7 23t9 23h-2l85 462 h571l-15 -298q29 -38 44 -82.5t15 -89.5q0 -73 -27 -133.5t-75 -104t-115 -68t-147 -24.5q-103 0 -176 30t-117 77v110h-57zM1062 575q0 -33 19.5 -64.5t55.5 -56.5t88 -40t117 -15q70 0 124.5 20t91 54.5t55.5 80.5t19 99q0 36 -13 72t-39 64.5t-64 46.5t-89 18 q-57 0 -98.5 -16t-55.5 -38l16 87h286l9 163h-431l-60 -325l162 -21q5 15 18 24t38 9q32 0 47.5 -26t15.5 -64q0 -22 -5 -43t-15 -37t-25.5 -26t-36.5 -10q-30 0 -40 11t-10 28q0 12 4 21t4 26q0 29 -19 50t-56 21q-27 0 -48 -9.5t-35.5 -25t-22 -36t-7.5 -42.5z" />
<glyph unicode="&#xdf;" horiz-adv-x="1707" d="M100 568q0 56 21 105.5t58 86t86.5 58t105.5 21.5q51 0 95 -17.5t79 -47.5l550 275q0 5 -0.5 8.5t-0.5 7.5q0 56 21 105.5t58 86t86.5 58t105.5 21.5t105.5 -21.5t86 -58t58 -86t21.5 -105.5t-21.5 -105.5t-58 -86.5t-86 -58t-105.5 -21q-51 0 -95 17.5t-79 47.5 l-550 -275q0 -5 0.5 -8.5t0.5 -7.5t-0.5 -7.5t-0.5 -7.5l550 -276q35 30 79 47.5t95 17.5q56 0 105.5 -21.5t86 -58t58 -86t21.5 -105.5t-21.5 -105.5t-58 -86.5t-86 -58t-105.5 -21t-105.5 21t-86.5 58t-58 86.5t-21 105.5q0 5 0.5 8t0.5 8l-550 275q-35 -30 -79 -47.5 t-95 -17.5q-56 0 -105.5 21t-86.5 58t-58 86.5t-21 105.5z" />
<glyph unicode="&#xe0;" d="M453 -64q133 11 171 40q39 30 39 156v968q0 121 -39 154q-20 18 -62.5 28t-108.5 14v40h640v-40q-133 -8 -172 -42q-39 -33 -39 -154v-968q0 -126 39 -156q40 -29 172 -40v-40h-640v40z" />
<glyph unicode="&#xe1;" d="M90 700q0 98 26.5 189.5t74 170.5t114.5 144.5t148 111.5t174.5 72t194.5 26t194.5 -25.5t174.5 -72t148 -111.5t114 -144t73 -170.5t26 -189.5q0 -60 -10 -117t-29 -111l180 -573l-551 161q-73 -35 -153.5 -54t-168.5 -19q-101 0 -194.5 25.5t-174.5 72t-147.5 111.5 t-114 144t-73.5 170t-26 189zM325 700q0 -100 39 -188t106 -153.5t157.5 -103.5t192.5 -38q63 0 120.5 14.5t109.5 40.5l251 -79l116 -29l-31 85q-1 0 -1 -1l-8 23v1l-93 258q16 40 24.5 83t8.5 88q0 100 -39 188t-106 154t-157 103.5t-193 37.5t-193.5 -38t-158 -103.5 t-106.5 -154t-39 -188.5z" />
<glyph unicode="&#xe2;" d="M300 55v1205q0 32 10.5 60.5t29.5 49.5t43.5 33t53.5 12q28 0 53 -12t43.5 -33t29 -49.5t10.5 -60.5v-678l341 367q30 32 57 51t64 19q27 0 49.5 -11.5t38 -31t24 -44.5t8.5 -52q0 -40 -17 -72t-46 -63l-215 -210l257 -394q17 -28 25.5 -51t8.5 -49q0 -32 -10.5 -57.5 t-28 -44.5t-40.5 -29t-49 -10q-41 0 -67.5 16.5t-50.5 55.5l-239 373l-110 -112v-178q0 -32 -10.5 -60.5t-29 -49.5t-43.5 -33t-53 -12q-29 0 -53.5 12t-43.5 33t-29.5 49.5t-10.5 60.5zM1234 404q0 -35 13 -65t35.5 -52.5t52 -35.5t63.5 -13t64 13t52 35.5t35 52.5t13 65 q0 34 -13 64t-35 52t-52 35t-64 13t-63.5 -13t-52 -35t-35.5 -52t-13 -64z" />
<glyph unicode="&#xe3;" d="M100 10v1316q0 23 9 43t24.5 35t36 23.5t43.5 8.5h1310q23 0 43.5 -8.5t36 -23.5t24.5 -35t9 -43v-1316q0 -23 -9 -43t-24.5 -35t-36 -23.5t-43.5 -8.5h-1310q-23 0 -43.5 8.5t-36 23.5t-24.5 35t-9 43zM320 1058q0 -50 34.5 -84.5t93.5 -34.5h2q30 0 54.5 9.5t41.5 25.5 t26 37.5t9 46.5q-2 51 -36 85.5t-94 34.5q-30 0 -54 -9t-41 -25.5t-26.5 -38.5t-9.5 -47zM334 150h232v694h-232v-694zM694 150h232v388q0 15 1.5 30t6.5 26q6 15 16 30t25 27t34.5 19.5t43.5 7.5q63 0 90 -43t27 -114v-371h232v398q0 80 -20 138.5t-56 97t-85 57.5t-106 19 q-46 0 -80 -11t-59 -28.5t-41.5 -37.5t-28.5 -38v99h-232q0 -12 0.5 -48.5t0.5 -87.5v-112v-123q0 -145 -1 -323zM924 743l2 2v-2h-2z" />
<glyph unicode="&#xe4;" d="M56 145q-6 29 6.5 255.5t47.5 647.5q-2 6 -4 10t-2 6q-11 51 9 82.5t53 38.5q10 2 22 1.5t23.5 -4t19.5 -10.5t11 -18q2 -10 -1 -42.5t-9 -88t-14.5 -134t-16.5 -179.5q71 119 172 256.5t230 301.5q20 24 35 37.5t29 16.5q28 6 35 -24q2 -12 -3.5 -24.5t-18.5 -20.5 q-72 -94 -174 -244.5t-240 -359.5q92 -58 160.5 -112.5t114.5 -100t70.5 -79.5t27.5 -52q3 -15 -2 -30t-14.5 -27t-21.5 -20.5t-23 -10.5q-11 -3 -16.5 0t-7.5 9t2 12.5t2 14.5q-5 22 -98.5 96t-273.5 212q-12 -188 -15 -287t-5 -113q-3 -19 -20 -31t-39 -17q-20 -5 -33 4 t-18 28zM582 729q-3 11 1.5 25.5t14.5 28t25 24.5t33 15q17 4 30.5 -3t16.5 -22q2 -7 2.5 -19t-0.5 -27l57 -4q4 13 10.5 23.5t14.5 21.5q14 7 20 9q19 4 40.5 -5t25.5 -25q3 -12 -3 -25.5t-20 -30.5q-33 -99 -42 -177.5t3 -136.5q5 -20 14.5 -30t17.5 -8q46 11 85 151 q2 42 12.5 91.5t29.5 100.5q31 87 79 98q16 4 30.5 -0.5t22.5 -15.5q8 2 14 4.5t13 3.5q32 8 62 -20t45 -90q20 11 33 26t22 30t15 29.5t12 24.5q3 60 6 103.5t7.5 71.5t12.5 42.5t21 17.5q14 3 29 -3t19 -21q3 -17 -4.5 -65t-10.5 -132q26 63 48.5 98t47.5 40 q39 8 75.5 -24t51.5 -102q15 -68 10 -135.5t-24.5 -123t-51 -93t-68.5 -45.5q-29 -7 -58.5 2.5t-44.5 32.5q-2 -171 0 -266.5t8 -118.5q1 -7 4 -11t6.5 -6.5t6.5 -4t4 -4.5q2 -13 -7 -24t-21 -13q-29 -7 -48 1.5t-24 34.5q-2 10 -5 54.5t-4.5 122t0 188.5t7.5 254 q-31 -42 -71 -57q-8 -134 -49.5 -209t-111.5 -89q-47 -11 -84.5 9.5t-55.5 71.5q-20 -45 -42.5 -69.5t-56.5 -32.5q-45 -9 -76 14t-42 71q-21 102 10 275l-46 4q-15 -113 -32.5 -172.5t-43.5 -65.5q-8 -2 -16 3t-10 17q-1 4 3.5 23t10.5 52t11.5 80t6.5 107 q-15 6 -23.5 12.5t-10.5 17.5zM1024.5 523q-5.5 -50 3.5 -94q10 -50 45 -44q20 4 38.5 35t31 75.5t16.5 95t-6 94.5q-5 23 -15 32.5t-24 6.5q-18 -4 -37 -34t-33 -73.5t-19.5 -93.5zM1393 526q8 -23 26.5 -34t38.5 -6q33 7 50.5 41t29.5 98q10 58 10.5 105.5t-7.5 82.5 q-12 50 -35 45q-10 -2 -26 -24.5t-32.5 -64.5t-31.5 -103t-23 -140z" />
<glyph unicode="&#xe5;" d="M200.5 1038q4.5 65 43.5 133q30 51 74 95.5t95 77.5t105 52t102 19t86.5 -19.5t62.5 -55.5l573 -758q8 -12 10 -24l93 -596q5 -32 -20 -51q-14 -11 -32 -11q-12 0 -21 4l-545 228q-12 4 -22 17l-574 763q-2 4 -4 6q-31 55 -26.5 120zM253.5 1034.5q-4.5 -47.5 20.5 -90.5 l574 -763l545 -228l-93 596l-574 760q-18 28 -45.5 40.5t-60.5 12.5q-44 0 -93 -19t-95.5 -51t-86.5 -74.5t-63.5 -89t-28 -94zM304 885q-4 42 9.5 84t37.5 80.5t55.5 71.5t63.5 59q39 31 79.5 53t79 34t74 14t64.5 -8q5 -2 7.5 -7t0.5 -10q-4 -13 -16 -8q-26 8 -58 6 t-67.5 -13.5t-73 -32t-73.5 -48.5q-30 -24 -59.5 -55.5t-52 -67t-35.5 -73.5t-10 -77q1 -5 -3 -9t-9 -5h-1q-13 0 -13 12zM406 741q-4 42 9.5 84t37.5 80t55.5 71.5t63.5 59.5q39 31 79.5 53t79 34t74 13.5t64.5 -8.5q13 -4 8 -16q-4 -13 -17 -9q-26 9 -57.5 7t-66.5 -13.5 t-72 -31.5t-73 -48l382 -513q37 -23 79 -33.5t85 -9.5t84.5 14t77.5 38q7 4 13 1t8 -10l86 -549q0 -8 -5 -12q-5 -3 -8 -3q-4 0 -6 1l-512 214q-7 3 -8 10q0 7 4 12q45 43 68 98t23 117q0 55 -17 102q-1 1 -1 4l-374 502q-28 -24 -54.5 -54t-46 -63t-30 -68.5t-7.5 -71.5 q1 -5 -3 -9.5t-9 -4.5q-5 -1 -9.5 2.5t-4.5 9.5zM904 172l472 -197l-79 505q-36 -21 -76 -32.5t-81.5 -13t-82 7.5t-77.5 28q9 -38 9 -78q0 -62 -21.5 -118.5t-63.5 -101.5zM1217 26q15 51 53.5 86t90.5 46l32 -205z" />
<glyph unicode="&#xe6;" horiz-adv-x="3410" />
<glyph unicode="&#xe7;" d="M200 1095q0 33 6 55q9 61 31 106t52 75.5t66 49t72 26.5q46 6 81 6.5t63 -4t51 -12.5t45 -18q36 -18 62 -42t48.5 -54t43.5 -66t46 -79q35 82 78 143.5t107 93.5q24 12 47 20.5t49 13t57.5 6t72.5 -0.5q72 -20 129 -59t90 -110q38 -68 32.5 -150t-41.5 -169.5t-97 -178 t-134 -176.5q-72 -84 -135.5 -173.5t-114.5 -177t-87 -169.5t-51 -151q-3 5 -10 24t-14.5 40.5t-14.5 40.5t-10 24q-16 37 -30 66t-35 65.5t-53.5 88t-84.5 132.5q-21 33 -50 72t-61.5 81.5t-66.5 86.5t-64 85q-30 42 -52 78.5t-40 63.5q-30 45 -48.5 90t-26.5 84.5t-8 72.5 z" />
<glyph unicode="&#xe8;" d="M200 466q168 141 330 288q14 -8 24.5 -18t21.5 -21q-77 -80 -162 -150t-168 -145q-30 16 -46 46zM200 1141v54q83 -1 167.5 0t150.5 0q2 28 5.5 61t9 65.5t14 62t21.5 52.5h127q-7 -27 -14.5 -54t-13.5 -55.5t-10.5 -59.5t-4.5 -65q54 -7 116 -8t123.5 0t118.5 2.5 t103 -1.5q4 34 1.5 66t-9 62t-15 58.5t-16.5 54.5h104q22 -49 34 -107.5t12 -130.5q43 -2 80.5 -2.5t73.5 0t73 0.5t79 -1q1 -16 4 -30.5t-4 -27.5h-302q-13 -81 -35.5 -152.5t-59 -129t-89.5 -98.5t-127 -61v-372q114 -13 214.5 -39.5t180.5 -73t136 -117.5t82 -172h-122 q-51 146 -175.5 219.5t-311.5 83.5q-7 -71 -4.5 -149.5t0.5 -153.5q-16 1 -35 -1t-30 4v292q-163 -18 -268.5 -90.5t-153.5 -204.5q-48 2 -98.5 -0.5t-93.5 3.5q27 99 83 169.5t135 117.5t179 73t217 35v372q-79 18 -136 57.5t-96.5 97t-63 131t-34.5 159.5 q-80 2 -163.5 -0.5t-158.5 4.5zM656 1125q7 -51 20 -105t34.5 -100.5t53 -81t76.5 -46.5q20 -5 41 -5.5t44 5.5q46 12 79 47.5t55.5 84t35.5 104.5t18 109h-449q-8 -3 -8 -12zM1139 692q5 13 17 19.5t18 19.5q47 -33 91 -68.5t87 -72t86.5 -73t88.5 -70.5q-6 -15 -17 -23.5 t-22 -18.5q-91 68 -177.5 140t-171.5 147z" />
<glyph unicode="&#xe9;" d="M100 392q0 22 8.5 41t23 33t33.5 22.5t41 8.5t41.5 -8.5t33.5 -22.5t22.5 -33t8.5 -41t-8.5 -41t-22.5 -33.5t-33.5 -22.5t-41.5 -8t-41 8t-33.5 22.5t-23 33.5t-8.5 41zM100 932q0 22 8.5 41t23 33t33.5 22.5t41 8.5t41.5 -8.5t33.5 -22.5t22.5 -33t8.5 -41t-8.5 -41 t-22.5 -33.5t-33.5 -22.5t-41.5 -8t-41 8t-33.5 22.5t-23 33.5t-8.5 41zM396 516q0 22 8.5 41t22.5 33t33.5 22.5t41.5 8.5t41.5 -8.5t33.5 -22.5t22.5 -33t8.5 -41t-8.5 -41t-22.5 -33.5t-33.5 -22.5t-41.5 -8t-41.5 8t-33.5 22.5t-22.5 33.5t-8.5 41zM396 805q0 22 8.5 41 t22.5 33t33.5 22.5t41.5 8.5t41.5 -8.5t33.5 -22.5t22.5 -33t8.5 -41t-8.5 -41t-22.5 -33.5t-33.5 -22.5t-41.5 -8t-41.5 8t-33.5 22.5t-22.5 33.5t-8.5 41zM475 5q0 22 8.5 41t23 33t33.5 22.5t41 8.5t41.5 -8.5t33.5 -22.5t22.5 -33t8.5 -41t-8.5 -41t-22.5 -33.5 t-33.5 -22.5t-41.5 -8t-41 8t-33.5 22.5t-23 33.5t-8.5 41zM475 1310q0 22 8.5 41t23 33t33.5 22.5t41 8.5t41.5 -8.5t33.5 -22.5t22.5 -33t8.5 -41t-8.5 -41t-22.5 -33.5t-33.5 -22.5t-41.5 -8t-41 8t-33.5 22.5t-23 33.5t-8.5 41zM608 306q0 22 8.5 41t22.5 33t33.5 22.5 t41.5 8.5t41 -8.5t33.5 -22.5t23 -33t8.5 -41t-8.5 -41t-23 -33.5t-33.5 -22.5t-41 -8t-41.5 8t-33.5 22.5t-22.5 33.5t-8.5 41zM608 1015q0 22 8.5 41t22.5 33t33.5 22.5t41.5 8.5t41 -8.5t33.5 -22.5t23 -33t8.5 -41t-8.5 -41t-23 -33.5t-33.5 -22.5t-41 -8t-41.5 8 t-33.5 22.5t-22.5 33.5t-8.5 41zM895 306q0 22 8.5 41t22.5 33t33.5 22.5t41.5 8.5t41.5 -8.5t33.5 -22.5t22.5 -33t8.5 -41t-8.5 -41t-22.5 -33.5t-33.5 -22.5t-41.5 -8t-41.5 8t-33.5 22.5t-22.5 33.5t-8.5 41zM895 1015q0 22 8.5 41t22.5 33t33.5 22.5t41.5 8.5 t41.5 -8.5t33.5 -22.5t22.5 -33t8.5 -41t-8.5 -41t-22.5 -33.5t-33.5 -22.5t-41.5 -8t-41.5 8t-33.5 22.5t-22.5 33.5t-8.5 41zM1026 5q0 22 8.5 41t23 33t33.5 22.5t41 8.5t41.5 -8.5t33.5 -22.5t22.5 -33t8.5 -41t-8.5 -41t-22.5 -33.5t-33.5 -22.5t-41.5 -8t-41 8 t-33.5 22.5t-23 33.5t-8.5 41zM1026 1310q0 22 8.5 41t23 33t33.5 22.5t41 8.5t41.5 -8.5t33.5 -22.5t22.5 -33t8.5 -41t-8.5 -41t-22.5 -33.5t-33.5 -22.5t-41.5 -8t-41 8t-33.5 22.5t-23 33.5t-8.5 41zM1107 516q0 22 8.5 41t23 33t33.5 22.5t41 8.5t41.5 -8.5t33.5 -22.5 t22.5 -33t8.5 -41t-8.5 -41t-22.5 -33.5t-33.5 -22.5t-41.5 -8t-41 8t-33.5 22.5t-23 33.5t-8.5 41zM1107 805q0 22 8.5 41t23 33t33.5 22.5t41 8.5t41.5 -8.5t33.5 -22.5t22.5 -33t8.5 -41t-8.5 -41t-22.5 -33.5t-33.5 -22.5t-41.5 -8t-41 8t-33.5 22.5t-23 33.5t-8.5 41z M1403 392q0 22 8.5 41t22.5 33t33.5 22.5t41.5 8.5t41.5 -8.5t33.5 -22.5t22.5 -33t8.5 -41t-8.5 -41t-22.5 -33.5t-33.5 -22.5t-41.5 -8t-41.5 8t-33.5 22.5t-22.5 33.5t-8.5 41zM1403 932q0 22 8.5 41t22.5 33t33.5 22.5t41.5 8.5t41.5 -8.5t33.5 -22.5t22.5 -33t8.5 -41 t-8.5 -41t-22.5 -33.5t-33.5 -22.5t-41.5 -8t-41.5 8t-33.5 22.5t-22.5 33.5t-8.5 41z" />
<glyph unicode="&#xea;" d="M0 43v1286h1701v-409v-877h-411v873h-234v-873h-411v873h-235v-873h-410z" />
<glyph unicode="&#xeb;" d="M300 503q0 89 25.5 170.5t71 150.5t109 123t140.5 88l-107 313q-10 27 3 52t41 33h1q10 3 19 3q23 0 41 -14t23 -37l75 -317q68 17 139 17q120 0 225.5 -45.5t184.5 -124.5t124.5 -185t45.5 -227q0 -80 -20.5 -154.5t-58.5 -139t-91 -118t-117.5 -91t-138.5 -58.5 t-154 -21t-154.5 21t-139 58.5t-117.5 91t-91 118t-58.5 139t-20.5 154.5zM412 503q0 -97 37 -182.5t100.5 -149t149 -100.5t182.5 -37t182.5 37t149 100.5t100.5 149t37 182.5t-37 183t-100.5 149.5t-149 100.5t-182.5 37q-57 0 -113 -14l87 -370q7 -29 5.5 -51t-10.5 -25 h-3q-9 0 -21 16.5t-20 41.5l-123 358q-60 -28 -110 -71.5t-85.5 -98.5t-55.5 -120t-20 -136zM531 437q17 -57 51 -105.5t80.5 -84t103 -55t119.5 -19.5q76 0 143 29t117 79t79 117t29 144q0 22 -2.5 43.5t-7.5 41.5q1 -8 1 -15v-15q0 -78 -29.5 -147t-80 -120.5t-118.5 -81 t-146 -29.5q-56 0 -107.5 16t-95.5 45t-79 69t-57 88zM631 385q42 -48 103 -76.5t133 -28.5q52 0 99.5 15.5t85.5 42.5t65.5 64.5t39.5 81.5q-34 -65 -101.5 -110.5t-155.5 -58.5q-78 -11 -148 8.5t-121 61.5zM726 410q36 -10 79 -7.5t86 19.5q51 20 88 53.5t55 72.5 q0 -35 -15.5 -65.5t-42 -53.5t-62.5 -36t-76 -13q-32 0 -60.5 8t-51.5 22z" />
<glyph unicode="&#xec;" d="M100 555q6 56 24 101t42.5 79t52 59t52 41.5t43.5 25t26 11.5q-36 28 -56.5 68t-20.5 88q0 42 16 79t44 64t65.5 43t80.5 16q42 0 79.5 -16t65 -43t44 -64t16.5 -79q0 -48 -20.5 -87.5t-55.5 -67.5q60 -20 110 -61q-22 -11 -52 -29.5t-62.5 -45t-65.5 -62.5t-60.5 -82.5 t-47.5 -104t-27 -126.5v-7q-66 4 -103 13.5t-57 19.5q-23 11 -31 25q-18 16 -25 39q-10 2 -17 5.5t-12 7.5q-6 4 -11 9q-11 4 -19 15q-8 9 -13.5 24.5t-4.5 41.5zM465 337q9 83 36 149.5t63 117t76.5 87t77 61t64.5 37.5t38 17q-52 42 -82.5 101.5t-30.5 130.5q0 62 24 116 t65 94.5t96.5 64t118.5 23.5t118.5 -23.5t96.5 -64t65 -94.5t24 -116q0 -70 -30 -130t-81 -101q54 -19 105 -49t95 -71.5t78.5 -93t54.5 -112.5q14 -44 21.5 -92.5t1 -90.5t-30.5 -73t-72 -41q-4 -11 -8.5 -20t-10.5 -17v-1q-12 -25 -50 -46q-32 -18 -94 -35.5t-168 -24.5 q-5 -2 -10 -2.5t-10 -1.5h-80h-25h-69q-3 1 -6 1t-6 1q-104 5 -164 19.5t-91 29.5q-36 18 -48 38q-25 24 -37 59q-14 3 -25 8.5t-19 10.5q-10 6 -17 12q-16 7 -28 23q-11 14 -19 37.5t-7 61.5z" />
<glyph unicode="&#xed;" horiz-adv-x="1707" d="M100 518q0 55 19 104t52 87.5t77.5 64.5t96.5 34q-2 8 -2 15.5v15.5q0 39 14.5 73t39.5 59.5t58.5 40t71.5 14.5q35 0 65 -12t54 -33q21 49 47.5 94t65 79.5t93 55t131.5 20.5q94 0 163 -33.5t114.5 -89t68 -127.5t22.5 -149v-12.5t-1 -12.5q50 -11 92.5 -37t74 -64 t49 -86t17.5 -101q0 -60 -23 -113.5t-62.5 -93.5t-92.5 -63t-113 -23h-901q-60 0 -113 23t-92.5 63t-62.5 93.5t-23 113.5z" />
<glyph unicode="&#xee;" horiz-adv-x="1707" d="M-2 247v557h223v-330h1281v330h224v-330v-227h-1728z" />
<glyph unicode="&#xef;" horiz-adv-x="1707" d="M300.5 24.5q-2.5 33.5 10 70t42 74.5t79.5 74q43 31 83.5 49t76 30t65 20.5t51 20t33 29.5t11.5 49v954q0 4 7.5 8.5t17 7.5t19 3.5t13.5 -3.5q2 -2 3.5 -2.5t2.5 -2.5t2 -3q6 -10 16 -21q8 -10 19.5 -22t25.5 -25q10 -8 36 -15.5t61.5 -18t76 -26.5t79 -42t71 -64.5 t51.5 -93.5t34.5 -121.5t29 -135t26 -134.5t26 -121.5t29.5 -95.5t37 -55q20 -16 -0.5 -13.5t-66 21t-107.5 52t-124.5 81t-116.5 107.5t-84 132q-28 66 -40 121t-16 102t-3.5 88t-1.5 77.5t-10 71t-30 69.5q-10 16 -15.5 24t-7.5 13v-1062q0 -16 -0.5 -50.5t-12.5 -78.5 t-41 -92.5t-86 -91.5q-64 -50 -123 -68t-106 -15t-80 21.5t-45 42.5q-15 27 -17.5 60.5zM884 1295q-3 0 1 -6q8 -12 29 -42.5t48 -66.5q21 -29 42 -70.5t42 -89t40.5 -98t37.5 -97.5q20 -55 54.5 -111t66.5 -103q38 -55 79 -105q2 -2 4 -3q4 -2 3 0q-14 17 -38.5 52.5 t-60.5 95.5q-26 43 -51 100.5t-45 110.5q-29 74 -48.5 123t-37.5 85t-37 64.5t-46 61.5q-16 20 -30.5 37.5t-25.5 31.5q-13 16 -24 29q-2 1 -3 1z" />
<glyph unicode="&#xf1;" d="M100 658q0 104 27 201t76.5 181t118.5 153t153 118.5t180.5 76.5t201.5 27t202 -27t181 -76.5t153 -118.5t118.5 -153t76.5 -181t27 -201q0 -105 -27 -202t-76.5 -181t-118.5 -153t-153 -118.5t-181 -76.5t-202 -27q-104 0 -201 27t-181 76.5t-153 118.5t-118.5 153 t-76.5 181t-27 202zM340 658q0 -107 40.5 -201.5t111 -165t164.5 -111t201 -40.5t201.5 40.5t165 111t111 165t40.5 201.5t-40.5 201t-111 164.5t-165 111t-201.5 40.5t-201 -40.5t-164.5 -111t-111 -164.5t-40.5 -201z" />
<glyph unicode="&#xf2;" d="M103 754q-8 96 9 189q28 151 122.5 259.5t241.5 166.5q81 32 172.5 49t185.5 18t187.5 -14.5t179.5 -48.5t161.5 -83t132.5 -118q46 -55 75 -120.5t39.5 -135.5t1 -140.5t-39.5 -134.5q-43 -90 -115.5 -159t-162.5 -109t-191 -48.5t-201 21.5q8 -59 1 -122.5t-31.5 -120 t-68 -101t-108.5 -66.5q-62 -21 -126.5 -14t-124.5 33q-32 14 -42 45t-10 68.5t4 76t1 65.5q20 -4 39 -14t38.5 -18.5t40 -11.5t41.5 6q18 8 28.5 29.5t15 47t6 51t1.5 41.5q5 110 0.5 220t-4.5 220v207q0 9 0.5 13.5t3 6.5t7 2.5t13.5 2.5q46 8 93.5 7.5t93.5 -4.5 q14 -2 26.5 -2.5t26.5 -2.5q8 -1 12.5 -1.5t6 -2t1.5 -6.5v-15v-393q0 -12 4.5 -19t12.5 -10.5t18.5 -5t22.5 -4.5q14 -4 28 -6l28 -4q52 -5 100 4q43 8 82 26t71 46q30 27 49 60.5t27.5 70t7 75t-12.5 75.5q-18 60 -54.5 108t-86 83.5t-108.5 59.5t-122 35t-126.5 9.5 t-121.5 -15.5q-62 -15 -119 -46.5t-102 -74t-74.5 -94.5t-37.5 -108t8.5 -114t63.5 -112q-43 -36 -82 -75.5t-89 -67.5q-26 -14 -50 -23q-14 14 -27 32q-13 17 -24 35t-20 38q-41 87 -49 183z" />
<glyph unicode="&#xf3;" d="M300 -26q78 0 124 10t70.5 41t32 89.5t7.5 154.5v821q0 97 -7.5 154.5t-32 88.5t-70.5 40.5t-124 9.5v53h649q250 0 389 -121q140 -121 140 -306q0 -184 -140 -305q-140 -119 -389 -119h-219v-316q0 -96 7.5 -154.5t32 -89.5t71 -41t123.5 -10v-53h-664v53zM730 676h217 q76 0 134.5 24.5t98 69t59.5 105.5t20 134t-20 134.5t-59.5 105.5t-98 69t-134.5 25h-217v-667z" />
<glyph unicode="&#xf4;" d="M100 291v809q0 28 20 48t48 20q0 28 19.5 47.5t48.5 19.5h136q28 0 47.5 -19.5t19.5 -47.5h145q59 32 125 49.5t138 17.5t138 -17.5t124 -49.5h417q28 0 48 -20t20 -48v-809q0 -28 -20 -48t-48 -20h-417q-58 -32 -124 -49.5t-138 -17.5t-138 17.5t-125 49.5h-416 q-28 0 -48 20t-20 48zM168 291h320q-85 75 -134.5 179t-49.5 225q0 122 49.5 226t134.5 179h-320v-809zM372 695q0 -65 16.5 -124.5t47 -111.5t73 -94.5t94.5 -73.5q26 -16 54.5 -28t58.5 -21q2 -1 3.5 -1t3.5 -1q12 -3 24.5 -5.5t25.5 -4.5q4 -1 7 -1.5t7 -0.5 q15 -2 29.5 -3.5t30.5 -1.5q15 0 30 1.5t30 3.5q4 0 14 2q13 2 25.5 4.5t24.5 5.5q2 1 3.5 1t3.5 1q30 9 58.5 21t54.5 28q52 31 94.5 73.5t73 94.5t47 111.5t16.5 124.5t-16.5 125t-47 112t-73 94.5t-94.5 73.5q-26 16 -54.5 28t-58.5 21q-2 1 -3.5 1t-3.5 1 q-12 3 -24.5 5.5t-25.5 4.5q-10 2 -14 2q-15 2 -30 3.5t-30 1.5t-30 -1.5t-30 -3.5q-4 0 -7 -0.5t-7 -1.5q-13 -2 -25.5 -4.5t-24.5 -5.5q-2 -1 -3.5 -1t-3.5 -1q-30 -9 -58.5 -21t-54.5 -28q-52 -31 -94.5 -73.5t-73 -94.5t-47 -112t-16.5 -125zM847 1010v56q77 0 145 -29 t118.5 -79.5t80 -118t29.5 -144.5h-57q0 65 -25 122.5t-68 100t-100.5 67.5t-122.5 25zM1206 291h320v809h-320q85 -75 134.5 -179t49.5 -226q0 -121 -49.5 -225t-134.5 -179z" />
<glyph unicode="&#xf5;" d="M0 247v670q35 7 82 11t110 4q69 0 119 -14t83 -42q31 -25 49.5 -63.5t18.5 -86.5q0 -97 -59 -153q-38 -38 -94 -56t-123 -18q-17 0 -32.5 1t-29.5 4v-257h-124zM124 602q13 -4 28 -5t34 -1q71 0 111 32.5t40 92.5q0 57 -37 86t-103 29q-26 0 -44 -2t-29 -4v-228zM453 907 q0 23 9 43.5t24.5 35.5t36 24t43.5 9t43.5 -9t35.5 -24t24 -35.5t9 -43.5t-9 -43.5t-24 -35.5t-35.5 -23.5t-43.5 -8.5t-43.5 8.5t-36 23.5t-24.5 35.5t-9 43.5zM475 907q0 -37 26.5 -63t64.5 -26t64 26t26 63q0 38 -26 63.5t-64 25.5t-64.5 -25.5t-26.5 -63.5zM503 247v491 h125v-491h-125zM517 867q-1 7 4 12t12 7q6 0 9 -2v68l65 10v1v-85v-1q1 -7 -3.5 -12.5t-12.5 -6.5t-13 3t-5 12q-1 7 3.5 12.5t12.5 6.5q5 0 8 -1v46l-45 -8v-58q1 -8 -3.5 -13t-12.5 -7q-8 -1 -13 3.5t-6 12.5zM709 738h109l6 -73h3q9 14 23 29t34.5 27.5t46 20.5t56.5 8 q32 0 63.5 -11t56.5 -36t40.5 -65.5t15.5 -98.5v-292h-125v277q0 54 -22 89t-73 35q-38 0 -63 -22t-36 -50q-3 -8 -4 -18.5t-1 -20.5v-290h-126v345q0 42 -1 78t-3 68zM1215 490q0 61 18.5 109t49.5 81.5t71.5 51.5t85.5 18q58 0 92.5 -23.5t51.5 -53.5h2l6 65h109 q-2 -25 -3 -57.5t-1 -83.5v-279q0 -78 -17.5 -132.5t-56.5 -89.5q-38 -35 -89 -47.5t-103 -12.5q-48 0 -94.5 10t-78.5 29l27 94q24 -14 62 -25.5t83 -11.5q31 0 57 8t45 26t30 46t11 68v42h-2q-22 -32 -58 -52t-87 -20q-47 0 -85.5 18t-66.5 50t-43.5 76t-15.5 96z M1342 494q0 -32 8 -59.5t23.5 -47.5t38 -32t52.5 -12q35 0 63 20.5t39 54.5q3 9 4 21t1 23v79q0 19 -4 34q-11 34 -36.5 56.5t-65.5 22.5q-54 0 -88.5 -42.5t-34.5 -117.5z" />
<glyph unicode="&#xf6;" d="M100 940l485 496v-189l462 -425l289 70l-300 -319l600 -673l-681 603l-289 -296l46 260l-393 485z" />
<glyph unicode="&#xf8;" />
<glyph unicode="&#xf9;" d="M99 361q0 23 20.5 46t55 45.5t82.5 43.5t103.5 39t117 33t124.5 26v-128l-267 -71q-11 -16 -15 -29q-3 -11 2.5 -20.5t28.5 -9.5q53 -2 98.5 3t80.5 12q40 8 75 18l-1 -111q-21 -10 -53 -17q-27 -7 -68.5 -12t-98.5 -4t-109 9.5t-91 25t-62 41.5t-23 60zM660 202v1034 q135 -26 249 -66q48 -17 96 -38.5t88.5 -48.5t71 -59.5t42.5 -69.5q16 -50 20 -93.5t-1.5 -80.5t-17 -66t-25 -49.5t-27 -31.5t-22.5 -12q-38 -5 -64 3t-43 19q-19 12 -32 30v324l-111 46l-3 -936zM939 128q147 49 270 93q52 19 104.5 38.5t97.5 38.5t78 35.5t48 28.5 q19 16 12.5 39t-30 47.5t-60.5 47.5t-78.5 39t-84 23t-76.5 0q-43 -3 -90 -11q-40 -7 -90 -20t-100 -35q-1 -1 -0.5 -18t0.5 -37v-54l337 79l118 -52l-456 -160v-122z" />
<glyph unicode="&#xfa;" d="M100 349q0 93 36.5 175t99 142.5t146.5 96t180 35.5v-449h462q0 -93 -36.5 -175t-99 -142.5t-146.5 -96t-180 -35.5t-180 35.5t-146.5 96t-99 142.5t-36.5 175zM727 552v465q5 87 42.5 163.5t98.5 133.5t141.5 89.5t171.5 32.5q94 0 177 -35t144.5 -95t97.5 -140.5 t36 -171.5q0 -61 -16.5 -117.5t-46 -105.5t-71 -89.5t-92 -69t-108.5 -44.5t-121 -16h-454zM1111 774q0 -28 20 -47.5t49 -19.5t48.5 19.5t19.5 47.5t-19.5 47.5t-48.5 19.5t-49 -19.5t-20 -47.5zM1111 1210l19 -264q0 -20 14.5 -34t35.5 -14q20 0 34.5 14t14.5 34l19 264v9 q0 28 -19.5 47.5t-48.5 19.5t-49 -19.5t-20 -47.5v-9z" />
<glyph unicode="&#xfb;" d="M300 511q0 51 32.5 86.5t81.5 40.5q29 3 52.5 -5.5t49.5 -18.5q1 -20 4.5 -52.5t9 -69t13 -73t17.5 -63.5q-25 5 -52 10.5t-54 10.5q-29 6 -56.5 12t-46.5 21q-20 15 -35.5 40.5t-15.5 60.5zM539 715q-2 66 1 129t16 126q23 112 72.5 201.5t123.5 153.5q38 32 84.5 58 t108.5 31q59 5 107.5 -10t86.5 -42t67.5 -62t50.5 -70q47 -78 71 -181.5t12 -225.5q-8 -79 -29 -151t-55 -134t-79.5 -111.5t-100.5 -83.5q-36 -23 -79.5 -37.5t-97.5 -12.5q-26 69 -39.5 117t-18.5 77q-6 34 -5 55q31 -7 64 -6.5t63 15.5q39 20 62 54t41 76q17 39 29 87 t16.5 100t0 105t-20.5 101q-6 18 -15.5 38.5t-23 37.5t-32.5 29t-43 12q-15 0 -30 -5.5t-28 -14.5t-23.5 -19.5t-17.5 -19.5q-52 -66 -72.5 -158t-20.5 -206q0 -28 1 -55.5t3 -55.5q4 -42 10.5 -82.5t14.5 -79.5q17 -90 37.5 -151.5t38.5 -99.5q21 -45 42 -72l6 -12t7 -12 q7 -12 15 -26t17 -26q8 -11 15 -19.5t12 -17.5t8.5 -19.5t3.5 -26.5q0 -33 -15.5 -58t-41 -39.5t-56.5 -15.5t-62 16q-16 8 -34 28.5t-35 39.5q-48 56 -86 122.5t-66 139.5q-29 77 -46.5 160.5t-28.5 177.5q-4 32 -4.5 64t-1.5 67z" />
<glyph unicode="&#xfc;" d="M200 -100v1536h942h389v-1111h-941v-425h-390zM590 711h552v338h-552v-338z" />
<glyph unicode="&#x152;" horiz-adv-x="3411" />
<glyph unicode="&#x153;" horiz-adv-x="3411" />
<glyph unicode="&#x2c6;" horiz-adv-x="1707" />
<glyph unicode="&#x2dc;" horiz-adv-x="1707" />
<glyph unicode="&#x2000;" horiz-adv-x="720" />
<glyph unicode="&#x2001;" horiz-adv-x="1440" />
<glyph unicode="&#x2002;" horiz-adv-x="720" />
<glyph unicode="&#x2003;" horiz-adv-x="1440" />
<glyph unicode="&#x2004;" horiz-adv-x="480" />
<glyph unicode="&#x2005;" horiz-adv-x="360" />
<glyph unicode="&#x2006;" horiz-adv-x="240" />
<glyph unicode="&#x2007;" horiz-adv-x="240" />
<glyph unicode="&#x2008;" horiz-adv-x="180" />
<glyph unicode="&#x2009;" horiz-adv-x="288" />
<glyph unicode="&#x200a;" horiz-adv-x="80" />
<glyph unicode="&#x2010;" horiz-adv-x="1707" d="M200 257v662q0 22 8 41.5t22.5 33.5t33.5 22.5t41 8.5h1128q45 0 75.5 -30.5t30.5 -75.5v-662q0 -22 -8.5 -41t-22.5 -33.5t-33.5 -22.5t-41.5 -8h-933q-11 -45 -39 -69.5t-57 -36.5q-34 -14 -74 -18q23 41 25.5 75.5t0.5 48.5h-51q-22 0 -41 8t-33.5 22.5t-22.5 33.5 t-8 41zM372 466q0 -21 14.5 -35.5t35.5 -14.5t35.5 14.5t14.5 35.5t-14.5 35.5t-35.5 14.5t-35.5 -14.5t-14.5 -35.5zM776 313q13 -38 45.5 -62.5t74.5 -24.5q26 0 49 10t40 27t27 40.5t10 49.5v10zM1272 466q0 -21 14.5 -35.5t35.5 -14.5q20 0 35 14.5t15 35.5t-15 35.5 t-35 14.5q-21 0 -35.5 -14.5t-14.5 -35.5z" />
<glyph unicode="&#x2011;" horiz-adv-x="1707" d="M200 257v662q0 22 8 41.5t22.5 33.5t33.5 22.5t41 8.5h1128q45 0 75.5 -30.5t30.5 -75.5v-662q0 -22 -8.5 -41t-22.5 -33.5t-33.5 -22.5t-41.5 -8h-933q-11 -45 -39 -69.5t-57 -36.5q-34 -14 -74 -18q23 41 25.5 75.5t0.5 48.5h-51q-22 0 -41 8t-33.5 22.5t-22.5 33.5 t-8 41zM372 466q0 -21 14.5 -35.5t35.5 -14.5t35.5 14.5t14.5 35.5t-14.5 35.5t-35.5 14.5t-35.5 -14.5t-14.5 -35.5zM776 313q13 -38 45.5 -62.5t74.5 -24.5q26 0 49 10t40 27t27 40.5t10 49.5v10zM1272 466q0 -21 14.5 -35.5t35.5 -14.5q20 0 35 14.5t15 35.5t-15 35.5 t-35 14.5q-21 0 -35.5 -14.5t-14.5 -35.5z" />
<glyph unicode="&#x2012;" horiz-adv-x="1707" d="M200 257v662q0 22 8 41.5t22.5 33.5t33.5 22.5t41 8.5h1128q45 0 75.5 -30.5t30.5 -75.5v-662q0 -22 -8.5 -41t-22.5 -33.5t-33.5 -22.5t-41.5 -8h-933q-11 -45 -39 -69.5t-57 -36.5q-34 -14 -74 -18q23 41 25.5 75.5t0.5 48.5h-51q-22 0 -41 8t-33.5 22.5t-22.5 33.5 t-8 41zM372 466q0 -21 14.5 -35.5t35.5 -14.5t35.5 14.5t14.5 35.5t-14.5 35.5t-35.5 14.5t-35.5 -14.5t-14.5 -35.5zM776 313q13 -38 45.5 -62.5t74.5 -24.5q26 0 49 10t40 27t27 40.5t10 49.5v10zM1272 466q0 -21 14.5 -35.5t35.5 -14.5q20 0 35 14.5t15 35.5t-15 35.5 t-35 14.5q-21 0 -35.5 -14.5t-14.5 -35.5z" />
<glyph unicode="&#x2013;" horiz-adv-x="1024" />
<glyph unicode="&#x2014;" horiz-adv-x="2048" />
<glyph unicode="&#x2022;" horiz-adv-x="1707" d="M0 692l382 419l383 -419h-282v-386h302l198 -202h-638q-26 0 -44.5 18.5t-18.5 45.5v524h-282zM734 1115h638q26 0 45 -19t19 -45v-524h281l-382 -419l-382 419h282v386h-303z" />
<glyph unicode="&#x202f;" horiz-adv-x="288" />
<glyph unicode="&#x205f;" horiz-adv-x="360" />
<glyph unicode="&#x2122;" horiz-adv-x="3411" d="M974 297v761q0 78 29.5 146.5t81 120t120 81t146.5 29.5h755q78 0 146.5 -29.5t119.5 -81t81 -120t30 -146.5v-761q0 -78 -30 -146.5t-81 -120t-119.5 -81t-146.5 -29.5h-755q-78 0 -146.5 29.5t-120 81t-81 120t-29.5 146.5zM1114 297q0 -49 18.5 -92t51 -75.5t75.5 -51 t92 -18.5h755q49 0 92 18.5t75 51t51 75.5t19 92v492h-283q34 -73 34 -153q0 -74 -28 -139t-76.5 -114t-114 -77t-139.5 -28t-139 28t-114 77t-77 114t-28 139q0 80 34 153h-298v-492zM1114 928h415q44 32 96.5 49.5t110.5 17.5t110.5 -17.5t96.5 -49.5h400v130q0 49 -19 92 t-51 75.5t-75 51t-92 18.5h-755q-49 0 -92 -18.5t-75.5 -51t-51 -75.5t-18.5 -92v-130zM1587 636q0 -31 11.5 -58t32 -47t47.5 -31.5t58 -11.5t58 11.5t47 31.5t32 47t12 58t-12 58t-32 47t-47 32t-58 12t-58 -12t-47.5 -32t-32 -47t-11.5 -58zM2020 1039v130 q0 17 12.5 29.5t29.5 12.5h130q17 0 29.5 -12.5t12.5 -29.5v-130q0 -17 -12.5 -29.5t-29.5 -12.5h-130q-17 0 -29.5 12.5t-12.5 29.5z" />
<glyph unicode="&#xe000;" horiz-adv-x="1435" d="M0 0v1435h1435v-1435h-1435z" />
<glyph unicode="&#xfb01;" horiz-adv-x="3411" />
<glyph unicode="&#xfb02;" horiz-adv-x="3411" />
<glyph unicode="&#xfb03;" horiz-adv-x="5117" />
<glyph unicode="&#xfb04;" horiz-adv-x="5117" />
</font>
</defs>
</svg>
